osu file format v14

[General]
AudioFilename: audio.mp3
AudioLeadIn: 0
PreviewTime: 121738
Countdown: 0
SampleSet: Soft
StackLeniency: 0.7
Mode: 0
LetterboxInBreaks: 0
WidescreenStoryboard: 0

[Editor]
DistanceSpacing: 1.7
BeatDivisor: 4
GridSize: 4
TimelineZoom: 3.099999

[Metadata]
Title:Oedo Julia-Night
TitleUnicode:大江户Julia-Night
Artist:Mitchie M feat.Hatsune Miku&Kaito
ArtistUnicode:Mitchie M feat.Hatsune Miku&Kaito
Creator:_lai
Version:aaaaaaaaaaaaa
Source:
Tags:VOCALOID 10th Hatsune Miku KAITO Mitchie M 初音ミク誕生祭2017
BeatmapID:1408660
BeatmapSetID:665630

[Difficulty]
HPDrainRate:6
CircleSize:4
OverallDifficulty:8
ApproachRate:9.5
SliderMultiplier:2.1
SliderTickRate:1

[Events]
//Background and Video events
0,0,"map.jpg",0,0
Video,0,"video.avi"
//Break Periods
2,148605,154547
2,175272,187463
//Storyboard Layer 0 (Background)
//Storyboard Layer 1 (Fail)
//Storyboard Layer 2 (Pass)
//Storyboard Layer 3 (Foreground)
//Storyboard Sound Samples

[TimingPoints]
277,352.941176470588,4,3,1,60,1,0
483,416.666666666667,4,2,1,60,1,0
483,-100,4,2,1,60,0,0
4858,-100,4,2,4,60,0,0
5072,416.666666666667,4,2,1,60,1,0
7781,-66.6666666666667,4,2,1,60,0,0
8406,-100,4,2,1,60,0,0
10280,-100,4,3,2,60,0,0
10905,-100,4,2,1,60,0,0
18613,-100,4,2,3,60,0,0
30072,-100,4,3,1,60,0,0
30488,-200,4,3,1,60,0,0
31217,-50,4,2,4,60,0,0
31739,-100,4,2,1,60,0,0
35072,-100,4,2,5,40,0,0
35489,-66.6666666666667,4,2,5,40,0,0
37988,-66.6666666666667,4,2,5,30,0,0
38197,-100,4,2,1,60,0,0
41738,-100,4,2,5,40,0,0
42051,-66.6666666666667,4,2,5,40,0,0
44342,-66.6666666666667,4,2,5,30,0,0
44655,-66.6666666666667,4,2,5,40,0,0
45072,-100,4,2,1,60,0,0
56739,-66.6666666666667,4,2,1,60,0,0
60072,-66.6666666666667,4,2,1,80,0,1
73405,-66.6666666666667,4,2,1,80,0,1
85905,-66.6666666666667,4,2,1,40,0,1
86322,-66.6666666666667,4,2,1,80,0,1
86738,-200,4,2,1,50,0,0
92884,-200,4,2,4,50,0,0
92988,-66.6666666666667,4,2,4,60,0,0
93301,-100,4,2,4,10,0,0
93405,-100,4,2,1,10,0,0
95905,-100,4,2,1,10,0,0
96009,-100,4,2,1,20,0,0
96113,-100,4,2,1,30,0,0
96217,-100,4,2,1,40,0,0
96322,-100,4,2,1,50,0,0
96738,-66.6666666666667,4,2,5,40,0,0
100072,-100,4,2,1,50,0,0
103405,-66.6666666666667,4,2,5,40,0,0
105488,-66.6666666666667,4,2,1,30,0,0
105697,-66.6666666666667,4,2,1,60,0,0
106009,-66.6666666666667,4,2,5,30,0,0
106738,-100,4,2,1,50,0,0
109655,-66.6666666666667,4,2,1,50,0,0
110072,-100,4,2,1,50,0,0
121322,-100,4,2,5,50,0,0
121738,-66.6666666666667,4,2,1,80,0,1
122572,-66.6666666666667,4,2,1,80,0,1
134238,-66.6666666666667,4,3,1,20,0,1
134655,-66.6666666666667,4,3,1,40,0,1
135072,-66.6666666666667,4,2,4,80,0,1
135280,-66.6666666666667,4,2,0,30,0,1
136113,-100,4,2,0,50,0,1
136322,-66.6666666666667,4,2,1,80,0,1
146738,-100,4,2,1,70,0,1
147572,-100,4,2,1,30,0,1
147988,-100,4,2,1,70,0,1
148405,-100,4,2,1,50,0,0
161322,-66.6666666666667,4,2,5,40,0,0
161738,-100,4,2,1,50,0,0
175072,-100,4,3,5,50,0,0
187988,-66.6666666666667,4,2,1,50,0,0
188301,-66.6666666666667,4,2,4,50,0,0
188405,-133.333333333333,4,2,1,50,0,0
198405,-100,4,2,1,50,0,0
201738,-66.6666666666667,4,2,1,80,0,1
204238,-66.6666666666667,4,2,5,80,0,1
204342,-66.6666666666667,4,2,1,80,0,1
207780,-66.6666666666667,4,2,1,20,0,1
208197,-133.333333333333,4,2,1,20,0,1
208405,-66.6666666666667,4,2,1,80,0,1
209863,-50,4,2,1,50,0,1
210072,-100,4,2,1,50,0,1
210280,-66.6666666666667,4,2,1,50,0,1
215072,-66.6666666666667,4,2,1,50,0,0
215488,-66.6666666666667,4,2,1,40,0,0
215905,-66.6666666666667,4,2,1,30,0,0
216322,-66.6666666666667,4,2,1,20,0,0
216738,-66.6666666666667,4,2,1,10,0,0
217294,-66.6666666666667,4,2,4,10,0,0
217363,-66.6666666666667,4,2,1,20,0,0
217780,-66.6666666666667,4,2,1,30,0,0
218197,-66.6666666666667,4,2,4,40,0,0
218611,333.333333333333,4,2,1,50,1,0
218611,-100,4,2,1,30,0,0
218944,-100,4,2,1,40,0,0
219111,-100,4,2,1,60,0,0
219277,-100,4,2,1,70,0,0
219707,387.096774193548,5,2,1,50,1,0

[HitObjects]
56,56,277,5,8,0:0:0:0:
56,56,365,1,8,0:0:0:0:
80,80,483,2,0,P|128:112|200:120,1,105,0|0,3:0|0:0,0:0:0:0:
264,168,899,2,0,P|221:197|170:209,1,105
88,344,1211,2,0,L|128:280,1,52.5
169,209,1419,2,0,L|201:257,1,52.5
400,120,1732,5,0,0:0:0:0:
352,96,1836,1,0,0:0:0:0:
304,104,1940,1,0,0:0:0:0:
272,144,2044,1,0,0:0:0:0:
264,168,2149,1,0,0:0:0:0:
256,192,2253,12,0,4857,0:0:0:0:
160,80,5072,5,0,0:0:0:0:
80,168,5281,1,0,0:0:0:0:
80,168,5385,1,0,0:0:0:0:
80,168,5489,2,0,L|88:272,1,105
160,312,5801,1,0,0:0:0:0:
240,304,5906,2,0,L|312:320,1,52.5
424,240,6114,2,0,L|352:224,1,52.5
240,96,6322,5,0,0:0:0:0:
194,70,6426,1,0,0:0:0:0:
143,73,6531,1,0,0:0:0:0:
100,102,6634,1,0,0:0:0:0:
80,150,6738,5,0,0:0:0:0:
80,150,6842,2,0,L|96:296,1,105
244,368,7155,5,0,0:0:0:0:
244,368,7259,2,0,L|176:344,1,52.5
91,254,7467,1,0,0:0:0:0:
91,254,7572,2,0,L|140:271,1,52.5
332,164,7781,2,0,P|292:216|268:228,1,78.7500030040742
91,254,7989,2,0,P|131:202|155:190,1,78.7500030040742
332,164,8197,2,0,P|292:216|268:228,1,78.7500030040742
91,254,8406,5,0,0:0:0:0:
192,324,8614,1,0,0:0:0:0:
228,336,8718,1,0,0:0:0:0:
272,348,8822,1,0,0:0:0:0:
424,284,9031,5,0,0:0:0:0:
388,272,9135,1,0,0:0:0:0:
344,260,9239,2,0,P|319:250|298:234,1,52.5
167,123,9447,6,0,P|192:133|213:149,1,52.5
100,196,9656,1,0,0:0:0:0:
74,150,9760,1,0,0:0:0:0:
75,98,9864,1,0,0:0:0:0:
102,54,9968,1,0,0:0:0:0:
148,29,10072,5,0,0:0:0:0:
199,31,10176,1,0,0:0:0:0:
243,59,10280,2,0,P|248:132|244:140,1,52.5,8|0,0:0|0:0,0:0:0:0:
236,160,10488,2,0,P|224:108|224:92,1,52.5,8|0,0:0|0:0,0:0:0:0:
332,224,10697,1,8,0:0:0:0:
332,224,10801,1,8,0:0:0:0:
332,224,10905,1,0,0:0:0:0:
120,324,11114,1,0,0:0:0:0:
120,324,11322,2,0,P|128:280|136:256,1,52.5
292,120,11531,2,0,P|284:164|276:188,1,52.5
80,144,11739,6,0,P|136:108|196:112,1,105
192,112,12051,1,0,0:0:0:0:
208,124,12156,1,0,0:0:0:0:
340,224,12364,5,0,0:0:0:0:
320,184,12468,1,0,0:0:0:0:
304,144,12572,1,0,0:0:0:0:
176,200,12781,1,0,0:0:0:0:
196,248,12885,1,0,0:0:0:0:
216,296,12989,1,0,0:0:0:0:
236,344,13093,1,0,0:0:0:0:
268,300,13197,1,0,0:0:0:0:
76,312,13406,5,0,0:0:0:0:
92,308,13510,2,0,L|152:292,1,52.5
300,136,13718,1,0,0:0:0:0:
284,140,13822,2,0,L|224:156,1,52.5
388,324,14031,1,0,0:0:0:0:
388,324,14135,2,0,L|400:264,1,52.5
124,324,14343,1,0,0:0:0:0:
124,324,14447,2,0,L|112:264,1,52.5
256,64,14655,1,0,0:0:0:0:
256,116,14760,1,0,0:0:0:0:
256,169,14864,1,0,0:0:0:0:
256,221,14968,1,0,0:0:0:0:
256,274,15072,5,0,0:0:0:0:
348,324,15280,1,0,0:0:0:0:
348,324,15385,1,0,0:0:0:0:
348,324,15489,1,0,0:0:0:0:
420,204,15697,1,0,0:0:0:0:
392,204,15801,2,0,L|256:240,1,105
236,224,16114,1,0,0:0:0:0:
204,180,16218,1,0,0:0:0:0:
176,136,16322,1,0,0:0:0:0:
164,160,16426,1,0,0:0:0:0:
156,188,16531,1,0,0:0:0:0:
132,144,16635,1,0,0:0:0:0:
112,96,16738,6,0,L|104:72,11,17.5
176,36,17156,2,0,L|181:52,8,17.5
268,112,17468,1,0,0:0:0:0:
268,112,17572,1,0,0:0:0:0:
300,88,17676,1,0,0:0:0:0:
312,140,17781,1,0,0:0:0:0:
324,192,17885,1,0,0:0:0:0:
336,244,17989,1,0,0:0:0:0:
208,312,18197,5,0,0:0:0:0:
196,308,18267,1,0,0:0:0:0:
184,308,18336,1,0,0:0:0:0:
172,312,18406,2,0,L|56:336,1,105,0|8,0:0|0:2,0:0:0:0:
256,144,18822,1,8,0:0:0:0:
344,256,19031,1,0,0:0:0:0:
408,120,19239,1,0,0:0:0:0:
240,252,19447,6,0,L|276:164,1,52.5,8|0,0:0|0:0,0:0:0:0:
308,44,19656,1,8,0:0:0:0:
452,220,19864,1,0,0:0:0:0:
192,112,20072,5,0,0:0:0:0:
452,220,20280,2,0,P|424:220|392:228,1,52.5,8|0,0:0|0:0,0:0:0:0:
288,312,20488,2,0,P|316:312|348:304,1,52.5
452,220,20697,1,8,0:0:0:0:
108,140,20906,1,0,0:0:0:0:
288,160,21113,1,8,0:0:0:0:
376,304,21322,1,8,0:0:0:0:
68,260,21531,2,0,P|56:224|52:192,1,52.5
92,52,21739,5,0,0:0:0:0:
236,252,21947,1,8,0:0:0:0:
236,252,22051,1,0,0:0:0:0:
236,252,22155,1,8,0:0:0:0:
264,120,22364,1,0,0:0:0:0:
452,344,22572,1,0,0:0:0:0:
348,208,22780,1,8,0:0:0:0:
348,208,22884,1,0,0:0:0:0:
348,208,22989,1,8,0:0:0:0:
408,44,23197,1,0,0:0:0:0:
188,148,23406,5,0,0:0:0:0:
272,156,23614,2,0,L|356:168,1,52.5,8|0,0:0|0:0,0:0:0:0:
188,148,23822,2,0,L|88:140,1,52.5
272,156,24031,1,8,0:0:0:0:
188,148,24239,2,0,L|200:236,1,52.5
272,272,24447,2,0,L|260:340,1,52.5,8|0,0:0|0:0,0:0:0:0:
120,288,24655,2,0,L|92:208,1,52.5,8|0,0:0|0:0,0:0:0:0:
348,152,24864,2,0,L|372:88,1,52.5
120,288,25072,5,0,0:0:0:0:
88,196,25281,1,8,0:0:0:0:
88,196,25384,1,0,0:0:0:0:
88,196,25488,1,8,0:0:0:0:
336,304,25697,1,0,0:0:0:0:
112,72,25906,1,0,0:0:0:0:
233,133,26114,1,8,0:0:0:0:
233,133,26217,1,0,0:0:0:0:
233,133,26322,1,8,0:0:0:0:
340,72,26531,1,0,0:0:0:0:
136,172,26739,5,0,0:0:0:0:
136,172,26842,2,0,L|208:144,1,52.5,0|8,0:0|0:0,0:0:0:0:
233,133,27051,1,0,0:0:0:0:
233,133,27155,2,0,L|161:161,1,52.5
87,191,27364,1,8,0:0:0:0:
87,191,27468,2,0,L|159:163,1,52.5
224,120,27781,1,8,0:0:0:0:
224,120,27988,1,8,0:0:0:0:
260,136,28093,1,0,0:0:0:0:
212,164,28197,1,0,0:0:0:0:
164,188,28301,1,0,0:0:0:0:
116,208,28406,5,0,0:0:0:0:
60,324,28614,1,8,0:0:0:0:
60,324,28718,1,0,0:0:0:0:
60,324,28822,1,0,0:0:0:0:
240,308,29031,2,0,L|148:332,1,52.5
256,208,29239,5,8,0:0:0:0:
336,268,29447,1,8,0:0:0:0:
348,284,29551,1,0,0:0:0:0:
364,304,29655,1,8,0:0:0:0:
372,252,29760,1,0,0:0:0:0:
376,200,29864,1,8,0:0:0:0:
380,148,29968,1,0,0:0:0:0:
384,96,30072,5,8,0:0:0:0:
440,312,30280,1,8,0:0:0:0:
68,320,30489,2,0,B|220:308|220:308|176:288,1,183.75,8|0,0:0|0:0,0:0:0:0:
232,232,31322,2,0,P|296:304|239:382,1,210
440,312,31738,5,8,1:3:0:0:
456,272,31842,1,0,0:0:0:0:
452,220,31947,2,0,L|432:172,1,52.5
300,44,32155,1,0,0:0:0:0:
284,84,32259,1,0,0:0:0:0:
288,136,32363,2,0,L|308:184,1,52.5,0|2,0:0|0:0,0:0:0:0:
288,272,32572,2,0,P|256:312|240:320,3,52.5,0|2|0|0,0:0|0:0|0:0|0:0,0:0:0:0:
136,264,32989,2,0,P|168:304|184:312,3,52.5,0|0|4|0,0:0|0:0|0:0|0:0,0:0:0:0:
272,172,33406,5,0,0:0:0:0:
320,188,33510,1,0,0:0:0:0:
372,204,33614,1,0,0:0:0:0:
420,220,33718,1,0,0:0:0:0:
284,292,33822,5,0,0:0:0:0:
252,300,33926,1,0,0:0:0:0:
224,308,34031,1,0,0:0:0:0:
196,316,34135,1,2,0:0:0:0:
104,304,34239,6,0,L|48:316,3,52.5,0|2|0|0,0:0|0:0|0:0|0:0,0:0:0:0:
116,224,34656,2,0,P|98:206|96:128,1,105
88,104,34933,2,0,L|72:64,1,35
156,32,35072,5,4,0:0:0:0:
156,32,35176,2,0,L|240:64,1,52.5
292,176,35385,1,4,0:0:0:0:
292,176,35489,2,0,L|176:132,1,78.7500030040742
336,88,35697,2,0,L|420:128,1,78.7500030040742,4|0,0:0|0:0,0:0:0:0:
340,320,35905,5,0,0:0:0:0:
340,320,36010,2,0,P|248:304|224:276,1,78.7500030040742,4|0,0:0|0:0,0:0:0:0:
116,200,36218,1,0,0:0:0:0:
116,200,36322,2,0,P|208:216|232:244,1,78.7500030040742,4|0,0:0|0:0,0:0:0:0:
396,200,36531,2,0,P|304:216|280:244,1,78.7500030040742
88,352,36738,5,4,0:0:0:0:
88,352,36842,2,0,P|132:296|132:232,1,78.7500030040742
68,100,37051,1,4,0:0:0:0:
68,100,37155,2,0,P|24:156|24:220,1,78.7500030040742
292,144,37363,2,0,L|180:172,1,78.7500030040742,4|0,0:0|0:0,0:0:0:0:
139,182,37572,1,0,0:0:0:0:
139,182,37676,1,4,0:0:0:0:
139,182,37781,2,0,L|251:154,1,78.7500030040742
396,80,37989,2,0,P|416:144|412:172,1,78.7500030040742,2|0,0:0|0:0,0:0:0:0:
320,304,38197,2,0,P|314:278|315:252,1,52.5
232,84,38405,5,4,3:2:0:0:
198,123,38510,1,0,0:0:0:0:
150,142,38614,1,0,0:0:0:0:
98,137,38718,1,0,0:0:0:0:
16,96,38822,2,0,P|4:144|-16:168,3,52.5,0|0|0|2,0:0|0:0|0:0|0:0,0:0:0:0:
68,276,39238,2,0,P|80:228|100:204,3,52.5,0|2|0|0,0:0|0:0|0:0|0:0,0:0:0:0:
144,364,39656,1,0,0:0:0:0:
160,344,39759,1,0,0:0:0:0:
168,320,39864,1,4,0:0:0:0:
164,296,39968,1,0,0:0:0:0:
152,280,40072,6,0,P|184:280|208:272,1,52.5
272,160,40281,2,0,P|240:160|216:168,1,52.5
292,288,40489,2,0,P|284:240|288:204,1,52.5
140,152,40697,2,0,P|148:200|144:236,1,52.5,0|2,0:0|0:0,0:0:0:0:
204,20,40906,2,0,L|216:72,3,52.5,0|2|0|0,0:0|0:0|0:0|0:0,0:0:0:0:
296,160,41322,2,0,L|320:80,2,52.5
164,184,41635,1,0,0:0:0:0:
164,184,41739,6,0,L|176:240,1,52.5,4|0,0:0|0:0,0:0:0:0:
348,324,41947,1,0,0:0:0:0:
380,332,42051,2,0,P|452:320|476:288,2,78.7500030040742,4|0|0,0:0|0:0|0:0,0:0:0:0:
212,324,42364,2,0,P|173:326|137:310,1,78.7500030040742,4|0,0:0|0:0,0:0:0:0:
32,256,42572,1,0,0:0:0:0:
24,232,42676,2,0,P|48:201|83:184,2,78.7500030040742,4|0|0,0:0|0:0|0:0,0:0:0:0:
184,124,42989,2,0,P|220:88|236:40,1,78.7500030040742,4|0,0:0|0:0,0:0:0:0:
328,260,43197,2,0,P|292:296|276:344,1,78.7500030040742
72,104,43406,6,0,L|192:132,1,78.7500030040742,4|0,0:0|0:0,0:0:0:0:
280,128,43614,1,0,0:0:0:0:
312,100,43718,2,0,L|396:80,2,78.7500030040742,4|0|0,0:0|0:0|0:0,0:0:0:0:
196,254,44031,2,0,L|120:236,1,78.7500030040742,4|0,0:0|0:0,0:0:0:0:
392,232,44343,1,4,0:0:0:0:
288,332,44447,1,4,0:0:0:0:
388,332,44551,1,4,0:0:0:0:
288,228,44656,2,0,B|208:212|120:236|120:236|168:176,1,236.250009012223,2|0,0:0|0:0,0:0:0:0:
124,32,45072,6,0,B|132:88|128:108|128:108|148:100|168:100,1,105
184,108,45385,1,0,0:0:0:0:
204,120,45489,1,0,0:0:0:0:
161,184,45697,1,0,0:0:0:0:
161,184,45801,1,0,0:0:0:0:
161,184,45906,2,0,P|208:200|272:172,1,105
324,116,46322,1,0,0:0:0:0:
347,51,46426,1,0,0:0:0:0:
411,75,46531,1,0,0:0:0:0:
388,139,46635,1,0,0:0:0:0:
324,116,46739,6,0,L|264:120,2,52.5
208,208,47051,2,0,L|268:204,2,52.5
120,208,47364,1,0,0:0:0:0:
120,208,47468,1,0,0:0:0:0:
120,208,47572,2,0,B|124:160|124:160|136:176,1,52.5
208,208,47780,2,0,B|204:256|204:256|192:240,1,52.5
164,336,47989,1,0,0:0:0:0:
216,332,48093,1,0,0:0:0:0:
268,320,48197,1,0,0:0:0:0:
320,308,48301,1,0,0:0:0:0:
288,264,48406,5,0,0:0:0:0:
72,272,48614,1,0,0:0:0:0:
16,140,48822,1,0,0:0:0:0:
16,152,48926,1,0,0:0:0:0:
16,164,49031,1,0,0:0:0:0:
136,92,49239,1,0,0:0:0:0:
136,104,49343,1,0,0:0:0:0:
284,152,49656,1,0,0:0:0:0:
332,172,49760,1,0,0:0:0:0:
380,188,49864,1,0,0:0:0:0:
344,228,49968,1,0,0:0:0:0:
304,260,50072,5,0,0:0:0:0:
200,284,50281,1,0,0:0:0:0:
200,284,50385,2,0,L|156:240,1,52.5
28,260,50593,1,0,0:0:0:0:
28,260,50697,2,0,L|72:304,1,52.5
148,352,50906,1,0,0:0:0:0:
132,168,51114,2,2,L|72:120,1,52.5,2|2,0:3|0:3,0:3:0:0:
144,40,51322,2,2,L|200:80,1,52.5,2|2,0:3|0:3,0:3:0:0:
240,268,51531,1,2,0:3:0:0:
251,216,51635,1,2,0:3:0:0:
256,128,51738,6,0,L|368:88,1,105,2|0,3:0|0:0,0:0:0:0:
444,56,52156,1,0,0:0:0:0:
444,56,52260,1,0,0:0:0:0:
444,56,52364,1,0,0:0:0:0:
412,240,52572,1,0,0:0:0:0:
412,240,52676,2,0,L|392:176,1,52.5
296,248,52885,1,0,0:0:0:0:
296,248,52989,2,0,L|311:298,1,52.5
200,344,53197,1,0,0:0:0:0:
152,336,53301,1,0,0:0:0:0:
104,324,53406,5,0,0:0:0:0:
128,116,53613,1,0,0:0:0:0:
175,132,53717,1,0,0:0:0:0:
188,181,53821,1,0,0:0:0:0:
155,219,53925,1,0,0:0:0:0:
105,213,54029,1,0,0:0:0:0:
172,48,54239,1,0,0:0:0:0:
200,40,54343,1,0,0:0:0:0:
236,76,54447,1,0,0:0:0:0:
264,92,54551,1,0,0:0:0:0:
304,64,54656,5,0,0:0:0:0:
344,88,54760,1,0,0:0:0:0:
372,128,54864,1,0,0:0:0:0:
368,176,54968,1,0,0:0:0:0:
344,216,55072,5,0,0:0:0:0:
256,344,55280,1,0,0:0:0:0:
264,328,55384,1,0,0:0:0:0:
272,316,55489,1,0,0:0:0:0:
108,264,55697,1,0,0:0:0:0:
180,320,55801,2,0,L|168:356,2,26.25
272,308,56114,1,0,0:0:0:0:
364,288,56322,1,0,0:0:0:0:
456,268,56531,1,0,0:0:0:0:
276,72,56739,6,0,P|248:111|232:160,1,78.7500030040742
344,192,56947,2,0,P|371:152|388:104,1,78.7500030040742
255,239,57155,2,0,P|276:271|310:291,1,78.7500030040742
68,284,57363,2,0,P|101:264|123:231,1,78.7500030040742
272,128,57572,1,0,0:0:0:0:
144,40,57728,1,0,0:0:0:0:
160,56,57781,1,2,0:3:0:0:
172,64,57850,1,2,0:3:0:0:
184,76,57919,1,2,0:3:0:0:
196,92,57988,2,0,P|192:136|204:180,1,78.7500030040742,2|0,0:3|0:0,0:0:0:0:
320,336,58197,2,0,L|312:248,1,78.7500030040742
352,108,58406,6,0,P|400:132|472:112,1,78.7500030040742
424,132,58614,2,0,P|380:112|344:108,1,78.7500030040742
260,276,58822,2,0,P|292:253|315:221,1,78.7500030040742
144,124,59031,2,0,P|111:146|88:178,1,78.7500030040742
16,236,59238,1,0,0:0:0:0:
60,272,59342,1,0,0:0:0:0:
112,272,59447,1,0,0:0:0:0:
156,244,59551,1,0,0:0:0:0:
260,244,59655,2,0,L|312:196,2,52.5000020027161
372,284,59863,2,0,L|333:319,2,52.5000020027161
264,340,60072,6,0,B|300:336|300:336|320:340|320:340|368:332|368:332|396:356|444:344,1,157.500006008148,0|0,3:0|0:0,0:0:0:0:
456,248,60385,1,0,0:0:0:0:
492,272,60489,1,4,0:3:0:0:
436,84,60697,1,0,0:0:0:0:
260,332,60906,2,0,B|296:328|296:328|316:332|316:332|364:324|364:324|392:348|440:336,1,157.500006008148
444,332,61218,1,0,0:0:0:0:
472,356,61322,1,4,0:3:0:0:
192,200,61531,1,0,0:0:0:0:
64,272,61739,6,0,L|72:188,1,78.7500030040742,4|0,0:3|0:0,0:0:0:0:
76,96,61947,1,0,0:0:0:0:
76,96,62051,1,0,0:0:0:0:
76,96,62155,1,4,0:3:0:0:
284,112,62364,1,0,0:0:0:0:
232,304,62572,2,0,L|184:216,1,78.7500030040742,4|0,0:3|0:0,0:0:0:0:
304,248,62781,2,0,L|352:336,1,78.7500030040742
112,308,62989,1,4,0:3:0:0:
104,284,63093,1,0,0:0:0:0:
96,256,63197,1,4,0:3:0:0:
164,268,63301,1,0,0:0:0:0:
232,284,63405,5,4,3:0:0:0:
352,208,63614,1,0,0:0:0:0:
352,208,63718,1,0,0:0:0:0:
352,208,63822,1,4,0:3:0:0:
348,312,64031,1,0,0:0:0:0:
456,204,64239,2,0,B|448:160|448:160|424:148|424:148|424:100|376:72,1,157.500006008148,4|0,0:3|0:0,0:0:0:0:
356,56,64551,1,0,0:0:0:0:
328,52,64655,1,4,0:3:0:0:
204,228,64864,2,0,P|228:204|252:152,1,78.7500030040742
196,64,65072,5,4,0:3:0:0:
100,272,65281,1,0,0:0:0:0:
124,304,65385,1,0,0:0:0:0:
156,332,65488,2,0,P|208:340|280:312,1,78.7500030040742,4|0,0:3|0:0,0:0:0:0:
316,296,65697,1,0,0:0:0:0:
316,296,65801,1,0,0:0:0:0:
316,296,65906,2,0,L|344:184,1,78.7500030040742,4|0,0:3|0:0,0:0:0:0:
196,88,66114,2,0,L|168:200,1,78.7500030040742
335,219,66321,5,4,0:3:0:0:
264,216,66426,1,0,0:0:0:0:
200,248,66530,1,4,0:3:0:0:
128,244,66635,1,0,0:0:0:0:
56,240,66738,5,4,3:3:0:0:
152,344,66947,1,0,0:0:0:0:
152,344,67051,1,0,0:0:0:0:
152,344,67155,1,4,0:3:0:0:
284,296,67364,1,0,0:0:0:0:
192,156,67572,2,0,P|204:100|312:56,1,157.500006008148,4|0,0:3|0:0,0:0:0:0:
356,64,67885,1,0,0:0:0:0:
388,128,67989,1,4,0:3:0:0:
330,352,68197,2,0,P|354:304|358:216,1,78.7500030040742
388,128,68405,6,0,P|360:216|368:316,1,157.500006008148,4|0,0:3|0:0,0:0:0:0:
328,352,68718,1,0,0:0:0:0:
328,352,68822,1,4,0:3:0:0:
444,272,69031,1,0,0:0:0:0:
280,276,69239,2,0,L|196:248,1,78.7500030040742,4|0,0:3|0:0,0:0:0:0:
84,136,69447,2,0,L|168:164,1,78.7500030040742
96,316,69656,2,0,L|128:216,1,78.7500030040742,4|0,0:3|0:0,0:0:0:0:
264,100,69864,2,0,L|232:200,1,78.7500030040742,4|0,0:3|0:0,0:0:0:0:
84,136,70072,5,4,0:3:0:0:
300,224,70281,1,0,0:0:0:0:
220,280,70488,1,4,0:3:0:0:
476,88,70697,1,0,0:0:0:0:
424,248,70906,1,6,0:3:0:0:
416,232,71010,1,2,0:3:0:0:
412,212,71114,1,2,0:3:0:0:
412,196,71218,1,2,0:3:0:0:
416,180,71322,1,6,0:3:0:0:
256,336,71531,2,0,P|288:288|296:248,1,78.7500030040742
240,164,71738,5,4,0:3:0:0:
76,304,71947,1,2,0:3:0:0:
156,332,72156,1,6,0:3:0:0:
48,128,72363,1,6,0:3:0:0:
316,176,72572,1,6,0:3:0:0:
48,128,72781,1,2,0:3:0:0:
316,176,72989,1,2,0:3:0:0:
316,176,73058,1,2,0:3:0:0:
316,176,73128,2,2,L|328:236,1,52.5000020027161,2|2,0:3|0:3,0:3:0:0:
420,336,73267,2,2,L|408:276,1,52.5000020027161,2|2,0:3|0:3,0:3:0:0:
316,176,73405,5,6,3:3:0:0:
196,312,73614,2,0,P|204:252|192:200,1,78.7500030040742,8|0,0:0|0:0,0:0:0:0:
152,120,73822,1,8,0:0:0:0:
80,216,74031,1,0,0:0:0:0:
316,176,74239,2,0,B|352:168|352:168|376:184|376:184|412:176|412:176|484:196,1,157.500006008148,0|8,0:0|0:0,0:0:0:0:
496,208,74551,2,0,P|504:264|488:300,1,78.7500030040742,0|8,0:0|0:0,0:0:0:0:
236,64,74864,2,0,P|216:132|108:168,1,157.500006008148
112,152,75176,1,0,0:0:0:0:
88,136,75281,1,8,0:0:0:0:
136,328,75489,6,0,P|104:284|96:232,1,78.7500030040742
88,136,75697,1,8,0:0:0:0:
240,264,75906,2,0,P|236:204|280:144,1,78.7500030040742
312,76,76114,1,8,0:0:0:0:
312,76,76218,1,0,0:0:0:0:
312,76,76322,1,8,0:0:0:0:
416,80,76531,1,0,0:0:0:0:
236,144,76739,6,0,P|176:144|128:160,1,78.7500030040742,0|0,3:0|0:0,0:0:0:0:
80,248,76947,2,0,P|140:248|188:232,1,78.7500030040742,8|0,0:0|0:0,0:0:0:0:
264,244,77155,1,8,0:0:0:0:
264,244,77260,1,0,0:0:0:0:
264,244,77364,1,0,0:0:0:0:
456,192,77572,1,0,0:0:0:0:
400,268,77781,1,8,0:0:0:0:
400,268,77885,1,0,0:0:0:0:
400,268,77989,1,8,0:0:0:0:
328,48,78197,2,0,P|396:64|432:56,1,78.7500030040742
468,148,78405,5,0,0:0:0:0:
316,212,78614,1,8,0:0:0:0:
336,208,78718,1,0,0:0:0:0:
356,212,78822,1,0,0:0:0:0:
240,256,79030,1,8,0:0:0:0:
144,248,79239,1,0,0:0:0:0:
376,92,79447,2,0,P|360:56|328:20,1,78.7500030040742,8|0,0:0|0:0,0:0:0:0:
292,132,79656,2,0,P|256:92|200:68,1,78.7500030040742,8|0,0:0|0:0,0:0:0:0:
32,228,79864,1,0,0:0:0:0:
88,236,79968,1,0,0:0:0:0:
128,224,80072,6,0,P|172:204|204:168,1,78.7500030040742,0|0,3:0|0:0,0:0:0:0:
384,160,80281,2,0,P|340:180|308:216,1,78.7500030040742,8|0,0:0|0:0,0:0:0:0:
248,296,80488,1,8,0:0:0:0:
248,296,80593,1,0,0:0:0:0:
248,296,80697,1,0,0:0:0:0:
192,96,80906,1,0,0:0:0:0:
392,52,81113,2,0,L|432:124,1,78.7500030040742,8|0,0:0|0:0,0:0:0:0:
164,104,81322,1,0,0:0:0:0:
352,284,81531,6,0,B|320:272|320:272|296:280|296:280|272:272|272:272|168:308|104:232,1,236.250009012223,8|0,0:3|0:0,0:0:0:0:
196,196,81947,2,0,P|208:112|208:200,1,236.250009012223,8|0,0:3|0:0,0:0:0:0:
394,282,82363,2,0,P|382:366|382:278,1,236.250009012223,8|0,0:3|0:0,0:0:0:0:
308,180,82781,1,8,0:3:0:0:
424,152,82989,1,8,0:3:0:0:
277,285,83197,1,0,0:0:0:0:
285,273,83301,1,0,0:0:0:0:
293,257,83406,6,0,L|309:169,1,78.7500030040742
128,92,83614,1,0,0:0:0:0:
128,92,83718,2,0,L|101:166,1,78.7500030040742
277,285,83926,1,0,0:0:0:0:
277,285,84031,2,0,L|257:165,1,78.7500030040742
312,96,84239,1,0,0:0:0:0:
172,248,84447,1,0,0:0:0:0:
152,252,84551,1,0,0:0:0:0:
132,248,84656,1,0,0:0:0:0:
376,216,84864,1,0,0:0:0:0:
332,340,85072,5,0,0:0:0:0:
368,108,85281,1,0,0:0:0:0:
368,108,85385,2,0,L|248:76,1,78.7500030040742,0|0,0:0|0:0,0:0:0:0:
135,172,85593,1,0,0:0:0:0:
135,172,85697,2,0,L|211:151,1,78.7500030040742,0|0,0:0|0:0,0:0:0:0:
368,108,85906,1,2,0:3:0:0:
376,136,86010,1,2,0:3:0:0:
384,160,86114,1,2,0:3:0:0:
392,188,86218,1,2,0:3:0:0:
328,272,86322,5,2,0:3:0:0:
320,244,86426,1,2,0:3:0:0:
312,220,86530,1,2,0:3:0:0:
304,192,86634,1,2,0:3:0:0:
284,120,86738,6,0,P|245:112|206:117,1,78.75,4|0,0:3|0:0,0:0:0:0:
80,208,87155,2,0,P|118:215|157:210,1,78.75,4|0,0:3|0:0,0:0:0:0:
372,324,87572,2,0,P|416:280|428:248,1,78.75,4|0,0:3|0:0,0:0:0:0:
388,136,87988,2,0,P|344:180|332:212,1,78.75,4|0,0:3|0:0,0:0:0:0:
260,288,88405,5,4,0:3:0:0:
372,324,88717,1,4,0:3:0:0:
260,288,88822,2,0,P|208:284|160:292,1,78.75,0|4,0:0|0:3,0:0:0:0:
56,208,89238,2,0,P|108:204|156:212,1,78.75,4|4,0:3|0:3,0:0:0:0:
216,172,89655,1,4,0:3:0:0:
216,172,89967,1,0,0:0:0:0:
260,200,90072,6,0,B|276:204|292:196|292:196|304:200|304:200|328:204|356:192,1,78.75,4|0,0:3|0:0,0:0:0:0:
400,140,90488,2,0,P|420:180|420:224,1,78.75,4|0,0:3|0:0,0:0:0:0:
364,352,90905,2,0,P|344:312|344:268,1,78.75,4|0,0:3|0:0,0:0:0:0:
180,212,91322,2,0,P|232:220|276:212,1,78.75,4|0,0:3|0:0,0:0:0:0:
80,128,91738,6,0,L|76:172,2,35,2|2|2,0:3|0:3|0:3,0:3:0:0:
96,296,92155,2,0,B|36:296|36:296|56:304,1,78.75,8|0,0:0|0:0,0:0:0:0:
192,312,92572,2,0,L|288:288,1,78.75,8|0,0:0|0:0,0:0:0:0:
436,288,92988,2,0,P|408:240|392:332,1,236.250009012223
392,331,93405,6,0,P|367:327|348:309,3,52.5
368,196,93822,2,0,P|393:200|412:218,3,52.5
240,116,94238,2,0,L|320:96,3,52.5
152,200,94655,2,0,L|76:180,3,52.5
264,268,95072,5,0,0:0:0:0:
252,256,95176,1,0,0:0:0:0:
264,245,95280,1,0,0:0:0:0:
275,256,95384,1,0,0:0:0:0:
264,268,95488,5,0,0:0:0:0:
252,256,95592,1,0,0:0:0:0:
264,245,95697,1,0,0:0:0:0:
275,256,95800,1,0,0:0:0:0:
264,268,95905,5,0,0:0:0:0:
327,226,96009,1,0,0:0:0:0:
335,150,96113,1,0,0:0:0:0:
280,98,96217,1,0,0:0:0:0:
204,108,96322,6,0,P|144:136|120:152,1,52.5
104,264,96530,2,0,P|164:236|192:216,1,52.5
335,150,96738,1,0,0:0:0:0:
335,150,96842,2,0,L|420:176,1,78.7500030040742
261,179,97051,2,0,L|353:143,1,78.7500030040742,4|0,0:0|0:0,0:0:0:0:
185,156,97259,1,0,0:0:0:0:
185,156,97363,2,0,L|269:181,1,78.7500030040742,4|0,0:0|0:0,0:0:0:0:
111,184,97572,1,0,0:0:0:0:
111,184,97676,2,0,L|203:148,1,78.7500030040742,4|0,0:0|0:0,0:0:0:0:
401,200,97884,1,0,0:0:0:0:
401,200,97988,2,0,L|309:236,1,78.7500030040742,4|0,0:0|0:0,0:0:0:0:
240,264,98197,2,0,L|148:300,1,78.7500030040742
196,152,98405,5,4,0:0:0:0:
216,136,98509,2,0,P|264:132|308:144,2,78.7500030040742,0|0|4,0:0|0:0|0:0,0:0:0:0:
405,231,98822,2,0,P|357:235|313:223,1,78.7500030040742
216,136,99030,2,0,P|264:132|308:144,1,78.7500030040742,4|0,0:0|0:0,0:0:0:0:
308,348,99238,1,0,0:0:0:0:
308,348,99342,2,0,P|248:308|228:268,1,78.7500030040742,4|0,0:0|0:0,0:0:0:0:
216,136,99551,1,0,0:0:0:0:
216,136,99655,2,0,P|156:176|136:216,1,78.7500030040742,2|0,0:0|0:0,0:0:0:0:
140,276,99863,1,0,0:0:0:0:
108,260,99967,1,0,0:0:0:0:
36,232,100072,6,0,P|32:208|40:172,3,52.5,0|0|0|0,3:0|0:0|0:0|0:0,0:0:0:0:
132,136,100488,2,0,P|136:112|128:76,3,52.5,0|0|0|2,0:0|0:0|0:0|0:0,0:0:0:0:
276,96,100905,2,0,L|216:76,3,52.5,0|2|0|0,0:0|0:0|0:0|0:0,0:0:0:0:
344,160,101322,1,0,0:0:0:0:
360,144,101426,1,0,0:0:0:0:
372,124,101530,1,4,0:0:0:0:
376,104,101634,1,0,0:0:0:0:
368,84,101738,6,0,L|432:72,1,52.5
504,168,101947,2,0,L|440:180,1,52.5
252,236,102155,2,0,P|248:216|252:176,1,52.5
356,240,102363,2,0,P|360:260|356:300,1,52.5,0|2,0:0|0:0,0:0:0:0:
156,292,102572,1,0,0:0:0:0:
152,276,102676,1,2,0:0:0:0:
148,256,102780,1,0,0:0:0:0:
152,240,102884,1,0,0:0:0:0:
224,56,102988,2,0,P|240:104|240:120,1,52.5
264,184,103197,1,0,0:0:0:0:
292,168,103301,1,0,0:0:0:0:
356,140,103405,6,0,P|384:200|384:248,1,78.7500030040742
336,340,103613,1,0,0:0:0:0:
328,348,103717,2,0,P|300:288|300:240,1,78.7500030040742,4|0,0:0|0:0,0:0:0:0:
204,56,103926,1,0,0:0:0:0:
196,47,104030,2,0,P|175:80|166:118,1,78.7500030040742,4|0,0:0|0:0,0:0:0:0:
76,340,104238,1,0,0:0:0:0:
68,348,104342,2,0,P|40:288|40:240,1,78.7500030040742,4|0,0:0|0:0,0:0:0:0:
196,47,104551,1,0,0:0:0:0:
208,68,104655,2,0,P|264:72|312:48,1,78.7500030040742,4|0,0:0|0:0,0:0:0:0:
320,172,104863,2,0,P|368:128|384:88,1,78.7500030040742
452,264,105072,5,4,0:0:0:0:
192,304,105280,2,0,L|292:248,1,78.7500030040742
80,272,105488,1,2,0:3:0:0:
72,284,105558,1,2,0:3:0:0:
72,300,105627,1,2,0:3:0:0:
80,312,105697,1,2,0:3:0:0:
96,324,105766,1,2,0:3:0:0:
112,328,105835,1,2,0:3:0:0:
320,280,106009,1,4,0:0:0:0:
208,208,106113,1,4,0:0:0:0:
316,148,106217,1,4,0:0:0:0:
208,68,106322,2,0,P|144:56|212:104,1,236.250009012223,2|0,0:0|0:0,0:0:0:0:
316,148,106738,5,0,0:0:0:0:
440,216,106947,2,0,L|464:132,1,52.5
336,320,107259,2,0,L|312:228,1,52.5
208,200,107572,2,0,L|228:116,1,52.5
68,164,107988,1,0,0:0:0:0:
184,332,108197,1,0,0:0:0:0:
68,164,108405,6,0,L|48:244,1,52.5
172,60,108717,2,0,L|192:152,1,52.5
299,179,109030,2,0,L|276:264,1,52.5
392,56,109342,2,0,L|416:144,1,52.5
432,325,109655,2,0,B|416:296|426:259|426:259|386:251|364:220|364:220|320:249|320:249|300:229|272:228,1,236.250009012223,14|0,0:3|0:0,0:0:0:0:
236,304,110072,6,0,P|208:272|200:232,1,52.5
168,176,110280,1,0,0:0:0:0:
168,176,110384,1,0,0:0:0:0:
168,176,110488,1,0,0:0:0:0:
56,232,110697,1,0,0:0:0:0:
56,268,110801,1,0,0:0:0:0:
72,300,110905,2,0,P|88:332|108:356,1,52.5
88,148,111113,2,0,P|72:116|52:92,1,52.5
228,168,111322,1,0,0:0:0:0:
240,148,111426,1,0,0:0:0:0:
248,128,111530,1,0,0:0:0:0:
244,112,111634,1,0,0:0:0:0:
240,96,111738,5,0,0:0:0:0:
368,220,111947,1,0,0:0:0:0:
368,220,112051,1,0,0:0:0:0:
368,220,112155,1,0,0:0:0:0:
432,152,112363,1,0,0:0:0:0:
176,248,112572,1,0,0:0:0:0:
280,264,112780,2,2,P|276:316|268:332,1,52.5,2|2,0:3|0:3,0:3:0:0:
196,144,112988,1,2,0:3:0:0:
196,144,113092,1,2,0:3:0:0:
156,128,113197,1,2,0:3:0:0:
200,116,113301,1,2,0:3:0:0:
244,104,113405,5,2,0:3:0:0:
384,124,113613,1,0,0:0:0:0:
384,124,113717,1,0,0:0:0:0:
400,84,113822,1,0,0:0:0:0:
412,128,113926,1,0,0:0:0:0:
424,172,114030,1,0,0:0:0:0:
336,312,114238,2,0,L|264:304,1,52.5
200,296,114447,2,0,L|136:288,1,52.5
16,236,114655,2,0,L|100:220,1,52.5
160,212,114863,2,0,L|224:200,1,52.5
312,192,115072,5,0,0:0:0:0:
400,232,115280,1,0,0:0:0:0:
400,232,115384,1,0,0:0:0:0:
400,232,115488,1,0,0:0:0:0:
276,96,115697,1,0,0:0:0:0:
148,172,115905,2,0,L|224:132,1,52.5
276,96,116113,2,0,L|352:64,1,52.5
404,172,116322,2,0,L|328:132,1,52.5
276,96,116530,2,0,L|200:64,1,52.5
264,232,116738,6,0,L|264:340,1,105
264,352,117051,1,0,0:0:0:0:
264,368,117155,1,0,0:0:0:0:
304,344,117259,1,0,0:0:0:0:
340,316,117363,1,0,0:0:0:0:
172,316,117572,1,0,0:0:0:0:
172,316,117676,1,0,0:0:0:0:
172,316,117780,1,0,0:0:0:0:
120,240,117988,1,0,0:0:0:0:
64,164,118197,1,0,0:0:0:0:
64,372,118405,6,0,L|104:280,1,52.5
144,88,118613,2,0,L|184:180,1,52.5
32,228,118822,2,0,L|80:207,1,52.5
340,156,119030,1,0,0:0:0:0:
291,135,119134,1,0,0:0:0:0:
248,120,119238,1,0,0:0:0:0:
244,260,119377,1,2,0:3:0:0:
260,268,119447,1,2,0:3:0:0:
272,276,119516,1,2,0:3:0:0:
292,280,119585,1,2,0:3:0:0:
312,312,119655,2,0,B|340:320|340:320|360:320|360:320|368:336|368:336|388:340|388:340|428:336,1,105,2|2,0:3|0:3,0:0:0:0:
164,336,120072,6,0,L|96:336,1,52.5
144,300,120280,2,0,L|84:300,1,52.5
204,160,120488,2,0,L|204:92,1,52.5
240,140,120696,2,0,L|240:80,1,52.5
328,248,120905,1,0,0:0:0:0:
332,276,121009,1,0,0:0:0:0:
248,324,121113,1,0,0:0:0:0:
208,320,121217,1,0,0:0:0:0:
136,252,121322,1,8,0:0:0:0:
144,220,121426,1,0,0:0:0:0:
192,144,121530,2,0,L|188:80,1,35,8|0,0:0|0:0,0:0:0:0:
236,144,121669,1,0,0:0:0:0:
276,148,121738,6,0,P|312:136|376:148,1,78.7500030040742,0|0,3:0|0:0,0:0:0:0:
424,188,121947,1,0,0:0:0:0:
424,188,122051,1,0,0:0:0:0:
424,188,122155,1,0,0:0:0:0:
464,296,122363,1,0,0:0:0:0:
236,112,122572,2,0,B|288:112|288:112|348:100|348:100|392:100,1,157.500006008148
424,108,122884,1,0,0:0:0:0:
452,136,122988,1,0,0:0:0:0:
312,212,123197,1,0,0:0:0:0:
176,31,123405,6,0,P|150:39|112:84,1,78.7500030040742
92,212,123613,2,0,P|117:204|160:160,1,78.7500030040742
176,132,123822,1,0,0:0:0:0:
272,288,124030,1,0,0:0:0:0:
176,308,124238,2,0,L|96:336,1,78.7500030040742
252,188,124447,2,0,L|328:164,1,78.7500030040742
163,207,124655,2,0,L|144:128,1,78.7500030040742
272,288,124863,1,0,0:0:0:0:
320,276,124967,1,0,0:0:0:0:
368,264,125072,5,0,3:0:0:0:
164,208,125280,1,0,0:0:0:0:
144,216,125384,1,0,0:0:0:0:
120,228,125488,1,0,0:0:0:0:
56,300,125697,1,0,0:0:0:0:
144,84,125905,2,0,P|200:92|272:160,1,157.500006008148
284,184,126217,2,0,P|300:232|336:252,1,78.7500030040742
120,228,126530,1,0,0:0:0:0:
284,184,126738,5,0,0:0:0:0:
436,232,126947,2,0,P|440:276|424:320,1,78.7500030040742
344,348,127155,1,0,0:0:0:0:
436,232,127363,1,0,0:0:0:0:
344,348,127572,2,0,L|244:360,1,78.7500030040742
116,264,127780,2,0,L|216:252,1,78.7500030040742
184,352,127988,1,0,0:0:0:0:
192,328,128092,1,0,0:0:0:0:
280,240,128197,1,0,0:0:0:0:
268,216,128301,1,0,0:0:0:0:
208,128,128405,2,0,B|276:120|276:120|268:112,1,78.7500030040742
104,80,128613,1,0,0:0:0:0:
104,80,128717,1,0,0:0:0:0:
104,80,128822,1,0,0:0:0:0:
104,220,129030,1,0,0:0:0:0:
320,369,129238,2,0,P|252:334|240:260,1,157.500006008148
452,288,129551,2,0,L|412:376,1,78.7500030040742
92,289,129863,2,0,P|172:253|268:273,1,157.500006008148
260,272,130176,5,0,0:0:0:0:
296,300,130280,1,0,0:0:0:0:
332,264,130384,1,0,0:0:0:0:
372,256,130488,1,0,0:0:0:0:
380,352,130697,1,0,0:0:0:0:
200,164,130905,2,0,L|160:72,1,78.7500030040742
292,164,131113,1,0,0:0:0:0:
284,148,131217,1,0,0:0:0:0:
276,132,131322,1,0,0:0:0:0:
268,116,131426,1,0,0:0:0:0:
260,100,131530,1,0,0:0:0:0:
124,208,131738,6,0,P|68:208|0:128,2,157.500006008148
376,232,132363,1,0,0:0:0:0:
176,304,132572,1,2,0:3:0:0:
220,260,132676,1,2,0:3:0:0:
276,264,132780,1,2,0:3:0:0:
320,232,132884,1,2,0:3:0:0:
376,232,132988,1,2,0:3:0:0:
248,92,133197,1,0,0:0:0:0:
248,92,133301,1,0,0:0:0:0:
248,92,133405,6,0,P|312:96|412:60,2,157.500006008148,0|2|2,0:0|0:3|0:3,0:0:0:0:
140,96,134030,1,2,0:3:0:0:
64,192,134238,1,0,0:0:0:0:
72,204,134308,1,0,0:0:0:0:
92,220,134377,1,0,0:0:0:0:
88,236,134447,1,0,0:0:0:0:
64,256,134516,5,0,0:0:0:0:
72,268,134586,1,0,0:0:0:0:
92,284,134655,1,0,0:0:0:0:
88,300,134725,1,0,0:0:0:0:
112,328,134794,5,0,0:0:0:0:
156,312,134863,1,0,0:0:0:0:
208,304,134933,1,0,0:0:0:0:
260,316,135002,1,0,0:0:0:0:
304,340,135072,5,2,0:0:0:0:
440,308,135280,1,0,0:0:0:0:
408,172,135488,1,0,0:0:0:0:
268,200,135697,1,0,0:0:0:0:
304,340,135905,1,0,0:0:0:0:
440,308,136113,2,0,L|384:268,1,52.5
114,213,136322,2,0,P|190:193|286:205,1,157.500006008148,8|0,0:3|0:0,0:0:0:0:
128,360,136738,5,0,0:0:0:0:
120,340,136842,1,0,0:0:0:0:
120,324,136947,1,8,0:0:0:0:
120,308,137051,1,0,0:0:0:0:
124,292,137155,1,0,0:0:0:0:
40,348,137363,1,8,0:0:0:0:
216,336,137572,2,0,B|280:348|280:348|272:328,1,78.7500030040742
416,312,137780,2,0,B|352:300|352:300|360:320,1,78.7500030040742,8|0,0:0|0:0,0:0:0:0:
260,176,137988,2,0,B|248:240|248:240|268:232,1,78.7500030040742,8|0,0:0|0:0,0:0:0:0:
216,96,138197,1,0,0:0:0:0:
292,104,138301,1,0,0:0:0:0:
368,112,138405,5,0,0:0:0:0:
140,172,138613,1,8,0:0:0:0:
140,172,138717,1,0,0:0:0:0:
140,172,138822,1,8,0:0:0:0:
368,204,139030,1,0,0:0:0:0:
454,318,139238,2,0,P|428:238|360:202,1,157.500006008148,0|8,0:0|0:0,0:0:0:0:
288,236,139551,1,0,0:0:0:0:
296,160,139655,1,8,0:0:0:0:
143,171,139863,2,0,B|183:186|215:167|215:167|235:170|235:170|275:150|307:163,1,157.500006008148
264,68,140176,1,0,0:0:0:0:
173,47,140280,2,0,B|164:32|164:32|168:92,1,78.7500030040742
282,280,140488,2,0,B|292:296|292:296|288:236,1,78.7500030040742
260,160,140697,1,8,0:0:0:0:
192,256,140905,2,0,B|156:276|156:276|116:276,1,78.7500030040742
260,160,141113,2,0,B|296:140|296:140|336:140,1,78.7500030040742,8|0,0:0|0:0,0:0:0:0:
176,176,141322,2,0,B|156:140|156:140|156:100,1,78.7500030040742,8|0,0:0|0:0,0:0:0:0:
280,240,141530,2,0,B|300:276|300:276|300:316,1,78.7500030040742
72,160,141738,5,0,0:0:0:0:
40,236,141947,1,8,0:0:0:0:
40,236,142051,1,0,0:0:0:0:
40,236,142155,2,0,P|92:288|184:304,1,157.500006008148,8|0,0:0|0:0,0:0:0:0:
400,216,142572,1,0,0:0:0:0:
312,328,142780,1,8,0:0:0:0:
288,300,142884,1,0,0:0:0:0:
280,268,142988,2,0,P|280:200|288:172,1,78.7500030040742
304,96,143197,5,8,0:0:0:0:
460,332,143613,1,0,0:0:0:0:
236,340,144030,1,8,0:0:0:0:
428,176,144447,1,0,0:0:0:0:
308,176,144655,2,0,B|308:216|336:248|336:248|336:264|336:264|364:296|360:344,1,157.500006008148
116,96,145072,5,0,0:0:0:0:
152,272,145280,1,0,0:0:0:0:
152,272,145384,2,0,P|152:224|168:184,1,78.7500030040742
240,48,145592,1,0,0:0:0:0:
240,48,145696,2,0,P|240:96|224:136,1,78.7500030040742
116,96,145905,1,0,0:0:0:0:
248,228,146113,1,0,0:0:0:0:
276,252,146217,1,0,0:0:0:0:
304,280,146322,1,0,0:0:0:0:
320,248,146426,1,0,0:0:0:0:
332,212,146530,1,0,0:0:0:0:
360,128,146738,5,0,0:0:0:0:
384,332,146947,1,0,0:0:0:0:
384,332,147051,2,0,P|328:368|308:364,1,52.5,0|0,0:0|0:0,0:0:0:0:
424,256,147259,1,0,0:0:0:0:
424,256,147363,2,0,P|480:220|500:224,1,52.5,0|0,0:0|0:0,0:0:0:0:
348,368,147572,1,2,0:3:0:0:
336,360,147676,1,2,0:3:0:0:
312,344,147780,1,2,0:3:0:0:
296,352,147884,1,2,0:3:0:0:
248,328,147988,5,2,0:3:0:0:
192,328,148092,1,2,0:3:0:0:
148,352,148197,1,2,0:3:0:0:
92,352,148301,1,2,0:3:0:0:
52,280,148405,5,8,0:3:0:0:
136,180,155072,6,0,P|148:252|192:296,1,105,0|0,3:0|0:0,0:0:0:0:
72,192,155384,1,0,0:0:0:0:
56,216,155488,2,0,P|88:264|160:292,1,105,0|8,0:0|0:0,0:0:0:0:
28,260,155801,1,0,0:0:0:0:
24,288,155905,2,0,P|64:300|140:304,1,105
232,280,156217,1,0,0:0:0:0:
232,280,156322,2,0,P|236:328|228:348,1,52.5
128,304,156530,1,0,0:0:0:0:
376,204,156738,6,0,P|364:132|320:88,1,105,0|0,3:0|0:0,0:0:0:0:
440,192,157051,1,0,0:0:0:0:
456,168,157154,2,0,P|424:120|352:92,1,105
484,124,157467,1,0,0:0:0:0:
488,96,157572,2,0,P|448:84|372:80,1,105,2|0,0:0|0:0,0:0:0:0:
280,104,157883,1,0,0:0:0:0:
280,104,157988,2,0,P|276:56|284:36,1,52.5
384,80,158196,1,0,0:0:0:0:
88,108,158405,6,0,L|112:224,1,105,0|0,3:0|0:0,0:0:0:0:
136,192,158717,1,0,0:0:0:0:
108,204,158822,2,0,L|96:316,1,105,0|8,0:0|0:0,0:0:0:0:
76,320,159134,1,0,0:0:0:0:
96,308,159238,2,0,L|208:336,1,105
296,264,159551,1,0,0:0:0:0:
296,264,159655,2,0,L|232:280,1,52.5
376,320,159863,1,0,0:0:0:0:
320,120,160072,6,0,L|444:140,1,105,0|0,3:0|0:0,0:0:0:0:
116,80,160384,1,0,0:0:0:0:
128,64,160488,2,0,L|252:44,1,105
231,47,160801,1,2,0:0:0:0:
231,47,160905,2,0,P|236:80|231:103,1,52.5,0|2,0:0|0:0,0:0:0:0:
152,248,161113,2,0,P|147:215|152:192,1,52.5
248,272,161322,2,0,P|216:332|96:332,1,157.500006008148,2|0,0:0|0:0,0:0:0:0:
100,340,161634,1,0,0:0:0:0:
76,316,161738,5,0,3:0:0:0:
340,248,161947,2,0,P|360:312|360:324,1,52.5
376,172,162155,1,0,0:0:0:0:
376,172,162259,1,0,0:0:0:0:
376,172,162363,1,8,0:0:0:0:
284,88,162572,1,0,0:0:0:0:
216,192,162780,1,0,0:0:0:0:
204,152,162884,1,0,0:0:0:0:
188,112,162988,1,0,0:0:0:0:
216,192,163197,1,0,0:0:0:0:
244,272,163405,5,0,3:0:0:0:
72,124,163613,2,0,P|80:84|92:56,1,52.5,4|0,0:0|0:0,0:0:0:0:
32,212,163822,1,0,0:0:0:0:
32,212,163926,1,0,0:0:0:0:
32,212,164030,1,0,0:0:0:0:
128,308,164238,2,0,L|104:176,1,105
164,144,164551,1,0,0:0:0:0:
208,148,164655,1,0,0:0:0:0:
72,124,164863,1,0,0:0:0:0:
268,260,165072,6,0,P|308:248|356:204,1,105,0|0,3:0|0:0,0:0:0:0:
248,248,165384,1,0,0:0:0:0:
268,260,165488,2,0,P|260:316|248:348,1,52.5
260,156,165697,1,8,0:0:0:0:
388,304,165905,1,0,0:0:0:0:
164,316,166113,1,0,0:0:0:0:
196,292,166217,1,0,0:0:0:0:
232,268,166322,1,0,0:0:0:0:
56,308,166530,1,0,0:0:0:0:
56,308,166738,5,0,3:0:0:0:
104,132,166947,2,0,P|112:172|112:196,1,52.5,4|0,0:0|0:0,0:0:0:0:
56,308,167155,2,0,P|48:268|48:244,1,52.5
208,144,167363,1,0,0:0:0:0:
212,172,167467,1,2,0:0:0:0:
208,200,167572,2,0,P|220:272|224:280,1,52.5,0|2,0:0|0:0,0:0:0:0:
304,184,167780,2,0,P|292:112|288:104,1,52.5
228,336,167988,1,0,0:0:0:0:
268,328,168092,1,0,0:0:0:0:
308,320,168197,1,0,0:0:0:0:
348,312,168301,1,0,0:0:0:0:
388,300,168405,5,0,3:0:0:0:
336,236,168613,1,0,0:0:0:0:
336,236,168717,1,0,0:0:0:0:
336,236,168822,1,0,0:0:0:0:
380,164,169030,1,8,0:0:0:0:
432,232,169238,1,0,0:0:0:0:
288,168,169447,1,0,0:0:0:0:
256,176,169551,1,0,0:0:0:0:
224,184,169655,2,0,L|164:196,1,52.5
32,140,169863,2,0,L|92:128,1,52.5
88,216,170072,5,0,3:0:0:0:
152,268,170280,1,4,0:0:0:0:
164,184,170488,1,0,0:0:0:0:
164,184,170592,1,0,0:0:0:0:
164,184,170697,1,0,0:0:0:0:
332,272,170905,1,0,0:0:0:0:
332,272,171009,1,2,0:0:0:0:
332,272,171113,1,0,0:0:0:0:
256,308,171322,1,0,0:0:0:0:
172,304,171530,1,0,0:0:0:0:
99,263,171738,6,0,P|48:262|5:291,1,105,8|0,3:0|0:0,0:0:0:0:
176,184,172155,1,0,0:0:0:0:
227,185,172259,1,0,0:0:0:0:
270,156,172363,1,0,0:0:0:0:
348,184,172572,1,0,0:0:0:0:
340,100,172780,1,0,0:0:0:0:
340,100,172884,1,0,0:0:0:0:
340,100,172988,1,0,0:0:0:0:
304,224,173197,1,0,0:0:0:0:
374,326,173405,6,0,P|408:287|416:236,1,105,0|4,0:0|0:0,0:0:0:0:
340,100,173822,2,0,P|306:139|298:190,1,105
184,228,174238,1,0,0:0:0:0:
156,220,174342,1,2,0:0:0:0:
112,212,174447,1,0,0:0:0:0:
88,224,174551,1,0,0:0:0:0:
64,212,174655,5,0,0:0:0:0:
48,212,174759,1,0,0:0:0:0:
32,208,174863,1,0,0:0:0:0:
20,208,174967,1,0,0:0:0:0:
4,204,175072,5,4,3:3:0:0:
180,208,187988,6,0,B|244:220|284:184|284:184|312:188|312:188|368:160|432:208,1,236.250009012223,0|0,3:0|0:0,0:0:0:0:
356,264,188405,2,0,L|304:360,1,78.7500030040742,0|0,3:0|0:0,0:0:0:0:
212,124,188822,2,0,L|264:28,1,78.7500030040742
249,54,189238,1,0,0:0:0:0:
80,136,189447,1,4,3:0:0:0:
356,264,189655,1,4,3:0:0:0:
112,244,189863,2,0,B|89:267|83:300|83:300|73:283,1,78.7500030040742,4|0,3:0|0:0,0:0:0:0:
165,303,190280,5,0,0:0:0:0:
360,340,190488,1,8,1:0:0:0:
264,292,190697,1,0,0:0:0:0:
352,196,190905,2,0,L|364:256,1,39.3750015020371
448,308,191113,1,0,0:0:0:0:
448,308,191217,2,0,L|436:248,1,39.3750015020371
352,196,191426,1,0,0:0:0:0:
352,196,191530,1,0,0:0:0:0:
140,80,191738,6,0,P|200:100|252:96,1,78.7500030040742,0|0,3:0|0:0,0:0:0:0:
214,100,192155,1,0,0:0:0:0:
214,100,192363,1,0,0:0:0:0:
288,56,192572,1,0,0:0:0:0:
96,140,192780,1,4,3:0:0:0:
264,200,192988,1,4,3:0:0:0:
428,152,193197,2,0,P|464:120|476:84,1,78.7500030040742,4|0,3:0|0:0,0:0:0:0:
474,92,193613,5,0,0:0:0:0:
348,208,193822,2,0,L|360:304,1,78.7500030040742,8|0,1:0|0:0,0:0:0:0:
252,324,194238,2,0,L|176:328,1,52.5000020027161
176,296,194516,1,0,0:0:0:0:
100,316,194655,2,0,L|32:300,1,52.5000020027161
36,264,194933,1,0,0:0:0:0:
88,164,195072,6,0,L|152:220,1,78.7500030040742,0|0,3:0|0:0,0:0:0:0:
172,212,195488,1,0,0:0:0:0:
196,200,195697,1,0,0:0:0:0:
264,176,195905,1,0,0:0:0:0:
348,312,196113,1,4,3:0:0:0:
416,168,196322,1,4,3:0:0:0:
328,40,196530,1,4,3:0:0:0:
124,120,197155,5,0,0:0:0:0:
224,272,197572,2,0,L|260:212,1,39.3750015020371
284,168,197780,1,0,0:0:0:0:
312,304,197884,2,0,L|336:256,1,39.3750015020371
364,192,198092,1,0,0:0:0:0:
364,192,198197,1,0,0:0:0:0:
184,80,198405,6,0,P|120:104|52:92,2,105
184,80,199030,1,0,0:0:0:0:
100,240,199238,1,2,0:3:0:0:
88,228,199342,1,2,0:3:0:0:
80,212,199447,1,2,0:3:0:0:
76,196,199551,1,2,0:3:0:0:
80,180,199655,1,2,0:3:0:0:
252,284,199863,1,0,0:0:0:0:
292,308,199967,1,0,0:0:0:0:
336,320,200072,6,0,P|400:320|452:288,2,105,0|2|2,0:0|0:3|0:3,0:0:0:0:
376,116,200697,1,2,0:3:0:0:
184,176,200905,2,2,L|264:176,1,52.5,2|2,0:3|0:3,0:3:0:0:
376,116,201113,2,2,L|448:116,1,52.5,2|2,0:3|0:3,0:3:0:0:
96,144,201322,2,2,L|110:188,2,35,2|2|2,0:3|0:3|0:3,0:3:0:0:
280,288,201530,2,2,L|266:244,2,35,2|2|2,0:3|0:3|0:3,0:3:0:0:
176,348,201738,1,0,0:0:0:0:
416,264,201947,2,0,B|448:244|456:216|456:216|436:200,1,78.7500030040742,8|0,0:0|0:0,0:0:0:0:
176,348,202155,1,8,0:0:0:0:
384,352,202363,1,0,0:0:0:0:
384,144,202572,1,0,0:0:0:0:
224,224,202780,2,0,P|284:216|320:196,1,78.7500030040742,8|0,0:0|0:0,0:0:0:0:
176,128,202988,1,8,0:0:0:0:
416,228,203197,1,0,0:0:0:0:
132,300,203405,6,0,P|224:324|296:308,1,157.500006008148,0|8,0:0|0:0,0:0:0:0:
328,284,203717,2,0,L|348:200,1,78.7500030040742
192,168,204030,1,8,0:0:0:0:
88,308,204238,2,0,B|20:308|20:308|40:292,1,78.7500030040742,8|0,0:0|0:0,0:0:0:0:
192,168,204447,2,0,B|260:168|260:168|240:184,1,78.7500030040742,8|0,0:0|0:0,0:0:0:0:
204,348,204655,1,8,0:0:0:0:
196,336,204759,1,0,0:0:0:0:
192,320,204863,1,0,0:0:0:0:
192,304,204967,1,0,0:0:0:0:
196,292,205072,5,0,0:0:0:0:
296,88,205280,1,8,0:0:0:0:
312,116,205384,1,0,0:0:0:0:
312,144,205488,1,8,0:0:0:0:
116,168,205697,1,0,0:0:0:0:
296,88,205905,2,0,P|384:84|400:92,1,78.7500030040742
116,168,206113,1,8,0:0:0:0:
116,168,206217,1,0,0:0:0:0:
116,168,206322,1,8,0:0:0:0:
300,216,206530,1,0,0:0:0:0:
444,128,206738,6,0,L|456:208,1,78.7500030040742
300,216,206947,1,8,0:0:0:0:
300,216,207051,1,0,0:0:0:0:
300,216,207155,1,0,0:0:0:0:
328,316,207363,1,8,0:0:0:0:
328,316,207780,2,0,P|216:328|192:320,1,78.7500030040742
104,248,207988,2,0,P|216:236|240:244,1,78.7500030040742
251,332,208197,2,0,B|192:340,1,39.3750015020371
20,264,208405,6,0,P|32:320|48:344,1,78.7500030040742,8|0,0:3|0:0,0:0:0:0:
60,176,208613,1,8,0:0:0:0:
60,176,208717,1,0,0:0:0:0:
60,176,208822,1,8,0:0:0:0:
168,112,209030,1,0,0:0:0:0:
280,168,209238,1,0,0:0:0:0:
396,116,209447,1,8,0:0:0:0:
396,116,209551,1,0,0:0:0:0:
396,116,209655,1,0,0:0:0:0:
368,336,209863,2,0,P|296:268|288:228,1,105,8|0,0:0|0:0,0:0:0:0:
408,264,210072,6,0,P|440:296|452:312,1,52.5
124,304,210280,2,0,P|172:240|152:332,1,236.250009012223
188,88,210697,2,0,P|140:152|160:60,1,236.250009012223,8|0,0:0|0:0,0:0:0:0:
311,348,211113,2,0,P|322:310|316:268,1,78.7500030040742
187,88,211322,2,0,P|182:204|242:303,1,236.250009012223
456,160,211738,5,8,0:3:0:0:
248,188,211947,1,0,0:0:0:0:
325,116,212051,2,0,P|344:82|352:43,1,78.7500030040742
100,176,212259,1,0,0:0:0:0:
100,175,212363,2,0,P|94:214|98:254,1,78.7500030040742
168,316,212572,1,0,0:0:0:0:
324,336,212780,1,0,0:0:0:0:
324,336,212884,1,0,0:0:0:0:
324,336,212988,1,0,0:0:0:0:
440,284,213197,1,0,0:0:0:0:
220,224,213405,6,0,P|248:168|252:132,1,78.7500030040742
160,56,213613,1,8,0:0:0:0:
136,88,213717,1,0,0:0:0:0:
72,144,213822,5,8,0:0:0:0:
92,172,213926,1,0,0:0:0:0:
72,212,214030,1,8,0:0:0:0:
124,188,214134,1,0,0:0:0:0:
148,204,214238,5,8,0:0:0:0:
224,192,214342,1,0,0:0:0:0:
256,184,214447,1,8,0:0:0:0:
328,220,214551,1,0,0:0:0:0:
356,232,214655,6,0,L|368:168,1,52.5000020027161,8|0,0:0|0:0,0:0:0:0:
392,224,214794,2,0,L|388:280,1,52.5000020027161,0|8,0:0|0:0,0:0:0:0:
432,236,214933,2,0,L|428:172,1,52.5000020027161
460,308,215072,1,0,0:0:0:0:
256,192,215141,12,0,217294,0:0:0:0:
256,192,217363,12,0,218509,0:0:0:0:
84,152,218611,5,0,0:0:0:0:
112,180,218694,1,0,0:0:0:0:
156,188,218777,5,0,0:0:0:0:
196,180,218861,1,0,0:0:0:0:
224,144,218944,2,0,P|268:148|304:132,1,52.5
384,256,219111,2,0,P|340:252|304:268,1,52.5
156,16,219277,1,0,0:0:0:0:
84,72,219361,1,0,0:0:0:0:
52,156,219444,1,0,0:0:0:0:
60,244,219527,1,0,0:0:0:0:
100,324,219611,1,0,0:0:0:0:
172,376,219707,1,0,0:0:0:0:
260,292,219900,1,8,0:0:0:0:
160,152,220094,2,0,B|180:240|180:240|220:192,1,105
260,292,220481,1,0,0:0:0:0:
368,164,220674,1,8,0:0:0:0:
400,192,220771,1,0,0:0:0:0:
428,180,220868,1,8,0:0:0:0:
440,184,220965,1,0,0:0:0:0:
444,180,221061,1,0,0:0:0:0:
408,312,221255,1,0,0:0:0:0:
256,168,221448,5,8,0:0:0:0:
256,168,221642,1,0,0:0:0:0:
132,136,221836,2,0,L|108:204,1,52.5
108,336,222029,1,0,0:0:0:0:
104,320,222126,1,0,0:0:0:0:
108,304,222223,1,8,0:0:0:0:
116,292,222319,1,0,0:0:0:0:
124,280,222416,1,8,0:0:0:0:
296,244,222610,1,0,0:0:0:0:
296,244,222803,5,0,0:0:0:0:
400,288,222997,1,8,0:0:0:0:
408,312,223093,1,0,0:0:0:0:
408,336,223190,1,0,0:0:0:0:
380,176,223384,1,0,0:0:0:0:
120,108,223577,1,0,0:0:0:0:
148,96,223674,1,0,0:0:0:0:
192,104,223771,1,8,0:0:0:0:
208,112,223868,1,0,0:0:0:0:
224,108,223965,1,8,0:0:0:0:
112,208,224158,1,0,0:0:0:0:
248,300,224352,5,0,0:0:0:0:
408,188,224545,1,0,0:0:0:0:
372,208,224642,1,0,0:0:0:0:
304,208,224739,1,0,0:0:0:0:
96,120,224932,1,0,0:0:0:0:
132,100,225029,1,0,0:0:0:0:
200,100,225126,1,0,0:0:0:0:
244,132,225223,1,0,0:0:0:0:
296,120,225319,2,0,L|368:120,1,52.5
176,204,225513,1,0,0:0:0:0:
296,120,225707,1,0,0:0:0:0:
256,304,225900,5,8,3:0:0:0:
256,304,225997,1,8,3:0:0:0:
256,304,226094,1,8,3:0:0:0:
