osu file format v14

[General]
AudioFilename: audio.mp3
AudioLeadIn: 0
PreviewTime: 121738
Countdown: 0
SampleSet: Soft
StackLeniency: 0.7
Mode: 0
LetterboxInBreaks: 0
WidescreenStoryboard: 1

[Editor]
DistanceSpacing: 1.4
BeatDivisor: 4
GridSize: 4
TimelineZoom: 5.799997

[Metadata]
Title:Oedo Julia-Night
TitleUnicode:大江户Julia-Night
Artist:Mitchie M feat.Hatsune Miku&Kaito
ArtistUnicode:Mitchie M feat.Hatsune Miku&Kaito
Creator:_lai
Version:Insane
Source:
Tags:VOCALOID 10th Hatsune Miku KAITO Mitchie M 初音ミク誕生祭2017
BeatmapID:1416052
BeatmapSetID:665630

[Difficulty]
HPDrainRate:6
CircleSize:4
OverallDifficulty:8
ApproachRate:9
SliderMultiplier:2.1
SliderTickRate:1

[Events]
//Background and Video events
0,0,"map.jpg",0,0
Video,0,"video.avi"
//Break Periods
//Storyboard Layer 0 (Background)
//Storyboard Layer 1 (Fail)
//Storyboard Layer 2 (Pass)
//Storyboard Layer 3 (Foreground)
//Storyboard Sound Samples

[TimingPoints]
277,352.941176470588,4,3,1,60,1,0
483,416.666666666667,4,2,1,60,1,0
691,-100,4,2,1,60,0,0
5072,416.666666666667,4,2,1,60,1,0
31322,-100,4,2,1,60,0,0
35072,-66.6666666666667,4,2,1,60,0,0
38405,-100,4,2,1,60,0,0
41738,-66.6666666666667,4,2,1,60,0,0
45072,-100,4,2,1,60,0,0
60072,-66.6666666666667,4,2,1,60,0,1
86738,-133.333333333333,4,2,1,60,0,0
92884,-133.333333333333,4,2,4,60,0,0
92988,-66.6666666666667,4,2,4,60,0,0
93405,-100,4,2,1,10,0,0
218611,333.333333333333,4,2,1,50,1,0
219707,387.096774193548,5,2,1,50,1,0

[HitObjects]
76,80,277,5,0,0:0:0:0:
100,108,365,1,0,0:0:0:0:
104,148,483,2,0,P|141:183|192:185,1,105
224,168,795,1,0,0:0:0:0:
224,168,899,2,0,P|244:216|216:292,1,105
196,268,1212,1,0,0:0:0:0:
234,266,1316,1,0,0:0:0:0:
268,280,1420,1,0,0:0:0:0:
292,308,1524,1,0,0:0:0:0:
364,300,1733,1,0,0:0:0:0:
328,300,1837,1,0,0:0:0:0:
292,308,1941,1,0,0:0:0:0:
260,328,2045,1,0,0:0:0:0:
236,356,2149,1,0,0:0:0:0:
256,192,2253,12,0,4858,0:0:0:0:
139,159,5072,6,0,P|162:173|188:175,1,52.5
212,148,5280,1,0,0:0:0:0:
188,175,5384,1,0,0:0:0:0:
180,212,5488,2,0,P|212:304|240:316,1,105
248,296,5801,1,0,0:0:0:0:
212,304,5905,1,0,0:0:0:0:
184,328,6009,1,0,0:0:0:0:
148,316,6113,1,0,0:0:0:0:
112,320,6217,1,0,0:0:0:0:
84,344,6322,1,0,0:0:0:0:
52,328,6426,1,0,0:0:0:0:
52,328,6530,2,0,P|72:276|44:224,1,105
16,232,6842,1,0,0:0:0:0:
52,236,6947,1,0,0:0:0:0:
84,220,7051,1,0,0:0:0:0:
100,187,7155,2,0,P|106:137|78:93,1,105
116,96,7467,1,0,0:0:0:0:
148,112,7572,1,0,0:0:0:0:
184,104,7676,1,0,0:0:0:0:
212,80,7780,2,0,P|232:172|264:196,1,105
264,200,8092,1,0,0:0:0:0:
296,216,8197,1,0,0:0:0:0:
332,220,8301,1,0,0:0:0:0:
368,212,8405,1,0,0:0:0:0:
400,280,8613,1,0,0:0:0:0:
428,256,8717,1,0,0:0:0:0:
440,220,8822,1,0,0:0:0:0:
436,184,8926,1,0,0:0:0:0:
416,156,9030,1,0,0:0:0:0:
384,140,9134,1,0,0:0:0:0:
348,132,9238,1,0,0:0:0:0:
384,140,9342,1,0,0:0:0:0:
416,124,9447,1,0,0:0:0:0:
436,92,9551,1,0,0:0:0:0:
436,56,9655,1,0,0:0:0:0:
412,28,9759,1,0,0:0:0:0:
412,28,9863,2,0,P|360:8|296:28,1,105
276,28,10176,1,0,0:0:0:0:
247,52,10280,2,0,P|238:76|218:92,1,52.5
184,80,10488,2,0,P|209:125|210:177,1,105
184,204,10801,1,0,0:0:0:0:
151,223,10905,2,0,P|140:200|136:172,1,52.5
151,223,11113,1,0,0:0:0:0:
179,247,11217,1,0,0:0:0:0:
215,255,11322,1,0,0:0:0:0:
251,243,11426,1,0,0:0:0:0:
279,219,11530,1,0,0:0:0:0:
251,243,11634,1,0,0:0:0:0:
244,280,11738,2,0,P|244:320|256:280,1,105
251,243,12051,1,0,0:0:0:0:
280,220,12155,1,0,0:0:0:0:
316,212,12259,1,0,0:0:0:0:
352,220,12363,1,0,0:0:0:0:
372,188,12467,1,0,0:0:0:0:
408,176,12572,1,0,0:0:0:0:
444,176,12676,1,0,0:0:0:0:
408,176,12780,1,0,0:0:0:0:
380,152,12884,1,0,0:0:0:0:
376,116,12988,1,0,0:0:0:0:
400,88,13092,1,0,0:0:0:0:
436,84,13197,2,0,P|468:96|488:136,1,52.5
444,176,13405,1,0,0:0:0:0:
443,176,13509,2,0,P|417:174|393:164,1,52.5
356,156,13717,1,0,0:0:0:0:
320,152,13822,2,0,P|280:156|256:168,1,52.5
236,180,14030,1,0,0:0:0:0:
244,144,14134,2,0,P|260:104|260:76,1,52.5
244,60,14342,1,0,0:0:0:0:
260,94,14447,2,0,P|300:104|336:96,1,52.5
360,44,14655,1,0,0:0:0:0:
380,72,14759,1,0,0:0:0:0:
388,108,14863,1,0,0:0:0:0:
376,144,14967,1,0,0:0:0:0:
356,176,15072,2,0,L|296:184,1,52.5
284,152,15280,1,0,0:0:0:0:
280,188,15384,1,0,0:0:0:0:
264,220,15488,2,0,L|172:240,1,52.5
188,204,15697,1,0,0:0:0:0:
172,236,15801,2,0,L|92:264,1,52.5
88,244,16009,1,0,0:0:0:0:
80,280,16113,1,0,0:0:0:0:
72,316,16217,1,0,0:0:0:0:
36,328,16322,1,0,0:0:0:0:
72,316,16426,1,0,0:0:0:0:
108,320,16530,1,0,0:0:0:0:
140,340,16634,1,0,0:0:0:0:
172,320,16738,2,0,L|212:308,7,26.25
216,316,17155,2,0,L|248:324,3,26.25
260,320,17363,1,0,0:0:0:0:
292,300,17467,1,0,0:0:0:0:
316,328,17572,1,0,0:0:0:0:
352,344,17676,1,0,0:0:0:0:
388,344,17780,1,0,0:0:0:0:
424,332,17884,1,0,0:0:0:0:
452,308,17988,1,0,0:0:0:0:
464,272,18092,1,0,0:0:0:0:
460,236,18197,2,0,L|424:152,1,52.5
388,136,18405,1,0,0:0:0:0:
316,116,18613,1,0,0:0:0:0:
280,124,18717,1,0,0:0:0:0:
244,120,18822,1,0,0:0:0:0:
180,156,19030,1,0,0:0:0:0:
172,120,19134,1,0,0:0:0:0:
184,84,19238,1,0,0:0:0:0:
220,76,19342,1,0,0:0:0:0:
184,84,19447,1,0,0:0:0:0:
148,84,19551,1,0,0:0:0:0:
116,68,19655,2,0,P|68:60|132:36,1,157.5
112,72,20072,1,0,0:0:0:0:
112,72,20176,2,0,P|88:144|44:136,1,105
71,146,20488,2,0,L|88:256,1,105
120,268,20801,1,0,0:0:0:0:
84,280,20905,1,0,0:0:0:0:
156,260,21113,1,0,0:0:0:0:
152,332,21322,1,0,0:0:0:0:
164,296,21426,1,0,0:0:0:0:
156,260,21530,1,0,0:0:0:0:
148,224,21634,1,0,0:0:0:0:
160,188,21738,1,0,0:0:0:0:
204,128,21947,1,0,0:0:0:0:
168,120,22051,1,0,0:0:0:0:
132,124,22155,1,0,0:0:0:0:
72,164,22363,1,0,0:0:0:0:
64,128,22467,1,0,0:0:0:0:
68,92,22572,1,0,0:0:0:0:
92,64,22676,1,0,0:0:0:0:
128,52,22780,1,0,0:0:0:0:
164,60,22884,1,0,0:0:0:0:
192,84,22988,1,0,0:0:0:0:
204,120,23092,1,0,0:0:0:0:
204,119,23197,2,0,P|200:148|216:176,1,52.5
283,178,23405,1,0,0:0:0:0:
283,178,23509,2,0,P|276:203|259:224,1,52.5
280,104,23717,1,0,0:0:0:0:
279,104,23822,2,0,P|305:106|328:117,1,52.5
360,184,24030,1,0,0:0:0:0:
388,160,24134,1,0,0:0:0:0:
400,124,24238,1,0,0:0:0:0:
392,88,24342,1,0,0:0:0:0:
400,124,24447,1,0,0:0:0:0:
436,132,24551,1,0,0:0:0:0:
464,112,24655,1,0,0:0:0:0:
464,76,24759,1,0,0:0:0:0:
436,52,24863,1,0,0:0:0:0:
400,60,24967,1,0,0:0:0:0:
388,96,25072,2,0,P|360:100|336:92,1,52.5
268,71,25280,2,0,P|264:100|272:124,1,52.5
220,176,25488,2,0,P|196:132|196:64,1,105
120,63,25801,2,0,P|116:88|117:116,1,52.5
140,184,26009,2,0,P|156:212|168:228,1,52.5
240,248,26217,1,0,0:0:0:0:
240,248,26322,2,0,P|252:268|240:244,1,157.5
240,248,26738,1,0,0:0:0:0:
240,248,26842,2,0,P|272:284|331:270,1,105
348,208,27155,2,0,P|392:248|392:300,1,105
380,324,27467,1,0,0:0:0:0:
348,344,27572,1,0,0:0:0:0:
412,308,27780,1,0,0:0:0:0:
472,352,27988,1,0,0:0:0:0:
436,340,28092,1,0,0:0:0:0:
412,308,28197,1,0,0:0:0:0:
404,272,28301,1,0,0:0:0:0:
416,236,28405,2,0,P|416:209|428:186,1,52.5
468,124,28613,2,0,P|440:112|412:112,1,52.5
359,155,28822,2,0,P|344:108|369:58,1,105
304,24,29134,1,0,0:0:0:0:
304,24,29238,2,0,P|276:80|276:96,1,52.5
208,40,29447,2,0,L|120:60,1,52.5
88,28,29655,2,0,L|76:100,1,52.5
16,120,29863,2,0,L|48:216,1,52.5
96,260,30072,1,0,0:0:0:0:
304,332,30280,1,0,0:0:0:0:
268,116,30488,1,0,0:0:0:0:
188,312,31322,2,0,L|216:240,1,52.5
356,100,31738,1,0,0:0:0:0:
344,136,31842,1,0,0:0:0:0:
356,172,31947,1,0,0:0:0:0:
392,184,32051,1,0,0:0:0:0:
356,172,32155,1,0,0:0:0:0:
332,200,32259,1,0,0:0:0:0:
344,236,32363,1,0,0:0:0:0:
380,248,32467,1,0,0:0:0:0:
344,236,32572,1,0,0:0:0:0:
312,252,32676,1,0,0:0:0:0:
296,284,32780,1,0,0:0:0:0:
264,268,32884,1,0,0:0:0:0:
256,232,32988,1,2,0:0:0:0:
272,200,33092,1,0,0:0:0:0:
248,172,33197,2,0,L|204:176,3,26.25
208,160,33405,2,0,L|148:172,1,52.5
88,192,33613,2,0,P|103:224|124:236,1,52.5
192,236,33822,2,0,P|184:268|168:288,1,52.5
104,308,34030,2,0,P|116:331|135:349,1,52.5
208,348,34238,1,0,0:0:0:0:
236,324,34342,1,0,0:0:0:0:
256,292,34447,1,0,0:0:0:0:
264,256,34551,1,0,0:0:0:0:
288,284,34655,1,0,0:0:0:0:
324,292,34759,1,0,0:0:0:0:
360,288,34863,2,0,L|384:280,3,26.25
332,220,35072,2,0,P|303:189|256:180,1,78.7500030040742
220,200,35280,1,0,0:0:0:0:
191,248,35384,2,0,P|201:210|190:173,1,78.7500030040742
144,144,35592,1,0,0:0:0:0:
96,112,35697,2,0,P|168:104|180:88,1,78.7500030040742
280,96,35905,1,0,0:0:0:0:
332,116,36009,1,0,0:0:0:0:
372,156,36113,1,0,0:0:0:0:
396,208,36217,1,0,0:0:0:0:
392,264,36322,2,0,B|344:288|304:344|304:344|328:264,1,157.500006008148
220,252,36738,2,0,P|238:217|271:197,1,78.7500030040742
328,208,36947,1,0,0:0:0:0:
376,236,37051,2,0,P|372:168|392:128,1,78.7500030040742
408,116,37259,1,0,0:0:0:0:
460,96,37363,2,0,P|392:84|364:60,1,78.7500030040742
348,36,37572,1,0,0:0:0:0:
316,80,37676,2,0,P|280:36|240:112,1,157.500006008148
212,148,37988,2,0,P|178:208|160:112,1,236.250009012223
212,148,38405,1,0,0:0:0:0:
198,196,38509,1,0,0:0:0:0:
150,208,38613,1,0,0:0:0:0:
116,172,38717,1,0,0:0:0:0:
131,124,38821,1,0,0:0:0:0:
100,140,38926,1,0,0:0:0:0:
64,132,39030,1,0,0:0:0:0:
36,108,39134,1,0,0:0:0:0:
28,72,39238,1,0,0:0:0:0:
36,108,39342,1,0,0:0:0:0:
24,144,39447,1,0,0:0:0:0:
4,176,39551,1,0,0:0:0:0:
32,200,39655,1,0,0:0:0:0:
60,224,39759,1,0,0:0:0:0:
72,260,39863,2,0,L|80:308,3,26.25
92,296,40072,2,0,P|112:316|156:320,1,52.5
200,288,40280,2,0,P|180:264|148:252,1,52.5
95,224,40488,2,0,P|112:200|130:187,1,52.5
167,123,40697,2,0,P|189:138|201:161,1,52.5
244,224,40905,1,0,0:0:0:0:
268,196,41009,1,0,0:0:0:0:
276,160,41113,1,0,0:0:0:0:
264,124,41217,1,0,0:0:0:0:
276,160,41322,1,0,0:0:0:0:
308,176,41426,1,0,0:0:0:0:
344,188,41530,2,0,L|376:188,3,26.25
312,260,41738,2,0,L|408:264,1,78.7500030040742
428,224,41947,1,0,0:0:0:0:
480,240,42051,2,0,P|472:308|488:332,1,78.7500030040742
428,344,42259,1,0,0:0:0:0:
376,324,42363,2,0,B|360:364|360:364|312:352,1,78.7500030040742
220,316,42572,1,0,0:0:0:0:
172,288,42676,1,0,0:0:0:0:
116,288,42780,1,0,0:0:0:0:
64,308,42884,1,0,0:0:0:0:
24,344,42988,2,0,L|52:176,1,157.500006008148
120,104,43405,1,0,0:0:0:0:
164,140,43509,1,0,0:0:0:0:
220,144,43613,1,0,0:0:0:0:
272,128,43717,1,0,0:0:0:0:
303,84,43822,2,0,L|400:100,1,78.7500030040742
416,140,44030,1,0,0:0:0:0:
412,196,44134,2,0,P|444:180|424:204,1,78.7500030040742
468,268,44342,2,0,P|486:286|496:304,1,39.3750015020371
468,268,44447,2,0,P|448:296|432:304,1,39.3750015020371
468,267,44551,2,0,P|448:264|432:254,1,39.3750015020371
468,268,44655,2,0,P|380:260|432:368,1,236.250009012223
352,364,45072,2,0,P|296:372|248:344,1,105
188,316,45488,2,0,P|225:280|279:280,1,105
292,208,45905,1,0,0:0:0:0:
328,220,46009,1,0,0:0:0:0:
348,252,46113,1,0,0:0:0:0:
352,288,46217,1,0,0:0:0:0:
340,324,46322,1,0,0:0:0:0:
372,308,46426,1,0,0:0:0:0:
400,288,46530,1,0,0:0:0:0:
420,260,46634,1,0,0:0:0:0:
436,228,46738,2,0,L|456:160,2,52.5
400,216,47051,1,0,0:0:0:0:
364,204,47155,2,0,L|300:208,1,52.5
276,204,47363,1,0,0:0:0:0:
240,208,47467,1,0,0:0:0:0:
212,184,47572,1,0,0:0:0:0:
212,148,47676,1,0,0:0:0:0:
240,124,47780,1,0,0:0:0:0:
276,128,47884,1,0,0:0:0:0:
296,156,47988,1,0,0:0:0:0:
288,192,48092,1,0,0:0:0:0:
260,220,48197,1,0,0:0:0:0:
224,232,48301,1,0,0:0:0:0:
188,232,48405,2,0,P|156:268|192:256,1,105
188,232,48717,1,0,0:0:0:0:
172,196,48822,1,0,0:0:0:0:
148,168,48926,1,0,0:0:0:0:
116,152,49030,1,0,0:0:0:0:
80,148,49134,1,0,0:0:0:0:
44,152,49238,1,0,0:0:0:0:
76,172,49342,1,0,0:0:0:0:
112,172,49447,1,0,0:0:0:0:
140,152,49551,1,0,0:0:0:0:
172,132,49655,1,0,0:0:0:0:
208,136,49759,1,0,0:0:0:0:
240,156,49863,1,0,0:0:0:0:
248,192,49967,1,0,0:0:0:0:
240,228,50072,1,0,0:0:0:0:
212,252,50176,1,0,0:0:0:0:
176,256,50280,1,0,0:0:0:0:
140,260,50384,1,0,0:0:0:0:
108,276,50488,1,0,0:0:0:0:
84,304,50592,1,0,0:0:0:0:
120,296,50697,1,0,0:0:0:0:
136,264,50801,1,0,0:0:0:0:
148,228,50905,2,0,L|176:144,1,52.5
200,112,51113,2,0,P|140:108|112:120,1,52.5
88,148,51322,2,0,P|76:116|84:72,1,52.5
51,28,51530,2,0,P|80:24|104:28,1,52.5
119,99,51738,2,0,P|113:49|152:4,1,105
176,28,52051,1,0,0:0:0:0:
204,52,52155,1,0,0:0:0:0:
240,52,52259,1,0,0:0:0:0:
272,36,52363,1,0,0:0:0:0:
288,108,52572,1,0,0:0:0:0:
320,92,52676,1,0,0:0:0:0:
340,60,52780,1,0,0:0:0:0:
344,24,52884,1,0,0:0:0:0:
340,60,52988,1,0,0:0:0:0:
360,92,53092,1,0,0:0:0:0:
396,104,53197,1,0,0:0:0:0:
432,92,53301,1,0,0:0:0:0:
452,60,53405,1,0,0:0:0:0:
416,72,53509,1,0,0:0:0:0:
396,104,53613,1,0,0:0:0:0:
392,140,53717,1,0,0:0:0:0:
400,176,53822,1,0,0:0:0:0:
364,172,53926,1,0,0:0:0:0:
400,176,54030,1,0,0:0:0:0:
432,192,54134,1,0,0:0:0:0:
452,224,54238,1,0,0:0:0:0:
464,260,54342,1,0,0:0:0:0:
460,296,54447,1,0,0:0:0:0:
444,328,54551,1,0,0:0:0:0:
472,352,54655,1,0,0:0:0:0:
444,328,54759,1,0,0:0:0:0:
408,320,54863,1,0,0:0:0:0:
372,316,54967,1,0,0:0:0:0:
335,319,55072,2,0,B|280:328|280:328|231:314,1,105
196,304,55384,1,0,0:0:0:0:
220,276,55488,1,0,0:0:0:0:
200,244,55592,1,0,0:0:0:0:
164,244,55697,1,0,0:0:0:0:
148,276,55801,1,0,0:0:0:0:
164,308,55905,1,0,0:0:0:0:
180,276,56009,1,0,0:0:0:0:
164,244,56113,1,0,0:0:0:0:
136,220,56217,1,0,0:0:0:0:
128,184,56322,1,0,0:0:0:0:
132,148,56426,1,0,0:0:0:0:
164,120,56530,1,0,0:0:0:0:
200,112,56634,1,0,0:0:0:0:
232,128,56738,2,0,P|268:160|300:164,1,52.5
344,164,56947,2,0,P|320:216|308:224,1,52.5
256,240,57155,2,0,P|268:264|288:280,1,52.5
360,280,57363,2,0,P|348:320|320:344,1,52.5
272,352,57572,1,0,0:0:0:0:
176,344,57710,2,0,L|128:352,3,35
272,352,57988,1,0,0:0:0:0:
152,264,58197,1,0,0:0:0:0:
284,200,58405,1,0,0:0:0:0:
284,200,58613,1,0,0:0:0:0:
180,96,58822,1,0,0:0:0:0:
180,96,59030,1,0,0:0:0:0:
44,152,59238,1,0,0:0:0:0:
88,180,59342,1,0,0:0:0:0:
139,191,59446,1,0,0:0:0:0:
190,184,59550,1,0,0:0:0:0:
241,169,59654,1,0,0:0:0:0:
293,166,59758,1,0,0:0:0:0:
344,176,59862,1,0,0:0:0:0:
344,176,59863,2,0,L|344:136,1,26.25
344,176,59967,2,0,L|372:160,1,26.25
343,176,60072,2,0,P|416:192|468:288,1,157.500006008148
348,296,60384,1,0,0:0:0:0:
348,296,60488,1,0,0:0:0:0:
176,360,60697,1,0,0:0:0:0:
132,144,60905,1,0,0:0:0:0:
176,124,61009,1,0,0:0:0:0:
224,124,61113,1,0,0:0:0:0:
268,140,61217,1,0,0:0:0:0:
304,184,61322,1,0,0:0:0:0:
80,272,61530,2,0,P|55:267|16:228,1,78.7500030040742
28,120,61738,1,0,0:0:0:0:
228,212,61947,1,0,0:0:0:0:
176,232,62051,1,0,0:0:0:0:
124,212,62155,1,0,0:0:0:0:
348,220,62363,1,0,0:0:0:0:
236,120,62572,2,0,P|296:128|332:92,1,78.7500030040742
348,220,62780,2,0,P|356:160|320:124,1,78.7500030040742
452,108,62988,2,0,P|392:100|356:136,1,78.7500030040742
332,8,63197,2,0,P|324:68|360:104,1,78.7500030040742
331,81,63405,2,0,P|254:94|256:180,1,157.500006008148
280,204,63717,1,0,0:0:0:0:
224,204,63822,1,0,0:0:0:0:
444,204,64030,1,0,0:0:0:0:
256,320,64238,2,0,L|104:336,1,78.7500030040742
68,340,64447,1,0,0:0:0:0:
68,340,64551,1,0,0:0:0:0:
68,340,64655,1,0,0:0:0:0:
148,136,64863,1,0,0:0:0:0:
367,131,65072,2,0,P|375:170|367:208,1,78.7500030040742
280,272,65280,2,0,P|296:172|304:164,1,78.7500030040742
352,280,65488,1,0,0:0:0:0:
132,256,65697,1,0,0:0:0:0:
328,156,65905,1,0,0:0:0:0:
228,352,66113,1,0,0:0:0:0:
192,132,66322,1,0,0:0:0:0:
140,120,66426,1,0,0:0:0:0:
132,64,66530,1,0,0:0:0:0:
176,32,66634,1,0,0:0:0:0:
228,52,66738,2,0,P|288:80|336:76,1,78.7500030040742
376,160,66947,1,0,0:0:0:0:
376,160,67051,1,0,0:0:0:0:
376,160,67155,1,0,0:0:0:0:
180,264,67363,1,0,0:0:0:0:
376,160,67572,2,0,P|480:196|492:256,1,157.500006008148
492,232,67884,1,0,0:0:0:0:
492,232,67988,1,0,0:0:0:0:
284,160,68197,1,0,0:0:0:0:
220,372,68405,2,0,P|288:296|284:212,1,157.500006008148
284,160,68717,1,0,0:0:0:0:
284,160,68822,1,0,0:0:0:0:
220,372,69030,1,0,0:0:0:0:
80,204,69238,2,0,P|136:228|184:224,1,78.7500030040742
204,128,69447,2,0,P|160:80|156:52,1,78.7500030040742
315,79,69655,2,0,P|328:120|350:149,1,78.7500030040742
424,232,69863,1,0,0:0:0:0:
456,128,69967,1,0,0:0:0:0:
348,152,70072,2,0,P|268:200|236:280,2,157.500006008148
276,360,70697,1,0,0:0:0:0:
120,204,70905,1,0,0:0:0:0:
120,204,71009,1,0,0:0:0:0:
120,204,71113,1,0,0:0:0:0:
120,204,71217,1,0,0:0:0:0:
120,204,71322,1,0,0:0:0:0:
292,68,71530,1,0,0:0:0:0:
248,168,71634,1,0,0:0:0:0:
356,156,71738,2,0,B|400:196|468:176|468:176|436:208,2,157.500006008148
428,72,72363,1,0,0:0:0:0:
368,284,72572,2,0,L|348:372,1,78.7500030040742
260,300,72780,2,0,L|240:380,1,78.7500030040742
188,220,72988,2,0,L|172:272,1,39.3750015020371
96,236,73092,2,0,L|76:288,5,39.3750015020371
147,323,73405,2,0,P|182:342|221:346,1,78.7500030040742
320,304,73613,1,0,0:0:0:0:
320,304,73717,1,0,0:0:0:0:
320,304,73822,1,0,0:0:0:0:
152,160,74030,1,0,0:0:0:0:
360,84,74238,1,0,0:0:0:0:
356,140,74342,1,0,0:0:0:0:
352,196,74447,1,0,0:0:0:0:
348,252,74551,1,0,0:0:0:0:
320,304,74655,1,0,0:0:0:0:
108,244,74863,2,0,P|120:180|132:160,1,78.7500030040742
188,76,75072,2,0,P|154:144|182:215,1,157.500006008148
284,256,75384,1,0,0:0:0:0:
284,256,75488,2,0,P|284:176|272:156,1,78.7500030040742
182,215,75697,1,0,0:0:0:0:
392,280,75905,2,0,P|416:196|408:160,1,78.7500030040742
284,256,76113,1,0,0:0:0:0:
76,180,76322,1,0,0:0:0:0:
128,160,76426,1,0,0:0:0:0:
184,160,76530,1,0,0:0:0:0:
232,188,76634,1,0,0:0:0:0:
284,256,76738,1,0,0:0:0:0:
76,180,76947,1,0,0:0:0:0:
76,180,77051,1,0,0:0:0:0:
76,180,77155,1,0,0:0:0:0:
280,92,77363,1,0,0:0:0:0:
388,284,77572,2,0,P|504:256|512:200,1,157.500006008148
464,136,77884,1,0,0:0:0:0:
464,136,77988,1,0,0:0:0:0:
260,220,78197,2,0,P|288:296|304:308,1,78.7500030040742
388,284,78405,1,0,0:0:0:0:
288,88,78613,2,0,P|249:82|211:91,1,78.7500030040742
108,48,78822,2,0,P|180:74|255:53,1,157.500006008148
255,53,79238,2,0,P|256:140|276:168,1,78.7500030040742
256,240,79447,2,0,P|268:288|256:336,1,78.7500030040742
156,296,79655,1,0,0:0:0:0:
104,276,79759,1,0,0:0:0:0:
68,316,79863,1,0,0:0:0:0:
92,364,79967,1,0,0:0:0:0:
148,356,80072,2,0,P|220:376|280:364,1,78.7500030040742
328,348,80280,1,0,0:0:0:0:
328,348,80384,1,0,0:0:0:0:
328,348,80488,1,0,0:0:0:0:
416,144,80697,1,0,0:0:0:0:
204,88,80905,2,0,P|120:136|100:248,1,157.500006008148
152,284,81217,1,0,0:0:0:0:
180,236,81322,1,0,0:0:0:0:
336,80,81530,2,0,P|376:24|360:108,1,236.250009012223
356,220,81947,2,0,P|412:260|328:244,1,236.250009012223
244,172,82363,2,0,B|164:152|100:188|100:188|28:152|56:72,1,236.250009012223
160,140,82780,2,0,P|133:111|120:74,1,78.7500030040742
228,92,82988,2,0,P|167:152|179:227,1,157.500006008148
236,312,83301,1,0,0:0:0:0:
236,312,83405,1,0,0:0:0:0:
372,136,83613,1,0,0:0:0:0:
432,228,83717,2,0,L|428:324,1,78.7500030040742
352,228,83926,1,0,0:0:0:0:
372,136,84030,1,0,0:0:0:0:
164,60,84238,1,0,0:0:0:0:
44,248,84447,1,0,0:0:0:0:
44,248,84551,1,0,0:0:0:0:
44,248,84655,1,0,0:0:0:0:
264,264,84863,1,0,0:0:0:0:
184,188,85072,1,0,0:0:0:0:
156,296,85280,1,0,0:0:0:0:
156,296,85384,2,0,B|100:308|100:308|72:336,1,78.7500030040742
184,368,85592,1,0,0:0:0:0:
184,368,85697,2,0,B|248:368|248:368|288:348,1,78.7500030040742
340,292,85905,1,0,0:0:0:0:
368,244,86009,1,0,0:0:0:0:
368,188,86113,1,0,0:0:0:0:
332,148,86217,1,0,0:0:0:0:
276,136,86322,1,0,0:0:0:0:
228,164,86426,1,0,0:0:0:0:
176,180,86530,1,0,0:0:0:0:
124,168,86634,1,0,0:0:0:0:
76,140,86738,2,0,B|48:116|48:116|60:224,1,118.125004506111
68,220,87155,2,0,B|96:244|96:244|84:136,1,118.125004506111
92,136,87572,2,0,P|128:144|224:108,1,118.125004506111
224,104,87988,2,0,P|300:84|356:104,1,118.125004506111
352,116,88405,2,0,L|352:244,1,118.125004506111
332,252,88822,2,0,L|332:116,1,118.125004506111
304,136,89238,2,0,P|272:156|240:156,2,59.0625022530557
324,156,89655,2,0,P|320:192|304:220,2,59.0625022530557
376,136,90072,2,0,P|396:192|384:272,1,118.125004506111
368,264,90488,2,0,P|312:300|276:352,1,118.125004506111
256,348,90905,2,0,B|196:360|196:360|136:340,1,118.125004506111
120,328,91322,2,0,B|144:264|144:264|128:204,1,118.125004506111
120,192,91738,2,0,L|88:124,2,52.5000020027161
156,200,92155,2,0,P|208:240|256:208,1,118.125004506111
256,192,92572,2,0,P|308:172|349:211,1,118.125004506111
438,278,92988,2,0,P|381:328|308:312,1,157.500006008148
