osu file format v14

[General]
AudioFilename: audio.mp3
AudioLeadIn: 0
PreviewTime: 209786
Countdown: 0
SampleSet: Soft
StackLeniency: 0.4
Mode: 0
LetterboxInBreaks: 0
WidescreenStoryboard: 1

[Editor]
Bookmarks: 449,5033,18387,31720,35054,38387,41720,45054,60054,73387,86720,93387,96720,100054,103387,106720,110054,113387,121720,135054,148387,155054,175054,188387,191713,195047,198387,201720,215047,218579,219696,226470
DistanceSpacing: 1.1
BeatDivisor: 4
GridSize: 4
TimelineZoom: 1.3

[Metadata]
Title:Ohedo Julia-Night
TitleUnicode:大江戸ジュリアナイト
Artist:Mitchie M feat. Hatsune Miku with KAITO
ArtistUnicode:Mitchie M feat.初音ミク with KAITO
Creator:Natsu
Version:Standard
Source:
Tags:Vocaloid 10th anniversary 1990's techno music traditional Tsukasa Ryugu Not-116 Re:start 家の裏でマンボウが死んでるP 初音ミク
BeatmapID:1415824
BeatmapSetID:664099

[Difficulty]
HPDrainRate:2
CircleSize:2
OverallDifficulty:3
ApproachRate:3.5
SliderMultiplier:0.8
SliderTickRate:1

[Events]
//Background and Video events
Video,0,"f.avi"
0,0,"a.jpg",0,0
//Break Periods
2,31713,33667
2,38579,40333
2,93380,95333
2,100246,102000
2,106713,108667
2,148588,152000
2,175246,183667
//Storyboard Layer 0 (Background)
//Storyboard Layer 1 (Fail)
//Storyboard Layer 2 (Pass)
//Storyboard Layer 3 (Foreground)
//Storyboard Sound Samples

[TimingPoints]
450,416.666666666667,4,2,1,50,1,0
2116,432.900432900433,4,2,1,50,1,0
3847,540.540540540541,4,2,1,50,1,0
5047,416.666666666667,4,2,1,60,1,0
7755,-100,4,2,1,70,0,0
8797,-100,4,2,1,60,0,0
10047,-100,4,2,1,50,0,0
11088,-100,4,2,1,70,0,0
12130,-100,4,2,1,60,0,0
14422,-100,4,2,1,70,0,0
15463,-100,4,2,1,65,0,0
16297,-100,4,2,1,70,0,0
16713,-100,4,2,1,60,0,0
21088,-100,4,2,1,70,0,0
22130,-100,4,2,1,60,0,0
24422,-100,4,2,1,70,0,0
25463,-100,4,2,1,60,0,0
27755,-100,4,2,1,70,0,0
28797,-100,4,2,1,65,0,0
35047,-100,4,2,1,60,0,0
38380,-100,4,2,1,40,0,0
41713,-100,4,2,1,60,0,0
44630,-100,4,2,1,40,0,0
45047,-100,4,2,1,60,0,0
58380,-100,4,2,1,50,0,0
59630,-100,4,2,1,60,0,0
60047,-100,4,2,1,80,0,1
73328,-100,4,2,1,80,0,0
73380,-100,4,2,1,80,0,1
86713,-100,4,2,1,60,0,0
87130,-100,4,2,1,40,0,0
89838,-100,4,2,1,20,0,0
90047,-100,4,2,1,40,0,0
92755,-100,4,2,1,5,0,0
96713,-100,4,2,1,60,0,0
100047,-100,4,2,1,40,0,0
103380,-100,4,2,1,60,0,0
105672,-100,4,2,1,50,0,0
106297,-100,4,2,1,40,0,0
120047,-100,4,2,1,50,0,0
120984,-100,4,2,1,60,0,0
121713,-100,4,2,1,80,0,1
135047,-100,4,2,1,40,0,0
136297,-100,4,2,1,80,0,1
148380,-100,4,2,1,60,0,0
153380,-100,4,2,1,65,0,0
155047,-100,4,2,2,75,0,1
175047,836.820083682008,4,2,3,50,1,0
175883,818.553888130969,4,2,3,50,1,0
176701,701.754385964912,4,2,3,50,1,0
177402,616.649537512847,4,2,3,50,1,0
178018,508.474576271186,4,2,3,50,1,0
178526,444.444444444444,4,2,3,50,1,0
178970,416.666666666667,4,2,3,50,1,0
179386,352.941176470588,4,2,3,50,1,0
179738,600,4,2,3,50,1,0
180038,571.428571428571,4,2,3,50,1,0
180323,545.454545454546,4,2,3,50,1,0
180595,458.015267175573,4,2,3,50,1,0
180824,416.666666666667,4,2,3,50,1,0
181032,365.853658536585,4,2,3,50,1,0
181214,333.333333333333,4,2,3,50,1,0
181380,307.692307692308,4,2,3,50,1,0
181533,571.428571428571,4,2,3,50,1,0
181675,530.973451327434,4,2,3,50,1,0
181807,517.241379310345,4,2,1,40,1,0
181936,483.870967741935,4,2,1,40,1,0
182056,352.941176470588,4,2,1,40,1,0
182144,333.333333333333,4,2,1,40,1,0
182227,315.789473684211,4,2,1,40,1,0
182305,307.692307692308,4,2,1,40,1,0
182382,600,4,2,1,40,1,0
182532,576.923076923077,4,2,1,40,1,0
182676,555.555555555556,4,2,1,40,1,0
182814,500,4,2,1,40,1,0
182939,480,4,2,1,40,1,0
183059,444.444444444444,4,2,1,40,1,0
183170,413.793103448276,4,2,1,40,1,0
183273,400,4,2,1,40,1,0
183373,375,4,2,1,40,1,0
183466,352.941176470588,4,2,1,40,1,0
183554,342.857142857143,4,2,1,40,1,0
183639,333.333333333333,4,2,1,40,1,0
183722,492.206726825267,4,2,1,20,1,0
184214,416.666666666667,4,2,1,20,1,0
185047,416.666666666667,4,2,1,20,1,0
185463,-100,4,2,1,5,0,0
187963,-100,4,2,1,80,0,0
188380,-100,4,2,1,80,0,1
188797,-100,4,2,1,60,0,0
189422,-100,4,2,1,80,0,0
191713,-100,4,2,1,80,0,1
192130,-100,4,2,1,60,0,0
192755,-100,4,2,1,80,0,0
194213,-100,4,2,1,30,0,0
195047,-100,4,2,1,80,0,1
195463,-100,4,2,1,60,0,0
196088,-100,4,2,1,80,0,0
198380,-100,4,2,1,80,0,1
201661,-100,4,2,1,80,0,0
201713,-100,4,2,1,80,0,1
203797,-100,4,2,1,20,0,1
204630,-100,4,2,1,80,0,1
207547,-100,4,2,1,20,0,0
208380,-100,4,2,1,80,0,1
211297,-100,4,2,1,80,0,0
211713,-100,4,2,1,80,0,1
215047,-100,4,2,1,60,0,0
215463,-100,4,2,1,5,0,0
217338,-100,4,2,1,20,0,0
218579,504.201680672269,4,2,1,40,1,0
219419,-100,4,2,1,60,0,0
219696,387.096774193548,4,2,1,60,1,1
220276,-100,4,2,1,25,0,1
220470,-100,4,2,1,60,0,1
220857,-100,4,2,1,25,0,1
221244,-100,4,2,1,60,0,1
221825,-100,4,2,1,25,0,1
222018,-100,4,2,1,60,0,1
222405,-100,4,2,1,25,0,1
222792,-100,4,2,1,60,0,1
223373,-100,4,2,1,25,0,1
223566,-100,4,2,1,60,0,1
223954,-100,4,2,1,25,0,1
224341,-100,4,2,1,60,0,1
226470,-100,4,2,1,5,0,0

[Colours]
Combo1 : 255,183,255
Combo2 : 0,118,236
Combo3 : 255,147,255
Combo4 : 193,224,255
SliderBorder : 249,0,249
SliderTrackOverride : 0,0,159

[HitObjects]
256,100,450,38,0,B|244:140|244:140|268:172|268:172|244:228|244:228|256:252,2,160,6|0|0,0:3|0:0|0:0,0:0:0:0:
256,100,3847,6,0,B|248:124|248:124|264:148|264:148|248:168|248:168|268:188|268:188|248:208|248:208|268:228|268:228|252:248,1,177.6,0|6,0:0|0:3,0:0:0:0:
183,280,5463,6,0,B|183:359,2,80,8|8|8,0:0|0:0|0:0,0:0:0:0:
96,262,6713,2,0,B|96:341,2,80,10|10|8,0:0|0:0|0:0,0:0:0:0:
98,217,7755,2,0,B|90:192|90:192|119:174|119:174|148:192|148:192|141:217|141:217,1,120,2|6,0:0|0:3,0:0:0:0:
175,298,8797,6,0,B|268:297,2,80,8|8|8,0:0|0:0|0:0,0:0:0:0:
156,211,10047,2,0,B|250:211,2,80,10|8|8,0:0|0:3|0:0,0:0:0:0:
111,211,11089,2,0,B|86:218|86:218|68:189|68:189|86:160|86:160|111:168,1,120,2|0,0:0|0:0,0:0:0:0:
179,113,12130,38,0,B|180:20,2,80,8|8|8,0:0|0:0|0:0,0:0:0:0:
266,122,13380,2,0,B|267:29,2,80,10|10|8,0:0|0:0|0:0,0:0:0:0:
266,166,14422,2,0,B|259:191|259:191|288:209|288:209|317:191|317:191|309:166,1,120,2|6,0:0|0:3,0:0:0:0:
385,122,15463,6,0,B|468:122,2,80,10|8|8,0:0|0:0|0:0,0:0:0:0:
309,76,16713,2,0,B|297:80|297:80|285:72|285:72|273:80|273:80|261:72|261:72|249:80|249:80|235:71|235:71|221:79|221:79|207:71|207:71|195:79|195:79,2,120,10|2|2,0:0|1:3|1:3,0:0:0:0:
379,129,18380,1,14,0:0:0:0:
388,216,18797,38,0,B|388:295,2,80,8|8|8,0:0|0:0|0:0,0:0:0:0:
301,197,20047,2,0,B|301:276,2,80,10|10|8,0:0|0:0|0:0,0:0:0:0:
301,152,21089,2,0,B|308:127|308:127|279:109|279:109|250:127|250:127|258:152,1,120,2|6,0:0|0:3,0:0:0:0:
206,222,22131,6,0,B|113:223,2,80,8|8|8,0:0|0:0|0:0,0:0:0:0:
222,308,23380,2,0,B|129:309,2,80,10|2|8,0:0|0:0|0:0,0:0:0:0:
266,311,24423,2,0,B|291:319|291:319|309:290|309:290|291:261|291:261|266:268,1,120
199,211,25464,38,0,B|198:118,2,80,8|8|8,0:0|0:0|0:0,0:0:0:0:
112,227,26714,2,0,B|111:134,2,80,10|10|8,0:0|0:0|0:0,0:0:0:0:
119,270,27756,2,0,B|111:295|111:295|140:313|140:313|169:295|169:295|162:270,1,120,2|6,0:0|0:3,0:0:0:0:
231,215,28797,6,0,B|314:215,2,80,10|8|2,0:0|0:0|0:3,0:0:0:0:
172,149,30047,2,0,L|115:149,2,40,2|2|2,1:3|1:3|1:3,0:0:0:0:
72,44,35047,38,0,B|72:72|72:72|64:80|64:80|80:80|80:80|72:88|72:88|72:108|72:108|64:116|64:116|80:116|80:116|72:124|72:124|72:160|72:160|68:168|68:168|76:172|76:172|68:180|68:180|76:184|76:184|68:192|68:192|76:196|76:196|68:204|68:204|72:212|72:212,1,240,14|14,1:2|1:2,0:0:0:0:
160,220,36713,2,0,B|160:244|160:244|168:252|168:252|152:252|152:252|160:260|160:260|160:296|160:296|168:304|168:304|152:304|152:304|160:312|160:312|160:348,1,160,14|8,1:2|1:2,0:0:0:0:
248,344,37963,2,0,P|284:334|328:348,1,80,6|12,0:0|0:3,0:0:0:0:
485,375,41713,6,0,B|485:347|485:347|493:339|493:339|477:339|477:339|485:331|485:331|485:311|485:311|493:303|493:303|477:303|477:303|485:295|485:295|485:259|485:259|489:251|489:251|481:247|481:247|489:239|489:239|481:235|481:235|489:227|489:227|481:223|481:223|489:215|489:215|485:207|485:207,1,240,14|14,1:2|1:2,0:0:0:0:
396,204,43380,2,0,B|396:176|396:176|404:168|404:168|388:168|388:168|396:160|396:160|396:140|396:140|404:132|404:132|388:132|388:132|396:124|396:124|396:80|396:80|408:68|408:68|384:68|384:68|396:56|396:56|396:32|396:32,1,240,14|6,1:2|0:1,0:0:0:0:
312,20,45047,38,0,P|273:11|235:21,1,80,6|8,0:0|0:0,0:0:0:0:
193,35,45672,2,0,B|174:93|174:93|195:155,1,120,2|10,0:0|0:0,0:0:0:0:
278,170,46713,2,0,P|287:209|277:247,1,80,6|8,0:0|0:0,0:0:0:0:
233,256,47338,2,0,B|175:275|175:275|113:254,1,120,2|10,0:0|0:0,0:0:0:0:
103,169,48380,6,0,P|94:132|109:83,2,80,6|8|8,0:0|0:0|0:0,0:0:0:0:
181,130,49630,1,14,0:0:0:0:
260,94,50047,2,0,P|269:132|259:171,1,80,6|8,0:0|0:0,0:0:0:0:
188,220,50880,2,0,B|180:260|180:260|196:292|196:292|188:344,1,120,8|8,3:0|3:0,0:0:0:0:
232,348,51713,38,0,P|271:357|309:347,1,80,6|8,0:0|0:0,0:0:0:0:
343,319,52338,2,0,B|362:261|362:261|341:199,1,120,2|10,0:0|0:0,0:0:0:0:
261,172,53380,2,0,P|222:163|184:173,1,80,6|8,0:0|0:0,0:0:0:0:
150,201,54005,2,0,B|131:259|131:259|152:321,1,120,2|10,0:0|0:0,0:0:0:0:
236,298,55047,6,0,P|274:307|313:299,1,80,6|8,0:0|0:0,0:0:0:0:
397,271,55880,2,0,P|406:232|398:193,1,80,10|8,0:0|0:0,0:0:0:0:
352,120,56713,1,12,1:2:0:0:
273,79,57130,2,0,B|261:107|261:139|273:159|273:159|265:167|265:167|273:175|273:175|265:183|265:183|273:191|273:191|265:199|265:199|273:207|273:207|269:219,1,160,12|12,1:2|0:0,0:0:0:0:
354,241,58380,38,0,L|440:233,1,80,4|4,0:1|0:1,0:0:0:0:
457,318,59213,2,0,L|377:325,1,80,4|0,0:1|0:0,0:0:0:0:
297,362,60047,6,0,P|289:322|300:284,1,80,6|8,0:3|0:0,0:0:0:0:
376,241,60880,2,0,L|388:147,1,80,10|8,0:0|0:0,0:0:0:0:
394,118,61505,2,0,P|342:101|279:119,1,120,2|10,0:0|0:0,0:0:0:0:
204,161,62547,1,10,0:0:0:0:
28,161,63380,38,0,L|40:241,1,80,6|6,0:0|0:0,0:0:0:0:
3,320,64213,2,0,P|44:330|81:317,1,80,10|8,0:0|0:0,0:0:0:0:
114,291,64838,2,0,P|166:274|229:292,1,120,2|8,0:0|0:0,0:0:0:0:
310,320,65880,1,10,0:0:0:0:
478,360,66713,6,0,L|466:280,1,80,6|6,0:0|0:0,0:0:0:0:
502,202,67546,2,0,P|461:192|424:205,1,80,10|8,0:0|0:0,0:0:0:0:
391,231,68171,2,0,P|339:248|276:230,1,120,2|10,0:0|0:0,0:0:0:0:
210,176,69213,1,10,0:0:0:0:
38,135,70047,38,0,L|56:212,1,80,2|2,0:3|0:3,0:0:0:0:
122,271,70880,2,0,L|140:193,1,80,8|8,3:2|3:0,0:0:0:0:
206,135,71713,2,0,L|224:212,1,80,2|2,0:3|0:3,0:0:0:0:
290,271,72546,2,0,L|308:193,1,80,6|6,0:3|0:3,0:0:0:0:
375,135,73380,6,0,P|412:146|450:137,1,80,6|10,0:3|0:0,0:0:0:0:
446,49,74213,2,0,P|408:37|370:46,1,80,10|8,0:0|0:0,0:0:0:0:
327,60,74838,2,0,P|275:77|212:59,1,120,2|10,0:0|0:0,0:0:0:0:
133,22,75880,1,10,0:0:0:0:
75,188,76713,38,0,P|63:225|72:263,1,80,6|6,0:0|0:0,0:0:0:0:
161,259,77546,2,0,P|172:221|163:183,1,80,10|8,0:0|0:0,0:0:0:0:
150,140,78171,2,0,P|130:89|151:25,1,120,2|10,0:0|0:0,0:0:0:0:
218,81,79213,1,10,0:0:0:0:
389,40,80047,6,0,P|426:28|464:37,1,80,6|10,0:0|0:0,0:0:0:0:
460,126,80880,2,0,P|422:137|384:128,1,80,10|8,0:0|0:0,0:0:0:0:
340,124,81505,2,0,L|346:208,2,80,6|6|6,0:0|0:0|0:0,0:0:0:0:
255,100,82755,2,0,L|251:47,1,40,6|6,0:0|0:0,0:0:0:0:
165,77,83380,38,0,P|124:87|79:76,1,80,6|8,0:0|0:0,0:0:0:0:
33,149,84213,2,0,L|39:244,1,80,6|10,0:0|0:0,0:0:0:0:
121,256,85047,2,0,P|161:245|207:257,1,80,8|8,0:0|0:0,0:0:0:0:
275,211,85880,2,0,L|269:116,1,80,8|8,0:0|0:0,0:0:0:0:
220,60,86713,38,0,B|192:48|160:48|140:60|140:60|132:52|132:52|124:60|124:60|116:52|116:52|108:60|108:60|100:52|100:52|92:60|92:60|80:56,1,160,12|2,1:3|3:1,0:0:0:0:
0,88,87963,2,0,P|-7:42|10:6,1,80,2|8,1:0|3:1,0:0:0:0:
83,57,88797,1,2,1:0:0:0:
68,144,89213,2,0,B|76:160|76:160|64:172|64:172|76:184|76:184|64:196|64:196|76:208|76:208|64:220|64:220|72:232|72:232|68:244,1,120,10|8,1:0|1:0,0:0:0:0:
95,271,90047,38,0,B|123:283|155:283|175:271|175:271|183:279|183:279|191:271|191:271|199:279|199:279|207:271|207:271|215:279|215:279|223:271|223:271|235:275,1,160,2|2,3:1|3:1,0:0:0:0:
319,274,91297,1,2,1:0:0:0:
275,197,91714,2,0,B|275:194|275:194|280:188|280:188|269:188|269:188|275:182|275:182|275:147|275:147|280:142|280:142|269:142|269:142|275:136|275:136|275:84|275:84|280:78|280:78|269:78|269:78|275:72|275:72|275:46,1,200,8|0,1:0|0:0,0:0:0:0:
440,340,96713,38,0,B|440:312|440:312|448:304|448:304|432:304|432:304|440:296|440:296|440:276|440:276|448:268|448:268|432:268|432:268|440:260|440:260|440:224|440:224|444:216|444:216|436:212|436:212|444:204|444:204|436:200|436:200|444:192|444:192|436:188|436:188|444:180|444:180|440:172|440:172,1,240,14|14,1:2|1:2,0:0:0:0:
352,164,98379,2,0,B|352:140|352:140|344:132|344:132|360:132|360:132|352:124|352:124|352:88|352:88|344:80|344:80|360:80|360:80|352:72|352:72|352:36,1,160,14|8,1:2|1:2,0:0:0:0:
264,40,99630,2,0,P|228:50|184:36,1,80,6|12,0:0|0:3,0:0:0:0:
27,18,103380,38,0,B|27:46|27:46|19:54|19:54|35:54|35:54|27:62|27:62|27:82|27:82|19:90|19:90|35:90|35:90|27:98|27:98|27:134|27:134|23:142|23:142|31:146|31:146|23:154|23:154|31:158|31:158|23:166|23:166|31:170|31:170|23:178|23:178|27:186|27:186,1,240,14|14,1:2|1:2,0:0:0:0:
116,189,105047,2,0,B|116:217|116:217|108:225|108:225|124:225|124:225|116:233|116:233|116:253|116:253|108:261|108:261|124:261|124:261|116:269|116:269|116:313|116:313|104:325|104:325|128:325|128:325|116:337|116:337|116:361|116:361,1,240,14|6,1:2|1:0,0:0:0:0:
28,347,110047,6,0,P|19:310|34:261,2,80,6|8|8,0:0|0:0|0:0,0:0:0:0:
107,310,111297,1,14,0:0:0:0:
181,262,111714,2,0,P|219:253|258:263,1,80,6|8,0:0|0:0,0:0:0:0:
324,320,112547,2,0,B|364:328|364:328|396:312|396:312|448:320,1,120,8|8,3:0|3:0,0:0:0:0:
455,277,113380,38,0,P|464:238|454:200,1,80,6|8,0:0|0:0,0:0:0:0:
426,166,114005,2,0,B|368:147|368:147|306:168,1,120,2|0,0:0|0:0,0:0:0:0:
228,193,115047,2,0,P|189:202|151:192,1,80,6|8,0:0|0:0,0:0:0:0:
117,164,115672,2,0,B|98:106|98:106|119:44,1,120,2|10,0:0|0:0,0:0:0:0:
202,28,116714,6,0,P|240:19|279:27,1,80,6|8,0:0|0:0,0:0:0:0:
350,78,117547,2,0,P|389:87|428:79,1,80,10|8,0:0|0:0,0:0:0:0:
503,34,118380,1,12,1:2:0:0:
503,122,118797,2,0,B|491:150|491:182|503:202|503:202|495:210|495:210|503:218|503:218|495:226|495:226|503:234|503:234|495:242|495:242|503:250|503:250|499:262,1,160,12|10,1:2|1:2,0:0:0:0:
412,264,120047,38,0,P|367:254|327:264,1,80,4|4,0:1|0:1,0:0:0:0:
246,261,120880,2,0,P|205:271|168:258,1,80,4|8,0:1|0:0,0:0:0:0:
82,253,121714,6,0,L|94:333,1,80,6|10,0:3|0:0,0:0:0:0:
178,355,122547,2,0,P|219:365|256:352,1,80,10|8,0:0|0:0,0:0:0:0:
293,333,123172,2,0,P|345:316|408:334,1,120,2|10,0:0|0:0,0:0:0:0:
490,359,124214,1,10,0:0:0:0:
477,183,125047,38,0,L|465:103,1,80,6|6,0:0|0:0,0:0:0:0:
502,24,125880,2,0,P|461:14|424:27,1,80,10|8,0:0|0:0,0:0:0:0:
393,55,126505,2,0,P|341:72|278:54,1,120,2|10,0:0|0:0,0:0:0:0:
195,28,127547,1,10,0:0:0:0:
24,70,128380,6,0,L|36:150,1,80,6|6,0:0|0:0,0:0:0:0:
0,229,129213,2,0,P|41:239|78:226,1,80,10|8,0:0|0:0,0:0:0:0:
110,200,129838,2,0,P|162:183|225:201,1,120,2|10,0:0|0:0,0:0:0:0:
292,254,130880,1,10,0:0:0:0:
149,357,131714,38,0,L|167:280,1,80,2|2,0:3|0:3,0:0:0:0:
233,221,132547,2,0,L|251:299,1,80,8|8,3:0|3:0,0:0:0:0:
317,357,133380,2,0,L|335:280,1,80,2|2,0:3|0:3,0:0:0:0:
401,221,134213,2,0,L|419:299,2,80,6|6|2,0:3|0:3|1:2,0:0:0:0:
241,41,136297,6,0,P|166:67|84:41,1,160,6|10,0:3|0:0,0:0:0:0:
6,16,137547,1,10,0:0:0:0:
32,189,138380,38,0,P|44:226|35:264,1,80,6|6,0:0|0:0,0:0:0:0:
96,327,139213,2,0,P|134:316|172:325,1,80,10|8,0:0|0:0,0:0:0:0:
214,337,139838,2,0,P|265:357|329:336,1,120,2|10,0:0|0:0,0:0:0:0:
395,286,140880,1,10,0:0:0:0:
281,151,141714,6,0,P|244:139|206:148,1,80,6|10,0:0|0:0,0:0:0:0:
210,237,142547,2,0,P|248:248|286:239,1,80,10|8,0:0|0:0,0:0:0:0:
330,235,143172,2,0,L|324:319,2,80,6|6|6,0:0|0:0|0:0,0:0:0:0:
415,211,144422,2,0,L|419:158,1,40,6|6,0:0|0:0,0:0:0:0:
376,93,145047,38,0,P|335:103|290:92,1,80,6|8,0:0|0:0,0:0:0:0:
211,85,145880,2,0,L|188:179,1,80,6|10,0:0|0:0,0:0:0:0:
219,246,146713,2,0,P|260:236|305:247,1,80,8|8,0:0|0:0,0:0:0:0:
384,254,147546,2,0,L|407:160,1,80,8|8,0:0|0:0,0:0:0:0:
429,92,148380,1,6,3:0:0:0:
28,192,153380,6,0,B|37:185|37:185|47:192|47:192|57:185|57:185|66:192|66:192|76:185|76:185|86:192|86:192|96:185|96:185|105:192|105:192|115:185|115:185|125:192|125:192|135:185|135:185|144:192|144:192|154:185|154:185|164:192|164:192|174:185|174:185|183:192|183:192|193:185|193:185|203:192|203:192|213:185|213:185|222:192|222:192|259:217|311:188|311:188,1,320,0|6,0:0|0:3,0:0:0:0:
336,167,155255,38,0,P|375:161|413:171,1,80,2|2,0:1|0:1,0:0:0:0:
456,181,155880,2,0,L|468:113,2,60,10|2|6,0:1|0:1|0:1,0:0:0:0:
489,262,156922,6,0,P|449:268|411:258,1,80,2|2,0:1|0:1,0:0:0:0:
369,249,157547,2,0,L|357:317,2,60,10|2|6,0:1|0:1|0:1,0:0:0:0:
293,203,158588,38,0,P|253:196|215:206,1,80,2|2,0:1|0:1,0:0:0:0:
173,216,159213,2,0,L|161:148,2,60,10|2|6,0:1|0:1|0:1,0:0:0:0:
183,258,160047,6,0,P|158:312|101:249,1,160,6|6,0:3|0:3,0:0:0:0:
71,179,161297,2,0,L|62:134,1,40,6|6,0:0|0:0,0:0:0:0:
100,60,161922,38,0,P|138:48|176:57,1,80,2|2,0:1|0:1,0:0:0:0:
206,90,162547,2,0,B|206:138|206:138|202:142|202:142|210:142|210:142|206:146|206:146|206:214,1,120,10|2,0:1|0:1,0:0:0:0:
273,254,163588,6,0,P|311:265|349:256,1,80,2|2,0:1|0:1,0:0:0:0:
379,224,164213,2,0,B|379:176|379:176|375:172|375:172|383:172|383:172|379:168|379:168|379:100,1,120,10|10,0:1|0:1,0:0:0:0:
305,66,165255,38,0,P|266:54|228:63,1,80,2|2,0:1|0:1,0:0:0:0:
199,96,165880,2,0,B|199:144|199:144|203:148|203:148|195:148|195:148|199:152|199:152|199:220,1,120,10|2,0:1|0:1,0:0:0:0:
200,292,166922,6,0,P|161:303|123:294,1,80,2|2,0:1|0:1,0:0:0:0:
88,268,167547,2,0,B|76:228|76:228|98:195|98:195|80:158|80:158|88:120,1,160,10|6,0:1|0:3,0:0:0:0:
124,96,168588,38,0,P|162:84|200:93,1,80,2|2,0:1|0:1,0:0:0:0:
230,126,169213,2,0,B|230:174|230:174|226:178|226:178|234:178|234:178|230:182|230:182|230:250,1,120,10|2,0:1|0:1,0:0:0:0:
232,324,170255,6,0,P|270:335|308:326,1,80,2|2,0:1|0:1,0:0:0:0:
351,316,170880,2,0,P|368:260|349:205,1,120,8|6,0:1|0:3,0:0:0:0:
274,158,171922,38,0,P|235:146|197:155,1,80,2|2,0:1|0:1,0:0:0:0:
168,188,172547,2,0,B|168:236|168:236|172:240|172:240|164:240|164:240|168:244|168:244|168:312,1,120,10|2,0:1|0:1,0:0:0:0:
234,354,173588,6,0,P|272:365|310:356,1,80,2|2,0:1|0:1,0:0:0:0:
346,330,174213,2,0,B|357:290|357:290|335:257|335:257|353:220|353:220|346:182,1,160,10|6,0:1|3:0,0:0:0:0:
173,251,185047,38,2,B|148:256|157:287|177:293|207:285|212:257|195:198|195:198|177:133|177:133|313:94|313:94|331:158|331:158|349:218|343:246|314:253|292:248|285:217|307:211,1,560,2|12,0:1|0:3,0:0:0:0:
391,203,188380,6,0,P|431:192|471:205,1,80,6|2,0:3|1:2,0:0:0:0:
448,332,189422,2,0,P|428:335|408:333,2,40,2|2|2,0:3|0:3|0:3,0:0:0:0:
472,112,190880,2,0,B|444:112|444:112|436:116|436:116|428:108|428:108|420:112|420:112|396:112|396:112|388:116|388:116|380:108|380:108|373:112|373:112|348:112,1,120,6|8,0:0|0:3,0:0:0:0:
328,140,191713,38,0,P|339:180|326:220,1,80,6|2,0:0|1:2,0:0:0:0:
199,197,192755,2,0,P|196:177|198:157,2,40,2|2|2,0:3|0:3|0:3,0:0:0:0:
352,352,194213,2,0,B|380:348|380:348|404:360|404:360|428:348|428:348|448:360|448:360|488:352,1,133.333333333333,8|8,1:0|1:0,0:0:0:0:
488,328,195047,6,0,P|499:288|486:248,1,80,6|2,0:0|1:2,0:0:0:0:
381,173,196089,2,0,P|378:153|380:133,2,40,2|0|0,0:3|0:0|0:0,0:0:0:0:
253,352,197547,2,0,P|220:346|184:354,2,60,6|10|0,0:0|0:0|0:0,0:0:0:0:
282,319,198380,38,0,L|264:242,1,80,6|10,0:0|0:0,0:0:0:0:
198,183,199213,2,0,L|180:261,1,80,10|10,0:0|0:0,0:0:0:0:
114,319,200046,2,0,L|96:242,1,80,2|2,0:3|0:3,0:0:0:0:
30,183,200880,2,0,L|12:261,1,80,6|6,0:3|0:3,0:0:0:0:
77,320,201713,6,0,P|114:331|152:322,1,80,6|10,0:3|0:0,0:0:0:0:
226,272,202546,2,0,P|264:262|302:274,1,80,10|8,0:0|0:0,0:0:0:0:
337,302,203172,2,0,P|393:318|450:301,1,120,2|8,0:0|0:1,0:0:0:0:
507,235,204213,1,8,0:1:0:0:
393,100,205046,38,0,P|356:88|318:97,1,80,6|6,0:0|0:0,0:0:0:0:
241,142,205880,2,0,P|203:153|165:144,1,80,10|8,0:0|0:0,0:0:0:0:
136,109,206505,2,0,P|106:69|76:161,1,200,2|2,0:0|1:2,0:0:0:0:
213,251,208380,6,0,P|250:263|288:254,1,80,6|10,0:0|0:0,0:0:0:0:
366,211,209213,2,0,P|404:200|442:209,1,80,10|8,0:0|0:0,0:0:0:0:
483,224,209838,2,0,L|489:308,2,80,6|6|6,0:0|0:0|0:0,0:0:0:0:
497,137,211088,2,0,L|493:84,1,40,6|6,0:0|0:0,0:0:0:0:
414,58,211713,38,0,P|373:68|328:57,1,80,6|8,0:0|0:0,0:0:0:0:
257,22,212546,2,0,P|246:54|266:111,1,80,6|10,0:0|0:0,0:0:0:0:
329,148,213380,2,0,P|339:189|328:234,1,80,8|8,0:0|0:0,0:0:0:0:
251,189,214213,2,0,P|240:221|260:278,1,80,8|8,0:0|0:0,0:0:0:0:
318,322,215047,38,4,B|283:320|267:351|283:374|347:374|347:308|347:308|347:163|347:163|359:196|386:212|427:185|444:237|434:266,1,440,6|0,0:3|1:0,0:0:0:0:
488,56,218579,38,0,B|473:51|473:51|456:60|456:60|440:52|440:52|424:60|424:60|408:52|408:52|392:60|392:60|376:52|376:52|360:60,1,133.333333333333,0|0,0:0|0:0,0:0:0:0:
313,87,219696,38,0,B|305:127|305:127|321:159|321:159|313:203,1,120,14|4,0:3|0:1,0:0:0:0:
318,245,220470,2,0,B|346:273|346:273|378:245,1,80,14|0,0:3|0:0,0:0:0:0:
447,193,221244,38,0,B|455:153|455:153|439:121|439:121|447:77,1,120,14|4,0:3|0:1,0:0:0:0:
445,34,222018,2,0,B|417:6|417:6|385:34,1,80,14|4,0:3|0:1,0:0:0:0:
317,86,222792,6,0,B|309:126|309:126|325:158|325:158|317:202,1,120,14|4,0:3|0:1,0:0:0:0:
318,244,223566,2,0,B|346:272|346:272|378:244,1,80,14|4,0:3|0:1,0:0:0:0:
445,190,224341,38,0,B|445:165|445:165|434:155|434:155|455:155|455:155|445:144|445:144|445:116|445:116|455:106|455:106|434:106|434:106|445:95|445:95|445:74|445:74|434:64|434:64|455:64|455:64|445:53|445:53|445:39,1,240,14|6,0:3|0:0,0:0:0:0:
358,20,225889,2,0,B|338:28|338:28|326:12|326:12|302:20|302:20|278:32|238:19,1,120,6|0,0:3|1:0,0:0:0:0:
