osu file format v14

[General]
AudioFilename: audio.mp3
AudioLeadIn: 0
PreviewTime: 209786
Countdown: 0
SampleSet: Soft
StackLeniency: 0.4
Mode: 0
LetterboxInBreaks: 0
WidescreenStoryboard: 1

[Editor]
Bookmarks: 449,5033,18387,31720,35054,38387,41720,45054,60054,73387,86720,93387,96720,100054,103387,106720,110054,113387,121720,135054,148387,155054,175054,188387,191713,195047,198387,201720,211713,215047,218579,219696,226470
DistanceSpacing: 1.7
BeatDivisor: 4
GridSize: 8
TimelineZoom: 1.3

[Metadata]
Title:Ohedo Julia-Night
TitleUnicode:大江戸ジュリアナイト
Artist:Mitchie M feat. Hatsune Miku with KAITO
ArtistUnicode:Mitchie M feat.初音ミク with KAITO
Creator:Natsu
Version:Insane
Source:
Tags:Vocaloid 10th anniversary 1990's techno music traditional Tsukasa Ryugu Not-116 Re:start 家の裏でマンボウが死んでるP 初音ミク
BeatmapID:1413791
BeatmapSetID:664099

[Difficulty]
HPDrainRate:5
CircleSize:4
OverallDifficulty:7.2
ApproachRate:8.2
SliderMultiplier:1.6
SliderTickRate:1

[Events]
//Background and Video events
Video,0,"f.avi"
0,0,"a.jpg",0,0
//Break Periods
//Storyboard Layer 0 (Background)
//Storyboard Layer 1 (Fail)
//Storyboard Layer 2 (Pass)
//Storyboard Layer 3 (Foreground)
//Storyboard Sound Samples

[TimingPoints]
450,416.666666666667,4,2,1,50,1,0
450,-125,4,2,1,50,0,0
1075,-125,4,2,1,5,0,0
1179,-125,4,2,1,30,0,0
1700,-125,4,2,1,50,0,0
2116,432.900432900433,4,2,1,50,1,0
2332,-100,4,2,1,5,0,0
2440,-100,4,2,1,50,0,0
3739,-100,4,2,1,5,0,0
3847,540.540540540541,4,2,1,50,1,0
4387,-66.6666666666667,4,2,1,70,0,0
5047,416.666666666667,4,2,1,60,1,0
7755,-100,4,2,1,70,0,0
8588,-100,4,2,1,60,0,0
10047,-76.9230769230769,4,2,1,50,0,0
11088,-66.6666666666667,4,2,1,70,0,0
11922,-100,4,2,1,60,0,0
14422,-100,4,2,1,70,0,0
15255,-100,4,2,1,65,0,0
16088,-100,4,2,1,70,0,0
16713,-76.9230769230769,4,2,1,60,0,0
17338,-66.6666666666667,4,2,1,60,0,0
18380,-100,4,2,1,60,0,0
21088,-100,4,2,1,70,0,0
21922,-100,4,2,1,60,0,0
24422,-66.6666666666667,4,2,1,70,0,0
25255,-100,4,2,1,60,0,0
27755,-100,4,2,1,70,0,0
28588,-100,4,2,1,65,0,0
29422,-76.9230769230769,4,2,1,60,0,0
30047,-66.6666666666667,4,2,1,60,0,0
31297,-200,4,2,1,30,0,0
31401,-200,4,2,1,5,0,0
31713,-100,4,2,1,40,0,0
35047,-76.9230769230769,4,2,1,60,0,0
37651,-66.6666666666667,4,2,1,60,0,0
38380,-100,4,2,1,40,0,0
41713,-76.9230769230769,4,2,1,60,0,0
44213,-76.9230769230769,4,2,1,20,0,0
44317,-66.6666666666667,4,2,1,40,0,0
45047,-100,4,2,1,60,0,0
50880,-76.9230769230769,4,2,1,60,0,0
51713,-100,4,2,1,60,0,0
56713,-76.9230769230769,4,2,1,60,0,0
58380,-76.9230769230769,4,2,1,50,0,0
59317,-76.9230769230769,4,2,1,60,0,0
60047,-90.9090909090909,4,2,1,80,0,1
73328,-90.9090909090909,4,2,1,80,0,0
73380,-90.9090909090909,4,2,1,80,0,1
86713,-111.111111111111,4,2,1,60,0,0
86991,-111.111111111111,4,2,1,40,0,0
89213,-76.9230769230769,4,2,1,40,0,0
89283,-76.9230769230769,4,2,1,20,0,0
89630,-76.9230769230769,4,2,1,40,0,0
89699,-76.9230769230769,4,2,1,20,0,0
90047,-111.111111111111,4,2,1,40,0,0
92824,-111.111111111111,4,2,1,5,0,0
92963,-200,4,2,1,30,0,0
93067,-200,4,2,1,5,0,0
93380,-142.857142857143,4,2,1,20,0,0
95880,-100,4,2,1,50,0,0
96713,-76.9230769230769,4,2,1,60,0,0
99317,-66.6666666666667,4,2,1,60,0,0
100047,-100,4,2,1,40,0,0
103380,-76.9230769230769,4,2,1,60,0,0
105047,-100,4,2,1,60,0,0
105359,-100,4,2,1,50,0,0
105984,-66.6666666666667,4,2,1,40,0,0
106609,-66.6666666666667,4,2,1,20,0,0
106713,-125,4,2,1,50,0,0
109630,-76.9230769230769,4,2,1,60,0,0
109838,-76.9230769230769,4,2,1,5,0,0
110047,-100,4,2,1,60,0,0
112547,-76.9230769230769,4,2,1,60,0,0
113380,-100,4,2,1,60,0,0
118380,-76.9230769230769,4,2,1,60,0,0
119630,-50,4,2,1,60,0,0
120047,-76.9230769230769,4,2,1,50,0,0
120984,-76.9230769230769,4,2,1,60,0,0
121713,-90.9090909090909,4,2,1,80,0,1
135047,-125,4,2,1,40,0,0
135255,-125,4,2,1,20,0,0
135463,-125,4,2,1,40,0,0
136192,-125,4,2,1,20,0,0
136297,-50,4,2,1,80,0,1
136505,-90.9090909090909,4,2,1,80,0,1
148380,-125,4,2,1,60,0,0
148588,-125,4,2,1,50,0,0
149526,-100,4,2,1,50,0,0
149734,-100,4,2,1,5,0,0
149838,-100,4,2,1,50,0,0
150047,-100,4,2,1,5,0,0
150255,-125,4,2,1,50,0,0
151192,-100,4,2,1,50,0,0
151401,-100,4,2,1,5,0,0
151505,-100,4,2,1,50,0,0
151713,-100,4,2,1,5,0,0
151922,-125,4,2,1,50,0,0
152860,-100,4,2,1,50,0,0
153067,-100,4,2,1,5,0,0
153172,-100,4,2,1,50,0,0
153276,-100,4,2,1,5,0,0
153380,-100,4,2,1,65,0,0
154630,-76.9230769230769,4,2,1,65,0,0
154942,-76.9230769230769,4,2,1,5,0,0
155047,-90.9090909090909,4,2,2,70,0,1
160047,-66.6666666666667,4,2,2,70,0,1
160880,-50,4,2,2,70,0,1
161297,-66.6666666666667,4,2,2,70,0,1
161713,-90.9090909090909,4,2,2,70,0,1
170880,-76.9230769230769,4,2,2,70,0,1
171922,-90.9090909090909,4,2,2,60,0,1
172547,-90.9090909090909,4,2,2,50,0,1
174213,-83.3333333333333,4,2,2,75,0,1
174422,-76.9230769230769,4,2,2,75,0,1
174630,-71.4285714285714,4,2,2,75,0,1
174838,-66.6666666666667,4,2,2,75,0,1
175047,836.820083682008,4,2,3,50,1,0
175779,-100,4,2,3,5,0,0
175883,818.553888130969,4,2,3,50,1,0
176599,-100,4,2,3,5,0,0
176701,701.754385964912,4,2,3,50,1,0
177315,-100,4,2,3,5,0,0
177402,616.649537512847,4,2,3,50,1,0
177941,-100,4,2,3,5,0,0
178018,508.474576271186,4,2,3,50,1,0
178462,-100,4,2,3,5,0,0
178526,444.444444444444,4,2,3,50,1,0
178914,-100,4,2,3,5,0,0
178970,416.666666666667,4,2,3,50,1,0
179334,-100,4,2,3,5,0,0
179386,352.941176470588,4,2,3,50,1,0
179694,-100,4,2,3,5,0,0
179738,600,4,2,3,50,1,0
179888,-100,4,2,3,5,0,0
180038,571.428571428571,4,2,3,50,1,0
180180,-100,4,2,3,5,0,0
180323,545.454545454546,4,2,3,50,1,0
180459,-100,4,2,3,5,0,0
180595,458.015267175573,4,2,3,50,1,0
180709,-100,4,2,3,5,0,0
180824,416.666666666667,4,2,3,50,1,0
180928,-100,4,2,3,5,0,0
181032,365.853658536585,4,2,3,50,1,0
181123,-100,4,2,3,5,0,0
181214,333.333333333333,4,2,3,50,1,0
181297,-100,4,2,3,5,0,0
181380,307.692307692308,4,2,3,50,1,0
181456,-100,4,2,3,5,0,0
181533,571.428571428571,4,2,3,50,1,0
181675,530.973451327434,4,2,3,50,1,0
181807,517.241379310345,4,2,1,40,1,0
181936,483.870967741935,4,2,1,40,1,0
182056,352.941176470588,4,2,1,40,1,0
182144,333.333333333333,4,2,1,40,1,0
182227,315.789473684211,4,2,1,40,1,0
182305,307.692307692308,4,2,1,40,1,0
182382,600,4,2,1,40,1,0
182532,576.923076923077,4,2,1,40,1,0
182676,555.555555555556,4,2,1,40,1,0
182814,500,4,2,1,40,1,0
182939,480,4,2,1,40,1,0
183059,444.444444444444,4,2,1,40,1,0
183170,413.793103448276,4,2,1,40,1,0
183273,400,4,2,1,40,1,0
183373,375,4,2,1,40,1,0
183466,352.941176470588,4,2,1,40,1,0
183554,342.857142857143,4,2,1,40,1,0
183639,333.333333333333,4,2,1,40,1,0
183722,492.206726825267,4,2,1,20,1,0
184214,416.666666666667,4,2,1,20,1,0
184630,-166.666666666667,4,2,1,20,0,0
185047,416.666666666667,4,2,1,20,1,0
185047,-166.666666666667,4,2,1,20,0,0
185463,-166.666666666667,4,2,1,5,0,0
187963,-100,4,2,1,80,0,0
188380,-90.9090909090909,4,2,1,80,0,1
188797,-125,4,2,1,60,0,0
189422,-90.9090909090909,4,2,1,80,0,0
190255,-125,4,2,1,60,0,0
190880,-90.9090909090909,4,2,1,80,0,0
191713,-90.9090909090909,4,2,1,80,0,1
192130,-125,4,2,1,60,0,0
192755,-90.9090909090909,4,2,1,80,0,0
193588,-125,4,2,1,60,0,0
194213,-90.9090909090909,4,2,1,30,0,0
195047,-90.9090909090909,4,2,1,80,0,1
195463,-125,4,2,1,60,0,0
196088,-90.9090909090909,4,2,1,80,0,0
196922,-125,4,2,1,60,0,0
197547,-90.9090909090909,4,2,1,80,0,0
198380,-90.9090909090909,4,2,1,80,0,1
201661,-90.9090909090909,4,2,1,80,0,0
201713,-90.9090909090909,4,2,1,80,0,1
203797,-90.9090909090909,4,2,1,20,0,1
204213,-125,4,2,1,20,0,1
204630,-90.9090909090909,4,2,1,80,0,1
207547,-125,4,2,1,20,0,0
208067,-125,4,2,1,20,0,0
208380,-90.9090909090909,4,2,1,80,0,1
210047,-90.9090909090909,4,2,1,20,0,1
210255,-90.9090909090909,4,2,1,80,0,1
210880,-90.9090909090909,4,2,1,20,0,1
210984,-90.9090909090909,4,2,1,5,0,1
211088,-90.9090909090909,4,2,1,80,0,1
211297,-125,4,2,1,80,0,0
211609,-125,4,2,1,10,0,0
211713,-90.9090909090909,4,2,1,80,0,1
215047,-142.857142857143,4,2,1,60,0,0
215463,-142.857142857143,4,2,1,5,0,0
217338,-142.857142857143,4,2,1,20,0,0
218484,-142.857142857143,4,2,1,5,0,0
218579,504.201680672269,4,2,1,40,1,0
219083,-83.3333333333333,4,2,1,60,0,0
219696,387.096774193548,4,2,1,60,1,1
219889,-100,4,2,1,25,0,1
220083,-100,4,2,1,60,0,1
220276,-100,4,2,1,25,0,1
220470,-100,4,2,1,60,0,1
220663,-100,4,2,1,25,0,1
221244,-100,4,2,1,60,0,1
221437,-100,4,2,1,25,0,1
221631,-100,4,2,1,60,0,1
221825,-100,4,2,1,25,0,1
222018,-100,4,2,1,60,0,1
222115,-100,4,2,1,25,0,1
222792,-100,4,2,1,60,0,1
222986,-100,4,2,1,25,0,1
223179,-100,4,2,1,60,0,1
223373,-100,4,2,1,25,0,1
223566,-100,4,2,1,60,0,1
223663,-100,4,2,1,25,0,1
224341,-100,4,2,1,60,0,1
224534,-100,4,2,1,25,0,1
224728,-100,4,2,1,60,0,1
224921,-100,4,2,1,25,0,1
225115,-100,4,2,1,60,0,1
225212,-100,4,2,1,25,0,1
225502,-100,4,2,1,60,0,1
226083,-142.857142857143,4,2,1,60,0,1
226470,-142.857142857143,4,2,1,5,0,0

[Colours]
Combo1 : 255,183,255
Combo2 : 0,118,236
Combo3 : 255,147,255
Combo4 : 193,224,255
SliderBorder : 249,0,249
SliderTrackOverride : 0,0,159

[HitObjects]
11,40,241,54,0,L|17:70,1,26.6666666666667,8|8,1:3|1:3,0:0:0:0:
26,99,450,37,6,0:3:0:0:
62,198,658,1,0,0:0:0:0:
120,129,866,2,0,P|156:122|198:134,1,64
217,142,1179,5,2,0:1:0:0:
324,202,1387,2,0,P|345:206|371:199,1,32,2|2,0:1|0:1,0:0:0:0:
437,155,1700,38,0,L|443:113,1,32,0|0,0:0|0:0,0:0:0:0:
404,120,1908,2,0,L|410:78,1,32,0|0,0:0|0:0,0:0:0:0:
368,92,2116,2,0,L|383:5,1,80,0|0,0:0|0:0,0:0:0:0:
256,192,2440,12,0,3739,0:0:0:0:
256,192,3847,6,0,L|251:220,5,26.6666666666667,0|0|0|0|0|0,0:0|0:0|0:0|0:0|0:0|0:0,0:0:0:0:
282,247,4387,2,0,L|272:295,6,40.000001525879,0|0|0|0|0|0|0,0:0|0:0|0:0|0:0|0:0|0:0|0:0,0:0:0:0:
345,207,5047,5,6,0:3:0:0:
474,269,5255,2,0,P|474:290|468:314,1,40,2|0,0:0|0:0,0:0:0:0:
416,358,5463,2,0,P|393:367|373:369,3,40,8|0|0|0,0:0|0:0|0:0|0:0,0:0:0:0:
309,347,5880,1,8,0:0:0:0:
214,238,6088,6,0,P|194:233|175:237,1,40,2|0,0:0|0:0,0:0:0:0:
109,272,6297,2,0,P|89:275|70:271,3,40,8|0|0|0,0:0|0:0|0:0|0:0,0:0:0:0:
5,305,6713,37,10,0:0:0:0:
5,305,6817,2,0,P|-5:265|14:221,1,80,2|2,0:0|0:0,0:0:0:0:
40,164,7130,2,0,P|52:126|42:88,1,80,10|2,0:0|0:0,0:0:0:0:
3,27,7442,2,0,P|40:14|78:24,1,80,2|2,0:0|0:0,0:0:0:0:
141,70,7755,6,0,P|163:73|188:68,1,40,2|0,0:0|0:0,0:0:0:0:
242,26,7963,1,6,0:3:0:0:
280,22,8067,1,0,0:0:0:0:
303,52,8171,1,0,0:0:0:0:
290,88,8275,1,0,0:0:0:0:
253,96,8379,1,0,0:0:0:0:
116,49,8588,38,0,P|94:48|71:55,1,40,2|0,0:0|0:0,0:0:0:0:
27,107,8796,2,0,P|17:129|15:149,3,40,8|0|0|0,0:0|0:0|0:0|0:0,0:0:0:0:
38,214,9213,1,8,0:0:0:0:
149,306,9422,6,0,P|169:311|188:307,1,40,2|0,0:0|0:0,0:0:0:0:
254,272,9631,2,0,P|274:269|293:273,3,40,8|0|0|0,0:0|0:0|0:0|0:0,0:0:0:0:
363,301,10047,38,0,P|370:275|366:249,1,51.999997619629,10|0,0:0|0:0,0:0:0:0:
325,190,10255,1,8,0:3:0:0:
325,190,10359,1,8,0:3:0:0:
325,190,10463,1,8,0:3:0:0:
155,124,10672,1,8,0:3:0:0:
155,124,10776,2,0,P|147:149|152:176,1,51.999997619629,8|8,0:3|0:0,0:0:0:0:
285,356,11088,5,2,0:0:0:0:
285,356,11192,1,0,0:0:0:0:
285,356,11297,2,0,P|319:364|348:356,1,60.0000022888184,2|0,0:3|0:0,0:0:0:0:
375,277,11505,2,0,P|341:269|312:277,1,60.0000022888184,2|0,0:3|0:0,0:0:0:0:
236,290,11713,1,6,0:3:0:0:
106,354,11922,38,0,P|84:354|61:348,1,40,2|0,0:0|0:0,0:0:0:0:
17,296,12130,2,0,P|7:273|5:253,3,40,8|0|0|0,0:0|0:0|0:0|0:0,0:0:0:0:
28,189,12547,1,8,0:0:0:0:
138,97,12755,6,0,P|158:92|177:96,1,40,2|0,0:0|0:0,0:0:0:0:
243,131,12964,2,0,P|263:134|282:130,3,40,8|0|0|0,0:0|0:0|0:0|0:0,0:0:0:0:
347,93,13380,37,10,0:0:0:0:
347,93,13484,2,0,P|357:133|338:177,1,80,2|2,0:0|0:0,0:0:0:0:
300,226,13797,2,0,P|288:264|298:302,1,80,10|2,0:0|0:0,0:0:0:0:
337,361,14109,2,0,P|300:374|262:364,1,80,2|2,0:0|0:0,0:0:0:0:
192,334,14422,6,0,P|170:331|145:336,1,40,2|0,0:0|0:0,0:0:0:0:
91,378,14630,1,6,0:3:0:0:
53,382,14734,1,0,0:0:0:0:
30,352,14838,1,0,0:0:0:0:
43,316,14942,1,0,0:0:0:0:
80,308,15046,1,0,0:0:0:0:
231,342,15255,37,2,0:0:0:0:
231,342,15359,1,0,0:0:0:0:
231,342,15463,2,0,P|274:352|310:341,1,80,10|2,0:0|0:0,0:0:0:0:
370,381,15776,2,0,P|379:342|369:304,1,80,2|2,0:0|0:0,0:0:0:0:
389,235,16088,2,0,P|370:231|349:235,1,40,2|0,0:0|0:0,0:0:0:0:
278,248,16297,5,8,0:0:0:0:
240,261,16401,1,0,0:0:0:0:
201,259,16505,1,0,0:0:0:0:
165,241,16609,1,0,0:0:0:0:
140,211,16713,38,0,P|135:191|138:170,10,25.9999988098145,10|0|0|0|0|0|0|0|10|0|0,0:0|0:0|0:0|0:0|0:0|0:0|0:0|0:0|0:0|0:0|0:0,0:0:0:0:
108,278,17338,6,0,P|138:286|170:278,1,60.0000022888184,2|2,1:3|1:2,0:0:0:0:
240,261,17547,1,2,1:3:0:0:
336,127,17755,1,2,1:3:0:0:
336,292,17963,1,2,1:3:0:0:
240,158,18172,1,2,1:3:0:0:
396,209,18380,37,14,0:0:0:0:
240,261,18588,2,0,P|219:261|195:255,1,40,2|0,0:0|0:0,0:0:0:0:
151,203,18796,2,0,P|142:180|140:160,3,40,8|0|0|0,0:0|0:0|0:0|0:0,0:0:0:0:
162,96,19213,1,8,0:0:0:0:
303,118,19421,6,0,P|323:123|342:119,1,40,2|0,0:0|0:0,0:0:0:0:
408,84,19630,2,0,P|428:81|447:85,3,40,8|0|0|0,0:0|0:0|0:0|0:0,0:0:0:0:
512,48,20046,37,10,0:0:0:0:
512,48,20150,2,0,P|522:88|503:132,1,80,2|2,0:0|0:0,0:0:0:0:
465,184,20463,2,0,P|453:222|463:260,1,80,10|2,0:0|0:0,0:0:0:0:
504,322,20775,2,0,P|467:335|429:325,1,80,2|2,0:0|0:0,0:0:0:0:
360,301,21088,6,0,P|338:298|313:303,1,40,2|0,0:0|0:0,0:0:0:0:
259,345,21296,1,6,0:3:0:0:
221,349,21400,1,0,0:0:0:0:
198,319,21504,1,0,0:0:0:0:
211,283,21608,1,0,0:0:0:0:
248,275,21712,1,0,0:0:0:0:
387,313,21921,38,0,P|409:314|432:307,1,40,2|0,0:0|0:0,0:0:0:0:
476,255,22129,2,0,P|486:233|488:213,3,40,0|0|0|0,0:0|0:0|0:0|0:0,0:0:0:0:
465,148,22546,1,8,0:0:0:0:
346,65,22755,6,0,P|326:60|307:64,1,40,2|0,0:0|0:0,0:0:0:0:
241,99,22964,2,0,P|221:102|202:98,3,40,8|0|0|0,0:0|0:0|0:0|0:0,0:0:0:0:
140,61,23380,37,10,0:0:0:0:
140,61,23484,2,0,P|130:101|149:145,1,80,2|2,0:0|0:0,0:0:0:0:
187,197,23797,2,0,P|199:235|189:273,1,80,2|2,0:0|0:0,0:0:0:0:
148,335,24109,2,0,P|185:348|223:338,1,80,2|2,0:0|0:0,0:0:0:0:
322,293,24421,5,2,0:0:0:0:
322,293,24525,1,0,0:0:0:0:
322,293,24630,2,0,P|356:285|385:293,1,60.0000022888184,2|0,0:3|0:0,0:0:0:0:
358,375,24838,2,0,P|324:383|295:375,1,60.0000022888184,2|0,0:3|0:0,0:0:0:0:
223,337,25046,1,6,0:3:0:0:
127,228,25255,38,0,P|127:206|133:183,1,40,2|0,0:0|0:0,0:0:0:0:
185,139,25463,2,0,P|208:129|228:127,3,40,8|0|0|0,0:0|0:0|0:0|0:0,0:0:0:0:
295,128,25880,1,8,0:0:0:0:
321,281,26088,6,0,P|301:286|282:282,1,40,2|0,0:0|0:0,0:0:0:0:
216,247,26297,2,0,P|196:244|177:248,3,40,8|0|0|0,0:0|0:0|0:0|0:0,0:0:0:0:
112,285,26713,37,10,0:0:0:0:
112,285,26817,2,0,P|102:245|121:201,1,80,2|2,0:0|0:0,0:0:0:0:
159,152,27130,2,0,P|171:114|161:76,1,80,10|2,0:0|0:0,0:0:0:0:
122,17,27442,2,0,P|159:4|197:14,1,80,2|2,0:0|0:0,0:0:0:0:
263,51,27755,6,0,P|285:54|310:49,1,40,2|0,0:0|0:0,0:0:0:0:
364,7,27963,1,6,0:3:0:0:
402,3,28067,1,0,0:0:0:0:
425,33,28171,1,0,0:0:0:0:
412,69,28275,1,0,0:0:0:0:
375,77,28379,1,0,0:0:0:0:
233,49,28588,37,2,0:0:0:0:
233,49,28692,1,0,0:0:0:0:
233,49,28796,2,0,P|190:39|154:50,1,80,10|2,0:0|0:0,0:0:0:0:
94,10,29109,2,0,P|85:49|95:87,1,80,2|2,0:0|0:0,0:0:0:0:
75,156,29421,2,0,P|94:160|115:156,1,40,2|0,0:0|0:0,0:0:0:0:
185,143,29630,6,0,L|192:208,1,51.999997619629,2|0,0:3|0:0,0:0:0:0:
265,197,29838,2,0,L|272:262,1,51.999997619629,2|0,0:3|0:0,0:0:0:0:
294,318,30047,37,2,1:3:0:0:
458,227,30255,1,2,1:3:0:0:
298,130,30463,1,2,1:3:0:0:
298,130,31297,38,0,L|298:166,1,20,4|0,0:1|1:0,0:0:0:0:
287,329,31713,37,12,0:3:0:0:
287,329,31922,1,8,0:3:0:0:
374,318,32130,1,8,0:3:0:0:
461,307,32338,1,0,0:0:0:0:
409,235,32547,5,8,0:3:0:0:
321,246,32755,1,0,0:0:0:0:
357,166,32963,2,0,P|315:156|274:171,1,80,8|6,0:3|0:1,0:0:0:0:
216,226,33380,37,8,0:3:0:0:
216,226,33589,1,8,0:3:0:0:
192,141,33797,1,8,0:3:0:0:
192,141,34005,1,0,0:0:0:0:
107,165,34213,5,8,0:3:0:0:
107,165,34422,1,0,0:0:0:0:
126,250,34630,1,14,0:0:0:0:
126,250,34838,2,0,L|117:308,1,40,0|0,0:0|0:0,0:0:0:0:
110,364,35047,5,14,1:2:0:0:
264,341,35255,1,2,1:2:0:0:
264,341,35359,2,0,L|315:331,1,51.999997619629,2|8,1:2|1:2,0:0:0:0:
386,273,35567,1,2,1:2:0:0:
386,273,35671,2,0,L|277:252,1,103.999995239258,2|8,1:2|1:2,0:0:0:0:
208,215,35984,6,0,P|199:239|204:270,2,51.999997619629,2|2|2,1:2|1:2|1:2,0:0:0:0:
272,172,36297,2,0,P|281:127|242:148,1,103.999995239258,14|2,1:2|1:2,0:0:0:0:
254,329,36713,37,14,1:2:0:0:
124,241,36922,1,2,1:2:0:0:
124,241,37026,2,0,L|73:251,1,51.999997619629,2|8,1:2|0:0,0:0:0:0:
3,309,37234,1,2,1:2:0:0:
3,309,37338,2,0,L|105:329,1,103.999995239258,2|8,1:2|1:2,0:0:0:0:
173,298,37651,6,0,P|182:328|175:360,2,60.0000022888184,0|0|0,0:0|0:0|0:0,0:0:0:0:
110,190,37963,2,0,P|64:193|116:196,1,180.000006866455,6|0,0:0|1:0,0:0:0:0:
194,162,38380,5,12,0:3:0:0:
194,162,38589,1,8,0:3:0:0:
281,173,38797,1,8,0:3:0:0:
368,184,39005,1,0,0:0:0:0:
316,256,39214,5,8,0:3:0:0:
228,245,39422,1,0,0:0:0:0:
264,325,39630,2,0,P|222:335|181:320,1,80,8|6,0:3|0:1,0:0:0:0:
133,252,40047,37,8,0:3:0:0:
133,252,40256,1,8,0:3:0:0:
115,167,40463,1,8,0:3:0:0:
115,167,40672,1,0,0:0:0:0:
29,180,40880,5,8,0:3:0:0:
29,180,41089,1,0,0:0:0:0:
46,267,41297,1,14,0:0:0:0:
46,267,41505,2,0,L|57:327,1,40,0|0,0:0|0:0,0:0:0:0:
73,381,41713,5,14,1:2:0:0:
223,342,41921,1,2,1:2:0:0:
223,342,42025,2,0,L|274:332,1,51.999997619629,2|8,1:2|1:2,0:0:0:0:
345,274,42233,1,2,1:2:0:0:
345,274,42338,2,0,L|236:253,1,103.999995239258,2|8,1:2|1:2,0:0:0:0:
171,217,42650,6,0,P|162:241|167:272,2,51.999997619629,2|2|2,1:2|1:2|1:2,0:0:0:0:
237,169,42963,2,0,P|246:124|208:145,1,103.999995239258,14|2,1:2|1:2,0:0:0:0:
229,317,43379,37,14,1:2:0:0:
357,228,43588,1,2,1:2:0:0:
357,228,43692,2,0,L|408:238,1,51.999997619629,2|8,1:2|1:2,0:0:0:0:
479,296,43900,1,2,1:2:0:0:
479,296,44005,1,2,1:2:0:0:
300,329,44317,6,0,P|269:334|230:312,2,60.0000022888184,2|0|2,0:1|0:0|0:1,0:0:0:0:
285,251,44630,2,0,P|310:194|309:260,1,160.000006103516,6|0,0:1|0:0,0:0:0:0:
242,324,45047,38,0,L|154:326,1,80,6|0,0:0|0:0,0:0:0:0:
93,349,45359,2,0,P|88:326|92:307,1,40,2|8,0:0|0:0,0:0:0:0:
152,168,45672,2,0,L|240:166,1,80,2|8,0:0|0:0,0:0:0:0:
301,143,45984,2,0,P|306:166|302:185,1,40,2|0,0:0|0:0,0:0:0:0:
246,297,46297,2,0,P|243:316|248:335,3,40,10|0|0|0,0:0|0:0|0:0|0:0,0:0:0:0:
317,310,46713,6,0,P|354:301|401:314,1,80,6|0,0:0|0:0,0:0:0:0:
464,335,47026,2,0,L|468:283,1,40,2|8,0:0|0:0,0:0:0:0:
477,167,47338,2,0,P|440:176|393:163,1,80,2|8,0:0|0:0,0:0:0:0:
330,142,47651,2,0,L|326:194,1,40,2|0,0:0|0:0,0:0:0:0:
313,308,47963,2,0,L|309:360,3,40,10|0|0|0,0:0|0:0|0:0|0:0,0:0:0:0:
239,322,48380,38,0,B|200:312|200:312|161:323,1,80,6|0,0:0|0:0,0:0:0:0:
93,342,48692,2,0,P|90:322|93:302,1,40,2|8,0:0|0:0,0:0:0:0:
200,232,49005,2,0,B|239:242|239:242|277:230,1,80,2|8,0:0|0:0,0:0:0:0:
346,212,49317,2,0,P|348:231|345:251,1,40,2|0,0:0|0:0,0:0:0:0:
293,368,49630,1,14,0:0:0:0:
176,314,49838,1,2,0:0:0:0:
345,251,50047,5,6,0:0:0:0:
228,198,50255,1,2,0:0:0:0:
228,197,50359,2,0,P|225:174|229:155,1,40,2|8,0:0|0:0,0:0:0:0:
267,35,50672,1,2,0:0:0:0:
96,27,50880,38,0,P|90:51|96:78,1,51.999997619629,8|0,3:0|3:0,0:0:0:0:
144,131,51088,2,0,P|149:156|143:181,1,51.999997619629,8|0,3:0|3:0,0:0:0:0:
84,222,51297,6,0,P|78:246|84:273,1,51.999997619629,8|0,3:0|3:0,0:0:0:0:
134,324,51505,2,0,P|139:349|133:374,1,51.999997619629,8|0,3:0|3:0,0:0:0:0:
216,345,51713,38,0,L|303:333,1,80,6|0,0:0|0:0,0:0:0:0:
367,346,52025,2,0,P|368:322|361:304,1,40,2|8,0:0|0:0,0:0:0:0:
288,202,52338,2,0,L|200:213,1,80,2|8,0:0|0:0,0:0:0:0:
137,201,52650,2,0,P|135:224|142:242,1,40,2|0,0:0|0:0,0:0:0:0:
216,345,52963,2,0,P|220:363|218:383,3,40,10|0|0|0,0:0|0:0|0:0|0:0,0:0:0:0:
147,368,53379,6,0,P|110:359|63:372,1,80,6|0,0:0|0:0,0:0:0:0:
22,314,53692,2,0,L|18:262,1,40,2|8,0:0|0:0,0:0:0:0:
90,167,54005,2,0,P|127:176|174:163,1,80,2|8,0:0|0:0,0:0:0:0:
215,221,54318,2,0,L|219:273,1,40,2|0,0:0|0:0,0:0:0:0:
344,277,54629,2,0,L|348:329,3,40,10|0|0|0,0:0|0:0|0:0|0:0,0:0:0:0:
296,369,55047,37,6,0:0:0:0:
189,298,55255,1,0,0:0:0:0:
153,279,55359,1,0,0:0:0:0:
114,279,55463,1,8,0:0:0:0:
79,297,55567,1,0,0:0:0:0:
56,330,55672,2,0,P|54:352|59:370,1,40,0|0,0:0|0:0,0:0:0:0:
133,352,55880,6,0,L|133:231,1,120,10|2,0:0|0:0,0:0:0:0:
94,171,56297,2,0,P|130:158|174:172,1,80,8|2,0:0|0:0,0:0:0:0:
340,299,56713,37,12,1:2:0:0:
133,232,56922,1,6,1:2:0:0:
295,85,57130,1,12,1:2:0:0:
340,299,57338,2,0,P|286:312|241:287,1,103.999995239258,6|8,1:2|1:2,0:0:0:0:
133,232,57685,6,0,P|116:228|98:232,3,34.6666650797527,8|8|8|8,1:3|1:3|1:3|1:3,0:0:0:0:
61,250,57963,2,0,P|23:232|61:217,1,103.999995239258,12|12,0:0|0:0,0:0:0:0:
249,295,58380,37,4,0:1:0:0:
249,295,58588,1,4,0:1:0:0:
408,245,58797,5,4,0:1:0:0:
408,245,59005,1,4,0:1:0:0:
278,141,59213,38,0,P|271:114|277:92,3,51.999997619629,4|0|0|0,0:1|0:0|0:0|0:0,0:0:0:0:
327,37,59630,1,0,0:0:0:0:
364,20,59734,1,0,0:0:0:0:
406,17,59838,1,0,0:0:0:0:
446,28,59942,1,0,0:0:0:0:
480,52,60047,6,0,L|476:190,1,132.00000402832,6|0,0:3|0:0,0:0:0:0:
468,258,60463,2,0,P|424:245|372:260,1,88.000002685547,8|2,0:0|0:0,0:0:0:0:
240,300,60880,2,0,P|215:304|188:296,3,44.0000013427735,10|0|0|0,0:0|0:0|0:0|0:0,0:0:0:0:
126,272,61297,1,8,0:0:0:0:
251,191,61505,38,0,P|262:143|250:106,1,88.000002685547,2|8,0:0|0:0,0:0:0:0:
126,22,61922,1,2,0:0:0:0:
250,107,62130,2,0,P|298:118|335:106,1,88.000002685547,10|0,0:0|0:0,0:0:0:0:
464,33,62547,2,0,P|512:25|475:58,1,132.00000402832,10|0,0:0|0:0,0:0:0:0:
396,56,62963,1,10,0:0:0:0:
361,36,63067,1,0,0:0:0:0:
322,30,63171,1,8,0:0:0:0:
283,38,63275,1,0,0:0:0:0:
249,58,63380,6,0,P|236:96|252:147,1,88.000002685547,6|2,0:0|0:0,0:0:0:0:
327,267,63797,2,0,P|340:229|324:178,1,88.000002685547,6|2,0:0|0:0,0:0:0:0:
180,170,64213,2,0,P|155:174|124:167,3,44.0000013427735,10|0|0|0,0:0|0:0|0:0|0:0,0:0:0:0:
65,146,64630,1,8,0:0:0:0:
246,127,64838,38,0,P|257:175|245:212,1,88.000002685547,2|8,0:0|0:0,0:0:0:0:
121,296,65255,1,2,0:0:0:0:
245,211,65463,2,0,P|293:200|330:212,1,88.000002685547,8|0,0:0|0:0,0:0:0:0:
459,285,65880,2,0,P|507:292|470:259,1,132.00000402832,10|0,0:0|0:0,0:0:0:0:
391,262,66296,1,10,0:0:0:0:
357,281,66400,1,0,0:0:0:0:
318,287,66504,1,8,0:0:0:0:
279,280,66608,1,0,0:0:0:0:
245,260,66713,6,0,P|231:222|247:171,1,88.000002685547,6|2,0:0|0:0,0:0:0:0:
322,51,67130,2,0,P|335:88|319:139,1,88.000002685547,6|2,0:0|0:0,0:0:0:0:
175,148,67547,2,0,P|150:144|119:151,3,44.0000013427735,10|0|0|0,0:0|0:0|0:0|0:0,0:0:0:0:
60,172,67963,1,8,0:0:0:0:
15,315,68172,38,0,P|56:327|99:316,1,88.000002685547,2|8,0:0|0:0,0:0:0:0:
238,264,68588,1,2,0:0:0:0:
99,316,68797,2,0,P|86:274|97:231,1,88.000002685547,10|0,0:0|0:0,0:0:0:0:
198,121,69213,2,0,P|209:57|195:120,1,176.000005371094,10|8,0:0|0:0,0:0:0:0:
244,272,69838,5,8,0:0:0:0:
244,272,69942,1,0,0:0:0:0:
244,272,70047,1,2,0:3:0:0:
354,175,70255,1,2,0:3:0:0:
383,319,70463,1,2,0:3:0:0:
439,158,70672,37,2,0:0:0:0:
468,302,70880,1,8,3:2:0:0:
329,255,71088,2,0,P|287:245|241:256,1,88.000002685547,8|8,3:2|3:0,0:0:0:0:
103,282,71505,5,2,0:0:0:0:
103,282,71609,1,2,0:0:0:0:
103,282,71714,1,2,0:3:0:0:
213,185,71922,1,2,0:3:0:0:
242,329,72130,1,2,0:3:0:0:
32,256,72338,37,6,0:3:0:0:
213,185,72546,1,6,0:3:0:0:
59,330,72755,1,6,0:3:0:0:
240,259,72963,2,0,P|244:275|242:296,6,22.0000006713867,6|0|0|0|0|0|0,0:3|0:0|0:0|0:0|0:0|0:0|0:0,0:0:0:0:
213,185,73380,6,0,P|183:157|243:160,1,132.00000402832,6|0,0:3|0:0,0:0:0:0:
290,202,73797,2,0,L|400:202,1,88.000002685547,10|2,0:0|0:0,0:0:0:0:
510,271,74213,2,0,P|516:293|511:314,3,44.0000013427735,10|0|0|0,0:0|0:0|0:0|0:0,0:0:0:0:
483,382,74629,1,8,0:0:0:0:
349,313,74838,38,0,P|305:301|262:315,1,88.000002685547,2|8,0:0|0:0,0:0:0:0:
128,374,75255,1,2,0:0:0:0:
265,312,75463,2,0,P|277:268|263:225,1,88.000002685547,10|0,0:0|0:0,0:0:0:0:
146,136,75880,2,0,P|134:180|148:223,1,88.000002685547,10|2,0:0|0:0,0:0:0:0:
265,312,76297,1,10,0:0:0:0:
299,331,76401,1,0,0:0:0:0:
338,337,76505,1,0,0:0:0:0:
377,330,76609,1,0,0:0:0:0:
411,310,76714,6,0,P|425:272|409:221,1,88.000002685547,6|2,0:0|0:0,0:0:0:0:
313,116,77130,2,0,P|299:154|315:205,1,88.000002685547,6|2,0:0|0:0,0:0:0:0:
411,310,77547,2,0,P|416:330|411:359,3,44.0000013427735,10|0|0|0,0:0|0:0|0:0|0:0,0:0:0:0:
341,331,77963,1,8,0:0:0:0:
224,236,78172,38,0,P|180:224|137:238,1,88.000002685547,2|8,0:0|0:0,0:0:0:0:
3,297,78589,1,2,0:0:0:0:
140,235,78797,2,0,P|152:191|138:148,1,88.000002685547,10|0,0:0|0:0,0:0:0:0:
21,59,79214,2,0,P|9:103|23:146,1,88.000002685547,10|10,0:0|0:0,0:0:0:0:
140,235,79631,1,8,0:0:0:0:
174,254,79735,1,8,0:0:0:0:
213,260,79839,1,8,0:0:0:0:
252,253,79943,1,8,0:0:0:0:
286,233,80048,6,0,P|300:195|284:144,1,88.000002685547,6|0,0:0|0:0,0:0:0:0:
214,21,80463,2,0,P|200:59|216:110,1,88.000002685547,10|2,0:0|0:0,0:0:0:0:
359,126,80880,2,0,P|386:130|416:122,3,44.0000013427735,10|0|0|0,0:0|0:0|0:0|0:0,0:0:0:0:
473,105,81296,1,8,0:0:0:0:
435,285,81505,37,6,0:0:0:0:
435,285,81922,5,6,0:0:0:0:
435,285,82338,37,6,0:0:0:0:
147,202,82755,5,6,0:0:0:0:
279,133,82963,2,0,P|291:174|276:223,1,88.000002685547,6|2,0:0|0:0,0:0:0:0:
115,282,83380,37,6,0:0:0:0:
241,361,83588,2,0,P|266:367|298:356,1,44.0000013427735,2|2,0:0|0:0,0:0:0:0:
396,264,83901,2,0,P|370:257|339:269,1,44.0000013427735,2|2,0:0|0:0,0:0:0:0:
205,282,84213,5,6,0:0:0:0:
260,142,84422,1,2,0:0:0:0:
353,261,84630,1,10,0:0:0:0:
251,339,84838,2,0,P|206:355|158:336,1,88.000002685547,2|8,0:0|0:0,0:0:0:0:
21,176,85255,38,0,P|14:150|26:119,1,44.0000013427735,2|2,0:0|0:0,0:0:0:0:
118,22,85568,2,0,P|124:47|113:79,1,44.0000013427735,2|2,0:0|0:0,0:0:0:0:
21,176,85880,5,8,0:0:0:0:
52,190,85984,1,8,0:0:0:0:
86,201,86088,1,8,0:0:0:0:
121,203,86192,1,8,0:0:0:0:
155,193,86296,1,8,0:0:0:0:
185,175,86400,1,8,0:0:0:0:
214,156,86505,1,8,0:0:0:0:
247,144,86609,1,8,0:0:0:0:
282,141,86713,6,0,P|329:138|376:165,1,95.9999970703126,12|2,1:3|1:0,0:0:0:0:
452,207,87130,2,0,B|455:204|455:204|451:200|451:200|455:196|455:196|451:192|451:192|455:188|455:188|451:184|451:184|455:180|455:180|451:176|451:176|455:172|455:172|451:168|451:168|455:164|455:164|451:160|451:160|455:156|455:156|451:152|451:152|455:148|455:148|451:144|451:144|455:140|455:140|451:136|451:136|455:132|455:132|451:127|451:127|455:123|455:123|450:120|450:120,1,119.999996337891,10|2,0:1|1:0,0:0:0:0:
453,73,87547,2,0,P|406:76|359:49,1,95.9999970703126,2|2,3:1|1:2,0:0:0:0:
272,59,87963,2,0,P|270:43|274:25,2,23.9999992675781,2|2|2,1:0|1:0|1:0,0:0:0:0:
319,134,88241,1,8,1:0:0:0:
377,207,88380,6,0,P|414:221|392:185,1,95.9999970703126,8|2,3:1|3:1,0:0:0:0:
319,134,88797,2,0,P|269:150|216:131,1,95.9999970703126,2|2,1:0|3:1,0:0:0:0:
121,183,89213,37,2,1:0:0:0:
121,183,89283,2,0,P|110:144|122:100,2,69.3333301595054,8|8|8,1:0|1:0|1:0,0:0:0:0:
79,243,89630,1,2,1:0:0:0:
79,243,89700,2,0,L|3:251,2,69.3333301595054,8|8|8,1:0|1:0|1:0,0:0:0:0:
127,294,90047,6,0,P|174:291|221:318,1,95.9999970703126,2|2,3:1|3:1,0:0:0:0:
297,360,90464,2,0,B|300:357|300:357|296:353|296:353|300:349|300:349|296:345|296:345|300:341|300:341|296:337|296:337|300:333|300:333|296:329|296:329|300:325|300:325|296:321|296:321|300:317|300:317|296:313|296:313|300:309|300:309|296:305|296:305|300:301|300:301|296:297|296:297|300:293|300:293|296:289|296:289|300:285|300:285|296:280|296:280|300:276|300:276|295:273|295:273,1,119.999996337891,2|2,3:1|1:0,0:0:0:0:
298,226,90881,2,0,P|251:229|204:202,1,95.9999970703126,2|2,3:1|3:1,0:0:0:0:
117,212,91297,2,0,P|115:196|119:178,2,23.9999992675781,2|2|2,1:0|1:0|1:0,0:0:0:0:
164,287,91575,37,8,3:1:0:0:
218,352,91714,2,0,P|232:368|243:350,2,47.9999985351563,8|8|8,1:0|1:0|3:1,0:0:0:0:
164,287,92130,2,8,B|165:278|165:278|165:270|165:270|161:274|161:274|161:266|161:266|165:262|165:262|161:258|161:258|165:254|165:254|161:250|161:250|165:246|165:246|161:242|161:242|165:238|165:238|161:234|161:234|165:230|165:230|161:226|161:226|165:222|165:222|161:218|161:218|165:214|165:214,1,95.9999970703126,10|2,3:1|1:2,0:0:0:0:
245,216,92547,2,8,B|246:207|246:207|246:199|246:199|242:203|242:203|242:195|242:195|246:191|246:191|242:187|242:187|246:183|246:183|242:179|242:179|246:175|246:175|242:171|242:171|246:167|246:167|242:163|242:163|246:159|246:159|242:155|242:155|246:151|246:151|242:147|242:147|246:143|246:143,1,95.9999970703126,10|0,3:1|1:0,0:0:0:0:
323,114,92963,6,0,L|353:114,1,20,4|0,1:0|1:0,0:0:0:0:
481,191,93380,38,0,L|473:262,1,55.9999982910157,8|8,1:3|1:3,0:0:0:0:
404,212,93797,2,0,L|396:283,1,55.9999982910157,8|8,1:3|1:3,0:0:0:0:
329,347,94213,6,0,L|321:276,1,55.9999982910157,8|8,1:3|1:3,0:0:0:0:
252,326,94630,2,0,L|244:255,1,55.9999982910157,8|8,1:3|1:3,0:0:0:0:
180,179,95047,38,0,L|172:250,1,55.9999982910157,8|8,1:3|1:3,0:0:0:0:
103,200,95463,2,0,L|95:271,1,55.9999982910157,8|8,1:3|1:3,1:0:0:0:
236,349,95880,6,0,L|244:269,1,80,12|0,1:3|0:0,0:0:0:0:
322,325,96297,2,0,L|330:245,1,80,8|0,0:3|0:0,0:0:0:0:
351,30,96713,5,14,1:2:0:0:
197,53,96921,1,2,1:2:0:0:
197,53,97025,2,0,L|146:63,1,51.999997619629,2|8,1:2|1:2,0:0:0:0:
75,121,97233,1,2,1:2:0:0:
75,121,97338,2,0,L|184:142,1,103.999995239258,2|8,1:2|1:2,0:0:0:0:
253,179,97650,6,0,P|262:155|257:124,2,51.999997619629,2|2|2,1:2|1:2|1:2,0:0:0:0:
189,222,97963,2,0,P|180:267|219:246,1,103.999995239258,14|2,1:2|1:2,0:0:0:0:
253,179,98379,37,14,1:2:0:0:
123,91,98588,1,2,1:2:0:0:
123,91,98692,2,0,L|72:101,1,51.999997619629,2|8,1:2|1:2,0:0:0:0:
2,159,98900,1,2,1:2:0:0:
2,159,99004,2,0,L|104:179,1,103.999995239258,2|8,1:2|1:2,0:0:0:0:
172,148,99317,6,0,P|181:178|174:210,2,60.0000022888184
109,40,99629,2,0,P|63:43|115:46,1,180.000006866455,6|0,0:0|1:0,0:0:0:0:
197,34,100046,5,12,0:3:0:0:
197,34,100255,1,8,0:3:0:0:
284,45,100463,1,8,0:3:0:0:
371,56,100671,1,0,0:0:0:0:
361,144,100880,5,8,0:3:0:0:
274,133,101088,1,0,0:0:0:0:
187,122,101297,2,0,L|200:209,1,80,8|6,0:3|0:1,0:0:0:0:
222,291,101713,37,8,0:3:0:0:
222,291,101922,1,8,0:3:0:0:
307,273,102129,1,0,0:0:0:0:
307,273,102338,1,0,0:0:0:0:
394,254,102547,5,8,0:3:0:0:
394,254,102756,1,0,0:0:0:0:
479,236,102963,1,14,0:0:0:0:
479,236,103172,2,0,L|469:181,1,40,0|0,0:0|0:0,0:0:0:0:
449,119,103379,5,14,1:2:0:0:
299,158,103587,1,2,1:2:0:0:
299,158,103692,2,0,L|248:168,1,51.999997619629,2|8,1:2|1:2,0:0:0:0:
177,226,103901,1,2,1:2:0:0:
177,226,104005,2,0,L|286:247,1,103.999995239258,2|8,1:2|1:2,0:0:0:0:
351,283,104317,6,0,P|360:259|355:228,2,51.999997619629,2|2|2,1:2|1:2|1:2,0:0:0:0:
285,331,104629,2,0,P|276:376|314:355,1,103.999995239258,14|2,1:2|1:2,0:0:0:0:
395,169,105047,38,0,P|357:159|319:170,1,80,14|2,1:2|1:2,0:0:0:0:
257,205,105359,2,0,P|218:215|180:205,1,80,2|2,1:2|1:2,0:0:0:0:
121,166,105672,2,0,P|114:177|111:198,2,26.6666666666667,8|8|8,1:3|1:3|1:3,0:0:0:0:
249,64,105985,5,2,0:1:0:0:
249,64,106089,1,2,0:1:0:0:
249,64,106193,1,2,0:1:0:0:
249,64,106297,2,0,P|226:1|211:67,1,180.000006866455,6|0,1:0|1:0,0:0:0:0:
270,137,106714,70,0,L|321:130,1,32,0|0,0:0|0:0,0:0:0:0:
292,210,107027,2,0,L|326:217,1,32,0|0,0:0|0:0,0:0:0:0:
287,288,107339,2,0,L|316:311,1,32,0|0,0:0|0:0,0:0:0:0:
250,353,107652,2,0,L|256:411,1,32,0|0,0:0|0:0,0:0:0:0:
175,371,107964,2,0,P|147:366|111:373,1,64,0|0,0:0|0:0,0:0:0:0:
8,254,108381,70,0,L|1:203,1,32,0|0,0:0|0:0,0:0:0:0:
81,232,108692,2,0,L|88:198,1,32,0|0,0:0|0:0,0:0:0:0:
159,237,109005,2,0,L|182:208,1,32,0|0,0:0|0:0,0:0:0:0:
224,274,109317,2,0,L|282:268,1,32,0|0,0:0|0:0,0:0:0:0:
413,357,109630,6,0,P|461:370|529:345,1,103.999995239258,6|0,1:3|0:0,0:0:0:0:
498,229,110048,6,0,B|459:219|459:219|420:230,1,80,6|0,0:0|0:0,0:0:0:0:
352,249,110359,2,0,P|349:229|352:209,1,40,2|8,0:0|0:0,0:0:0:0:
365,81,110672,2,0,B|404:91|404:91|442:79,1,80,2|8,0:0|0:0,0:0:0:0:
511,61,110984,2,0,P|513:80|510:100,1,40,2|0,0:0|0:0,0:0:0:0:
442,210,111297,1,14,0:0:0:0:
317,181,111505,1,2,0:0:0:0:
411,334,111714,37,6,0:0:0:0:
286,304,111922,1,2,0:0:0:0:
286,305,112026,2,0,P|265:302|244:306,1,40,2|8,0:0|0:0,0:0:0:0:
136,371,112339,1,2,0:0:0:0:
60,221,112548,6,0,P|84:215|111:221,1,51.999997619629,8|0,3:0|3:0,0:0:0:0:
164,269,112755,2,0,P|189:274|214:268,1,51.999997619629,8|0,3:0|3:0,0:0:0:0:
255,209,112964,38,0,P|279:203|306:209,1,51.999997619629,8|0,3:0|3:0,0:0:0:0:
357,259,113172,2,0,P|382:264|407:258,1,51.999997619629,8|0,3:0|3:0,0:0:0:0:
476,226,113381,6,0,L|464:139,1,80,6|0,0:0|0:0,0:0:0:0:
477,75,113692,2,0,P|453:74|435:81,1,40,2|8,0:0|0:0,0:0:0:0:
333,154,114005,2,0,L|344:242,1,80,2|8,0:0|0:0,0:0:0:0:
332,305,114317,2,0,P|355:307|373:300,1,40,2|0,0:0|0:0,0:0:0:0:
471,221,114630,2,0,P|489:217|509:219,3,40,10|0|0|0,0:0|0:0|0:0|0:0,0:0:0:0:
492,289,115046,38,0,P|501:326|488:373,1,80,6|0,0:0|0:0,0:0:0:0:
428,328,115359,2,0,L|388:324,1,40,2|8,0:0|0:0,0:0:0:0:
271,268,115673,2,0,P|262:231|275:184,1,80,2|8,0:0|0:0,0:0:0:0:
335,229,115984,2,0,L|374:232,1,40,2|0,0:0|0:0,0:0:0:0:
471,148,116297,2,0,L|510:144,3,40,10|0|0|0,0:0|0:0|0:0|0:0,0:0:0:0:
485,76,116713,5,6,0:0:0:0:
381,150,116921,1,0,0:0:0:0:
345,169,117025,1,0,0:0:0:0:
306,169,117129,1,8,0:0:0:0:
271,151,117233,1,0,0:0:0:0:
248,118,117338,2,0,P|246:96|251:78,1,40,0|0,0:0|0:0,0:0:0:0:
325,96,117547,38,0,L|325:217,1,120,10|2,0:0|0:0,0:0:0:0:
286,277,117963,2,0,P|322:290|366:276,1,80,8|2,0:0|0:0,0:0:0:0:
475,144,118379,5,12,1:2:0:0:
408,351,118588,1,6,1:2:0:0:
261,189,118796,1,12,1:2:0:0:
475,144,119004,2,0,P|491:199|471:250,1,103.999995239258,6|8,1:2|1:2,0:0:0:0:
408,351,119351,38,0,P|391:347|373:351,3,34.6666650797527,8|8|8|8,1:3|1:3|1:3|1:3,0:0:0:0:
330,347,119630,6,2,B|337:328|325:308|325:308|308:312|301:325|301:325|289:323|278:325|278:325|271:312|254:308|254:308|242:328|250:347,1,160,10|8,1:2|1:2,0:0:0:0:
291,243,120046,37,4,0:1:0:0:
291,243,120254,1,4,0:1:0:0:
241,84,120463,5,4,0:1:0:0:
241,84,120671,1,4,0:1:0:0:
137,214,120879,38,0,P|110:221|88:215,3,51.999997619629,4|0|0|0,0:1|0:0|0:0|0:0,0:0:0:0:
33,165,121296,1,8,0:0:0:0:
16,128,121400,1,0,0:0:0:0:
13,86,121504,1,8,0:0:0:0:
24,46,121608,1,0,0:0:0:0:
48,12,121713,6,0,L|186:16,1,132.00000402832,6|0,0:3|0:0,0:0:0:0:
257,29,122130,2,0,P|244:73|259:125,1,88.000002685547,10|2,0:0|0:0,0:0:0:0:
299,257,122547,2,0,P|303:282|295:309,3,44.0000013427735,10|0|0|0,0:0|0:0|0:0|0:0,0:0:0:0:
271,371,122964,1,8,0:0:0:0:
179,259,123172,38,0,P|131:248|94:260,1,88.000002685547,2|8,0:0|0:0,0:0:0:0:
10,384,123589,1,2,0:0:0:0:
95,260,123797,2,0,P|106:212|94:175,1,88.000002685547,10|0,0:0|0:0,0:0:0:0:
36,37,124214,2,0,P|-12:29|25:62,1,132.00000402832,10|0,0:0|0:0,0:0:0:0:
104,60,124630,1,10,0:0:0:0:
139,40,124734,1,0,0:0:0:0:
178,34,124838,1,8,0:0:0:0:
217,42,124942,1,0,0:0:0:0:
252,64,125047,6,0,P|265:102|249:153,1,88.000002685547,6|2,0:0|0:0,0:0:0:0:
180,278,125464,2,0,P|167:240|183:189,1,88.000002685547,6|2,0:0|0:0,0:0:0:0:
323,164,125880,2,0,P|348:160|379:167,3,44.0000013427735,10|0|0|0,0:0|0:0|0:0|0:0,0:0:0:0:
438,188,126297,1,8,0:0:0:0:
340,300,126505,38,0,P|292:311|255:299,1,88.000002685547,2|8,0:0|0:0,0:0:0:0:
156,186,126923,1,2,0:0:0:0:
299,143,127131,2,0,P|310:191|298:228,1,88.000002685547,10|2,0:0|0:0,0:0:0:0:
188,328,127548,2,0,P|181:376|214:339,1,132.00000402832,10|0,0:0|0:0,0:0:0:0:
211,260,127964,1,10,0:0:0:0:
192,226,128068,1,0,0:0:0:0:
186,187,128172,1,8,0:0:0:0:
193,148,128276,1,0,0:0:0:0:
213,114,128381,6,0,P|251:100|302:116,1,88.000002685547,6|2,0:0|0:0,0:0:0:0:
422,191,128798,2,0,P|385:204|334:188,1,88.000002685547,6|2,0:0|0:0,0:0:0:0:
213,114,129213,2,0,P|188:110|157:117,3,44.0000013427735,10|0|0|0,0:0|0:0|0:0|0:0,0:0:0:0:
105,140,129631,1,8,0:0:0:0:
62,283,129838,38,0,P|103:295|144:280,1,88.000002685547,2|8,0:0|0:0,0:0:0:0:
249,176,130256,1,2,0:0:0:0:
105,140,130463,2,0,P|92:182|103:225,1,88.000002685547,10|0,0:0|0:0,0:0:0:0:
182,340,130881,2,0,P|246:351|183:337,1,176.000005371094,10|8,0:0|0:0,0:0:0:0:
90,222,131506,5,8,0:0:0:0:
90,222,131610,1,2,0:0:0:0:
90,222,131713,1,2,0:3:0:0:
200,319,131923,1,2,0:3:0:0:
229,175,132131,1,2,0:3:0:0:
285,336,132338,37,2,0:0:0:0:
314,192,132548,1,8,3:0:0:0:
175,239,132756,2,0,P|133:249|87:238,1,88.000002685547,8|8,3:0|3:0,0:0:0:0:
222,100,133173,5,2,0:0:0:0:
222,100,133277,1,2,0:0:0:0:
222,100,133380,1,2,0:3:0:0:
319,210,133588,1,2,0:3:0:0:
175,239,133798,1,2,0:3:0:0:
115,81,134006,37,6,0:3:0:0:
304,39,134214,1,6,0:3:0:0:
130,158,134423,1,6,0:3:0:0:
319,116,134631,2,0,P|320:132|315:152,6,22.0000006713867,6|0|0|0|0|0|0,0:3|0:0|0:0|0:0|0:0|0:0|0:0,0:0:0:0:
304,39,135048,38,0,L|386:31,1,64,2|0,1:2|1:0,0:0:0:0:
456,97,135464,2,0,L|374:105,1,64,2|2,1:2|1:2,0:0:0:0:
355,187,135881,2,0,L|450:176,1,96,2|0,1:2|1:0,0:0:0:0:
512,243,136297,5,6,0:3:0:0:
355,187,136505,2,0,P|311:175|268:189,1,88.000002685547,6|8,0:0|0:0,0:0:0:0:
133,246,136922,1,2,0:0:0:0:
271,186,137130,2,0,P|283:142|269:99,1,88.000002685547,10|0,0:0|0:0,0:0:0:0:
145,20,137547,2,0,P|133:64|147:107,1,88.000002685547,10|2,0:0|0:0,0:0:0:0:
271,186,137964,1,10,0:0:0:0:
305,205,138068,1,0,0:0:0:0:
344,211,138172,1,0,0:0:0:0:
383,204,138276,1,0,0:0:0:0:
417,184,138381,6,0,P|431:146|415:95,1,88.000002685547,6|2,0:0|0:0,0:0:0:0:
286,40,138797,2,0,P|272:78|288:129,1,88.000002685547,6|2,0:0|0:0,0:0:0:0:
417,184,139214,2,0,P|437:179|466:184,3,44.0000013427735,10|0|0|0,0:0|0:0|0:0|0:0,0:0:0:0:
440,251,139630,1,8,0:0:0:0:
333,353,139839,38,0,P|289:365|246:351,1,88.000002685547,2|8,0:0|0:0,0:0:0:0:
112,292,140256,1,2,0:0:0:0:
235,208,140464,2,0,P|247:164|233:121,1,88.000002685547,10|0,0:0|0:0,0:0:0:0:
116,32,140881,2,0,P|104:76|118:119,1,88.000002685547,10|10,0:0|0:0,0:0:0:0:
235,208,141298,1,8,0:0:0:0:
269,227,141402,1,8,0:0:0:0:
308,233,141506,1,8,0:0:0:0:
347,226,141610,1,8,0:0:0:0:
381,206,141713,6,0,P|395:168|379:117,1,88.000002685547,6|0,0:0|0:0,0:0:0:0:
256,45,142130,2,0,P|242:83|258:134,1,88.000002685547,10|2,0:0|0:0,0:0:0:0:
381,206,142547,2,0,P|408:202|438:210,3,44.0000013427735,10|0|0|0,0:0|0:0|0:0|0:0,0:0:0:0:
495,227,142963,1,8,0:0:0:0:
406,348,143172,37,6,0:0:0:0:
406,348,143589,5,6,0:0:0:0:
406,348,144005,37,6,0:0:0:0:
253,90,144422,5,6,0:0:0:0:
212,233,144630,2,0,P|253:245|302:230,1,88.000002685547,6|2,0:0|0:0,0:0:0:0:
419,148,145047,37,6,0:0:0:0:
295,233,145255,2,0,P|289:258|300:290,1,44.0000013427735,2|2,0:0|0:0,0:0:0:0:
409,369,145568,2,0,P|416:343|404:312,1,44.0000013427735,2|2,0:0|0:0,0:0:0:0:
352,190,145880,5,6,0:0:0:0:
501,204,146089,1,2,0:0:0:0:
412,326,146297,1,10,0:0:0:0:
295,233,146505,2,0,P|281:191|292:144,1,88.000002685547,2|8,0:0|0:0,0:0:0:0:
208,46,146922,38,0,P|182:39|151:51,1,44.0000013427735,2|2,0:0|0:0,0:0:0:0:
54,143,147235,2,0,P|79:149|111:138,1,44.0000013427735,2|2,0:0|0:0,0:0:0:0:
208,46,147547,5,8,0:0:0:0:
241,33,147651,1,8,0:0:0:0:
275,30,147755,1,8,0:0:0:0:
309,39,147859,1,8,0:0:0:0:
342,53,147963,1,8,0:0:0:0:
376,59,148067,1,8,0:0:0:0:
410,50,148171,1,8,0:0:0:0:
439,30,148276,1,8,0:0:0:0:
465,7,148380,1,6,3:0:0:0:
502,108,148588,6,0,L|509:210,2,96,2|2|2,1:0|1:0|1:0,0:0:0:0:
347,191,149526,2,0,P|309:201|271:192,1,80,2|0,1:0|1:0,0:0:0:0:
230,129,149838,2,0,P|268:118|306:127,1,80,2|0,1:0|1:0,0:0:0:0:
466,172,150255,6,0,L|473:274,2,96,2|2|2,1:0|1:0|1:0,0:0:0:0:
311,255,151193,2,0,P|272:265|234:256,1,80,2|0,1:0|1:0,0:0:0:0:
194,193,151505,2,0,P|232:182|270:191,1,80,2|0,1:0|1:0,0:0:0:0:
429,236,151922,38,0,L|436:338,2,96,2|2|2,1:0|1:0|1:0,0:0:0:0:
274,319,152860,2,0,P|235:329|197:320,1,80,2|0,1:0|1:0,0:0:0:0:
171,252,153172,2,0,P|195:246|227:256,1,40,2|0,1:0|1:0,0:0:0:0:
274,319,153380,38,0,P|305:323|336:315,3,40,0|0|2|0,0:0|0:0|0:1|0:0,0:0:0:0:
385,303,153797,1,0,0:0:0:0:
415,278,153901,1,2,0:1:0:0:
431,241,154005,1,0,0:0:0:0:
431,202,154109,1,0,0:0:0:0:
412,167,154213,1,2,0:1:0:0:
379,145,154317,1,0,0:0:0:0:
340,146,154421,1,2,0:1:0:0:
310,172,154526,1,0,0:0:0:0:
317,207,154630,38,0,P|380:224|353:188,1,155.999992858887,2|0,0:1|1:0,0:0:0:0:
296,123,155047,5,6,0:3:0:0:
154,170,155255,1,2,0:1:0:0:
129,200,155359,1,0,0:0:0:0:
120,238,155463,1,10,0:1:0:0:
128,277,155567,1,0,0:0:0:0:
151,308,155671,1,2,0:1:0:0:
295,348,155880,38,0,L|353:347,3,44.0000013427735,10|0|2|0,0:1|0:0|0:1|0:0,0:0:0:0:
412,334,156297,2,0,P|416:312|410:291,1,44.0000013427735,6|0,0:1|0:0,0:0:0:0:
372,227,156505,2,0,P|368:205|374:184,1,44.0000013427735,6|0,0:1|0:0,0:0:0:0:
424,128,156713,5,6,0:3:0:0:
410,291,156922,1,2,0:1:0:0:
380,316,157026,1,0,0:0:0:0:
342,325,157130,1,10,0:1:0:0:
303,317,157234,1,0,0:0:0:0:
272,294,157338,1,2,0:1:0:0:
203,160,157547,38,0,L|145:161,3,44.0000013427735,10|0|2|0,0:1|0:0|0:1|0:0,0:0:0:0:
85,174,157964,2,0,P|81:195|87:216,1,44.0000013427735,6|0,0:1|1:0,0:0:0:0:
126,281,158172,2,0,P|129:302|123:323,1,44.0000013427735,6|0,0:1|0:0,0:0:0:0:
74,380,158380,5,6,0:3:0:0:
87,216,158588,1,2,0:1:0:0:
117,191,158692,1,0,0:0:0:0:
155,182,158796,1,10,0:1:0:0:
194,190,158900,1,0,0:0:0:0:
225,213,159004,1,2,0:1:0:0:
255,359,159213,38,0,L|197:358,3,44.0000013427735,10|0|2|0,0:1|0:0|0:1|0:0,0:0:0:0:
137,345,159630,2,0,P|134:323|140:302,1,44.0000013427735,6|0,0:1|1:0,0:0:0:0:
178,238,159838,2,0,P|182:216|176:195,1,44.0000013427735,6|0,0:1|1:0,0:0:0:0:
70,121,160047,6,0,B|127:133|127:133|99:200|49:202|12:184|-12:152|-18:118|-3:77|17:45|68:37|108:62,1,360.000013732911,6|2,0:3|1:2,0:0:0:0:
219,83,160880,2,0,P|190:165|213:82,1,240,6|2,0:3|1:2,0:0:0:0:
302,58,161297,38,0,P|321:94|318:142,1,60.0000022888184,6|0,0:0|1:0,0:0:0:0:
308,187,161505,2,0,P|290:212|256:230,1,60.0000022888184,6|0,0:0|1:0,0:0:0:0:
185,239,161713,1,6,0:0:0:0:
65,148,161922,5,2,0:1:0:0:
65,148,162026,1,2,0:1:0:0:
42,295,162234,1,2,0:1:0:0:
42,295,162338,1,2,0:1:0:0:
185,239,162547,38,0,P|206:234|232:239,2,44.0000013427735,10|0|2,0:1|0:0|0:1,0:0:0:0:
117,270,162859,1,0,0:0:0:0:
117,270,162963,1,6,0:1:0:0:
152,124,163172,1,2,0:1:0:0:
152,124,163276,1,0,0:0:0:0:
152,124,163380,1,6,0:3:0:0:
272,215,163588,5,2,0:1:0:0:
272,215,163692,1,2,0:1:0:0:
294,68,163900,1,2,0:1:0:0:
294,68,164004,1,2,0:1:0:0:
152,124,164213,38,0,P|131:129|105:124,2,44.0000013427735,10|0|2,0:1|0:0|0:1,0:0:0:0:
220,93,164525,1,0,0:0:0:0:
220,93,164629,1,6,0:1:0:0:
185,239,164838,1,10,0:1:0:0:
185,239,164942,1,0,0:0:0:0:
185,239,165046,1,6,0:3:0:0:
305,148,165255,5,2,0:1:0:0:
305,148,165359,1,2,0:1:0:0:
327,295,165567,1,2,0:1:0:0:
327,295,165671,1,2,0:1:0:0:
185,239,165880,38,0,P|164:234|138:239,2,44.0000013427735,10|0|2,0:1|0:0|0:1,0:0:0:0:
253,270,166192,1,0,0:0:0:0:
253,270,166297,1,6,0:1:0:0:
224,122,166506,1,2,0:1:0:0:
224,122,166610,1,0,0:0:0:0:
224,122,166714,1,6,0:3:0:0:
343,32,166922,5,2,0:1:0:0:
343,32,167026,1,2,0:1:0:0:
365,179,167234,1,2,0:1:0:0:
365,179,167338,1,2,0:1:0:0:
231,131,167547,37,10,0:1:0:0:
231,131,167651,1,2,0:1:0:0:
231,131,167755,2,0,P|200:127|170:134,1,44.0000013427735,2|0,0:1|1:0,0:0:0:0:
117,153,167963,1,10,0:1:0:0:
171,292,168172,1,10,0:1:0:0:
280,190,168380,1,6,0:3:0:0:
400,281,168588,5,2,0:1:0:0:
400,281,168692,1,2,0:1:0:0:
422,134,168900,1,2,0:1:0:0:
422,134,169004,1,2,0:1:0:0:
280,190,169213,38,0,P|259:195|233:190,2,44.0000013427735,10|0|2,0:1|0:0|0:1,0:0:0:0:
348,159,169525,1,0,0:0:0:0:
348,159,169630,1,6,0:1:0:0:
319,307,169839,1,2,0:1:0:0:
319,307,169943,1,0,0:0:0:0:
319,307,170047,1,6,0:3:0:0:
197,219,170255,5,2,0:1:0:0:
197,219,170359,1,2,0:1:0:0:
175,366,170567,1,2,0:1:0:0:
175,366,170671,1,2,0:1:0:0:
326,315,170880,37,8,0:1:0:0:
326,315,170984,1,2,0:0:0:0:
326,315,171088,2,0,P|326:364|296:346,1,103.999995239258,2|8,0:0|0:1,0:0:0:0:
197,219,171505,1,6,0:3:0:0:
175,366,171713,1,6,0:3:0:0:
65,276,171922,5,2,0:1:0:0:
65,276,172026,1,2,0:1:0:0:
192,295,172234,1,2,0:1:0:0:
192,295,172338,1,2,0:1:0:0:
144,171,172547,38,0,P|138:151|147:128,2,44.0000013427735,10|0|2,0:1|0:0|0:1,0:0:0:0:
217,161,172859,1,0,0:0:0:0:
217,161,172964,1,6,0:1:0:0:
346,136,173173,1,2,0:1:0:0:
346,136,173277,1,0,0:0:0:0:
346,136,173381,1,6,0:3:0:0:
302,262,173588,5,2,0:1:0:0:
302,262,173692,1,2,0:1:0:0:
220,164,173900,1,2,0:1:0:0:
220,164,174004,1,2,0:1:0:0:
346,136,174213,38,0,P|349:111|342:83,1,47.9999985351563,10|0,0:1|1:0,0:0:0:0:
289,39,174422,2,0,P|264:36|236:43,1,51.999997619629,10|0,0:1|1:0,0:0:0:0:
188,96,174630,2,0,P|184:123|192:153,1,55.9999982910157,10|0,0:1|1:0,0:0:0:0:
248,208,174838,2,0,P|275:211|307:203,1,60.0000022888184,10|0,0:1|1:0,0:0:0:0:
377,181,175047,38,0,P|441:155|503:184,1,140,6|0,3:0|1:0,0:0:0:0:
501,182,175883,2,0,P|475:118|504:56,1,140,6|0,3:0|1:0,0:0:0:0:
502,57,176701,2,0,P|438:82|376:53,1,140,6|0,3:0|1:0,0:0:0:0:
376,53,177402,38,0,L|346:200,1,140,6|0,3:0|1:0,0:0:0:0:
348,190,178018,2,0,L|236:90,1,140,6|0,3:0|1:0,0:0:0:0:
243,96,178526,2,0,L|385:49,1,140,6|0,3:0|1:0,0:0:0:0:
375,52,178970,6,0,P|369:117|408:180,1,140,6|0,3:0|1:0,0:0:0:0:
406,178,179386,2,0,P|412:109|375:51,1,140,6|0,3:0|1:0,0:0:0:0:
375,51,179738,2,0,P|369:32|375:-1,1,40,6|0,3:0|1:0,0:0:0:0:
297,36,180038,6,0,L|251:42,1,40,6|0,3:0|1:0,0:0:0:0:
285,111,180323,2,0,L|239:117,1,40,6|0,3:0|1:0,0:0:0:0:
268,185,180595,2,0,L|222:191,1,40,6|0,3:0|1:0,0:0:0:0:
137,181,180824,6,0,L|161:213,1,40,6|0,3:0|1:0,0:0:0:0:
142,286,181032,2,0,L|181:285,1,40,6|0,3:0|1:0,0:0:0:0:
204,355,181214,2,0,L|240:331,1,40,6|0,3:0|1:0,0:0:0:0:
291,384,181380,2,0,L|310:347,1,40,6|0,3:0|1:0,0:0:0:0:
383,346,181533,2,0,L|371:304,1,40,6|6,3:0|3:0,0:0:0:0:
256,192,181807,12,0,184526,1:0:0:0:
138,280,184630,6,0,P|141:268|151:262,3,23.9999992675781,2|2|2|2,1:2|1:2|1:2|1:2,0:0:0:0:
152,263,185047,6,2,B|124:270|134:304|158:312|192:302|198:271|178:203|178:203|157:128|157:128|314:83|314:83|335:157|335:157|355:226|348:257|315:267|290:259|281:225|307:217,1,647.99998022461,2|0,0:1|1:0,0:0:0:0:
413,177,187963,6,0,P|429:174|444:178,6,20,12|0|0|0|0|0|0,0:3|0:0|0:0|0:0|0:0|0:0|0:0,0:0:0:0:
459,192,188380,6,0,P|504:195|458:178,1,132.00000402832,6|0,0:3|1:0,0:0:0:0:
413,250,188797,6,0,L|413:314,2,64,2|2|8,1:2|1:2|1:2,0:0:0:0:
352,88,189422,37,2,0:3:0:0:
315,234,189630,1,2,0:3:0:0:
459,192,189838,2,0,P|469:150|453:105,1,88.000002685547,2|0,0:3|1:0,0:0:0:0:
352,88,190255,6,0,L|275:88,1,64,2|8,1:2|1:2,0:0:0:0:
0,94,190880,37,6,0:0:0:0:
149,98,191088,1,8,0:3:0:0:
149,98,191192,2,0,P|154:123|146:148,1,44.0000013427735,8|8,0:3|0:3,0:0:0:0:
99,196,191401,1,8,0:3:0:0:
99,196,191505,2,0,P|94:221|102:246,1,44.0000013427735,8|0,0:3|1:0,0:0:0:0:
139,301,191713,38,0,P|141:351|109:312,1,132.00000402832,6|0,0:0|1:0,0:0:0:0:
168,221,192130,38,0,L|235:221,2,64,2|2|8,1:2|1:2|1:2,0:0:0:0:
60,118,192755,5,2,0:3:0:0:
23,264,192963,1,2,0:3:0:0:
168,221,193171,2,0,P|177:178|164:137,1,88.000002685547,2|0,0:3|1:0,0:0:0:0:
60,118,193588,38,0,L|-19:118,1,64,2|8,0:2|1:2,0:0:0:0:
168,221,194213,6,0,P|175:250|161:288,2,58.6666684570313,8|8|8,1:0|1:0|1:0,0:0:0:0:
141,155,194630,2,0,P|170:148|208:162,2,58.6666684570313,8|8|8,1:0|1:0|1:0,0:0:0:0:
72,185,195046,6,0,P|54:236|91:210,1,132.00000402832,6|0,0:0|1:0,0:0:0:0:
82,113,195463,6,0,L|82:33,2,64,2|2|8,1:2|1:2|1:2,0:0:0:0:
109,296,196088,37,2,0:3:0:0:
146,150,196296,1,2,0:3:0:0:
1,193,196504,2,0,P|-8:235|4:276,1,88.000002685547,2|0,0:3|1:0,0:0:0:0:
109,296,196922,6,0,L|186:296,1,64,2|8,1:2|1:2,0:0:0:0:
436,301,197547,37,6,0:0:0:0:
460,264,197651,1,2,0:0:0:0:
465,221,197755,1,10,0:0:0:0:
450,180,197859,1,10,0:0:0:0:
419,149,197963,2,0,P|396:143|371:147,1,44.0000013427735,10|2,0:0|0:0,0:0:0:0:
310,171,198171,37,10,0:0:0:0:
310,171,198276,1,2,0:0:0:0:
310,171,198380,1,6,0:0:0:0:
254,309,198588,1,2,0:0:0:0:
157,193,198797,2,0,P|111:181|65:198,1,88.000002685547,10|0,0:0|0:0,0:0:0:0:
91,340,199213,2,0,P|114:345|137:339,3,44.0000013427735,10|8|8|8,0:0|0:0|0:0|0:0,0:0:0:0:
202,309,199630,1,10,0:0:0:0:
263,172,199838,5,2,0:0:0:0:
263,172,199942,1,2,0:0:0:0:
263,172,200047,1,2,0:3:0:0:
350,293,200255,1,2,0:3:0:0:
202,309,200463,2,0,P|173:305|153:314,3,44.0000013427735,2|0|6|0,0:3|0:0|0:3|0:0,0:0:0:0:
94,348,200880,2,0,P|65:351|45:343,3,44.0000013427735,6|0|6|0,0:3|0:0|0:3|0:0,0:0:0:0:
12,282,201296,2,0,P|8:268|13:254,6,22.0000006713867,6|0|0|0|0|0|0,0:3|0:0|0:0|0:0|0:0|0:0|0:0,0:0:0:0:
45,241,201713,38,0,P|38:187|11:230,1,132.00000402832,6|0,0:3|0:0,0:0:0:0:
83,307,202130,2,0,P|130:318|170:308,1,88.000002685547,10|2,0:0|0:0,0:0:0:0:
301,241,202547,2,0,P|326:236|356:245,3,44.0000013427735,10|0|0|0,0:0|0:0|0:0|0:0,0:0:0:0:
413,264,202962,1,8,0:0:0:0:
296,358,203171,6,0,P|249:372|205:357,1,88.000002685547,2|8,0:0|0:0,0:0:0:0:
110,251,203588,1,2,0:0:0:0:
253,207,203797,2,0,P|265:250|249:291,1,88.000002685547,8|0,0:1|0:0,0:0:0:0:
128,330,204213,38,0,L|90:330,2,32,8|8|8,0:1|0:1|0:1,0:0:0:0:
250,289,204630,5,10,0:0:0:0:
286,264,204734,1,0,0:0:0:0:
329,257,204838,1,8,0:0:0:0:
372,266,204942,1,0,0:0:0:0:
407,292,205047,2,0,P|421:332|407:381,1,88.000002685547,6|2,0:0|0:0,0:0:0:0:
252,372,205463,2,0,P|238:332|252:283,1,88.000002685547,6|2,0:0|0:0,0:0:0:0:
350,177,205880,2,0,P|353:155|347:130,3,44.0000013427735,10|0|0|0,0:0|0:0|0:0|0:0,0:0:0:0:
298,78,206296,1,8,0:0:0:0:
155,29,206505,38,0,P|109:19|65:34,1,88.000002685547,2|8,0:0|0:0,0:0:0:0:
0,163,206922,1,2,0:0:0:0:
141,212,207131,2,0,P|202:215|141:178,1,176.000005371094,10|2,0:0|1:2,0:0:0:0:
44,238,207755,38,0,L|44:288,2,32,8|8|8,1:0|1:0|1:0,0:0:0:0:
16,213,208067,2,0,B|16:141,1,64,8|2,1:0|1:2,0:0:0:0:
71,84,208380,6,0,P|112:96|172:73,1,88.000002685547,6|2,0:0|0:0,0:0:0:0:
292,25,208797,1,10,0:0:0:0:
204,146,209005,1,2,0:0:0:0:
339,84,209213,2,0,P|362:79|387:85,3,44.0000013427735,10|0|0|0,0:0|0:0|0:0|0:0,0:0:0:0:
448,115,209629,1,8,0:0:0:0:
385,246,209838,5,6,0:0:0:0:
385,246,210047,2,0,P|363:242|342:247,1,44.0000013427735,8|8,0:1|0:1,0:0:0:0:
268,281,210255,37,6,0:0:0:0:
494,257,210672,5,6,0:0:0:0:
494,257,210880,2,0,P|499:280|495:300,1,44.0000013427735,8|0,0:1|1:0,0:0:0:0:
411,327,211088,37,6,0:0:0:0:
411,327,211297,2,0,P|369:322|402:304,1,96,6|0,0:0|1:0,0:0:0:0:
494,257,211713,5,6,0:0:0:0:
358,192,211922,2,0,P|353:171|358:146,1,44.0000013427735,2|0,0:0|0:0,0:0:0:0:
490,83,212234,2,0,P|495:61|491:40,1,44.0000013427735,2|2,0:0|0:0,0:0:0:0:
343,59,212546,37,6,0:0:0:0:
459,153,212755,1,2,0:0:0:0:
320,209,212963,1,10,0:0:0:0:
259,63,213172,2,0,P|300:49|350:63,1,88.000002685547,2|8,0:0|0:0,0:0:0:0:
459,153,213588,6,0,P|463:175|460:197,1,44.0000013427735,2|2,0:0|0:0,0:0:0:0:
320,209,213901,2,0,P|317:231|321:253,1,44.0000013427735,2|2,0:0|0:0,0:0:0:0:
491,347,214213,37,8,0:0:0:0:
460,361,214317,1,8,0:0:0:0:
426,372,214421,1,8,0:0:0:0:
391,374,214525,1,8,0:0:0:0:
357,364,214629,1,8,0:0:0:0:
327,346,214733,1,8,0:0:0:0:
298,327,214838,1,8,0:0:0:0:
265,315,214942,1,8,0:0:0:0:
222,314,215047,38,4,B|177:313|156:354|177:385|264:385|264:298|264:298|264:103|264:103|279:146|315:168|372:132|394:203|380:240,1,587.999982055665,6|0,0:3|1:0,0:0:0:0:
256,192,217338,12,0,218484,1:0:0:0:
203,152,218579,38,0,L|197:189,5,26.6666666666667,0|0|0|0|0|0,0:0|0:0|0:0|0:0|0:0|0:0,0:0:0:0:
238,194,219083,2,0,L|229:241,6,31.9999990234375,0|0|0|0|0|0|0,0:0|0:0|0:0|0:0|0:0|0:0|0:0,0:0:0:0:
301,155,219696,37,14,0:3:0:0:
335,286,219889,1,4,0:1:0:0:
363,112,220083,37,14,0:3:0:0:
397,243,220276,1,4,0:1:0:0:
431,64,220470,5,14,0:3:0:0:
470,203,220663,1,4,0:1:0:0:
470,203,220759,1,4,0:1:0:0:
470,203,220857,2,0,P|475:222|467:258,3,40,4|4|4|4,0:1|0:1|0:1|0:1,0:0:0:0:
438,307,221244,37,14,0:3:0:0:
306,274,221437,1,4,0:1:0:0:
419,379,221631,5,14,0:3:0:0:
287,346,221824,1,4,0:1:0:0:
384,243,222018,37,14,0:3:0:0:
384,243,222115,2,0,P|379:218|388:194,1,40,4|4,0:1|0:1,0:0:0:0:
413,133,222308,1,4,0:1:0:0:
413,133,222405,2,0,L|313:134,1,80,4|4,0:1|0:1,0:0:0:0:
181,132,222792,5,14,0:3:0:0:
215,263,222985,1,4,0:1:0:0:
243,89,223179,37,14,0:3:0:0:
277,220,223372,1,4,0:1:0:0:
314,62,223566,5,14,0:3:0:0:
314,62,223663,2,0,L|364:71,1,40,4|4,0:1|0:1,0:0:0:0:
405,133,223856,1,4,0:1:0:0:
405,133,223954,2,0,L|322:146,1,80,4|4,0:1|0:1,0:0:0:0:
191,168,224341,37,14,0:3:0:0:
281,269,224535,1,4,0:1:0:0:
281,269,224631,1,4,0:1:0:0:
281,269,224728,1,14,0:3:0:0:
146,288,224921,1,4,0:1:0:0:
146,288,225018,1,4,0:1:0:0:
146,288,225115,6,0,P|128:290|106:286,3,40,14|4|4|4,0:3|0:1|0:1|0:1,0:0:0:0:
43,247,225502,2,0,P|39:224|43:206,1,40,6|0,0:0|0:0,0:0:0:0:
94,152,225696,2,0,P|97:132|93:112,1,40,2|0,0:0|0:0,0:0:0:0:
37,70,225889,37,6,0:3:0:0:
37,70,225986,1,6,0:3:0:0:
37,70,226083,2,0,P|28:25|68:49,1,111.999996582031,6|0,0:3|1:0,0:0:0:0:
