osu file format v14

[General]
AudioFilename: audio.mp3
AudioLeadIn: 0
PreviewTime: 209786
Countdown: 0
SampleSet: Soft
StackLeniency: 0.4
Mode: 0
LetterboxInBreaks: 0
WidescreenStoryboard: 1

[Editor]
Bookmarks: 449,5033,18387,31720,35054,38387,41720,45054,60054,73387,86720,93387,96720,100054,103387,106720,110054,113387,121720,135054,148387,155054,175054,188387,191713,195047,198387,201720,211713,215047,218579,219696,226470
DistanceSpacing: 1
BeatDivisor: 4
GridSize: 4
TimelineZoom: 1.3

[Metadata]
Title:Ohedo Julia-Night
TitleUnicode:大江戸ジュリアナイト
Artist:Mitchie M feat. Hatsune Miku with KAITO
ArtistUnicode:Mitchie M feat.初音ミク with KAITO
Creator:Natsu
Version:Advanced
Source:
Tags:Vocaloid 10th anniversary 1990's techno music traditional Tsukasa Ryugu Not-116 Re:start 家の裏でマンボウが死んでるP 初音ミク
BeatmapID:1415270
BeatmapSetID:664099

[Difficulty]
HPDrainRate:3
CircleSize:3
OverallDifficulty:4
ApproachRate:5
SliderMultiplier:1.1
SliderTickRate:1

[Events]
//Background and Video events
Video,0,"f.avi"
0,0,"a.jpg",0,0
//Break Periods
2,175247,183847
//Storyboard Layer 0 (Background)
//Storyboard Layer 1 (Fail)
//Storyboard Layer 2 (Pass)
//Storyboard Layer 3 (Foreground)
//Storyboard Sound Samples

[TimingPoints]
450,416.666666666667,4,2,1,50,1,0
1179,-100,4,2,1,30,0,0
1700,-100,4,2,1,50,0,0
2116,432.900432900433,4,2,1,50,1,0
3847,540.540540540541,4,2,1,50,1,0
5047,416.666666666667,4,2,1,60,1,0
7755,-100,4,2,1,70,0,0
8797,-100,4,2,1,60,0,0
10047,-100,4,2,1,50,0,0
11088,-100,4,2,1,70,0,0
12130,-100,4,2,1,60,0,0
14422,-100,4,2,1,70,0,0
15463,-100,4,2,1,65,0,0
16297,-100,4,2,1,70,0,0
16713,-100,4,2,1,60,0,0
21088,-100,4,2,1,70,0,0
22130,-100,4,2,1,60,0,0
24422,-100,4,2,1,70,0,0
25463,-100,4,2,1,60,0,0
27755,-100,4,2,1,70,0,0
28797,-100,4,2,1,65,0,0
31713,-100,4,2,1,40,0,0
35047,-100,4,2,1,60,0,0
38380,-100,4,2,1,40,0,0
41713,-100,4,2,1,60,0,0
44317,-100,4,2,1,40,0,0
45047,-100,4,2,1,60,0,0
58380,-100,4,2,1,50,0,0
59317,-100,4,2,1,60,0,0
60047,-100,4,2,1,80,0,1
73328,-100,4,2,1,80,0,0
73380,-100,4,2,1,80,0,1
86713,-100,4,2,1,60,0,0
86991,-100,4,2,1,40,0,0
89838,-100,4,2,1,20,0,0
90047,-100,4,2,1,40,0,0
92755,-100,4,2,1,5,0,0
93380,-100,4,2,1,20,0,0
95880,-100,4,2,1,50,0,0
96713,-100,4,2,1,60,0,0
100047,-100,4,2,1,40,0,0
103380,-100,4,2,1,60,0,0
105359,-100,4,2,1,50,0,0
105984,-100,4,2,1,40,0,0
106713,-100,4,2,1,50,0,0
109630,-100,4,2,1,60,0,0
120047,-100,4,2,1,50,0,0
120984,-100,4,2,1,60,0,0
121713,-100,4,2,1,80,0,1
135047,-100,4,2,1,40,0,0
136297,-100,4,2,1,80,0,1
148380,-100,4,2,1,60,0,0
148588,-100,4,2,1,50,0,0
153380,-100,4,2,1,65,0,0
155047,-100,4,2,2,75,0,1
175047,836.820083682008,4,2,3,50,1,0
175883,818.553888130969,4,2,3,50,1,0
176701,701.754385964912,4,2,3,50,1,0
177402,616.649537512847,4,2,3,50,1,0
178018,508.474576271186,4,2,3,50,1,0
178526,444.444444444444,4,2,3,50,1,0
178970,416.666666666667,4,2,3,50,1,0
179386,352.941176470588,4,2,3,50,1,0
179738,600,4,2,3,50,1,0
180038,571.428571428571,4,2,3,50,1,0
180323,545.454545454546,4,2,3,50,1,0
180595,458.015267175573,4,2,3,50,1,0
180824,416.666666666667,4,2,3,50,1,0
181032,365.853658536585,4,2,3,50,1,0
181214,333.333333333333,4,2,3,50,1,0
181380,307.692307692308,4,2,3,50,1,0
181533,571.428571428571,4,2,3,50,1,0
181675,530.973451327434,4,2,3,50,1,0
181807,517.241379310345,4,2,1,40,1,0
181936,483.870967741935,4,2,1,40,1,0
182056,352.941176470588,4,2,1,40,1,0
182144,333.333333333333,4,2,1,40,1,0
182227,315.789473684211,4,2,1,40,1,0
182305,307.692307692308,4,2,1,40,1,0
182382,600,4,2,1,40,1,0
182532,576.923076923077,4,2,1,40,1,0
182676,555.555555555556,4,2,1,40,1,0
182814,500,4,2,1,40,1,0
182939,480,4,2,1,40,1,0
183059,444.444444444444,4,2,1,40,1,0
183170,413.793103448276,4,2,1,40,1,0
183273,400,4,2,1,40,1,0
183373,375,4,2,1,40,1,0
183466,352.941176470588,4,2,1,40,1,0
183554,342.857142857143,4,2,1,40,1,0
183639,333.333333333333,4,2,1,40,1,0
183722,492.206726825267,4,2,1,20,1,0
184214,416.666666666667,4,2,1,20,1,0
185047,416.666666666667,4,2,1,20,1,0
185463,-100,4,2,1,5,0,0
187963,-100,4,2,1,80,0,0
188380,-100,4,2,1,80,0,1
188797,-100,4,2,1,60,0,0
189422,-100,4,2,1,80,0,0
190255,-100,4,2,1,60,0,0
190880,-100,4,2,1,80,0,0
191713,-100,4,2,1,80,0,1
192130,-100,4,2,1,60,0,0
192755,-100,4,2,1,80,0,0
193588,-100,4,2,1,60,0,0
194213,-100,4,2,1,30,0,0
195047,-100,4,2,1,80,0,1
195463,-100,4,2,1,60,0,0
196088,-100,4,2,1,80,0,0
196922,-100,4,2,1,60,0,0
197547,-100,4,2,1,80,0,0
198380,-100,4,2,1,80,0,1
201661,-100,4,2,1,80,0,0
201713,-100,4,2,1,80,0,1
203797,-100,4,2,1,20,0,1
204630,-100,4,2,1,80,0,1
207547,-100,4,2,1,20,0,0
208380,-100,4,2,1,80,0,1
211297,-100,4,2,1,80,0,0
211713,-100,4,2,1,80,0,1
215047,-100,4,2,1,60,0,0
215463,-100,4,2,1,5,0,0
217338,-100,4,2,1,20,0,0
218579,504.201680672269,4,2,1,40,1,0
219083,-100,4,2,1,60,0,0
219696,387.096774193548,4,2,1,60,1,1
219889,-100,4,2,1,25,0,1
220083,-100,4,2,1,60,0,1
220276,-100,4,2,1,25,0,1
220470,-100,4,2,1,60,0,1
220663,-100,4,2,1,25,0,1
221244,-100,4,2,1,60,0,1
221437,-100,4,2,1,25,0,1
221631,-100,4,2,1,60,0,1
221825,-100,4,2,1,25,0,1
222018,-100,4,2,1,60,0,1
222115,-100,4,2,1,25,0,1
222792,-100,4,2,1,60,0,1
222986,-100,4,2,1,25,0,1
223179,-100,4,2,1,60,0,1
223373,-100,4,2,1,25,0,1
223566,-100,4,2,1,60,0,1
223663,-100,4,2,1,25,0,1
224341,-100,4,2,1,60,0,1
224534,-100,4,2,1,25,0,1
224728,-100,4,2,1,60,0,1
224921,-100,4,2,1,25,0,1
225115,-100,4,2,1,60,0,1
225212,-100,4,2,1,25,0,1
225502,-100,4,2,1,60,0,1
226470,-100,4,2,1,5,0,0

[Colours]
Combo1 : 255,183,255
Combo2 : 0,118,236
Combo3 : 255,147,255
Combo4 : 193,224,255
SliderBorder : 249,0,249
SliderTrackOverride : 0,0,159

[HitObjects]
437,204,450,38,0,P|432:233|440:259,2,55,6|0|0,0:3|0:0|0:0,0:0:0:0:
465,126,1179,2,0,L|367:126,1,82.5,2|2,0:1|0:1,0:0:0:0:
333,151,1700,2,0,L|269:151,2,55,0|0|0,0:0|0:0|0:0,0:0:0:0:
256,52,3847,6,0,B|248:68|248:68|260:80|260:80|248:92|248:92|260:104|260:104|248:116|248:116|260:128|260:128|248:140|248:140|260:152|260:152|248:164|248:164|260:176|260:176|248:188|248:188|260:200|260:200|248:212|248:212|260:224|260:224|248:240,1,244.6,0|6,0:0|0:3,0:0:0:0:
256,340,5463,6,0,B|308:356|308:356|372:336,2,110,8|8|8,0:0|0:0|0:0,0:0:0:0:
160,285,6713,2,0,P|133:278|106:283,1,55,10|0,0:0|0:0,0:0:0:0:
51,284,7130,2,0,B|51:240|51:240|47:236|47:236|55:236|55:236|51:232|51:232|51:184,1,110,10|8,0:0|0:0,0:0:0:0:
38,131,7755,2,0,B|22:91|22:91|54:67|54:67|86:91|86:91|70:131|70:131,1,165,2|6,0:0|0:3,0:0:0:0:
160,192,8796,6,0,B|212:208|212:208|276:188,2,110,8|8|8,0:0|0:0|0:0,0:0:0:0:
135,84,10047,2,0,L|185:104,1,55,10|8,0:0|0:3,0:0:0:0:
240,103,10463,2,0,L|290:82,2,55,8|8|8,0:3|0:3|0:0,0:0:0:0:
231,157,11088,2,0,B|247:197|247:197|215:221|215:221|183:197|183:197|199:157|199:157,1,165,2|6,0:0|0:3,0:0:0:0:
118,81,12130,38,0,B|66:97|66:97|2:77,2,110,8|8|8,0:0|0:0|0:0,0:0:0:0:
224,53,13380,2,0,P|251:46|278:51,1,55,10|0,0:0|0:0,0:0:0:0:
326,74,13797,2,0,B|326:118|326:118|330:122|330:122|322:122|322:122|326:126|326:126|326:174,1,110,10|8,0:0|0:0,0:0:0:0:
339,227,14422,2,0,B|355:267|355:267|323:291|323:291|291:267|291:267|307:227|307:227,1,165,2|6,0:0|0:3,0:0:0:0:
203,188,15463,6,0,B|151:204|151:204|87:184,2,110,10|8|8,0:0|0:0|0:0,0:0:0:0:
309,160,16713,2,0,B|305:172|305:172|313:184|313:184|305:196|305:196|313:208|313:208|305:220|305:220|313:232|313:232|305:244|305:244|313:256|313:256|305:268|305:268|313:280|313:280|305:292|305:292|313:304,1,165,10|2,0:0|1:3,0:0:0:0:
260,323,17547,2,0,P|233:316|206:321,1,55,2|2,1:3|1:3,0:0:0:0:
153,335,17963,2,0,P|126:339|99:333,1,55,2|2,1:3|1:3,0:0:0:0:
46,316,18380,1,14,0:0:0:0:
20,208,18797,38,0,B|4:156|4:156|24:92,2,110,8|8|8,0:0|0:0|0:0,0:0:0:0:
120,252,20047,2,0,P|147:259|174:254,1,55,10|0,0:0|0:0,0:0:0:0:
227,246,20463,2,0,B|227:202|227:202|231:198|231:198|223:198|223:198|227:194|227:194|227:146,1,110,10|8,0:0|0:0,0:0:0:0:
240,93,21089,2,0,B|256:53|256:53|224:29|224:29|192:53|192:53|208:93|208:93,1,165,2|6,0:0|0:3,0:0:0:0:
118,156,22130,6,0,B|66:172|66:172|2:152,2,110,8|8|8,0:0|0:0|0:0,0:0:0:0:
220,115,23380,2,0,P|247:108|274:113,1,55,10|0,0:0|0:0,0:0:0:0:
327,121,23797,2,0,B|327:165|327:165|331:169|331:169|323:169|323:169|327:173|327:173|327:221,1,110,2|8,0:0|0:0,0:0:0:0:
340,274,24422,2,0,B|356:314|356:314|324:338|324:338|292:314|292:314|308:274|308:274,1,165,2|0,0:0|0:0,0:0:0:0:
199,294,25464,38,0,B|147:310|147:310|83:290,2,110,8|8|8,0:0|0:0|0:0,0:0:0:0:
300,250,26714,2,0,P|327:243|354:248,1,55,10|0,0:0|0:0,0:0:0:0:
408,253,27131,2,0,B|408:209|408:209|412:205|412:205|404:205|404:205|408:201|408:201|408:153,1,110,10|8,0:0|0:0,0:0:0:0:
421,100,27756,2,0,B|437:60|437:60|405:36|405:36|373:60|373:60|389:100|389:100,1,165,2|6,0:0|0:3,0:0:0:0:
290,149,28797,6,0,B|238:165|238:165|174:145,2,110,10|8|2,0:0|0:0|0:3,0:0:0:0:
395,117,30047,1,2,1:3:0:0:
395,117,30255,1,2,1:3:0:0:
395,117,30463,1,2,1:3:0:0:
186,34,31713,6,0,L|192:143,1,110,12|8,0:3|0:3,0:0:0:0:
271,67,32547,2,0,L|277:176,1,110,8|8,0:3|0:3,0:0:0:0:
358,102,33380,2,0,L|364:211,1,110,8|8,0:3|0:3,0:0:0:0:
443,135,34214,2,0,L|449:244,1,110,8|14,0:3|0:0,0:0:0:0:
414,349,35047,38,0,B|454:337|454:337|493:348,2,82.5,14|2|0,1:2|1:2|0:0,0:0:0:0:
359,359,35880,2,0,L|346:297,1,55,8|2,1:2|1:2,0:0:0:0:
292,309,36297,2,0,L|280:255,1,55,14|2,1:2|1:2,0:0:0:0:
225,265,36713,2,0,B|185:277|185:277|145:265,2,82.5,14|2|2,1:2|1:2|1:2,0:0:0:0:
185,195,37651,1,0,0:0:0:0:
260,161,37963,2,0,L|273:105,1,55,6|0,0:0|0:0,0:0:0:0:
218,110,38380,6,0,L|109:116,1,110,12|8,0:3|0:3,0:0:0:0:
185,195,39214,2,0,L|76:201,1,110,8|8,0:3|0:3,0:0:0:0:
150,282,40047,2,0,L|41:288,1,110,8|8,0:3|0:3,0:0:0:0:
117,367,40881,2,0,L|8:373,1,110,8|0,0:3|0:0,0:0:0:0:
28,264,41714,38,0,B|16:224|16:224|27:185,2,82.5,14|0|0,1:2|0:0|0:0,0:0:0:0:
81,277,42547,2,0,L|143:264,1,55,8|0,1:2|0:0,0:0:0:0:
178,299,42963,2,0,L|231:287,1,55,14|2,1:2|1:2,0:0:0:0:
285,301,43380,2,0,B|297:341|297:341|286:380,2,82.5,14|2|2,1:2|1:2|1:2,0:0:0:0:
267,218,44317,2,0,B|259:190|259:190|275:166|275:166|259:142|259:142|252:116|264:85,1,137.5,2|8,0:1|1:3,0:0:0:0:
315,104,45047,38,0,B|367:119|394:108|394:108|409:83,1,110,6|8,0:0|0:0,0:0:0:0:
409,28,45672,2,0,B|356:12|329:23|329:23|314:48,1,110,2|0,0:0|0:0,0:0:0:0:
315,104,46297,1,10,0:0:0:0:
336,211,46713,6,0,B|351:263|340:290|340:290|315:305,1,110,6|8,0:0|0:0,0:0:0:0:
260,305,47338,2,0,B|244:252|255:225|255:225|280:210,1,110,2|0,0:0|0:0,0:0:0:0:
336,211,47963,1,10,0:0:0:0:
418,284,48380,38,0,B|470:299|497:288|497:288|512:263,1,110,6|8,0:0|0:0,0:0:0:0:
512,208,49005,2,0,B|459:192|432:203|432:203|417:228,1,110,2|0,0:0|0:0,0:0:0:0:
418,284,49630,2,0,P|424:313|417:343,1,55,14|2,0:0|0:0,0:0:0:0:
370,312,50047,6,0,L|269:313,2,82.5,6|2|2,0:0|0:0|0:0,0:0:0:0:
418,284,50880,2,0,P|423:256|416:228,1,55,8|8,3:0|3:0,0:0:0:0:
396,179,51297,2,0,P|390:152|395:125,1,55,8|8,3:0|3:0,0:0:0:0:
430,83,51713,38,0,B|378:98|351:87|351:87|336:62,1,110,6|8,0:0|0:0,0:0:0:0:
336,9,52338,2,0,B|389:-7|416:4|416:4|431:29,1,110,2|0,0:0|0:0,0:0:0:0:
430,83,52963,1,10,0:0:0:0:
395,187,53380,6,0,B|380:239|391:266|391:266|416:281,1,110,6|8,0:0|0:0,0:0:0:0:
471,281,54005,2,0,B|487:228|476:201|476:201|451:186,1,110,2|0,0:0|0:0,0:0:0:0:
395,187,54630,1,10,0:0:0:0:
292,226,55047,38,0,P|240:241|181:221,1,110,6|8,0:0|0:0,0:0:0:0:
241,129,55880,2,0,B|257:76|246:49|246:49|221:34,1,110,10|8,0:0|0:0,0:0:0:0:
171,33,56505,1,2,0:0:0:0:
171,33,56713,6,0,P|140:38|115:34,1,55,12|6,1:2|1:2,0:0:0:0:
62,28,57130,2,0,P|31:22|6:27,2,55,12|6|8,1:2|1:2|1:2,0:0:0:0:
93,144,57963,1,12,0:0:0:0:
93,144,58380,38,0,L|102:212,1,55,4|4,0:1|0:1,0:0:0:0:
154,205,58797,2,0,L|163:273,1,55,4|4,0:1|0:1,0:0:0:0:
174,312,59213,2,0,B|186:316|186:316|198:308|198:308|210:316|210:316|222:308|222:308|234:316|234:316|246:308|246:308|258:316|258:316|270:308|270:308|282:316|282:316|294:308|294:308|306:316|306:316|318:308,1,165,4|0,0:1|0:0,0:0:0:0:
367,311,60047,5,6,0:3:0:0:
392,211,60463,1,8,0:0:0:0:
392,211,60672,1,2,0:0:0:0:
392,211,60880,2,0,P|406:153|384:97,1,110,10|8,0:0|0:0,0:0:0:0:
335,108,61505,38,0,B|319:160|319:160|339:224,1,110,2|2,0:0|0:0,0:0:0:0:
364,260,62130,1,10,0:0:0:0:
410,359,62547,2,0,B|466:391|514:359|514:359|474:311,1,165,10|0,0:0|0:0,0:0:0:0:
440,277,63380,5,6,0:0:0:0:
352,229,63796,1,6,0:0:0:0:
352,229,64005,1,2,0:0:0:0:
352,229,64213,2,0,P|294:215|238:237,1,110,10|8,0:0|0:0,0:0:0:0:
247,285,64838,38,0,B|299:301|299:301|363:281,1,110,2|2,0:0|0:0,0:0:0:0:
397,251,65463,1,8,0:0:0:0:
472,170,65880,2,0,B|504:114|472:66|472:66|424:106,1,165,10|0,0:0|0:0,0:0:0:0:
390,139,66713,5,6,0:0:0:0:
332,232,67129,1,6,0:0:0:0:
332,232,67338,1,2,0:0:0:0:
332,232,67546,2,0,P|318:290|340:346,1,110,10|8,0:0|0:0,0:0:0:0:
388,335,68171,38,0,B|404:283|404:283|384:219,1,110,2|2,0:0|0:0,0:0:0:0:
359,182,68796,1,10,0:0:0:0:
270,116,69213,2,0,P|212:103|158:122,1,110,10|8,0:0|0:0,0:0:0:0:
125,155,69838,5,8,0:0:0:0:
125,155,70047,2,0,L|145:275,1,110,2|2,0:3|0:3,0:0:0:0:
192,287,70672,1,2,0:0:0:0:
192,287,70881,2,0,L|212:167,1,110,8|8,3:2|3:0,0:0:0:0:
258,151,71505,37,2,0:0:0:0:
258,151,71714,2,0,L|278:271,1,110,2|2,0:3|0:3,0:0:0:0:
325,283,72339,1,6,0:3:0:0:
325,283,72548,2,0,L|345:163,1,110,0|0,0:0|0:0,0:0:0:0:
366,67,73380,5,6,0:3:0:0:
273,115,73796,1,10,0:0:0:0:
273,115,74005,1,2,0:0:0:0:
273,115,74213,2,0,P|215:129|159:107,1,110,10|8,0:0|0:0,0:0:0:0:
170,58,74838,38,0,B|222:42|222:42|286:62,1,110,2|2,0:0|0:0,0:0:0:0:
321,88,75463,1,10,0:0:0:0:
379,181,75880,2,0,B|411:237|379:285|379:285|331:245,1,165,10|0,0:0|0:0,0:0:0:0:
287,226,76713,6,0,P|260:220|233:224,1,55,6|2,0:0|0:0,0:0:0:0:
181,243,77130,2,0,P|154:248|127:244,1,55,6|2,0:0|0:0,0:0:0:0:
85,208,77547,2,0,P|99:150|77:94,1,110,10|8,0:0|0:0,0:0:0:0:
28,105,78172,38,0,B|12:157|12:157|32:221,1,110,2|2,0:0|0:0,0:0:0:0:
58,256,78797,1,10,0:0:0:0:
160,297,79214,2,0,B|216:329|264:297|264:297|224:249,1,165,10|0,0:0|0:0,0:0:0:0:
186,220,80047,6,0,P|159:214|132:218,1,55,6|0,0:0|0:0,0:0:0:0:
80,237,80464,2,0,P|53:242|26:238,1,55,10|2,0:0|0:0,0:0:0:0:
11,185,80881,2,0,P|-3:127|19:71,1,110,10|0,0:0|0:0,0:0:0:0:
64,56,81505,37,6,0:0:0:0:
64,56,81922,1,6,0:0:0:0:
64,56,82338,1,6,0:0:0:0:
64,56,82755,2,0,L|119:53,1,55,6|6,0:0|0:0,0:0:0:0:
221,93,83380,5,6,0:0:0:0:
221,93,83588,2,0,B|221:137|221:137|225:141|225:141|217:141|217:141|221:145|221:145|221:193,1,110,2|2,0:0|0:0,0:0:0:0:
267,221,84213,2,0,L|267:283,1,55,6|2,0:0|0:0,0:0:0:0:
320,287,84630,2,0,L|320:349,1,55,10|2,0:0|0:0,0:0:0:0:
422,302,85255,38,0,B|422:258|422:258|418:254|418:254|426:254|426:254|422:250|422:250|422:202,1,110,2|2,0:0|0:0,0:0:0:0:
376,174,85880,2,0,L|376:112,1,55,8|8,0:0|0:0,0:0:0:0:
323,108,86297,2,0,L|323:46,1,55,8|8,0:0|0:0,0:0:0:0:
271,33,86713,38,0,P|235:25|199:32,1,73.3333333333333,12|2,1:3|1:0,0:0:0:0:
168,52,87130,2,0,B|164:64|164:64|172:76|172:76|164:88|164:88|172:100|172:100|164:112|164:112|172:124|172:124|164:136|164:136|172:148|172:148|164:160,1,110,10|2,0:1|3:1,0:0:0:0:
180,256,87963,38,0,P|215:263|251:256,1,73.3333333333333,2|8,1:0|1:0,0:0:0:0:
284,240,88380,2,0,B|284:236|284:236|276:228|276:228|292:228|292:228|284:220|284:220|284:136,1,110,8|2,3:1|1:0,0:0:0:0:
284,44,89213,6,0,B|308:28|308:28|328:44|328:44|348:28|348:28|372:44|372:44|397:29|397:29|424:44,1,165,10|8,1:0|1:0,0:0:0:0:
468,72,90047,38,0,L|468:150,1,73.3333333333333,2|2,3:1|3:1,0:0:0:0:
436,164,90464,2,0,B|432:176|432:176|440:188|440:188|432:200|432:200|440:212|440:212|432:224|432:224|440:236|440:236|432:248|432:248|440:260|440:260|432:272,1,110,2|2,3:1|3:1,0:0:0:0:
434,367,91297,6,0,P|398:374|362:367,1,73.3333333333333,2|8,1:0|3:1,0:0:0:0:
332,348,91714,2,0,B|332:344|332:344|340:336|340:336|324:336|324:336|332:328|332:328|332:280|332:280|340:272|340:272|324:272|324:272|332:264|332:264|332:192|332:192|340:184|340:184|324:184|324:184|332:176|332:176|332:140,1,275,8|0,1:0|0:0,0:0:0:0:
188,64,93380,38,0,L|72:72,3,110,8|8|8|8,1:3|1:3|1:3|1:3,0:0:0:0:
132,168,95047,2,0,L|241:160,3,110,8|8|12|8,1:3|1:3|1:3|0:3,0:0:0:0:
345,197,96713,38,0,B|357:157|357:157|346:118,2,82.5,14|2|2,1:2|1:2|1:2,0:0:0:0:
304,234,97546,2,0,L|244:243,1,55,8|2,1:2|1:2,0:0:0:0:
195,251,97963,2,0,L|140:259,1,55,14|2,1:2|1:2,0:0:0:0:
99,296,98380,2,0,B|87:336|87:336|98:375,2,82.5,14|2|0,1:2|1:2|0:0,0:0:0:0:
174,343,99318,1,0,0:0:0:0:
254,356,99630,2,0,L|298:310,1,55,6|0,0:0|0:0,0:0:0:0:
248,282,100047,6,0,L|254:173,1,110,12|8,0:3|0:3,0:0:0:0:
333,249,100881,2,0,L|339:140,1,110,8|8,0:3|0:3,0:0:0:0:
420,214,101714,2,0,L|426:105,1,110,8|8,0:3|0:3,0:0:0:0:
505,181,102548,2,0,L|510:72,1,110,8|0,0:3|0:0,0:0:0:0:
404,44,103380,38,0,B|364:32|364:32|325:43,2,82.5,14|2|0,1:2|1:2|0:0,0:0:0:0:
441,85,104213,2,0,L|437:149,1,55,8|2,1:2|1:2,0:0:0:0:
433,194,104630,2,0,L|429:248,1,55,14|2,1:2|1:2,0:0:0:0:
431,304,105047,2,0,B|471:316|471:316|510:305,2,82.5,14|2|8,1:2|1:2|1:3,0:0:0:0:
352,277,105984,2,0,B|324:269|324:269|300:285|300:285|276:269|276:269|250:262|219:274,1,137.5,2|0,0:1|0:0,0:0:0:0:
172,282,106713,6,0,B|185:315|172:341|172:341|152:354|133:341|133:341|120:315|133:282,2,165,0|0|0,0:0|0:0|0:0,0:0:0:0:
127,181,108380,2,0,B|140:148|127:122|127:122|107:109|88:122|88:122|75:148|88:181,2,165,0|0|6,0:0|0:0|1:3,0:0:0:0:
209,254,110046,38,0,B|261:269|288:258|288:258|303:233,1,110,6|8,0:0|0:0,0:0:0:0:
303,178,110671,2,0,B|250:162|223:173|223:173|208:198,1,110,2|0,0:0|0:0,0:0:0:0:
209,254,111296,2,0,P|215:283|208:313,1,55,14|2,0:0|0:0,0:0:0:0:
162,279,111713,38,0,L|61:280,2,82.5,6|2|2,0:0|0:0|0:0,0:0:0:0:
210,307,112546,2,0,P|238:312|266:305,1,55,8|8,3:0|3:0,0:0:0:0:
315,285,112963,2,0,P|342:279|369:284,1,55,8|8,3:0|3:0,0:0:0:0:
417,309,113380,6,0,B|402:257|413:230|413:230|438:215,1,110,6|8,0:0|0:0,0:0:0:0:
491,215,114005,2,0,B|507:268|496:295|496:295|471:310,1,110,2|0,0:0|0:0,0:0:0:0:
417,309,114629,1,10,0:0:0:0:
309,284,115046,38,0,B|257:269|230:280|230:280|215:305,1,110,6|8,0:0|0:0,0:0:0:0:
215,360,115671,2,0,B|268:376|295:365|295:365|310:340,1,110,2|0,0:0|0:0,0:0:0:0:
309,284,116296,1,10,0:0:0:0:
273,179,116713,6,0,P|221:164|162:184,1,110,6|8,0:0|0:0,0:0:0:0:
85,251,117546,2,0,B|69:304|80:331|80:331|105:346,1,110,10|8,0:0|0:0,0:0:0:0:
163,351,118171,1,2,0:0:0:0:
163,351,118379,38,0,P|194:346|219:350,1,55,12|6,1:2|1:2,0:0:0:0:
271,355,118796,2,0,P|302:361|327:356,2,55,12|6|8,1:2|1:2|1:2,0:0:0:0:
232,251,119630,2,0,P|241:229|255:248,1,55,10|8,1:2|1:2,0:0:0:0:
302,277,120046,6,0,L|370:268,1,55,4|4,0:1|0:1,0:0:0:0:
363,216,120463,2,0,L|431:207,1,55,4|4,0:1|0:1,0:0:0:0:
471,201,120880,2,0,B|475:189|475:189|467:177|467:177|475:165|475:165|467:153|467:153|475:141|475:141|467:129|467:129|475:117|475:117|467:105|467:105|475:93|475:93|467:81|467:81|475:69|475:69|467:57,1,165,4|0,0:1|0:0,0:0:0:0:
468,6,121713,37,6,0:3:0:0:
389,82,122129,1,10,0:0:0:0:
389,82,122338,1,2,0:0:0:0:
389,82,122546,2,0,P|331:96|275:74,1,110,10|8,0:0|0:0,0:0:0:0:
281,25,123171,6,0,B|333:9|333:9|397:29,1,110,2|2,0:0|0:0,0:0:0:0:
433,54,123796,1,10,0:0:0:0:
496,143,124213,2,0,B|528:199|496:247|496:247|448:207,1,165,10|8,0:0|0:0,0:0:0:0:
414,173,125046,37,6,0:0:0:0:
333,113,125462,1,6,0:0:0:0:
333,113,125671,1,2,0:0:0:0:
333,113,125880,2,0,P|275:99|219:121,1,110,10|8,0:0|0:0,0:0:0:0:
232,169,126505,6,0,B|284:185|284:185|348:165,1,110,2|2,0:0|0:0,0:0:0:0:
382,135,127129,1,10,0:0:0:0:
463,209,127547,2,0,B|495:265|463:313|463:313|415:273,1,165,10|0,0:0|0:0,0:0:0:0:
382,238,128379,37,6,0:0:0:0:
295,187,128797,1,6,0:0:0:0:
295,187,129004,1,0,0:0:0:0:
295,187,129213,2,0,P|281:245|303:301,1,110,10|8,0:0|0:0,0:0:0:0:
351,287,129838,6,0,B|367:235|367:235|347:171,1,110,2|2,0:0|0:0,0:0:0:0:
322,134,130462,1,10,0:0:0:0:
225,80,130880,2,0,P|167:67|113:86,1,110,10|8,0:0|0:0,0:0:0:0:
88,126,131504,37,8,0:0:0:0:
88,126,131713,2,0,L|108:246,1,110,2|2,0:3|0:3,0:0:0:0:
155,258,132338,1,2,0:0:0:0:
155,258,132547,2,0,L|175:138,1,110,8|8,3:0|3:0,0:0:0:0:
221,122,133171,5,2,0:0:0:0:
221,122,133380,2,0,L|241:242,1,110,2|2,0:3|0:3,0:0:0:0:
288,254,134005,1,6,0:3:0:0:
288,254,134214,2,0,L|308:134,2,110,6|6|2,0:3|0:3|1:2,0:0:0:0:
38,371,136297,37,6,0:3:0:0:
38,371,136505,2,0,B|22:319|22:319|42:255,1,110,6|2,0:0|0:0,0:0:0:0:
68,220,137129,1,10,0:0:0:0:
144,141,137546,2,0,B|200:109|248:141|248:141|208:189,1,165,10|0,0:0|0:0,0:0:0:0:
172,220,138379,6,0,P|166:247|170:274,1,55,6|2,0:0|0:0,0:0:0:0:
189,326,138796,2,0,P|194:353|190:380,1,55,6|2,0:0|0:0,0:0:0:0:
145,347,139213,2,0,P|87:361|31:339,1,110,10|8,0:0|0:0,0:0:0:0:
42,291,139838,38,0,B|94:275|94:275|158:295,1,110,2|2,0:0|0:0,0:0:0:0:
195,320,140463,1,10,0:0:0:0:
291,266,140880,2,0,B|323:210|291:162|291:162|243:202,1,165,10|8,0:0|0:0,0:0:0:0:
202,225,141713,6,0,P|175:231|148:227,1,55,6|0,0:0|0:0,0:0:0:0:
99,201,142130,2,0,P|72:196|45:200,1,55,10|2,0:0|0:0,0:0:0:0:
19,249,142547,2,0,P|5:307|27:363,1,110,10|8,0:0|0:0,0:0:0:0:
87,370,143171,37,6,0:0:0:0:
87,370,143588,1,6,0:0:0:0:
87,370,144004,1,6,0:0:0:0:
87,370,144421,2,0,L|142:367,1,55,6|6,0:0|0:0,0:0:0:0:
251,369,145046,5,6,0:0:0:0:
251,369,145255,2,0,B|251:325|251:325|247:321|247:321|255:321|255:321|251:317|251:317|251:269,1,110,2|2,0:0|0:0,0:0:0:0:
298,242,145879,2,0,L|298:180,1,55,6|2,0:0|0:0,0:0:0:0:
252,156,146296,2,0,L|252:94,1,55,10|2,0:0|0:0,0:0:0:0:
164,33,146922,38,0,B|164:77|164:77|168:81|168:81|160:81|160:81|164:85|164:85|164:133,1,110,2|2,0:0|0:0,0:0:0:0:
117,160,147546,2,0,L|117:222,1,55,8|8,0:0|0:0,0:0:0:0:
163,246,147963,2,0,L|163:308,1,55,8|8,0:0|0:0,0:0:0:0:
166,356,148380,1,6,3:0:0:0:
213,327,148588,38,0,P|254:319|294:326,4,82.5,2|2|2|2|2,1:0|1:0|1:0|1:0|1:0,0:0:0:0:
114,277,150255,38,0,P|122:236|115:196,4,82.5,2|2|2|2|2,1:0|1:0|1:0|1:0|1:0,0:0:0:0:
16,225,151922,6,0,P|8:185|15:145,4,82.5,2|2|2|2|2,1:0|1:0|1:0|1:0|1:0,0:0:0:0:
40,273,153380,6,0,B|52:265|52:265|64:273|64:273|76:265|76:265|88:273|88:273|100:265|100:265|112:273|112:273|124:265|124:265|136:273|136:273|148:265|148:265|160:273|160:273|172:265|172:265|184:273|184:273|196:265|196:265|208:273|208:273|220:265|220:265|232:273|232:273|244:265|244:265|256:273|256:273|268:265|268:265|280:273|280:273|292:265|292:265|324:285|372:273,1,385,0|2,0:0|0:1,0:0:0:0:
416,241,155047,5,6,0:3:0:0:
416,241,155255,2,0,L|426:176,2,55,2|10|2,0:1|0:1|0:1,0:0:0:0:
377,201,155880,2,0,L|391:111,2,82.5,10|2|6,0:1|0:1|0:1,0:0:0:0:
329,225,156713,37,6,0:3:0:0:
329,225,156921,2,0,L|339:290,2,55,2|10|2,0:1|0:1|0:1,0:0:0:0:
290,265,157547,2,0,L|304:355,2,82.5,10|2|6,0:1|0:1|0:1,0:0:0:0:
243,244,158380,5,6,0:3:0:0:
243,244,158588,2,0,L|253:179,2,55,2|10|2,0:1|0:1|0:1,0:0:0:0:
204,204,159213,2,0,L|218:114,2,82.5,10|2|6,0:1|0:1|0:1,0:0:0:0:
153,225,160047,38,0,B|155:255|155:255|88:274|66:223|71:183|101:137|157:148,1,220,6|6,0:3|0:3,0:0:0:0:
242,160,161297,2,0,P|262:179|267:164,2,55,6|6|6,0:0|0:0|0:0,0:0:0:0:
264,104,161922,6,0,B|288:96|288:96|340:112|340:112|376:104,1,110,2|2,0:1|0:1,0:0:0:0:
424,100,162547,2,0,B|424:91|424:91|428:87|428:87|419:87|419:87|424:82|424:82|424:28|424:28|420:24|420:24|428:24|428:24|424:20|424:20|424:0,2,110,10|6|6,0:1|0:1|0:3,0:0:0:0:
424,156,163588,38,0,B|400:164|400:164|348:148|348:148|312:156,1,110,2|2,0:1|0:1,0:0:0:0:
264,160,164213,2,0,B|264:168|264:168|259:172|259:172|268:172|268:172|264:177|264:177|264:232|264:232|268:236|268:236|260:236|260:236|264:240|264:240|264:260,2,110,10|6|6,0:1|0:1|0:3,0:0:0:0:
257,105,165255,6,0,B|233:97|233:97|181:113|181:113|145:105,1,110,2|2,0:1|0:1,0:0:0:0:
97,101,165880,2,0,B|97:92|97:92|93:88|93:88|102:88|102:88|97:83|97:83|97:29|97:29|101:25|101:25|93:25|93:25|97:21|97:21|97:1,2,110,10|6|6,0:1|0:1|0:3,0:0:0:0:
99,156,166922,38,0,B|123:164|123:164|175:148|175:148|211:156,1,110,2|2,0:1|0:1,0:0:0:0:
254,173,167547,2,0,P|261:200|257:227,1,55,10|2,0:1|0:1,0:0:0:0:
239,279,167963,2,0,P|234:305|241:332,2,55,10|10|6,0:1|0:1|0:3,0:0:0:0:
197,242,168588,6,0,B|173:234|173:234|121:250|121:250|85:242,1,110,2|2,0:1|0:1,0:0:0:0:
37,238,169213,2,0,B|37:229|37:229|33:225|33:225|42:225|42:225|37:220|37:220|37:167|37:167|41:162|41:162|33:162|33:162|37:158|37:158|37:138,2,110,10|6|6,0:1|0:1|0:3,0:0:0:0:
40,293,170255,38,0,B|64:301|64:301|116:285|116:285|152:293,1,110,2|2,0:1|0:1,0:0:0:0:
198,301,170880,2,0,P|225:307|252:303,1,55,8|2,0:1|0:0,0:0:0:0:
309,209,171505,2,0,P|282:203|255:207,1,55,6|6,0:3|0:3,0:0:0:0:
201,218,171922,6,0,B|177:226|177:226|125:210|125:210|89:218,1,110,2|2,0:1|0:1,0:0:0:0:
41,222,172547,2,0,B|41:231|41:231|37:235|37:235|46:235|46:235|41:240|41:240|41:294|41:294|45:298|45:298|37:298|37:298|41:302|41:302|41:322,2,110,10|6|6,0:1|0:1|0:3,0:0:0:0:
43,167,173588,38,0,B|67:159|67:159|119:175|119:175|155:167,1,110,2|2,0:1|0:1,0:0:0:0:
198,144,174213,2,0,P|224:138|251:142,1,55,10|10,0:1|0:1,0:0:0:0:
303,162,174630,2,0,P|330:166|356:160,1,55,10|10,0:1|0:1,0:0:0:0:
403,133,175047,1,6,3:0:0:0:
159,262,185047,38,2,B|129:268|140:304|164:311|199:302|205:269|185:200|185:200|163:123|163:123|324:77|324:77|345:153|345:153|366:223|359:256|325:265|299:258|291:222|317:215,1,660,2|2,0:1|0:0,0:1:0:0:
434,182,187963,6,0,P|461:175|490:185,1,55,12|0,0:3|0:0,0:0:0:0:
460,231,188380,6,0,L|460:346,1,110,6|2,0:3|1:2,0:0:0:0:
299,302,189422,37,2,0:3:0:0:
248,281,189630,1,2,0:3:0:0:
290,246,189838,2,0,B|290:136|290:136|290:119|280:104|260:100|244:108,1,165,2|8,0:3|1:2,0:0:0:0:
144,120,190880,5,6,0:0:0:0:
144,120,191088,2,0,B|120:128|120:128|68:112|68:112|32:120,1,110,8|8,0:3|0:3,0:0:0:0:
23,171,191713,38,0,L|23:287,1,110,6|2,0:0|1:2,0:0:0:0:
175,345,192755,5,2,0:3:0:0:
226,324,192963,1,2,0:3:0:0:
184,289,193172,2,0,B|184:179|184:179|184:162|194:147|213:143|230:151,1,165,2|0,0:3|0:0,0:0:0:0:
327,171,194213,38,0,B|335:207|335:207|315:235|315:235|335:271|335:271|311:299|311:299|335:347,1,183.333333333333,8|8,1:0|1:0,0:0:0:0:
332,365,195047,6,0,L|448:365,1,110,6|2,0:0|1:2,0:0:0:0:
505,212,196088,37,2,0:3:0:0:
454,191,196296,1,2,0:3:0:0:
496,156,196504,2,0,B|496:46|496:46|496:29|486:14|466:10|450:18,1,165,2|8,0:3|1:2,0:0:0:0:
349,22,197547,6,0,L|294:24,2,55,6|10|10,0:0|0:0|0:0,0:0:0:0:
385,63,198172,37,10,0:0:0:0:
385,63,198381,2,0,L|365:183,1,110,6|10,0:0|0:0,0:0:0:0:
295,255,199213,2,0,L|275:135,1,110,10|10,0:0|0:0,0:0:0:0:
225,121,199839,5,2,0:0:0:0:
225,121,200048,2,0,L|205:241,1,110,2|0,0:3|0:0,0:0:0:0:
158,253,200673,1,0,0:0:0:0:
158,253,200880,2,0,L|138:133,1,110,6|6,0:3|0:3,0:0:0:0:
117,37,201714,37,6,0:3:0:0:
226,94,202130,1,10,0:0:0:0:
226,94,202339,1,2,0:0:0:0:
226,94,202547,2,0,P|284:108|340:86,1,110,10|0,0:0|0:0,0:0:0:0:
323,38,203172,6,0,B|271:22|271:22|207:42,1,110,2|2,0:0|0:0,0:0:0:0:
172,68,203797,1,8,0:1:0:0:
102,153,204214,2,0,B|70:209|102:257|102:257|150:217,1,165,8|0,0:1|0:0,0:0:0:0:
194,198,205047,38,0,P|221:192|248:196,1,55,6|2,0:0|0:0,0:0:0:0:
300,215,205464,2,0,P|327:220|354:216,1,55,6|2,0:0|0:0,0:0:0:0:
396,180,205881,2,0,P|382:122|404:66,1,110,10|0,0:0|0:0,0:0:0:0:
453,77,206506,6,0,B|469:129|469:129|449:193,1,110,2|2,0:0|0:0,0:0:0:0:
396,180,207130,2,0,P|332:165|284:184,1,110,10|2,0:0|1:2,0:0:0:0:
93,274,208380,38,0,P|87:247|91:220,1,55,6|2,0:0|0:0,0:0:0:0:
118,172,208798,2,0,P|123:145|119:118,1,55,10|0,0:0|0:0,0:0:0:0:
96,67,209213,2,0,P|154:81|210:59,1,110,10|8,0:0|0:0,0:0:0:0:
249,37,209839,5,6,0:0:0:0:
249,37,210256,1,6,0:0:0:0:
249,37,210672,1,6,0:0:0:0:
249,37,211089,2,0,L|306:37,1,55,6|6,0:0|0:0,0:0:0:0:
406,91,211714,37,6,0:0:0:0:
406,91,211922,2,0,B|406:135|406:135|402:139|402:139|410:139|410:139|406:143|406:143|406:191,1,110,2|2,0:0|0:0,0:0:0:0:
363,224,212547,2,0,L|327:179,1,55,6|2,0:0|0:0,0:0:0:0:
288,143,212963,2,0,L|227:143,1,55,10|2,0:0|0:0,0:0:0:0:
122,146,213588,6,0,B|122:190|122:190|126:194|126:194|118:194|118:194|122:198|122:198|122:246,1,110,2|2,0:0|0:0,0:0:0:0:
165,279,214213,2,0,L|201:234,1,55,8|8,0:0|0:0,0:0:0:0:
236,194,214630,2,0,L|293:194,1,55,8|8,0:0|0:0,0:0:0:0:
341,215,215047,6,4,B|293:213|272:255|293:287|382:287|382:196|382:196|382:-4|382:-4|398:42|435:64|492:27|515:99|501:139,1,605,6|2,0:3|0:0,0:0:0:0:
256,52,218579,6,0,B|248:68|248:68|260:80|260:80|248:92|248:92|260:104|260:104|248:116|248:116|260:128|260:128|248:140|248:140|260:152|260:152|248:164|248:164|260:176|260:176|248:188|248:188|260:200|260:200|248:212|248:212|258:220,1,220
250,241,219696,6,0,L|249:318,1,55,14|4,0:3|0:1,0:0:0:0:
304,301,220083,2,0,L|303:378,1,55,14|4,0:3|0:1,0:0:0:0:
362,352,220470,5,14,0:3:0:0:
362,352,220663,2,0,B|390:360|390:360|414:352|414:352|438:360|438:360|467:355,1,110,4|4,0:1|0:1,0:0:0:0:
492,311,221244,37,14,0:3:0:0:
492,311,221437,1,4,0:1:0:0:
492,311,221631,2,0,L|493:234,1,55,14|4,0:3|0:1,0:0:0:0:
490,200,222018,6,0,B|466:180|466:180|376:180|376:180,1,110,14|4,0:3|0:1,0:0:0:0:
289,214,222792,37,14,0:3:0:0:
289,214,222985,1,4,0:1:0:0:
289,214,223179,2,0,L|225:214,1,55,14|4,0:3|0:1,0:0:0:0:
190,248,223566,6,0,B|165:268|165:268|87:268|87:268,1,110,14|4,0:3|0:1,0:0:0:0:
24,183,224341,37,14,0:3:0:0:
24,183,224534,2,0,B|12:156|12:156|24:135|24:135|12:111|24:63,1,110,4|4,0:1|0:1,0:0:0:0:
60,43,225115,6,0,P|87:35|114:40,1,55,14|4,0:3|0:1,0:0:0:0:
155,76,225502,2,0,P|183:81|209:74,1,55,6|2,0:0|0:0,0:0:0:0:
259,50,225889,37,6,0:3:0:0:
259,50,226083,2,0,L|259:160,1,110,6|0,0:3|1:0,0:0:0:0:
