osu file format v14

[General]
AudioFilename: audio.mp3
AudioLeadIn: 0
PreviewTime: 209786
Countdown: 0
SampleSet: Soft
StackLeniency: 0.4
Mode: 0
LetterboxInBreaks: 0
WidescreenStoryboard: 1

[Editor]
Bookmarks: 449,5033,18387,31720,35054,38387,41720,45054,60054,73387,86720,93387,96720,100054,103387,106720,110054,113387,121720,135054,148387,155054,175054,188387,191713,195047,198387,201720,211713,215047,218579,219696,226470
DistanceSpacing: 1.2
BeatDivisor: 3
GridSize: 8
TimelineZoom: 1.3

[Metadata]
Title:Ohedo Julia-Night
TitleUnicode:大江戸ジュリアナイト
Artist:Mitchie M feat. Hatsune Miku with KAITO
ArtistUnicode:Mitchie M feat.初音ミク with KAITO
Creator:Natsu
Version:Hyper
Source:
Tags:Vocaloid 10th anniversary 1990's techno music traditional Tsukasa Ryugu Not-116 Re:start 家の裏でマンボウが死んでるP 初音ミク
BeatmapID:1414941
BeatmapSetID:664099

[Difficulty]
HPDrainRate:4
CircleSize:4
OverallDifficulty:6
ApproachRate:7
SliderMultiplier:1.4
SliderTickRate:1

[Events]
//Background and Video events
Video,0,"f.avi"
0,0,"a.jpg",0,0
//Break Periods
//Storyboard Layer 0 (Background)
//Storyboard Layer 1 (Fail)
//Storyboard Layer 2 (Pass)
//Storyboard Layer 3 (Foreground)
//Storyboard Sound Samples

[TimingPoints]
450,416.666666666667,4,2,1,50,1,0
450,-125,4,2,1,50,0,0
1179,-125,4,2,1,30,0,0
1700,-125,4,2,1,50,0,0
2116,432.900432900433,4,2,1,50,1,0
3414,-100,4,2,1,5,0,0
3847,540.540540540541,4,2,1,50,1,0
4387,-100,4,2,1,70,0,0
5047,416.666666666667,4,2,1,60,1,0
7755,-100,4,2,1,70,0,0
8588,-100,4,2,1,60,0,0
10047,-100,4,2,1,50,0,0
11088,-100,4,2,1,70,0,0
11922,-100,4,2,1,60,0,0
14422,-100,4,2,1,70,0,0
15255,-100,4,2,1,65,0,0
16088,-100,4,2,1,70,0,0
16713,-100,4,2,1,60,0,0
21088,-100,4,2,1,70,0,0
21922,-100,4,2,1,60,0,0
24422,-100,4,2,1,70,0,0
25255,-100,4,2,1,60,0,0
27755,-100,4,2,1,70,0,0
28588,-100,4,2,1,65,0,0
31297,-142.857142857143,4,2,1,30,0,0
31401,-142.857142857143,4,2,1,5,0,0
31713,-100,4,2,1,40,0,0
35047,-100,4,2,1,60,0,0
38380,-100,4,2,1,40,0,0
41713,-100,4,2,1,60,0,0
44213,-100,4,2,1,20,0,0
44317,-100,4,2,1,40,0,0
45047,-100,4,2,1,60,0,0
58380,-100,4,2,1,50,0,0
59317,-100,4,2,1,60,0,0
60047,-90.9090909090909,4,2,1,80,0,1
73328,-90.9090909090909,4,2,1,80,0,0
73380,-90.9090909090909,4,2,1,80,0,1
86713,-111.111111111111,4,2,1,60,0,0
86991,-111.111111111111,4,2,1,40,0,0
89213,-100,4,2,1,40,0,0
89422,-100,4,2,1,20,0,0
89630,-100,4,2,1,40,0,0
89838,-100,4,2,1,20,0,0
90047,-111.111111111111,4,2,1,40,0,0
92824,-111.111111111111,4,2,1,5,0,0
92963,-142.857142857143,4,2,1,30,0,0
93067,-142.857142857143,4,2,1,5,0,0
93380,-142.857142857143,4,2,1,20,0,0
95880,-100,4,2,1,50,0,0
96713,-100,4,2,1,60,0,0
100047,-100,4,2,1,40,0,0
103380,-100,4,2,1,60,0,0
105359,-100,4,2,1,50,0,0
105984,-100,4,2,1,40,0,0
106713,-125,4,2,1,50,0,0
109630,-100,4,2,1,60,0,0
109838,-100,4,2,1,5,0,0
110047,-100,4,2,1,60,0,0
119630,-74.0740740740741,4,2,1,60,0,0
120047,-100,4,2,1,50,0,0
120984,-100,4,2,1,60,0,0
121713,-90.9090909090909,4,2,1,80,0,1
135047,-125,4,2,1,40,0,0
136192,-125,4,2,1,20,0,0
136297,-90.9090909090909,4,2,1,80,0,1
136505,-90.9090909090909,4,2,1,80,0,1
148380,-111.111111111111,4,2,1,60,0,0
148588,-111.111111111111,4,2,1,50,0,0
153380,-111.111111111111,4,2,1,65,0,0
154630,-90.9090909090909,4,2,1,65,0,0
155047,-90.9090909090909,4,2,2,70,0,1
160047,-83.3333333333333,4,2,2,70,0,1
160880,-76.9230769230769,4,2,2,70,0,1
161297,-66.6666666666667,4,2,2,70,0,1
161713,-90.9090909090909,4,2,2,70,0,1
171922,-90.9090909090909,4,2,2,60,0,1
172547,-90.9090909090909,4,2,2,50,0,1
174213,-90.9090909090909,4,2,2,75,0,1
175047,836.820083682008,4,2,3,50,1,0
175883,818.553888130969,4,2,3,50,1,0
176701,701.754385964912,4,2,3,50,1,0
177402,616.649537512847,4,2,3,50,1,0
178018,508.474576271186,4,2,3,50,1,0
178526,444.444444444444,4,2,3,50,1,0
178970,416.666666666667,4,2,3,50,1,0
179386,352.941176470588,4,2,3,50,1,0
179738,600,4,2,3,50,1,0
180038,571.428571428571,4,2,3,50,1,0
180323,545.454545454546,4,2,3,50,1,0
180595,458.015267175573,4,2,3,50,1,0
180824,416.666666666667,4,2,3,50,1,0
181032,365.853658536585,4,2,3,50,1,0
181214,333.333333333333,4,2,3,50,1,0
181380,307.692307692308,4,2,3,50,1,0
181533,571.428571428571,4,2,3,50,1,0
181675,530.973451327434,4,2,3,50,1,0
181807,517.241379310345,4,2,1,40,1,0
181936,483.870967741935,4,2,1,40,1,0
182056,352.941176470588,4,2,1,40,1,0
182144,333.333333333333,4,2,1,40,1,0
182227,315.789473684211,4,2,1,40,1,0
182305,307.692307692308,4,2,1,40,1,0
182382,600,4,2,1,40,1,0
182532,576.923076923077,4,2,1,40,1,0
182676,555.555555555556,4,2,1,40,1,0
182814,500,4,2,1,40,1,0
182939,480,4,2,1,40,1,0
183059,444.444444444444,4,2,1,40,1,0
183170,413.793103448276,4,2,1,40,1,0
183273,400,4,2,1,40,1,0
183373,375,4,2,1,40,1,0
183466,352.941176470588,4,2,1,40,1,0
183554,342.857142857143,4,2,1,40,1,0
183639,333.333333333333,4,2,1,40,1,0
183722,492.206726825267,4,2,1,20,1,0
184214,416.666666666667,4,2,1,20,1,0
184630,-125,4,2,1,20,0,0
185047,416.666666666667,4,2,1,20,1,0
185047,-125,4,2,1,20,0,0
185463,-125,4,2,1,5,0,0
187963,-100,4,2,1,80,0,0
188380,-90.9090909090909,4,2,1,80,0,1
188797,-125,4,2,1,60,0,0
189422,-90.9090909090909,4,2,1,80,0,0
190255,-125,4,2,1,60,0,0
190880,-90.9090909090909,4,2,1,80,0,0
191713,-90.9090909090909,4,2,1,80,0,1
192130,-125,4,2,1,60,0,0
192755,-90.9090909090909,4,2,1,80,0,0
193588,-125,4,2,1,60,0,0
194213,-90.9090909090909,4,2,1,30,0,0
195047,-90.9090909090909,4,2,1,80,0,1
195463,-125,4,2,1,60,0,0
196088,-90.9090909090909,4,2,1,80,0,0
196922,-125,4,2,1,60,0,0
197547,-90.9090909090909,4,2,1,80,0,0
198380,-90.9090909090909,4,2,1,80,0,1
201661,-90.9090909090909,4,2,1,80,0,0
201713,-90.9090909090909,4,2,1,80,0,1
203797,-90.9090909090909,4,2,1,20,0,1
204213,-90.9090909090909,4,2,1,20,0,1
204630,-90.9090909090909,4,2,1,80,0,1
207547,-125,4,2,1,20,0,0
208067,-125,4,2,1,20,0,0
208380,-90.9090909090909,4,2,1,80,0,1
211297,-90.9090909090909,4,2,1,80,0,0
211505,-125,4,2,1,10,0,0
211713,-90.9090909090909,4,2,1,80,0,1
215047,-142.857142857143,4,2,1,60,0,0
215463,-142.857142857143,4,2,1,5,0,0
217338,-142.857142857143,4,2,1,20,0,0
218380,-142.857142857143,4,2,1,5,0,0
218579,504.201680672269,4,2,1,40,1,0
219083,-83.3333333333333,4,2,1,60,0,0
219696,387.096774193548,4,2,1,60,1,1
219889,-100,4,2,1,25,0,1
220083,-100,4,2,1,60,0,1
220276,-100,4,2,1,25,0,1
220470,-100,4,2,1,60,0,1
220663,-100,4,2,1,25,0,1
221244,-100,4,2,1,60,0,1
221437,-100,4,2,1,25,0,1
221631,-100,4,2,1,60,0,1
221825,-100,4,2,1,25,0,1
222018,-100,4,2,1,60,0,1
222115,-100,4,2,1,25,0,1
222792,-100,4,2,1,60,0,1
222986,-100,4,2,1,25,0,1
223179,-100,4,2,1,60,0,1
223373,-100,4,2,1,25,0,1
223566,-100,4,2,1,60,0,1
223663,-100,4,2,1,25,0,1
224341,-100,4,2,1,60,0,1
224534,-100,4,2,1,25,0,1
224728,-100,4,2,1,60,0,1
224921,-100,4,2,1,25,0,1
225115,-100,4,2,1,60,0,1
225212,-100,4,2,1,25,0,1
225502,-100,4,2,1,60,0,1
226083,-142.857142857143,4,2,1,60,0,1
226470,-142.857142857143,4,2,1,5,0,0

[Colours]
Combo1 : 255,183,255
Combo2 : 0,118,236
Combo3 : 255,147,255
Combo4 : 193,224,255
SliderBorder : 249,0,249
SliderTrackOverride : 0,0,159

[HitObjects]
441,262,450,37,6,0:3:0:0:
441,262,658,2,0,P|447:294|425:337,1,56
325,295,1179,2,0,L|229:295,1,84,2|2,0:1|0:1,0:0:0:0:
168,265,1700,2,0,P|160:291|166:318,2,56
256,192,2224,12,0,3414,0:0:0:0:
256,192,3847,6,0,L|250:214,12,23.3333333333333,0|0|0|0|0|0|0|0|0|0|0|0|0,0:0|0:0|0:0|0:0|0:0|0:0|0:0|0:0|0:0|0:0|0:0|0:0|0:0,0:0:0:0:
242,246,5047,5,6,0:3:0:0:
315,287,5255,2,0,P|335:294|354:288,2,35,2|0|8,0:0|0:0|0:0,0:0:0:0:
242,246,5672,2,0,P|222:239|203:245,2,35,0|0|8,0:0|0:0|0:0,0:0:0:0:
318,210,6088,1,2,0:0:0:0:
318,210,6297,2,0,L|318:132,1,70,8|0,0:0|0:0,0:0:0:0:
317,56,6713,5,10,0:0:0:0:
317,56,6817,2,0,P|279:65|246:55,1,70,2|2,0:0|0:0,0:0:0:0:
211,38,7130,2,0,P|177:31|143:39,2,70,10|2|8,0:0|0:0|0:0,0:0:0:0:
187,119,7755,37,2,0:0:0:0:
187,119,7859,1,0,0:0:0:0:
187,119,7963,2,0,L|188:171,3,35,6|0|0|0,0:3|0:0|0:0|0:0,0:0:0:0:
188,195,8379,1,0,0:0:0:0:
202,278,8588,6,0,P|181:280|162:276,2,35,2|0|8,0:0|0:0|0:0,0:0:0:0:
282,253,9005,2,0,P|303:251|322:255,2,35,0|0|8,0:0|0:0|0:0,0:0:0:0:
303,334,9421,1,2,0:0:0:0:
303,334,9630,2,0,P|337:342|382:327,1,70,8|0,0:0|0:0,0:0:0:0:
450,306,10047,37,10,0:0:0:0:
490,232,10255,2,0,P|493:217|488:197,2,35,8|8|8,0:3|0:3|0:3,0:0:0:0:
454,310,10672,1,8,0:3:0:0:
454,310,10776,2,0,L|407:310,1,35,8|8,0:3|0:0,0:0:0:0:
338,284,11088,5,2,0:0:0:0:
262,320,11297,2,0,P|253:283|266:244,1,70,2|2,0:3|0:3,0:0:0:0:
328,203,11713,1,6,0:3:0:0:
413,188,11922,38,0,P|434:185|455:193,2,35,2|0|8,0:0|0:0|0:0,0:0:0:0:
328,203,12338,2,0,P|307:206|286:198,2,35,0|0|8,0:0|0:0|0:0,0:0:0:0:
317,119,12755,1,2,0:0:0:0:
317,119,12963,2,0,L|317:45,1,70,8|0,0:0|0:0,0:0:0:0:
239,68,13380,5,10,0:0:0:0:
239,68,13484,2,0,P|202:76|166:66,1,70,2|2,0:0|0:0,0:0:0:0:
133,50,13797,2,0,P|99:42|65:50,2,70,10|2|8,0:0|0:0|0:0,0:0:0:0:
111,131,14422,37,2,0:0:0:0:
111,131,14526,1,0,0:0:0:0:
111,131,14630,2,0,L|111:185,3,35,6|0|0|0,0:3|0:0|0:0|0:0,0:0:0:0:
112,207,15046,1,0,0:0:0:0:
173,264,15255,5,2,0:0:0:0:
250,295,15463,2,0,P|258:260|246:223,1,70,10|2,0:0|0:0,0:0:0:0:
218,198,15776,2,0,L|329:198,1,105,2|2,0:0|0:0,0:0:0:0:
407,202,16297,38,0,L|402:240,3,35,8|0|0|0,0:0|0:0|0:0|0:0,0:0:0:0:
440,254,16713,2,0,L|435:292,3,35,10|0|0|0,0:0|0:0|0:0|0:0,0:0:0:0:
424,328,17130,2,0,P|391:319|358:326,1,70,10|2,0:0|1:3,0:0:0:0:
284,368,17547,6,0,P|250:375|217:365,1,70,2|2,1:3|1:3,0:0:0:0:
156,308,17963,2,0,P|122:298|89:305,1,70,2|2,1:3|1:3,0:0:0:0:
6,321,18380,37,14,0:0:0:0:
26,239,18588,2,0,L|33:200,2,35,2|0|8,0:0|0:0|0:0,0:0:0:0:
6,321,19005,2,0,L|-1:360,2,35,0|0|8,0:0|0:0|0:0,0:0:0:0:
88,305,19421,1,2,0:0:0:0:
88,305,19630,2,0,P|120:297|164:308,1,70,8|0,0:0|0:0,0:0:0:0:
238,319,20046,5,10,0:0:0:0:
238,319,20150,2,0,P|229:281|239:248,1,70,2|2,0:0|0:0,0:0:0:0:
256,213,20463,2,0,P|263:179|255:145,2,70,10|2|8,0:0|0:0|0:0,0:0:0:0:
175,189,21088,37,2,0:0:0:0:
175,189,21192,1,0,0:0:0:0:
175,189,21296,2,0,L|123:190,3,35,6|0|0|0,0:3|0:0|0:0|0:0,0:0:0:0:
99,190,21712,1,0,0:0:0:0:
15,204,21921,6,0,P|13:183|17:164,2,35,2|0|8,0:0|0:0|0:0,0:0:0:0:
34,286,22338,2,0,P|36:307|32:326,2,35,0|0|8,0:0|0:0|0:0,0:0:0:0:
99,235,22754,1,2,0:0:0:0:
99,235,22963,2,0,P|133:227|178:242,1,70,8|0,0:0|0:0,0:0:0:0:
247,258,23380,37,10,0:0:0:0:
247,258,23484,2,0,P|238:220|248:187,1,70,2|2,0:0|0:0,0:0:0:0:
265,152,23797,2,0,P|272:118|264:84,2,70,2|2|8,0:0|0:0|0:0,0:0:0:0:
186,122,24421,5,2,0:0:0:0:
109,87,24630,2,0,P|101:120|110:154,1,70,2|2,0:3|0:3,0:0:0:0:
178,203,25046,1,6,0:3:0:0:
256,173,25255,38,0,P|277:170|298:178,2,35,2|0|8,0:0|0:0|0:0,0:0:0:0:
178,204,25671,2,0,P|157:207|136:199,2,35,0|0|8,0:0|0:0|0:0,0:0:0:0:
169,120,26088,1,2,0:0:0:0:
169,120,26296,2,0,L|169:46,1,70,8|0,0:0|0:0,0:0:0:0:
250,72,26713,5,10,0:0:0:0:
250,72,26817,2,0,P|287:80|323:70,1,70,2|2,0:0|0:0,0:0:0:0:
356,54,27130,2,0,P|390:46|424:54,2,70,10|2|0,0:0|0:0|0:0,0:0:0:0:
397,132,27755,37,2,0:0:0:0:
397,132,27859,1,0,0:0:0:0:
397,132,27963,2,0,L|397:186,3,35,6|0|0|0,0:3|0:0|0:0|0:0,0:0:0:0:
398,208,28379,1,0,0:0:0:0:
343,272,28588,5,2,0:0:0:0:
268,234,28796,2,0,P|233:226|196:238,1,70,10|2,0:0|0:0,0:0:0:0:
171,266,29109,2,0,L|171:155,1,105,2|2,0:0|0:0,0:0:0:0:
178,77,29630,2,0,P|213:85|250:73,1,70,2|2,0:3|0:3,0:0:0:0:
327,56,30047,37,2,1:3:0:0:
327,56,30255,1,2,1:3:0:0:
327,56,30463,1,2,1:3:0:0:
173,177,31297,38,0,L|181:213,1,24.4999992523194,4|0,0:1|1:0,0:0:0:0:
213,321,31713,37,12,0:3:0:0:
289,356,31922,2,0,P|323:363|357:356,2,70,8|8|0,0:3|0:3|0:0,0:0:0:0:
212,321,32547,2,0,P|177:313|143:320,2,70,8|0|8,0:3|0:0|0:3,0:0:0:0:
375,283,33380,6,0,L|393:195,1,70,8|8,0:3|0:3,0:0:0:0:
309,241,33797,2,0,L|305:161,1,70,8|0,0:3|0:0,0:0:0:0:
235,216,34213,2,0,L|208:144,1,70,8|0,0:3|0:0,0:0:0:0:
159,217,34630,2,0,L|98:145,1,70,14|0,0:0|0:0,0:0:0:0:
58,100,35047,5,14,1:2:0:0:
119,42,35255,2,0,P|140:37|164:44,1,35,2|2,1:2|1:2,0:0:0:0:
235,75,35567,1,2,1:2:0:0:
235,75,35671,2,0,P|267:83|319:67,1,70,2|8,1:2|1:2,0:0:0:0:
345,76,35984,2,0,P|341:97|349:122,2,35,2|2|2,1:2|1:2|1:2,0:0:0:0:
386,65,36297,2,0,P|420:58|453:66,1,70,14|2,1:2|1:2,0:0:0:0:
496,138,36713,5,14,1:2:0:0:
435,196,36921,2,0,P|414:201|390:194,1,35,2|2,1:2|1:2,0:0:0:0:
319,163,37233,1,2,1:2:0:0:
319,163,37338,2,0,P|287:155|235:171,1,70,2|8,1:2|1:2,0:0:0:0:
209,162,37650,2,0,P|213:141|205:116,2,35,0|0|0,0:0|0:0|0:0,0:0:0:0:
168,173,37963,2,0,P|133:179|100:171,1,70,6|0,0:0|0:0,0:0:0:0:
41,110,38380,5,12,0:3:0:0:
19,191,38589,2,0,P|12:225|19:259,2,70,8|8|0,0:3|0:3|0:0,0:0:0:0:
41,109,39214,2,0,P|49:74|42:40,2,70,8|0|8,0:3|0:0|0:3,0:0:0:0:
118,258,40047,6,0,L|122:337,1,70,8|8,0:3|0:3,0:0:0:0:
194,286,40464,2,0,L|219:357,1,70,8|0,0:3|0:0,0:0:0:0:
278,294,40880,2,0,L|329:352,1,70,8|0,0:3|0:0,0:0:0:0:
353,267,41297,2,0,L|441:283,1,70,14|0,0:0|0:0,0:0:0:0:
504,296,41714,5,14,1:2:0:0:
475,217,41922,2,0,P|470:196|477:172,1,35,2|0,1:2|0:0,0:0:0:0:
507,106,42234,1,2,1:2:0:0:
507,106,42338,2,0,P|475:98|423:114,1,70,2|8,1:2|1:2,0:0:0:0:
397,105,42651,2,0,P|398:85|390:61,2,35,2|0|0,1:2|0:0|0:0,0:0:0:0:
356,116,42964,2,0,P|322:123|289:115,1,70,14|2,1:2|1:2,0:0:0:0:
215,72,43380,5,14,1:2:0:0:
186,151,43588,2,0,P|181:172|188:196,1,35,2|2,1:2|1:2,0:0:0:0:
249,239,43900,1,2,1:2:0:0:
249,239,44005,1,2,1:2:0:0:
108,263,44317,2,0,P|109:283|101:307,2,35,2|2|2,0:1|0:1|0:1,0:0:0:0:
67,252,44630,2,0,P|33:245|0:253,1,70,6|8,0:1|1:3,0:0:0:0:
20,171,45047,38,0,P|27:137|19:104,1,70,6|0,0:0|0:0,0:0:0:0:
4,63,45359,2,0,L|47:54,1,35,2|8,0:0|0:0,0:0:0:0:
121,45,45672,2,0,P|114:79|122:112,1,70,2|8,0:0|0:0,0:0:0:0:
137,153,45984,2,0,L|94:162,1,35,2|0,0:0|0:0,0:0:0:0:
20,171,46297,2,0,P|11:204|18:238,1,70,10|0,0:0|0:0,0:0:0:0:
86,287,46713,6,0,L|169:287,1,70,6|0,0:0|0:0,0:0:0:0:
198,286,47026,2,0,L|216:240,1,35,2|8,0:0|0:0,0:0:0:0:
234,172,47338,2,0,L|151:172,1,70,2|8,0:0|0:0,0:0:0:0:
122,173,47651,2,0,L|104:219,1,35,2|0,0:0|0:0,0:0:0:0:
86,287,47963,2,0,L|4:287,1,70,10|0,0:0|0:0,0:0:0:0:
16,202,48380,38,0,P|24:168|16:131,1,70,6|0,0:0|0:0,0:0:0:0:
0,95,48692,2,0,P|-3:75|0:58,1,35,2|8,0:0|0:0,0:0:0:0:
77,28,49005,2,0,P|111:19|148:28,1,70,2|8,0:0|0:0,0:0:0:0:
184,44,49317,2,0,P|204:47|221:44,1,35,2|0,0:0|0:0,0:0:0:0:
300,24,49630,2,0,P|334:17|367:25,1,70,14|2,0:0|0:0,0:0:0:0:
430,81,50047,6,0,P|437:115|429:148,1,70,6|2,0:0|0:0,0:0:0:0:
398,177,50359,2,0,P|375:180|356:177,1,35,2|8,0:0|0:0,0:0:0:0:
286,144,50672,1,2,0:0:0:0:
208,113,50880,38,0,L|213:211,1,70,8|8,3:0|3:0,0:0:0:0:
174,202,51192,1,0,3:0:0:0:
174,202,51297,2,0,L|179:300,1,70,8|8,3:0|3:0,0:0:0:0:
183,313,51609,1,0,3:0:0:0:
183,313,51713,6,0,P|216:302|265:315,1,70,6|0,0:0|0:0,0:0:0:0:
291,314,52025,2,0,P|313:317|338:309,1,35,2|8,0:0|0:0,0:0:0:0:
406,292,52338,2,0,P|416:258|404:210,1,70,2|8,0:0|0:0,0:0:0:0:
405,184,52650,2,0,P|402:162|410:137,1,35,2|0,0:0|0:0,0:0:0:0:
452,80,52963,2,0,P|456:45|446:12,1,70,10|0,0:0|0:0,0:0:0:0:
373,54,53379,38,0,L|289:58,1,70,6|0,0:0|0:0,0:0:0:0:
261,63,53692,2,0,L|274:109,1,35,2|8,0:0|0:0,0:0:0:0:
296,176,54005,2,0,L|212:180,1,70,2|8,0:0|0:0,0:0:0:0:
184,185,54318,2,0,L|197:231,1,35,2|0,0:0|0:0,0:0:0:0:
214,299,54630,2,0,L|130:303,1,70,10|0,0:0|0:0,0:0:0:0:
72,346,55047,6,0,P|58:294|79:248,1,105,6|0,0:0|0:0,0:0:0:0:
112,225,55463,2,0,P|115:210|109:174,2,35,8|0|0,0:0|0:0|0:0,0:0:0:0:
144,302,55880,2,0,L|262:301,2,105,10|2|2,0:0|0:0|0:0,0:0:0:0:
60,302,56713,37,12,1:2:0:0:
60,302,56922,1,6,1:2:0:0:
75,220,57130,1,12,1:2:0:0:
75,220,57338,2,0,L|158:217,2,70,6|8|8,1:2|1:2|1:3,0:0:0:0:
34,146,57963,2,0,P|26:110|39:78,1,70,12|12,0:0|0:0,0:0:0:0:
121,70,58380,5,4,0:1:0:0:
121,70,58588,1,4,0:1:0:0:
206,67,58797,1,4,0:1:0:0:
206,67,59005,1,4,0:1:0:0:
290,62,59213,2,0,L|291:114,3,35,4|0|0|0,0:1|0:0|0:0|0:0,0:0:0:0:
336,104,59630,2,0,L|336:152,3,35
355,183,60047,38,0,L|355:268,1,77.0000023498536,6|0,0:3|0:0,0:0:0:0:
366,352,60463,1,8,0:0:0:0:
280,316,60672,1,2,0:0:0:0:
355,260,60880,2,0,P|392:249|440:263,1,77.0000023498536,10|0,0:0|0:0,0:0:0:0:
512,298,61297,1,8,0:0:0:0:
499,206,61505,6,0,L|499:122,1,77.0000023498536,2|8,0:0|0:0,0:0:0:0:
495,36,61922,1,2,0:0:0:0:
420,90,62130,2,0,P|382:98|345:88,1,77.0000023498536,10|0,0:0|0:0,0:0:0:0:
261,48,62547,2,0,P|224:38|186:46,1,77.0000023498536,10|0,0:0|0:0,0:0:0:0:
111,99,62963,2,0,P|105:117|111:147,3,38.5000011749268,10|0|8|0,0:0|0:0|0:0|0:0,0:0:0:0:
134,173,63380,38,0,L|132:259,1,77.0000023498536,6|2,0:0|0:0,0:0:0:0:
134,342,63796,1,6,0:0:0:0:
52,297,64005,1,2,0:0:0:0:
133,249,64213,2,0,P|170:241|216:254,1,77.0000023498536,10|0,0:0|0:0,0:0:0:0:
288,296,64630,1,8,0:0:0:0:
371,334,64838,6,0,L|371:250,1,77.0000023498536,2|8,0:0|0:0,0:0:0:0:
367,164,65255,1,2,0:0:0:0:
291,217,65463,2,0,P|253:225|216:215,1,77.0000023498536,8|0,0:0|0:0,0:0:0:0:
132,177,65880,2,0,P|95:167|57:175,1,77.0000023498536,10|0,0:0|0:0,0:0:0:0:
8,253,66296,2,0,P|2:271|8:301,3,38.5000011749268,10|0|8|0,0:0|0:0|0:0|0:0,0:0:0:0:
27,330,66713,38,0,L|120:329,1,77.0000023498536,6|2,0:0|0:0,0:0:0:0:
196,327,67130,1,6,0:0:0:0:
152,245,67338,1,2,0:0:0:0:
105,164,67547,2,0,L|198:163,1,77.0000023498536,10|0,0:0|0:0,0:0:0:0:
274,163,67963,1,8,0:0:0:0:
358,125,68172,6,0,P|368:160|358:204,1,77.0000023498536,2|8,0:0|0:0,0:0:0:0:
310,275,68588,1,2,0:0:0:0:
227,316,68797,2,0,P|191:326|148:316,1,77.0000023498536,10|0,0:0|0:0,0:0:0:0:
70,276,69213,2,0,P|18:297|70:279,1,154.000004699707,10|8,0:0|0:0,0:0:0:0:
147,249,69838,37,8,0:0:0:0:
147,249,69942,1,0,0:0:0:0:
147,249,70047,2,0,L|140:153,2,77.0000023498536,2|2|2,0:3|0:3|0:3,0:0:0:0:
157,340,70672,2,0,P|195:349|232:341,1,77.0000023498536,2|8,0:0|3:2,0:0:0:0:
316,303,71088,2,0,P|353:294|390:303,1,77.0000023498536,8|8,3:2|3:0,0:0:0:0:
479,328,71505,5,2,0:0:0:0:
479,328,71609,1,2,0:0:0:0:
479,328,71713,2,0,L|462:226,2,77.0000023498536,2|2|2,0:3|0:3|0:3,0:0:0:0:
399,375,72338,37,6,0:3:0:0:
320,326,72547,2,0,P|280:318|246:327,1,77.0000023498536,6|6,0:3|0:3,0:0:0:0:
158,358,72963,2,0,P|133:361|113:356,3,38.5000011749268,6|0|0|0,0:3|0:0|0:0|0:0,0:0:0:0:
77,339,73380,6,0,P|68:301|77:263,1,77.0000023498536,6|0,0:3|0:0,0:0:0:0:
141,199,73797,1,10,0:0:0:0:
233,199,74005,1,2,0:0:0:0:
304,257,74213,2,0,P|312:294|303:331,1,77.0000023498536,10|0,0:0|0:0,0:0:0:0:
221,373,74629,1,8,0:0:0:0:
152,310,74838,38,0,P|115:301|69:317,1,77.0000023498536,2|8,0:0|0:0,0:0:0:0:
1,362,75255,1,2,0:0:0:0:
2,269,75463,2,0,L|2:187,1,77.0000023498536,10|0,0:0|0:0,0:0:0:0:
94,203,75880,2,0,L|94:121,1,77.0000023498536,10|2,0:0|0:0,0:0:0:0:
152,54,76297,2,0,P|171:50|206:56,3,38.5000011749268,10|0|0|0,0:0|0:0|0:0|0:0,0:0:0:0:
233,67,76714,6,0,P|269:75|316:63,1,77.0000023498536,6|2,0:0|0:0,0:0:0:0:
392,29,77130,1,6,0:0:0:0:
383,120,77338,1,2,0:0:0:0:
370,211,77547,2,0,P|334:219|287:207,1,77.0000023498536,10|0,0:0|0:0,0:0:0:0:
211,171,77963,1,8,0:0:0:0:
128,127,78172,38,0,P|116:164|123:201,1,77.0000023498536,2|8,0:0|0:0,0:0:0:0:
194,261,78589,1,2,0:0:0:0:
280,294,78797,2,0,P|287:256|275:220,1,77.0000023498536,10|0,0:0|0:0,0:0:0:0:
233,138,79213,2,0,P|225:100|237:64,1,77.0000023498536,10|10,0:0|0:0,0:0:0:0:
321,25,79630,2,0,P|341:20|363:25,3,38.5000011749268,8|8|8|8,0:0|0:0|0:0|0:0,0:0:0:0:
403,33,80047,6,0,P|412:69|403:106,1,77.0000023498536,6|0,0:0|0:0,0:0:0:0:
351,182,80463,2,0,P|341:218|351:255,1,77.0000023498536,10|2,0:0|0:0,0:0:0:0:
406,330,80880,2,0,L|239:330,1,154.000004699707,10|8,0:0|0:0,0:0:0:0:
159,328,81505,37,6,0:0:0:0:
159,328,81922,5,6,0:0:0:0:
159,328,82338,37,6,0:0:0:0:
82,159,82755,5,6,0:0:0:0:
161,205,82963,2,0,P|200:215|237:205,1,77.0000023498536,6|2,0:0|0:0,0:0:0:0:
315,159,83380,37,6,0:0:0:0:
389,212,83588,2,0,L|385:264,1,38.5000011749268,2|2,0:0|0:0,0:0:0:0:
302,289,83901,2,0,L|298:341,1,38.5000011749268,2|2,0:0|0:0,0:0:0:0:
213,359,84213,6,0,P|176:370|139:360,1,77.0000023498536,6|2,0:0|0:0,0:0:0:0:
61,311,84630,1,10,0:0:0:0:
136,257,84838,2,0,P|172:246|209:256,1,77.0000023498536,2|8,0:0|0:0,0:0:0:0:
294,294,85255,38,0,L|298:242,1,38.5000011749268,2|2,0:0|0:0,0:0:0:0:
381,217,85568,2,0,L|385:165,1,38.5000011749268,2|2,0:0|0:0,0:0:0:0:
393,86,85880,2,0,P|374:82|354:83,3,38.5000011749268,8|8|8|8,0:0|0:0|0:0|0:0,0:0:0:0:
309,93,86297,2,0,P|289:93|270:90,3,38.5000011749268,8|0|8|8,0:0|0:0|0:0|0:0,0:0:0:0:
235,75,86713,38,0,P|191:66|153:77,1,83.9999974365235,12|2,1:3|1:0,0:0:0:0:
115,111,87130,2,0,B|111:119|111:119|119:127|119:127|111:135|111:135|119:143|119:143|111:151|111:151|119:159|119:159|111:167|111:167|123:175|123:175,1,83.9999974365235,10|2,0:1|1:0,0:0:0:0:
149,212,87547,2,0,P|193:221|231:210,1,83.9999974365235,2|2,3:1|1:2,0:0:0:0:
273,186,87963,38,0,P|297:183|322:188,1,41.9999987182618,2|2,1:0|1:0,0:0:0:0:
368,200,88241,1,8,1:0:0:0:
368,200,88380,2,0,B|372:192|372:192|364:184|364:184|372:176|372:176|364:168|364:168|372:160|372:160|364:152|364:152|372:144|372:144|360:136|360:136,1,83.9999974365235,8|2,3:1|3:1,0:0:0:0:
370,89,88797,2,0,P|326:80|288:91,1,83.9999974365235,2|2,1:0|3:1,0:0:0:0:
242,121,89213,38,0,B|239:123|239:123|242:127|242:127|239:131|239:131|242:135|242:135|239:139|239:139|242:142|242:142|239:146|239:146|242:150|242:150|239:154|239:154|242:157|242:157|239:161|239:161|242:165|242:165|239:169|239:169|242:173|242:173|239:176|239:176|242:180|242:180|239:184|239:184|242:188|242:188,1,70,10|8,1:0|1:0,0:0:0:0:
172,225,89630,2,0,B|169:227|169:227|172:231|172:231|169:235|169:235|172:239|172:239|169:243|169:243|172:246|172:246|169:250|169:250|172:254|172:254|169:258|169:258|172:261|172:261|169:265|169:265|172:269|172:269|169:273|169:273|172:277|172:277|169:280|169:280|172:284|172:284|169:288|169:288|172:292|172:292,1,70,8|8,3:1|1:0,0:0:0:0:
241,311,90047,6,0,P|279:298|324:313,1,83.9999974365235,2|2,3:1|3:1,0:0:0:0:
368,323,90463,2,0,B|372:315|372:315|364:307|364:307|372:299|372:299|364:291|364:291|372:283|372:283|364:275|364:275|372:267|372:267|360:259|360:259,1,83.9999974365235,2|2,3:1|3:1,0:0:0:0:
370,211,90880,2,0,P|332:198|287:213,1,83.9999974365235,2|2,3:1|3:1,0:0:0:0:
241,220,91297,2,0,P|213:224|184:216,1,41.9999987182618,2|2,1:0|1:0,0:0:0:0:
157,204,91575,5,8,3:1:0:0:
157,204,91714,2,0,P|125:199|101:204,2,41.9999987182618,8|8|8,1:0|1:0|3:1,0:0:0:0:
157,256,92130,2,0,B|153:264|153:264|161:272|161:272|153:280|153:280|161:288|161:288|153:296|153:296|161:304|161:304|153:312|153:312|165:320|165:320,1,83.9999974365235,10|2,3:1|1:2,0:0:0:0:
210,318,92547,2,0,B|206:326|206:326|214:334|214:334|206:342|206:342|214:350|214:350|206:358|206:358|214:366|214:366|206:374|206:374|218:382|218:382,1,83.9999974365235,10|0,3:1|1:0,0:0:0:0:
258,370,92963,38,0,L|293:358,1,24.4999992523194,4|0,1:0|1:0,0:0:0:0:
380,329,93380,5,8,1:3:0:0:
380,329,93797,1,8,1:3:0:0:
412,216,94213,37,8,1:3:0:0:
412,216,94630,1,8,1:3:0:0:
447,103,95047,5,8,1:3:0:0:
447,103,95463,1,8,1:3:0:0:
412,216,95880,38,0,P|377:223|340:218,1,70,12|0,1:3|0:0,0:0:0:0:
264,189,96297,2,0,P|229:184|195:192,1,70,8|0,0:3|0:0,0:0:0:0:
117,221,96713,37,14,1:2:0:0:
59,160,96921,2,0,P|54:139|61:115,1,35,2|2,1:2|1:2,0:0:0:0:
115,66,97233,1,2,1:2:0:0:
115,66,97338,2,0,P|147:58|199:74,1,70,2|8,1:2|1:2,0:0:0:0:
225,65,97650,2,0,P|221:44|229:19,2,35,2|2|2,1:2|1:2|1:2,0:0:0:0:
266,76,97963,2,0,P|300:83|333:75,1,70,14|2,1:2|1:2,0:0:0:0:
410,41,98379,37,14,1:2:0:0:
468,102,98587,2,0,P|473:123|466:147,1,35,2|2,1:2|1:2,0:0:0:0:
409,193,98901,1,2,1:2:0:0:
409,193,99005,2,0,P|377:201|325:185,1,70,2|8,1:2|1:2,0:0:0:0:
299,194,99317,2,0,P|303:215|295:240,2,35,0|0|0,0:0|0:0|0:0,0:0:0:0:
258,183,99629,2,0,P|223:177|190:185,1,70,6|0,0:0|0:0,0:0:0:0:
119,231,100046,37,12,0:3:0:0:
97,312,100255,2,0,P|90:346|97:380,2,70,8|8|0,0:3|0:3|0:0,0:0:0:0:
119,230,100880,2,0,P|127:195|120:161,2,70,8|0|8,0:3|0:0|0:3,0:0:0:0:
241,345,101713,38,0,L|319:345,1,70,8|8,0:3|0:3,0:0:0:0:
278,267,102130,2,0,L|353:245,1,70,8|0,0:3|0:0,0:0:0:0:
293,184,102546,2,0,L|346:132,1,70,8|0,0:3|0:0,0:0:0:0:
259,112,102963,2,0,L|279:41,1,70,14|0,0:0|0:0,0:0:0:0:
196,64,103380,37,14,1:2:0:0:
114,83,103588,2,0,P|93:88|69:81,1,35,2|2,1:2|1:2,0:0:0:0:
34,156,103900,1,2,1:2:0:0:
34,156,104004,2,0,P|26:188|42:240,1,70,2|8,1:2|1:2,0:0:0:0:
33,266,104317,2,0,P|13:265|-11:273,2,35,2|2|2,1:2|1:2|1:2,0:0:0:0:
44,307,104630,2,0,P|51:341|43:374,1,70,14|2,1:2|1:2,0:0:0:0:
125,356,105047,38,0,P|158:349|209:361,1,70,14|2,1:2|1:2,0:0:0:0:
235,356,105359,2,0,P|269:361|303:354,1,70,2|2,1:2|1:2,0:0:0:0:
343,340,105672,2,0,P|349:315|347:291,1,46.6666666666667,8|8,1:3|1:3,0:0:0:0:
326,227,105983,2,0,P|347:222|375:231,2,35,2|2|2,0:1|0:1|0:1,0:0:0:0:
286,241,106296,2,0,P|252:248|216:240,1,70,6|0,1:0|0:0,0:0:0:0:
148,219,106713,37,0,0:0:0:0:
46,178,107026,1,0,0:0:0:0:
150,146,107338,1,0,0:0:0:0:
47,106,107651,1,0,0:0:0:0:
151,74,107963,2,0,P|180:68|216:77,1,56,0|0,0:0|0:0,0:0:0:0:
275,93,108380,37,0,0:0:0:0:
377,134,108693,1,0,0:0:0:0:
273,166,109005,1,0,0:0:0:0:
376,206,109318,1,0,0:0:0:0:
272,238,109630,38,0,P|237:246|193:234,1,70,6|0,1:3|0:0,0:0:0:0:
131,196,110047,38,0,P|123:162|131:125,1,70,6|0,0:0|0:0,0:0:0:0:
147,89,110358,2,0,P|150:69|147:52,1,35,2|8,0:0|0:0,0:0:0:0:
228,77,110671,2,0,P|262:86|299:77,1,70,2|8,0:0|0:0,0:0:0:0:
335,61,110983,2,0,P|355:58|372:61,1,35,2|0,0:0|0:0,0:0:0:0:
437,110,111297,2,0,P|444:144|436:177,1,70,14|0,0:0|0:0,0:0:0:0:
366,225,111713,6,0,P|332:232|299:224,1,70,6|2,0:0|0:0,0:0:0:0:
270,193,112025,2,0,P|267:170|270:151,1,35,2|8,0:0|0:0,0:0:0:0:
303,81,112338,1,2,0:0:0:0:
381,52,112546,38,0,L|376:150,1,70,8|8,3:0|3:0,0:0:0:0:
415,141,112858,1,0,3:0:0:0:
415,141,112963,2,0,L|410:239,1,70,8|8,3:0|3:0,0:0:0:0:
406,252,113275,1,0,0:0:0:0:
406,252,113379,6,0,P|373:241|324:254,1,70,6|0,0:0|0:0,0:0:0:0:
298,253,113692,2,0,P|276:256|251:248,1,35,2|8,0:0|0:0,0:0:0:0:
186,218,114004,2,0,P|152:208|104:220,1,70,2|8,0:0|0:0,0:0:0:0:
78,219,114317,2,0,P|56:222|31:214,1,35,2|0,0:0|0:0,0:0:0:0:
2,145,114629,2,0,P|-2:110|8:77,1,70,10|0,0:0|0:0,0:0:0:0:
90,61,115047,38,0,L|174:65,1,70,6|0,0:0|0:0,0:0:0:0:
202,70,115358,2,0,L|189:116,1,35,2|8,0:0|0:0,0:0:0:0:
167,183,115671,2,0,L|251:187,1,70,2|8,0:0|0:0,0:0:0:0:
279,192,115984,2,0,L|266:238,1,35,2|0,0:0|0:0,0:0:0:0:
249,306,116296,2,0,L|333:310,1,70,10|0,0:0|0:0,0:0:0:0:
387,357,116713,6,0,P|401:305|380:259,1,105,6|0,0:0|0:0,0:0:0:0:
349,232,117129,2,0,P|346:217|352:181,2,35,8|0|0,0:0|0:0|0:0,0:0:0:0:
318,309,117546,2,0,P|266:327|211:301,2,105,10|2|2,0:0|0:0|0:0,0:0:0:0:
272,243,118379,37,12,1:2:0:0:
272,243,118588,1,6,1:2:0:0:
287,161,118796,1,12,1:2:0:0:
287,161,119005,2,0,P|321:154|364:167,2,70,6|8|8,1:2|1:2|1:3,0:0:0:0:
192,140,119630,2,2,B|198:123|187:106|187:106|173:109|166:121|166:121|156:119|147:121|147:121|141:109|126:106|126:106|116:123|122:140,1,141.750000540733,10|0,1:2|1:2,0:0:0:0:
72,146,120046,5,4,0:1:0:0:
72,146,120254,1,4,0:1:0:0:
69,231,120463,1,4,0:1:0:0:
69,231,120671,1,4,0:1:0:0:
64,315,120879,2,0,L|116:322,3,35,4|0|0|0,0:1|0:0|0:0|0:0,0:0:0:0:
106,361,121296,2,0,L|158:368,3,35,8|0|8|0,0:0|0:0|0:0|0:0,0:0:0:0:
186,360,121713,38,0,P|222:350|269:361,1,77.0000023498536,6|0,0:3|0:0,0:0:0:0:
349,380,122129,1,10,0:0:0:0:
361,288,122338,1,2,0:0:0:0:
372,196,122546,2,0,P|408:190|451:201,1,77.0000023498536,10|0,0:0|0:0,0:0:0:0:
507,269,122963,1,8,0:0:0:0:
446,199,123171,6,0,P|438:159|450:116,1,77.0000023498536,2|8,0:0|0:0,0:0:0:0:
500,49,123588,1,2,0:0:0:0:
445,124,123796,2,0,P|407:132|370:122,1,77.0000023498536,10|0,0:0|0:0,0:0:0:0:
292,72,124213,2,0,P|255:62|217:70,1,77.0000023498536,10|0,0:0|0:0,0:0:0:0:
139,117,124629,2,0,P|133:135|139:165,3,38.5000011749268,10|0|8|0,0:0|0:0|0:0|0:0,0:0:0:0:
158,194,125046,38,0,P|165:232|152:275,1,77.0000023498536,6|2,0:0|0:0,0:0:0:0:
111,349,125462,1,6,0:0:0:0:
63,269,125671,1,2,0:0:0:0:
155,268,125879,2,0,P|192:276|238:263,1,77.0000023498536,0|0,0:0|0:0,0:0:0:0:
298,205,126296,1,8,0:0:0:0:
227,144,126505,6,0,P|190:136|144:149,1,77.0000023498536,2|8,0:0|0:0,0:0:0:0:
79,201,126921,1,2,0:0:0:0:
14,135,127129,2,0,P|6:97|16:60,1,77.0000023498536,10|2,0:0|0:0,0:0:0:0:
100,21,127547,2,0,P|108:59|98:96,1,77.0000023498536,10|0,0:0|0:0,0:0:0:0:
14,135,127963,2,0,P|8:153|14:183,3,38.5000011749268,10|0|8|0,0:0|0:0|0:0|0:0,0:0:0:0:
37,209,128379,38,0,P|75:216|122:205,1,77.0000023498536,6|2,0:0|0:0,0:0:0:0:
195,168,128796,1,6,0:0:0:0:
268,111,129004,1,0,0:0:0:0:
340,52,129213,2,0,P|377:44|414:52,1,77.0000023498536,10|0,0:0|0:0,0:0:0:0:
493,101,129629,1,8,0:0:0:0:
422,161,129838,6,0,P|384:168|347:160,1,77.0000023498536,2|8,0:0|0:0,0:0:0:0:
268,111,130254,1,2,0:0:0:0:
184,71,130463,2,0,P|174:107|184:150,1,77.0000023498536,10|0,0:0|0:0,0:0:0:0:
231,222,130880,2,0,P|198:267|228:221,1,154.000004699707,10|8,0:0|0:0,0:0:0:0:
118,211,131504,37,8,0:0:0:0:
118,211,131608,1,2,0:0:0:0:
118,211,131713,2,0,L|35:211,2,77.0000023498536,2|2|2,0:3|0:3|0:3,0:0:0:0:
163,291,132338,2,0,P|200:302|238:292,1,77.0000023498536,2|8,0:0|3:0,0:0:0:0:
311,238,132755,2,0,P|347:228|384:239,1,77.0000023498536,8|8,3:0|3:0,0:0:0:0:
473,290,133171,5,2,0:0:0:0:
473,290,133275,1,2,0:0:0:0:
473,290,133380,2,0,L|490:392,2,77.0000023498536,2|2|2,0:3|0:3|0:3,0:0:0:0:
449,200,134004,37,6,0:3:0:0:
381,263,134213,2,0,P|341:271|307:262,1,77.0000023498536,6|6,0:3|0:3,0:0:0:0:
250,189,134629,2,0,P|247:164|252:144,3,38.5000011749268,6|0|0|0,0:3|0:0|0:0|0:0,0:0:0:0:
266,121,135047,38,0,P|315:106|376:125,1,112,2|2,1:2|1:2,0:0:0:0:
429,169,135671,1,2,1:2:0:0:
466,231,135879,2,0,P|475:271|463:313,1,84,2|0,1:2|1:0,0:0:0:0:
428,336,136297,5,6,0:3:0:0:
339,310,136504,2,0,P|302:301|263:312,1,77.0000023498536,6|8,0:0|0:0,0:0:0:0:
177,340,136921,1,2,0:0:0:0:
91,375,137129,2,0,P|82:337|92:300,1,77.0000023498536,10|0,0:0|0:0,0:0:0:0:
143,223,137547,2,0,P|152:186|144:148,1,77.0000023498536,10|2,0:0|0:0,0:0:0:0:
123,59,137963,2,0,P|142:55|177:61,3,38.5000011749268,10|0|0|0,0:0|0:0|0:0|0:0,0:0:0:0:
206,67,138380,6,0,P|242:75|289:63,1,77.0000023498536,6|2,0:0|0:0,0:0:0:0:
367,36,138796,1,6,0:0:0:0:
407,118,139004,1,0,0:0:0:0:
447,201,139213,2,0,P|411:209|364:197,1,77.0000023498536,10|0,0:0|0:0,0:0:0:0:
283,175,139629,1,8,0:0:0:0:
207,228,139838,38,0,P|195:265|202:302,1,77.0000023498536,2|8,0:0|0:0,0:0:0:0:
268,366,140255,1,2,0:0:0:0:
201,301,140463,2,0,P|163:294|127:306,1,77.0000023498536,10|0,0:0|0:0,0:0:0:0:
40,338,140879,2,0,P|32:300|44:264,1,77.0000023498536,10|10,0:0|0:0,0:0:0:0:
113,203,141296,2,0,P|133:198|155:203,3,38.5000011749268,8|8|8|8,0:0|0:0|0:0|0:0,0:0:0:0:
194,215,141713,6,0,P|230:224|267:215,1,77.0000023498536,6|0,0:0|0:0,0:0:0:0:
350,171,142130,2,0,P|386:161|423:170,1,77.0000023498536,10|2,0:0|0:0,0:0:0:0:
472,249,142546,2,0,L|472:95,1,154.000004699707,10|8,0:0|0:0,0:0:0:0:
472,2,143171,37,6,0:0:0:0:
472,2,143588,5,6,0:0:0:0:
472,2,144004,37,6,0:0:0:0:
304,81,144421,5,6,0:0:0:0:
389,116,144629,2,0,P|399:155|389:192,1,77.0000023498536,6|2,0:0|0:0,0:0:0:0:
311,239,145046,37,6,0:0:0:0:
219,227,145254,2,0,L|167:223,1,38.5000011749268,2|2,0:0|0:0,0:0:0:0:
116,290,145567,2,0,L|64:286,1,38.5000011749268,2|2,0:0|0:0,0:0:0:0:
21,213,145879,6,0,P|10:176|20:139,1,77.0000023498536,6|2,0:0|0:0,0:0:0:0:
69,61,146296,1,10,0:0:0:0:
123,136,146504,2,0,P|134:172|124:209,1,77.0000023498536,2|8,0:0|0:0,0:0:0:0:
101,299,146922,38,0,L|153:295,1,38.5000011749268,2|2,0:0|0:0,0:0:0:0:
204,362,147235,2,0,L|256:358,1,38.5000011749268,2|2,0:0|0:0,0:0:0:0:
332,339,147546,2,0,P|336:320|335:300,3,38.5000011749268,8|8|8|8,0:0|0:0|0:0|0:0,0:0:0:0:
325,255,147963,2,0,P|325:235|328:216,3,38.5000011749268,8|8|8|8,0:0|0:0|0:0|0:0,0:0:0:0:
343,181,148380,1,6,3:0:0:0:
407,141,148588,38,0,P|454:131|508:150,2,94.499997116089,2|2|2,1:0|1:0|1:0,0:0:0:0:
294,124,149526,2,0,L|294:20,1,94.499997116089,2|2,1:0|1:0,0:0:0:0:
149,73,150255,38,0,P|102:83|48:64,2,94.499997116089,2|2|2,1:0|1:0|1:0,0:0:0:0:
262,90,151193,2,0,L|262:194,1,94.499997116089,2|2,1:0|1:0,0:0:0:0:
405,233,151922,6,0,P|452:223|506:242,2,94.499997116089,2|2|2,1:0|1:0|1:0,0:0:0:0:
292,216,152860,2,0,L|292:112,1,94.499997116089,2|2,1:0|1:0,0:0:0:0:
235,69,153380,6,0,P|219:73|204:71,3,31.4999990386963,0|0|2|0,0:0|0:0|0:1|0:0,0:0:0:0:
168,59,153797,2,0,P|152:56|137:60,3,31.4999990386963,0|0|0|0,0:0|0:0|0:0|0:0,0:0:0:0:
102,76,154213,2,0,P|86:79|71:77,3,31.4999990386963,2|0|2|0,0:1|0:0|0:1|0:0,0:0:0:0:
25,67,154630,6,0,L|33:157,1,77.0000023498536,2|2,0:1|0:1,0:0:0:0:
43,235,155047,37,6,0:3:0:0:
121,186,155255,1,2,0:1:0:0:
121,186,155359,1,0,0:0:0:0:
121,186,155463,2,0,P|140:183|169:190,2,38.5000011749268,10|0|2,0:1|0:0|0:1,0:0:0:0:
137,277,155880,2,0,P|159:281|187:274,3,38.5000011749268,10|0|2|0,0:1|0:0|0:1|0:0,0:0:0:0:
218,265,156297,2,0,P|256:257|293:266,1,77.0000023498536,6|6,0:1|0:1,0:0:0:0:
370,316,156713,5,6,0:3:0:0:
419,238,156921,1,2,0:1:0:0:
419,238,157025,1,0,0:0:0:0:
419,238,157129,2,0,P|422:219|415:190,2,38.5000011749268,10|0|2,0:1|0:0|0:1,0:0:0:0:
328,222,157546,2,0,P|324:200|331:172,3,38.5000011749268,10|0|2|0,0:1|0:0|0:1|0:0,0:0:0:0:
340,140,157963,2,0,P|347:102|338:65,1,77.0000023498536,6|6,0:1|0:1,0:0:0:0:
253,102,158380,37,6,0:3:0:0:
175,151,158588,1,2,0:1:0:0:
175,151,158692,1,0,0:0:0:0:
175,151,158796,2,0,P|156:154|127:147,2,38.5000011749268,10|0|2,0:1|0:0|0:1,0:0:0:0:
123,73,159213,2,0,P|101:69|73:76,3,38.5000011749268,10|0|2|0,0:1|0:0|0:1|0:0,0:0:0:0:
42,90,159630,2,0,P|34:128|43:165,1,77.0000023498536,6|6,0:1|0:1,0:0:0:0:
136,226,160047,6,0,B|171:226|171:226|155:293|107:299|67:279|37:233|54:183|99:150|131:159,1,293.999991027832,6|0,0:3|0:0,0:0:0:0:
195,159,160880,2,0,P|233:199|215:146,1,136.499993751526,6|2,0:3|1:2,0:0:0:0:
194,89,161297,38,0,P|188:61|194:37,1,52.5000020027161,6|0,0:0|1:0,0:0:0:0:
260,64,161505,2,0,P|311:79|367:57,1,105.000004005432,6|6,0:0|0:0,0:0:0:0:
449,44,161922,6,0,L|445:94,1,38.5000011749268,2|2,0:1|0:1,0:0:0:0:
384,150,162234,2,0,L|380:200,1,38.5000011749268,2|2,0:1|0:1,0:0:0:0:
368,280,162547,2,0,P|386:274|404:279,2,38.5000011749268,10|0|2,0:1|0:0|0:1,0:0:0:0:
323,290,162859,2,0,P|304:294|286:289,1,38.5000011749268,0|6,0:0|0:1,0:0:0:0:
196,265,163172,2,0,P|178:259|160:264,2,38.5000011749268,2|0|6,0:1|0:0|0:3,0:0:0:0:
263,202,163588,38,0,L|267:152,1,38.5000011749268,2|2,0:1|0:1,0:0:0:0:
357,151,163900,2,0,L|361:101,1,38.5000011749268,2|2,0:1|0:1,0:0:0:0:
298,43,164213,2,0,P|279:48|261:43,2,38.5000011749268,10|0|2,0:1|0:0|0:1,0:0:0:0:
343,34,164525,2,0,P|361:29|379:34,1,38.5000011749268,0|6,0:0|0:1,0:0:0:0:
470,52,164838,2,0,P|489:57|507:52,2,38.5000011749268,10|0|6,0:1|0:0|0:3,0:0:0:0:
408,121,165255,6,0,L|404:171,1,38.5000011749268,2|2,0:1|0:1,0:0:0:0:
476,217,165567,2,0,L|472:267,1,38.5000011749268,2|2,0:1|0:1,0:0:0:0:
463,347,165880,2,0,P|481:341|499:346,2,38.5000011749268,10|0|2,0:1|0:0|0:1,0:0:0:0:
418,357,166192,2,0,P|399:361|381:356,1,38.5000011749268,0|6,0:0|0:1,0:0:0:0:
293,325,166505,2,0,P|275:319|257:324,2,38.5000011749268,2|0|6,0:1|0:0|0:3,0:0:0:0:
356,257,166922,38,0,L|359:218,1,38.5000011749268,2|2,0:1|0:1,0:0:0:0:
288,161,167234,2,0,L|291:122,1,38.5000011749268,2|2,0:1|0:1,0:0:0:0:
298,31,167547,2,0,P|318:28|348:34,2,38.5000011749268,10|2|2,0:1|0:1|0:1,0:0:0:0:
218,79,167963,1,10,0:1:0:0:
133,40,168172,2,0,P|96:32|55:43,1,77.0000023498536,10|6,0:1|0:3,0:0:0:0:
98,123,168588,6,0,L|102:173,1,38.5000011749268,2|2,0:1|0:1,0:0:0:0:
30,219,168900,2,0,L|34:269,1,38.5000011749268,2|2,0:1|0:1,0:0:0:0:
43,349,169213,2,0,P|25:343|7:348,2,38.5000011749268,10|0|2,0:1|0:0|0:1,0:0:0:0:
88,359,169525,2,0,P|107:363|125:358,1,38.5000011749268,0|6,0:0|0:1,0:0:0:0:
213,327,169838,2,0,P|231:321|249:326,2,38.5000011749268,2|0|6,0:1|0:0|0:3,0:0:0:0:
145,263,170255,38,0,L|141:213,1,38.5000011749268,2|2,0:1|0:1,0:0:0:0:
213,167,170567,2,0,L|209:117,1,38.5000011749268,2|2,0:1|0:1,0:0:0:0:
203,45,170880,1,8,0:1:0:0:
203,45,170984,1,2,0:0:0:0:
203,45,171088,2,0,P|239:52|285:42,1,77.0000023498536,2|8,0:0|0:1,0:0:0:0:
369,25,171505,2,0,P|406:17|445:27,1,77.0000023498536,6|6,0:3|0:3,0:0:0:0:
405,109,171922,6,0,L|401:159,1,38.5000011749268,2|2,0:1|0:1,0:0:0:0:
473,205,172234,2,0,L|469:255,1,38.5000011749268,2|2,0:1|0:1,0:0:0:0:
460,335,172547,2,0,P|478:329|496:334,2,38.5000011749268,10|0|2,0:1|0:0|0:1,0:0:0:0:
415,345,172859,2,0,P|396:349|378:344,1,38.5000011749268,0|6,0:0|0:1,0:0:0:0:
290,313,173172,2,0,P|272:307|254:312,2,38.5000011749268,2|0|6,0:1|0:0|0:3,0:0:0:0:
351,244,173588,38,0,L|355:194,1,38.5000011749268,2|2,0:1|0:1,0:0:0:0:
283,148,173900,2,0,L|287:98,1,38.5000011749268,2|2,0:1|0:1,0:0:0:0:
304,18,174213,1,10,0:1:0:0:
304,18,174422,1,10,0:1:0:0:
217,51,174630,1,10,0:1:0:0:
217,51,174838,1,10,0:1:0:0:
136,85,175047,38,0,L|122:246,1,140,6|6,3:0|3:0,0:0:0:0:
220,100,176701,2,0,L|206:261,1,140,6|6,3:0|3:0,0:0:0:0:
304,118,178018,2,0,L|290:279,1,140,6|6,3:0|3:0,0:0:0:0:
182,346,178970,38,0,P|111:323|44:353,1,140,6|6,3:0|3:0,0:0:0:0:
20,251,179738,2,0,P|26:216|16:183,1,70,6|6,3:0|3:0,0:0:0:0:
1,96,180323,2,0,P|35:101|68:91,1,70,6|6,3:0|3:0,0:0:0:0:
158,68,180824,38,0,L|173:151,1,70,6|6,3:0|3:0,0:0:0:0:
262,135,181214,2,0,L|277:218,1,70,6|6,3:0|3:0,0:0:0:0:
215,263,181533,2,0,L|224:305,1,35,6|6,3:0|3:0,0:0:0:0:
256,192,181807,12,2,184630,1:2:0:0:
147,266,185047,6,2,B|117:273|128:309|153:317|188:307|195:274|174:203|174:203|152:124|152:124|316:77|316:77|338:155|338:155|359:227|352:260|317:270|291:262|282:226|309:218,1,672,2|0,0:1|0:0,0:0:0:0:
431,114,187963,38,0,P|447:111|481:117,3,35,12|0|0|0,0:3|0:0|0:0|0:0,0:0:0:0:
452,156,188380,38,0,L|452:294,1,115.50000352478,6|0,0:3|1:0,0:0:0:0:
418,274,188797,38,0,L|418:332,2,56,2|2|8,1:2|1:2|1:2,0:0:0:0:
361,200,189422,5,2,0:3:0:0:
321,283,189630,1,2,0:3:0:0:
267,206,189838,2,0,P|231:196|194:205,1,77.0000023498536,2|0,0:3|1:0,0:0:0:0:
119,237,190255,38,0,L|119:162,1,56,2|8,1:2|1:2,0:0:0:0:
226,30,190880,5,6,0:0:0:0:
286,97,191088,2,0,P|305:103|324:101,1,38.5000011749268,8|8,0:3|0:3,0:0:0:0:
410,66,191401,2,0,P|429:64|447:69,1,38.5000011749268,8|8,0:3|0:3,0:0:0:0:
499,145,191713,6,0,L|499:267,1,115.50000352478,6|0,0:0|1:0,0:0:0:0:
465,267,192130,6,0,L|464:331,2,56,2|2|8,1:2|1:2|1:2,0:0:0:0:
405,195,192755,37,2,0:3:0:0:
364,277,192963,1,2,0:3:0:0:
310,202,193171,2,0,P|267:193|229:202,1,77.0000023498536,2|0,0:3|1:0,0:0:0:0:
161,236,193588,6,0,L|160:302,1,56,2|8,0:2|1:2,0:0:0:0:
344,307,194213,38,0,P|337:334|356:383,2,51.3333348999024,8|8|8,1:0|1:0|1:0,0:0:0:0:
406,305,194630,2,0,P|415:330|449:360,2,51.3333348999024,8|8|8,1:0|1:0|1:0,0:0:0:0:
459,272,195047,38,0,P|472:220|451:158,1,115.50000352478,6|0,0:0|1:0,0:0:0:0:
385,107,195463,38,0,L|386:36,2,56,2|2|8,1:2|1:2|1:2,0:0:0:0:
327,179,196088,5,2,0:3:0:0:
264,111,196296,1,2,0:3:0:0:
229,196,196504,2,0,P|189:205|149:196,1,77.0000023498536,2|0,0:3|1:0,0:0:0:0:
77,172,196922,38,0,L|77:233,1,56,2|8,1:2|1:2,0:0:0:0:
234,324,197547,6,0,P|270:316|313:327,2,77.0000023498536,6|10|10,0:0|0:0|0:0,0:0:0:0:
156,366,198172,5,10,0:0:0:0:
156,366,198276,1,2,0:0:0:0:
156,366,198380,2,0,P|143:321|155:284,1,77.0000023498536,6|2,0:0|0:0,0:0:0:0:
220,232,198797,2,0,P|226:194|214:158,1,77.0000023498536,10|0,0:0|0:0,0:0:0:0:
146,95,199213,2,0,P|126:89|100:96,3,38.5000011749268,10|8|8|8,0:0|0:0|0:0|0:0,0:0:0:0:
67,111,199630,1,10,0:0:0:0:
14,187,199838,37,2,0:0:0:0:
14,187,199942,1,2,0:0:0:0:
14,187,200046,2,0,P|1:232|13:269,1,77.0000023498536,2|2,0:3|0:3,0:0:0:0:
84,309,200463,2,0,P|103:315|122:312,3,38.5000011749268,2|0|6|0,0:3|0:0|0:3|0:0,0:0:0:0:
165,296,200880,2,0,P|184:293|202:298,3,38.5000011749268,6|0|6|0,0:3|0:0|0:3|0:0,0:0:0:0:
244,319,201297,2,0,P|262:324|281:321,3,38.5000011749268,6|0|0|0,0:3|0:0|0:0|0:0,0:0:0:0:
324,304,201713,6,0,P|334:268|320:221,1,77.0000023498536,6|0,0:3|0:0,0:0:0:0:
245,182,202130,1,10,0:0:0:0:
156,154,202338,1,2,0:0:0:0:
67,127,202547,2,0,P|61:160|81:207,1,77.0000023498536,10|0,0:0|0:0,0:0:0:0:
156,244,202962,1,8,0:0:0:0:
246,222,203171,38,0,P|284:213|327:227,1,77.0000023498536,2|8,0:0|0:0,0:0:0:0:
401,265,203588,1,2,0:0:0:0:
484,304,203797,2,0,P|494:267|486:230,1,77.0000023498536,8|0,0:1|0:0,0:0:0:0:
447,145,204213,2,0,P|469:137|498:140,2,38.5000011749268,8|8|8,0:1|0:1|0:1,0:0:0:0:
360,177,204630,2,0,P|340:182|316:178,3,38.5000011749268,10|0|0|0,0:0|0:0|0:0|0:0,0:0:0:0:
281,157,205047,6,0,P|242:147|199:157,1,77.0000023498536,6|2,0:0|0:0,0:0:0:0:
128,202,205463,1,6,0:0:0:0:
62,268,205672,1,2,0:0:0:0:
19,349,205880,2,0,P|58:359|101:349,1,77.0000023498536,10|0,0:0|0:0,0:0:0:0:
174,307,206296,1,8,0:0:0:0:
252,257,206505,38,0,P|291:249|339:263,1,77.0000023498536,2|8,0:0|0:0,0:0:0:0:
407,302,206922,1,2,0:0:0:0:
479,359,207130,2,0,L|480:196,1,154.000004699707,10|2,0:0|1:2,0:0:0:0:
419,151,207755,38,0,L|419:111,2,28,8|8|8,1:0|1:0|1:0,0:0:0:0:
391,170,208067,2,0,B|391:231,1,56,8|2,1:0|1:2,0:0:0:0:
389,272,208380,6,0,P|352:262|315:270,1,77.0000023498536,6|2,0:0|0:0,0:0:0:0:
229,306,208797,1,10,0:0:0:0:
141,335,209005,1,2,0:0:0:0:
53,363,209213,2,0,L|53:196,1,154.000004699707,10|8,0:0|0:0,0:0:0:0:
57,116,209838,5,6,0:0:0:0:
57,116,210255,37,6,0:0:0:0:
57,116,210672,5,6,0:0:0:0:
213,213,211088,37,6,0:0:0:0:
154,140,211297,2,0,P|144:99|154:63,1,77.0000023498536,6|0,0:0|0:0,0:0:0:0:
234,23,211713,5,6,0:0:0:0:
307,76,211922,2,0,P|326:80|345:76,1,38.5000011749268,2|0,0:0|0:0,0:0:0:0:
432,45,212234,2,0,P|450:41|469:44,1,38.5000011749268,2|2,0:0|0:0,0:0:0:0:
496,133,212547,38,0,L|496:224,1,77.0000023498536,6|2,0:0|0:0,0:0:0:0:
499,302,212963,1,10,0:0:0:0:
417,258,213172,2,0,P|379:248|338:260,1,77.0000023498536,2|8,0:0|0:0,0:0:0:0:
256,288,213588,6,0,P|237:291|218:287,1,38.5000011749268,2|2,0:0|0:0,0:0:0:0:
132,256,213900,2,0,P|113:252|94:255,1,38.5000011749268,2|2,0:0|0:0,0:0:0:0:
93,348,214213,2,0,P|111:351|130:348,3,38.5000011749268,8|8|8|8,0:0|0:0|0:0|0:0,0:0:0:0:
169,322,214630,2,0,P|187:318|206:322,3,38.5000011749268,8|0|8|8,0:0|0:0|0:0|0:0,0:0:0:0:
243,326,215047,6,4,B|204:325|187:359|204:385|277:385|277:311|277:311|277:148|277:148|290:185|320:203|367:173|385:232|374:264,1,489.999985046387,6|0,0:3|1:0,0:0:0:0:
416,331,217338,6,0,P|469:363|441:261,1,244.999992523194,2|0,1:2|1:0,0:0:0:0:
385,214,218579,38,0,P|383:199|386:182,12,23.3333333333333,0|0|0|0|0|0|0|0|0|0|0|0|0,0:0|0:0|0:0|0:0|0:0|0:0|0:0|0:0|0:0|0:0|0:0|0:0|0:0,0:0:0:0:
409,261,219696,37,14,0:3:0:0:
409,261,219889,1,4,0:1:0:0:
326,279,220083,37,14,0:3:0:0:
326,279,220276,1,4,0:1:0:0:
243,295,220470,5,14,0:3:0:0:
243,295,220663,1,4,0:1:0:0:
243,295,220857,2,0,L|233:249,3,35,4|4|4|4,0:1|0:1|0:1|0:1,0:0:0:0:
224,220,221244,37,14,0:3:0:0:
224,220,221437,1,4,0:1:0:0:
303,193,221631,5,14,0:3:0:0:
303,193,221824,1,4,0:1:0:0:
382,165,222018,38,0,L|379:113,1,35,14|4,0:3|0:1,0:0:0:0:
462,147,222308,1,4,0:1:0:0:
462,147,222405,2,0,L|462:232,1,70,4|4,0:1|0:1,0:0:0:0:
462,301,222792,5,14,0:3:0:0:
462,301,222985,1,4,0:1:0:0:
381,275,223179,37,14,0:3:0:0:
381,275,223372,1,4,0:1:0:0:
302,245,223566,6,0,L|305:193,1,35,14|4,0:3|0:1,0:0:0:0:
222,227,223856,1,4,0:1:0:0:
222,227,223953,2,0,L|222:312,1,70,4|4,0:1|0:1,0:0:0:0:
167,361,224341,37,14,0:3:0:0:
91,324,224534,2,0,P|71:322|45:330,2,35,4|4|14,0:1|0:1|0:3,0:0:0:0:
162,280,224921,1,4,0:1:0:0:
162,280,225018,1,4,0:1:0:0:
162,280,225115,6,0,L|162:230,3,35,14|4|4|4,0:3|0:1|0:1|0:1,0:0:0:0:
196,220,225502,2,0,L|196:142,1,70,6|2,0:0|0:0,0:0:0:0:
135,91,225889,37,6,0:3:0:0:
135,91,225986,1,6,0:3:0:0:
135,91,226083,2,0,P|134:47|166:70,1,97.9999970092774,6|0,0:3|1:0,0:0:0:0:
