osu file format v14

[General]
AudioFilename: audio.mp3
AudioLeadIn: 0
PreviewTime: 209786
Countdown: 0
SampleSet: Soft
StackLeniency: 0.4
Mode: 0
LetterboxInBreaks: 0
WidescreenStoryboard: 0

[Editor]
Bookmarks: 449,5033,18387,31720,35054,38387,41720,45054,60054,73387,86720,93387,96720,100054,103387,106720,110054,113387,121720,135054,148387,155054,175054,188387,191713,195047,198387,201720,211713,215047,218579,219696,226470
DistanceSpacing: 1.3
BeatDivisor: 4
GridSize: 8
TimelineZoom: 1.8

[Metadata]
Title:Ohedo Julia-Night
TitleUnicode:大江戸ジュリアナイト
Artist:Mitchie M feat. Hatsune Miku with KAITO
ArtistUnicode:Mitchie M feat.初音ミク with KAITO
Creator:Natsu
Version:Dance Floor
Source:
Tags:Vocaloid 10th anniversary 1990's techno music traditional Tsukasa Ryugu Not-116 Re:start 家の裏でマンボウが死んでるP 初音ミク
BeatmapID:1405572
BeatmapSetID:664099

[Difficulty]
HPDrainRate:6
CircleSize:4.2
OverallDifficulty:7.8
ApproachRate:8.8
SliderMultiplier:1.8
SliderTickRate:1

[Events]
//Background and Video events
Video,0,"f.avi"
0,0,"a.jpg",0,0
//Break Periods
//Storyboard Layer 0 (Background)
//Storyboard Layer 1 (Fail)
//Storyboard Layer 2 (Pass)
//Storyboard Layer 3 (Foreground)
//Storyboard Sound Samples

[TimingPoints]
450,416.666666666667,4,2,1,50,1,0
450,-125,4,2,1,50,0,0
1075,-125,4,2,1,5,0,0
1179,-125,4,2,1,50,0,0
1700,-125,4,2,1,50,0,0
2116,432.900432900433,4,2,1,50,1,0
2332,-100,4,2,1,5,0,0
2440,-100,4,2,1,50,0,0
3739,-100,4,2,1,5,0,0
3847,540.540540540541,4,2,1,50,1,0
4387,-66.6666666666667,4,2,1,70,0,0
5047,416.666666666667,4,2,1,60,1,0
7755,-100,4,2,1,70,0,0
8588,-100,4,2,1,60,0,0
10047,-76.9230769230769,4,2,1,50,0,0
10567,-76.9230769230769,4,2,1,20,0,0
10672,-76.9230769230769,4,2,1,50,0,0
11088,-66.6666666666667,4,2,1,70,0,0
11922,-100,4,2,1,60,0,0
14422,-100,4,2,1,70,0,0
15255,-100,4,2,1,65,0,0
16088,-100,4,2,1,70,0,0
16713,-76.9230769230769,4,2,1,60,0,0
17338,-66.6666666666667,4,2,1,60,0,0
18380,-100,4,2,1,60,0,0
21088,-100,4,2,1,70,0,0
21922,-100,4,2,1,60,0,0
24422,-66.6666666666667,4,2,1,70,0,0
25255,-100,4,2,1,60,0,0
27755,-100,4,2,1,70,0,0
28588,-100,4,2,1,65,0,0
29422,-76.9230769230769,4,2,1,60,0,0
30047,-66.6666666666667,4,2,1,60,0,0
31297,-200,4,2,1,30,0,0
31401,-200,4,2,1,5,0,0
31713,-100,4,2,1,40,0,0
35047,-76.9230769230769,4,2,1,60,0,0
37651,-66.6666666666667,4,2,1,60,0,0
38380,-100,4,2,1,40,0,0
41713,-76.9230769230769,4,2,1,60,0,0
44213,-76.9230769230769,4,2,1,20,0,0
44317,-66.6666666666667,4,2,1,40,0,0
45047,-100,4,2,1,60,0,0
50880,-76.9230769230769,4,2,1,60,0,0
51713,-100,4,2,1,60,0,0
56713,-76.9230769230769,4,2,1,60,0,0
58380,-76.9230769230769,4,2,1,50,0,0
59317,-76.9230769230769,4,2,1,60,0,0
60047,-90.9090909090909,4,2,1,80,0,1
73328,-90.9090909090909,4,2,1,80,0,0
73380,-90.9090909090909,4,2,1,80,0,1
86713,-111.111111111111,4,2,1,60,0,0
86991,-111.111111111111,4,2,1,40,0,0
89213,-76.9230769230769,4,2,1,40,0,0
89283,-76.9230769230769,4,2,1,20,0,0
89630,-76.9230769230769,4,2,1,40,0,0
89699,-76.9230769230769,4,2,1,20,0,0
90047,-111.111111111111,4,2,1,40,0,0
92824,-111.111111111111,4,2,1,5,0,0
92963,-200,4,2,1,30,0,0
93067,-200,4,2,1,5,0,0
93380,-111.111111111111,4,2,1,20,0,0
95880,-100,4,2,1,50,0,0
96713,-76.9230769230769,4,2,1,60,0,0
99317,-66.6666666666667,4,2,1,60,0,0
100047,-100,4,2,1,40,0,0
103380,-76.9230769230769,4,2,1,60,0,0
105047,-100,4,2,1,60,0,0
105359,-100,4,2,1,50,0,0
105984,-66.6666666666667,4,2,1,40,0,0
106609,-66.6666666666667,4,2,1,20,0,0
106713,-125,4,2,1,50,0,0
109630,-76.9230769230769,4,2,1,60,0,0
109838,-76.9230769230769,4,2,1,5,0,0
110047,-100,4,2,1,60,0,0
112547,-76.9230769230769,4,2,1,60,0,0
113380,-100,4,2,1,60,0,0
118380,-76.9230769230769,4,2,1,60,0,0
119630,-50,4,2,1,60,0,0
120047,-76.9230769230769,4,2,1,50,0,0
120984,-76.9230769230769,4,2,1,60,0,0
121713,-90.9090909090909,4,2,1,80,0,1
135047,-125,4,2,1,40,0,0
135255,-125,4,2,1,20,0,0
135463,-125,4,2,1,40,0,0
136192,-125,4,2,1,20,0,0
136297,-50,4,2,1,80,0,1
136505,-90.9090909090909,4,2,1,80,0,1
148380,-125,4,2,1,60,0,0
148588,-125,4,2,1,50,0,0
148797,-125,4,2,1,5,0,0
148901,-125,4,2,1,50,0,0
149109,-125,4,2,1,5,0,0
149213,-125,4,2,1,50,0,0
149422,-125,4,2,1,5,0,0
149526,-100,4,2,1,50,0,0
149734,-100,4,2,1,5,0,0
149838,-100,4,2,1,50,0,0
150047,-100,4,2,1,5,0,0
150255,-125,4,2,1,50,0,0
150463,-125,4,2,1,5,0,0
150567,-125,4,2,1,50,0,0
150776,-125,4,2,1,5,0,0
150880,-125,4,2,1,50,0,0
151088,-125,4,2,1,5,0,0
151192,-100,4,2,1,50,0,0
151401,-100,4,2,1,5,0,0
151505,-100,4,2,1,50,0,0
151713,-100,4,2,1,5,0,0
151922,-125,4,2,1,50,0,0
152130,-125,4,2,1,5,0,0
152234,-125,4,2,1,50,0,0
152442,-125,4,2,1,5,0,0
152547,-125,4,2,1,50,0,0
152755,-125,4,2,1,5,0,0
152860,-100,4,2,1,50,0,0
153067,-100,4,2,1,5,0,0
153172,-100,4,2,1,50,0,0
153276,-100,4,2,1,5,0,0
153380,-100,4,2,1,65,0,0
154630,-76.9230769230769,4,2,1,65,0,0
154942,-76.9230769230769,4,2,1,10,0,0
155047,-90.9090909090909,4,2,2,70,0,1
160047,-66.6666666666667,4,2,2,70,0,1
160880,-50,4,2,2,70,0,1
161297,-50,4,2,2,70,0,1
161505,-66.6666666666667,4,2,2,70,0,1
161713,-90.9090909090909,4,2,2,70,0,1
170880,-76.9230769230769,4,2,2,70,0,1
171922,-90.9090909090909,4,2,2,60,0,1
172547,-90.9090909090909,4,2,2,50,0,1
174213,-83.3333333333333,4,2,2,75,0,1
174422,-76.9230769230769,4,2,2,75,0,1
174630,-71.4285714285714,4,2,2,75,0,1
174838,-66.6666666666667,4,2,2,75,0,1
175047,836.820083682008,4,2,3,50,1,0
175779,-100,4,2,3,5,0,0
175883,818.553888130969,4,2,3,50,1,0
176599,-100,4,2,3,5,0,0
176701,701.754385964912,4,2,3,50,1,0
177315,-100,4,2,3,5,0,0
177402,616.649537512847,4,2,3,50,1,0
177941,-100,4,2,3,5,0,0
178018,508.474576271186,4,2,3,50,1,0
178462,-100,4,2,3,5,0,0
178526,444.444444444444,4,2,3,50,1,0
178914,-100,4,2,3,5,0,0
178970,416.666666666667,4,2,3,50,1,0
179334,-100,4,2,3,5,0,0
179386,352.941176470588,4,2,3,50,1,0
179694,-100,4,2,3,5,0,0
179738,600,4,2,3,50,1,0
179888,-100,4,2,3,5,0,0
180038,571.428571428571,4,2,3,50,1,0
180180,-100,4,2,3,5,0,0
180323,545.454545454546,4,2,3,50,1,0
180459,-100,4,2,3,5,0,0
180595,458.015267175573,4,2,3,50,1,0
180709,-100,4,2,3,5,0,0
180824,416.666666666667,4,2,3,50,1,0
180928,-100,4,2,3,5,0,0
181032,365.853658536585,4,2,3,50,1,0
181123,-100,4,2,3,5,0,0
181214,333.333333333333,4,2,3,50,1,0
181297,-100,4,2,3,5,0,0
181380,307.692307692308,4,2,3,50,1,0
181456,-100,4,2,3,5,0,0
181533,571.428571428571,4,2,3,50,1,0
181675,530.973451327434,4,2,3,50,1,0
181807,517.241379310345,4,2,1,40,1,0
181936,483.870967741935,4,2,1,40,1,0
182056,352.941176470588,4,2,1,40,1,0
182144,333.333333333333,4,2,1,40,1,0
182227,315.789473684211,4,2,1,40,1,0
182305,307.692307692308,4,2,1,40,1,0
182382,600,4,2,1,40,1,0
182532,576.923076923077,4,2,1,40,1,0
182676,555.555555555556,4,2,1,40,1,0
182814,500,4,2,1,40,1,0
182939,480,4,2,1,40,1,0
183059,444.444444444444,4,2,1,40,1,0
183170,413.793103448276,4,2,1,40,1,0
183273,400,4,2,1,40,1,0
183373,375,4,2,1,40,1,0
183466,352.941176470588,4,2,1,40,1,0
183554,342.857142857143,4,2,1,40,1,0
183639,333.333333333333,4,2,1,40,1,0
183722,492.206726825267,4,2,1,20,1,0
184214,416.666666666667,4,2,1,20,1,0
184630,-166.666666666667,4,2,1,20,0,0
185047,416.666666666667,4,2,1,20,1,0
185047,-166.666666666667,4,2,1,20,0,0
185463,-166.666666666667,4,2,1,5,0,0
187963,-100,4,2,1,80,0,0
188380,-90.9090909090909,4,2,1,80,0,1
188797,-125,4,2,1,60,0,0
189422,-90.9090909090909,4,2,1,80,0,0
190255,-125,4,2,1,60,0,0
190880,-90.9090909090909,4,2,1,80,0,0
191713,-90.9090909090909,4,2,1,80,0,1
192130,-125,4,2,1,60,0,0
192755,-90.9090909090909,4,2,1,80,0,0
193588,-125,4,2,1,60,0,0
194213,-90.9090909090909,4,2,1,30,0,0
195047,-90.9090909090909,4,2,1,80,0,1
195463,-125,4,2,1,60,0,0
196088,-90.9090909090909,4,2,1,80,0,0
196922,-125,4,2,1,60,0,0
197547,-90.9090909090909,4,2,1,80,0,0
198380,-90.9090909090909,4,2,1,80,0,1
201661,-90.9090909090909,4,2,1,80,0,0
201713,-90.9090909090909,4,2,1,80,0,1
203797,-90.9090909090909,4,2,1,20,0,1
204213,-125,4,2,1,20,0,1
204630,-90.9090909090909,4,2,1,80,0,1
207547,-125,4,2,1,20,0,0
208067,-125,4,2,1,20,0,0
208380,-90.9090909090909,4,2,1,80,0,1
210047,-90.9090909090909,4,2,1,20,0,1
210255,-90.9090909090909,4,2,1,80,0,1
210880,-90.9090909090909,4,2,1,20,0,1
210984,-90.9090909090909,4,2,1,5,0,1
211088,-90.9090909090909,4,2,1,80,0,1
211297,-125,4,2,1,80,0,0
211609,-125,4,2,1,10,0,0
211713,-90.9090909090909,4,2,1,80,0,1
215047,-142.857142857143,4,2,1,60,0,0
215463,-142.857142857143,4,2,1,5,0,0
217338,-142.857142857143,4,2,1,20,0,0
218484,-142.857142857143,4,2,1,5,0,0
218579,504.201680672269,4,2,1,40,1,0
219083,-83.3333333333333,4,2,1,60,0,0
219696,387.096774193548,4,2,1,60,1,1
219889,-100,4,2,1,25,0,1
220083,-100,4,2,1,60,0,1
220276,-100,4,2,1,25,0,1
220470,-100,4,2,1,60,0,1
220663,-100,4,2,1,25,0,1
221244,-100,4,2,1,60,0,1
221437,-100,4,2,1,25,0,1
221631,-100,4,2,1,60,0,1
221825,-100,4,2,1,25,0,1
222018,-100,4,2,1,60,0,1
222115,-100,4,2,1,25,0,1
222792,-100,4,2,1,60,0,1
222986,-100,4,2,1,25,0,1
223179,-100,4,2,1,60,0,1
223373,-100,4,2,1,25,0,1
223566,-100,4,2,1,60,0,1
223663,-100,4,2,1,25,0,1
224341,-100,4,2,1,60,0,1
224534,-100,4,2,1,25,0,1
224728,-100,4,2,1,60,0,1
224921,-100,4,2,1,25,0,1
225115,-100,4,2,1,60,0,1
225212,-100,4,2,1,25,0,1
225502,-100,4,2,1,60,0,1
226083,-142.857142857143,4,2,1,60,0,1
226470,-142.857142857143,4,2,1,5,0,0

[Colours]
Combo1 : 255,183,255
Combo2 : 0,118,236
Combo3 : 255,147,255
Combo4 : 193,224,255
SliderBorder : 249,0,249
SliderTrackOverride : 0,0,159

[HitObjects]
11,40,241,54,0,L|20:84,1,30,8|8,1:3|1:3,0:0:0:0:
33,138,450,37,6,0:3:0:0:
120,74,658,2,0,B|109:14,1,36
120,74,866,2,0,P|154:65|200:76,1,72
254,101,1179,5,2,0:1:0:0:
349,51,1387,2,0,L|356:102,1,36,2|2,0:1|0:1,0:0:0:0:
372,207,1700,38,0,P|354:210|336:208,1,36
272,183,1908,2,0,P|254:180|236:183,1,36
176,220,2116,2,0,P|141:222|171:206,1,90
256,192,2440,12,0,3739,0:0:0:0:
167,151,3847,6,0,P|162:164|164:183,1,30
159,145,4027,2,0,P|145:148|132:162,1,30
154,139,4207,2,0,P|143:131|124:130,1,30
62,153,4387,38,0,P|55:135|57:110,1,45.0000017166138
51,162,4567,2,0,P|32:157|15:138,1,45.0000017166138
44,170,4747,2,0,P|29:180|3:182,2,45.0000017166138
126,129,5047,37,6,0:3:0:0:
174,263,5255,2,0,P|198:269|219:265,1,45,2|0,0:0|0:0,0:0:0:0:
292,232,5464,1,8,0:0:0:0:
317,196,5568,1,0,0:0:0:0:
310,153,5672,1,0,0:0:0:0:
275,127,5776,1,0,0:0:0:0:
232,134,5880,1,8,0:0:0:0:
107,232,6088,38,0,P|101:253|102:275,1,45,2|0,0:0|0:0,0:0:0:0:
147,345,6297,1,8,0:0:0:0:
184,368,6401,1,0,0:0:0:0:
228,377,6505,1,0,0:0:0:0:
272,367,6609,1,0,0:0:0:0:
312,345,6713,5,10,0:0:0:0:
312,345,6817,2,0,P|328:302|303:249,1,90,2|2,0:0|0:0,0:0:0:0:
227,221,7130,2,0,P|211:264|236:317,1,90,10|2,0:0|0:0,0:0:0:0:
312,345,7442,2,0,P|355:361|408:336,1,90,2|2,0:0|0:0,0:0:0:0:
459,291,7755,37,2,0:0:0:0:
459,291,7859,1,0,0:0:0:0:
459,291,7963,1,6,0:3:0:0:
427,249,8068,1,0,0:0:0:0:
453,208,8172,1,0,0:0:0:0:
502,222,8276,1,0,0:0:0:0:
507,271,8381,1,6,0:3:0:0:
395,347,8588,6,0,P|371:353|350:349,1,45,2|0,0:0|0:0,0:0:0:0:
277,316,8797,1,8,0:0:0:0:
252,280,8901,1,0,0:0:0:0:
259,237,9005,1,0,0:0:0:0:
294,211,9109,1,0,0:0:0:0:
337,218,9213,1,8,0:0:0:0:
438,342,9422,38,0,P|417:348|395:347,1,45,2|0,0:0|0:0,0:0:0:0:
322,319,9630,1,8,0:0:0:0:
284,294,9734,1,0,0:0:0:0:
241,284,9838,1,0,0:0:0:0:
197,292,9942,1,0,0:0:0:0:
159,316,10047,70,0,P|129:323|101:314,1,58.4999973220826,10|0,0:0|0:0,0:0:0:0:
12,234,10255,1,8,0:3:0:0:
12,234,10359,1,8,0:3:0:0:
12,234,10463,2,0,L|-1:152,1,58.4999973220826,8|0,0:3|0:0,0:0:0:0:
97,72,10672,1,8,0:3:0:0:
97,72,10776,2,0,L|108:135,1,58.4999973220826,8|8,0:3|0:0,0:0:0:0:
149,350,11088,37,2,0:0:0:0:
149,350,11192,1,0,0:0:0:0:
149,350,11297,2,0,P|183:342|216:351,1,67.5000025749208,2|0,0:3|0:0,0:0:0:0:
353,365,11505,2,0,P|319:373|286:364,1,67.5000025749208,2|0,0:3|0:0,0:0:0:0:
165,264,11713,1,6,0:3:0:0:
298,154,11922,6,0,P|302:127|295:103,1,45,2|0,0:0|0:0,0:0:0:0:
245,50,12130,1,8,0:0:0:0:
204,32,12234,1,0,0:0:0:0:
163,47,12338,1,0,0:0:0:0:
144,86,12442,1,0,0:0:0:0:
160,127,12546,1,8,0:0:0:0:
281,248,12755,38,0,P|308:252|332:245,1,45,2|0,0:0|0:0,0:0:0:0:
397,217,12963,1,8,0:0:0:0:
424,182,13067,1,0,0:0:0:0:
427,137,13171,1,0,0:0:0:0:
405,99,13275,1,0,0:0:0:0:
368,83,13379,5,10,0:0:0:0:
368,83,13484,2,0,P|323:71|278:85,1,90,2|2,0:0|0:0,0:0:0:0:
204,38,13797,2,0,P|193:83|206:128,1,90,10|2,0:0|0:0,0:0:0:0:
161,202,14109,2,0,P|206:214|251:200,1,90,2|2,0:0|0:0,0:0:0:0:
327,163,14422,37,2,0:0:0:0:
327,163,14526,1,0,0:0:0:0:
327,163,14630,1,6,0:3:0:0:
366,128,14734,1,0,0:0:0:0:
407,155,14839,1,0,0:0:0:0:
396,205,14943,1,0,0:0:0:0:
347,208,15048,1,6,0:3:0:0:
194,173,15255,5,2,0:0:0:0:
194,173,15359,1,0,0:0:0:0:
194,173,15463,2,0,P|144:160|103:178,1,90,10|2,0:0|0:0,0:0:0:0:
48,231,15776,2,0,P|43:252|48:274,2,45,2|8|2,0:0|0:0|0:0,0:0:0:0:
118,252,16088,37,2,0:0:0:0:
151,273,16192,1,0,0:0:0:0:
191,282,16296,1,8,0:0:0:0:
229,270,16400,1,0,0:0:0:0:
266,253,16504,1,0,0:0:0:0:
305,244,16608,1,0,0:0:0:0:
345,249,16713,70,0,P|364:256|380:276,7,29.2499986610413,10|0|0|0|0|0|0|0,0:0|0:0|0:0|0:0|0:0|0:0|0:0|0:0,0:0:0:0:
387,283,17130,2,0,P|400:302|401:324,3,29.2499986610413,10|0|0|0,0:0|0:0|0:0|0:0,0:0:0:0:
403,338,17338,38,0,P|372:349|333:343,1,67.5000025749208,2|2,1:3|1:2,0:0:0:0:
239,384,17547,2,0,P|218:357|212:318,1,67.5000025749208,2|2,1:3|1:2,0:0:0:0:
144,242,17755,2,0,P|162:214|197:196,1,67.5000025749208,2|2,1:3|1:2,0:0:0:0:
249,108,17963,2,0,P|280:117|308:145,1,67.5000025749208,2|2,1:3|1:2,0:0:0:0:
410,168,18172,2,0,P|410:200|393:236,1,67.5000025749208,2|2,1:3|1:2,0:0:0:0:
284,328,18380,5,14,0:0:0:0:
173,196,18588,2,0,P|198:190|224:198,1,45,2|0,0:0|0:0,0:0:0:0:
301,223,18797,1,8,0:0:0:0:
326,259,18901,1,0,0:0:0:0:
319,302,19005,1,0,0:0:0:0:
284,328,19109,1,0,0:0:0:0:
241,321,19213,1,8,0:0:0:0:
104,220,19422,38,0,P|100:197|102:175,1,45,2|0,0:0|0:0,0:0:0:0:
144,110,19630,1,8,0:0:0:0:
182,87,19734,1,0,0:0:0:0:
227,87,19838,1,0,0:0:0:0:
265,109,19942,1,0,0:0:0:0:
291,151,20047,5,10,0:0:0:0:
291,151,20151,2,0,P|307:194|282:247,1,90,2|2,0:0|0:0,0:0:0:0:
217,296,20464,2,0,P|201:253|226:200,1,90,10|2,0:0|0:0,0:0:0:0:
291,151,20776,2,0,P|334:135|387:160,1,90,2|2,0:0|0:0,0:0:0:0:
447,207,21088,37,2,0:0:0:0:
447,207,21192,1,0,0:0:0:0:
447,207,21297,1,6,0:3:0:0:
482,242,21401,1,0,0:0:0:0:
461,287,21505,1,0,0:0:0:0:
411,279,21609,1,0,0:0:0:0:
401,231,21714,1,6,0:3:0:0:
256,176,21922,6,0,P|231:170|205:178,1,45,2|0,0:0|0:0,0:0:0:0:
137,198,22131,1,8,0:0:0:0:
112,234,22235,1,0,0:0:0:0:
119,277,22339,1,0,0:0:0:0:
154,303,22443,1,0,0:0:0:0:
197,296,22547,1,8,0:0:0:0:
345,203,22755,38,0,P|349:180|347:158,1,45,2|0,0:0|0:0,0:0:0:0:
300,97,22964,1,8,0:0:0:0:
262,74,23068,1,0,0:0:0:0:
217,74,23172,1,0,0:0:0:0:
179,96,23276,1,0,0:0:0:0:
157,142,23381,5,10,0:0:0:0:
157,142,23484,2,0,P|141:185|166:238,1,90,2|2,0:0|0:0,0:0:0:0:
216,276,23797,2,0,P|259:292|312:267,1,90,2|2,0:0|0:0,0:0:0:0:
357,225,24109,2,0,P|370:183|355:142,1,90,2|2,0:0|0:0,0:0:0:0:
208,84,24421,37,2,0:0:0:0:
208,84,24525,1,0,0:0:0:0:
208,84,24630,2,0,P|174:76|141:85,1,67.5000025749208,2|0,0:3|0:0,0:0:0:0:
4,99,24838,2,0,P|38:107|71:98,1,67.5000025749208,2|0,0:3|0:0,0:0:0:0:
199,7,25046,1,6,0:3:0:0:
286,160,25255,6,0,P|292:185|284:211,1,45,2|0,0:0|0:0,0:0:0:0:
264,279,25464,1,8,0:0:0:0:
228,304,25568,1,0,0:0:0:0:
185,297,25672,1,0,0:0:0:0:
159,262,25776,1,0,0:0:0:0:
166,219,25880,1,8,0:0:0:0:
260,86,26088,38,0,P|282:82|304:83,1,45,2|0,0:0|0:0,0:0:0:0:
365,131,26297,1,8,0:0:0:0:
388,169,26401,1,0,0:0:0:0:
388,214,26505,1,0,0:0:0:0:
366,252,26609,1,0,0:0:0:0:
324,278,26714,5,10,0:0:0:0:
324,278,26817,2,0,P|281:294|228:269,1,90,2|2,0:0|0:0,0:0:0:0:
176,239,27130,2,0,P|134:223|92:236,1,90,10|2,0:0|0:0,0:0:0:0:
90,322,27442,2,0,P|131:337|173:324,1,90,2|2,0:0|0:0,0:0:0:0:
248,288,27755,37,2,0:0:0:0:
248,288,27859,1,0,0:0:0:0:
248,288,27964,1,6,0:3:0:0:
271,243,28067,1,0,0:0:0:0:
320,249,28172,1,0,0:0:0:0:
328,299,28276,1,0,0:0:0:0:
285,324,28381,1,6,0:3:0:0:
149,363,28588,5,2,0:0:0:0:
149,363,28692,1,0,0:0:0:0:
149,363,28797,2,0,P|99:376|58:358,1,90,10|2,0:0|0:0,0:0:0:0:
23,288,29109,2,0,P|18:267|23:245,2,45,2|8|2,0:0|0:0|0:0,0:0:0:0:
103,274,29421,37,2,0:0:0:0:
103,274,29525,1,0,0:0:0:0:
103,274,29630,2,0,L|181:263,1,58.4999973220826,2|0,0:3|0:0,0:0:0:0:
294,197,29838,2,0,L|216:186,1,58.4999973220826,2|0,0:3|0:0,0:0:0:0:
135,171,30047,5,2,1:3:0:0:
406,14,30255,1,2,1:3:0:0:
406,328,30463,1,2,1:3:0:0:
135,171,31297,6,0,L|167:179,1,22.5,4|0,0:1|1:0,0:0:0:0:
478,260,31713,5,12,0:3:0:0:
373,313,31922,1,8,0:3:0:0:
383,196,32130,1,8,0:3:0:0:
373,313,32338,2,0,P|356:318|330:314,1,45
264,280,32547,38,0,P|247:274|221:278,1,45,8|0,0:3|0:0,0:0:0:0:
160,314,32755,1,0,0:0:0:0:
57,257,32963,2,0,L|67:354,1,90,8|6,0:3|0:1,0:0:0:0:
0,212,33380,5,8,0:3:0:0:
117,214,33588,1,8,0:3:0:0:
60,111,33797,1,8,0:3:0:0:
117,214,34005,2,0,P|138:218|165:211,1,45
222,179,34213,38,0,P|243:174|265:178,1,45,8|0,0:3|0:0,0:0:0:0:
331,206,34422,1,0,0:0:0:0:
386,102,34630,1,14,0:0:0:0:
489,155,34838,2,0,P|467:159|445:155,1,45
265,178,35047,38,0,P|257:206|264:234,1,58.4999973220826,14|0,1:2|1:0,0:0:0:0:
305,352,35255,1,2,1:2:0:0:
305,352,35359,2,0,P|333:343|353:324,1,58.4999973220826,2|8,1:2|1:2,0:0:0:0:
436,232,35567,1,2,1:2:0:0:
436,232,35671,2,0,P|402:206|318:212,1,116.999994644165,2|8,1:2|1:2,0:0:0:0:
211,277,35984,37,2,1:2:0:0:
162,297,36088,1,2,1:2:0:0:
110,298,36192,1,2,1:2:0:0:
61,278,36297,2,0,P|79:230|91:259,1,116.999994644165,14|2,1:2|1:2,0:0:0:0:
270,369,36713,6,0,P|298:375|325:366,1,58.4999973220826,14|0,1:2|1:0,0:0:0:0:
440,316,36921,1,2,1:2:0:0:
440,316,37025,2,0,P|429:288|408:270,1,58.4999973220826,2|8,1:2|0:0,0:0:0:0:
311,194,37233,1,2,1:2:0:0:
311,194,37338,2,0,P|287:229|299:313,1,116.999994644165,2|8,1:2|1:2,0:0:0:0:
440,316,37651,38,0,P|477:323|506:304,2,67.5000025749208
442,238,37963,2,0,P|508:300|428:304,1,202.500007724762,6|0,0:0|1:0,0:0:0:0:
376,271,38380,37,12,0:3:0:0:
271,324,38588,1,8,0:3:0:0:
281,207,38797,1,8,0:3:0:0:
271,324,39005,2,0,P|254:329|228:325,1,45
162,298,39214,38,0,P|145:292|119:296,1,45,8|0,0:3|0:0,0:0:0:0:
58,332,39422,1,0,0:0:0:0:
2,229,39630,2,0,L|11:140,1,90,8|6,0:3|0:1,0:0:0:0:
129,227,40047,5,8,0:3:0:0:
226,289,40255,1,8,0:3:0:0:
233,173,40464,1,8,0:3:0:0:
226,289,40672,2,0,P|250:293|275:288,1,45
328,247,40880,38,0,P|349:242|371:246,1,45,8|0,0:3|0:0,0:0:0:0:
438,271,41088,1,0,0:0:0:0:
399,160,41296,1,14,0:0:0:0:
511,191,41504,2,0,P|489:195|467:191,1,45
330,127,41713,38,0,P|302:119|274:126,1,58.4999973220826,14|0,1:2|1:0,0:0:0:0:
156,167,41921,1,2,1:2:0:0:
156,167,42025,2,0,P|165:195|184:215,1,58.4999973220826,2|8,1:2|1:2,0:0:0:0:
276,298,42233,1,2,1:2:0:0:
276,298,42338,2,0,P|302:264|296:180,1,116.999994644165,2|8,1:2|1:2,0:0:0:0:
224,77,42650,37,2,1:2:0:0:
175,57,42754,1,2,1:2:0:0:
123,56,42858,1,2,1:2:0:0:
74,76,42963,2,0,P|92:124|104:95,1,116.999994644165,14|2,1:2|1:2,0:0:0:0:
298,28,43379,6,0,P|326:22|353:31,1,58.4999973220826,14|0,1:2|0:0,0:0:0:0:
468,81,43587,1,2,1:2:0:0:
468,81,43692,2,0,P|457:109|436:127,1,58.4999973220826,2|8,1:2|1:2,0:0:0:0:
339,203,43901,1,2,1:2:0:0:
339,203,44005,1,2,1:2:0:0:
380,13,44317,37,2,0:1:0:0:
380,13,44422,1,2,0:1:0:0:
380,13,44526,1,2,0:1:0:0:
380,13,44630,2,0,L|281:13,1,90.0000034332277,6|0,0:1|0:0,0:0:0:0:
242,69,44838,2,0,P|244:95|234:124,2,45.0000017166138,8|8|8,1:3|1:3|1:3,0:0:0:0:
169,89,45047,6,0,P|126:102|73:86,1,90,6|0,0:0|0:0,0:0:0:0:
15,75,45359,2,0,P|12:94|18:119,1,45,2|8,0:0|0:0,0:0:0:0:
169,89,45672,2,0,P|212:76|265:92,1,90,2|8,0:0|0:0,0:0:0:0:
323,103,45984,2,0,P|326:83|319:58,1,45,2|0,0:0|0:0,0:0:0:0:
169,89,46297,1,10,0:0:0:0:
152,115,46401,1,0,0:0:0:0:
145,146,46505,1,0,0:0:0:0:
149,177,46609,1,0,0:0:0:0:
163,205,46713,38,0,P|206:218|259:202,1,90,6|0,0:0|0:0,0:0:0:0:
317,191,47026,2,0,P|320:210|314:235,1,45,2|8,0:0|0:0,0:0:0:0:
163,205,47339,2,0,P|120:192|67:208,1,90,2|8,0:0|0:0,0:0:0:0:
9,219,47651,2,0,P|6:199|13:174,1,45,2|0,0:0|0:0,0:0:0:0:
163,205,47964,1,10,0:0:0:0:
180,231,48068,1,0,0:0:0:0:
187,262,48172,1,0,0:0:0:0:
183,293,48276,1,0,0:0:0:0:
169,321,48380,6,0,P|126:334|73:318,1,90,6|0,0:0|0:0,0:0:0:0:
15,307,48692,2,0,P|12:326|18:351,1,45,2|8,0:0|0:0,0:0:0:0:
169,321,49005,2,0,P|212:308|265:324,1,90,2|8,0:0|0:0,0:0:0:0:
323,335,49317,2,0,P|326:315|319:290,1,45,2|0,0:0|0:0,0:0:0:0:
169,321,49630,2,0,P|147:327|125:324,1,45,14|0,0:0|0:0,0:0:0:0:
61,293,49838,2,0,P|39:288|17:293,1,45,2|0,0:0|0:0,0:0:0:0:
41,360,50047,37,6,0:0:0:0:
143,256,50255,1,2,0:0:0:0:
143,256,50359,2,0,P|146:236|139:211,1,45,2|8,0:0|0:0,0:0:0:0:
33,112,50672,1,2,0:0:0:0:
139,212,50880,6,0,P|170:219|202:211,1,58.4999973220826,8|0,3:0|3:0,0:0:0:0:
318,183,51088,2,0,P|346:177|374:184,1,58.4999973220826,8|0,3:0|3:0,0:0:0:0:
500,209,51297,38,0,P|469:216|437:208,1,58.4999973220826,8|0,3:0|3:0,0:0:0:0:
318,183,51505,2,0,P|289:177|261:184,1,58.4999973220826,8|0,3:0|3:0,0:0:0:0:
139,273,51713,6,0,P|182:286|235:270,1,90,6|0,0:0|0:0,0:0:0:0:
291,257,52025,2,0,P|294:279|289:301,1,45,2|8,0:0|0:0,0:0:0:0:
75,316,52338,2,0,P|62:273|78:220,1,90,2|8,0:0|0:0,0:0:0:0:
90,163,52650,2,0,P|67:159|45:164,1,45,2|0,0:0|0:0,0:0:0:0:
75,316,52963,1,10,0:0:0:0:
102,332,53067,1,0,0:0:0:0:
133,336,53171,1,0,0:0:0:0:
164,330,53275,1,0,0:0:0:0:
191,314,53380,38,0,P|234:301|287:317,1,90,6|0,0:0|0:0,0:0:0:0:
343,328,53692,2,0,P|345:305|338:281,1,45,2|8,0:0|0:0,0:0:0:0:
177,160,54005,2,0,P|164:203|180:256,1,90,2|8,0:0|0:0,0:0:0:0:
191,314,54317,2,0,P|168:317|147:312,1,45,2|0,0:0|0:0,0:0:0:0:
177,160,54630,1,10,0:0:0:0:
204,144,54734,1,0,0:0:0:0:
235,140,54838,1,0,0:0:0:0:
266,146,54942,1,0,0:0:0:0:
293,162,55047,6,0,P|321:167|351:154,1,45,6|0,0:0|0:0,0:0:0:0:
399,106,55255,1,0,0:0:0:0:
425,71,55359,1,0,0:0:0:0:
468,72,55463,1,8,0:0:0:0:
493,107,55567,1,0,0:0:0:0:
479,148,55672,2,0,P|472:172|479:196,1,45
484,269,55880,38,0,P|441:256|388:272,1,90,10|0,0:0|0:0,0:0:0:0:
331,283,56192,2,0,P|328:260|333:238,1,45,2|8,0:0|0:0,0:0:0:0:
443,73,56505,1,2,0:0:0:0:
102,149,56713,5,12,1:2:0:0:
398,265,56921,1,6,1:2:0:0:
40,344,57130,1,12,1:2:0:0:
147,27,57338,1,6,1:2:0:0:
147,27,57442,2,0,P|177:33|228:19,1,58.4999973220826,2|8,1:2|1:2,0:0:0:0:
350,89,57685,38,0,P|348:112|354:144,3,38.9999982147218,8|8|8|8,1:3|1:3|1:3|1:3,0:0:0:0:
368,197,57963,1,12,0:0:0:0:
488,112,58172,1,12,0:0:0:0:
236,185,58380,5,4,0:1:0:0:
405,328,58588,1,4,0:1:0:0:
488,112,58797,37,4,0:1:0:0:
318,255,59005,1,4,0:1:0:0:
210,37,59213,5,4,0:1:0:0:
249,61,59317,1,0,0:0:0:0:
294,70,59421,1,0,0:0:0:0:
340,61,59525,1,0,0:0:0:0:
379,36,59630,1,0,0:0:0:0:
420,15,59734,1,0,0:0:0:0:
465,24,59838,1,0,0:0:0:0:
498,56,59942,1,0,0:0:0:0:
482,98,60047,38,0,P|443:87|498:56,1,148.50000453186,6|0,0:3|0:0,0:0:0:0:
512,162,60463,2,0,P|465:174|405:147,1,99.0000030212403,8|2,0:0|0:0,0:0:0:0:
245,70,60880,1,10,0:0:0:0:
213,55,60984,1,0,0:0:0:0:
179,54,61088,1,0,0:0:0:0:
147,68,61192,1,0,0:0:0:0:
123,93,61297,1,8,0:0:0:0:
199,234,61505,6,0,P|213:187|196:141,1,99.0000030212403,2|8,0:0|0:0,0:0:0:0:
55,188,61922,2,0,P|78:194|102:190,1,49.5000015106202,2|0,0:0|0:0,0:0:0:0:
196,141,62130,2,0,P|241:123|288:137,1,99.0000030212403,10|0,0:0|0:0,0:0:0:0:
454,266,62547,2,0,P|510:276|455:263,1,148.50000453186,10|0,0:0|0:0,0:0:0:0:
383,275,62963,1,10,0:0:0:0:
338,296,63067,1,0,0:0:0:0:
289,297,63171,1,8,0:0:0:0:
244,277,63275,1,0,0:0:0:0:
210,241,63380,38,0,P|197:196|210:146,1,99.0000030212403,6|2,0:0|0:0,0:0:0:0:
399,196,63797,2,0,P|354:209|304:196,1,99.0000030212403,6|2,0:0|0:0,0:0:0:0:
143,120,64213,1,10,0:0:0:0:
111,105,64318,1,0,0:0:0:0:
77,104,64422,1,0,0:0:0:0:
45,118,64526,1,0,0:0:0:0:
21,143,64630,1,8,0:0:0:0:
97,282,64838,6,0,P|144:296|190:279,1,99.0000030212403,2|8,0:0|0:0,0:0:0:0:
141,138,65255,2,0,P|135:161|139:185,1,49.5000015106202,2|0,0:0|0:0,0:0:0:0:
189,279,65463,2,0,P|236:293|282:276,1,99.0000030212403,8|0,0:0|0:0,0:0:0:0:
439,152,65880,2,0,P|477:194|436:154,1,148.50000453186,10|0,0:0|0:0,0:0:0:0:
365,132,66296,1,10,0:0:0:0:
320,111,66400,1,0,0:0:0:0:
271,110,66504,1,8,0:0:0:0:
226,130,66608,1,0,0:0:0:0:
192,166,66713,38,0,P|179:211|192:261,1,99.0000030212403,6|2,0:0|0:0,0:0:0:0:
385,208,67130,2,0,P|340:195|290:208,1,99.0000030212403,6|2,0:0|0:0,0:0:0:0:
130,288,67547,1,10,0:0:0:0:
98,303,67651,1,0,0:0:0:0:
64,304,67755,1,0,0:0:0:0:
32,290,67859,1,0,0:0:0:0:
8,265,67963,1,8,0:0:0:0:
93,95,68172,6,0,P|107:142|90:188,1,99.0000030212403,2|8,0:0|0:0,0:0:0:0:
0,312,68588,2,0,P|-1:288|7:265,1,49.5000015106202,2|0,0:0|0:0,0:0:0:0:
90,187,68797,2,0,P|135:169|182:183,1,99.0000030212403,10|0,0:0|0:0,0:0:0:0:
363,298,69213,2,0,P|419:308|364:295,1,148.50000453186,10|0,0:0|0:0,0:0:0:0:
293,312,69630,2,0,P|265:317|241:312,1,49.5000015106202,8|0,0:0|0:0,0:0:0:0:
171,288,69838,37,8,0:0:0:0:
171,288,69942,1,0,0:0:0:0:
171,288,70047,1,2,0:3:0:0:
334,145,70255,1,2,0:3:0:0:
376,358,70463,1,2,0:3:0:0:
171,288,70672,5,2,0:0:0:0:
354,219,70880,2,0,P|380:213|404:219,1,49.5000015106202,8|0,3:2|3:0,0:0:0:0:
423,357,71088,2,0,P|397:363|373:357,1,49.5000015106202,8|0,3:2|3:0,0:0:0:0:
292,294,71297,1,8,3:0:0:0:
370,83,71505,37,2,0:0:0:0:
370,83,71609,1,2,0:0:0:0:
370,83,71713,1,2,0:3:0:0:
447,286,71922,1,2,0:3:0:0:
233,251,72130,1,2,0:3:0:0:
512,141,72338,5,6,0:3:0:0:
241,103,72546,1,6,0:3:0:0:
465,369,72755,1,6,0:3:0:0:
194,332,72963,2,0,P|179:328|155:336,7,24.7500007553101,6|0|0|0|0|0|0|0,0:3|0:0|0:0|0:0|0:0|0:0|0:0|0:0,0:0:0:0:
142,352,73380,38,0,P|101:352|145:307,1,148.50000453186,6|0,0:3|0:0,0:0:0:0:
259,355,73797,2,0,P|306:367|366:340,1,99.0000030212403,10|2,0:0|0:0,0:0:0:0:
426,204,74213,1,10,0:0:0:0:
402,179,74317,1,0,0:0:0:0:
370,165,74421,1,0,0:0:0:0:
336,166,74525,1,0,0:0:0:0:
304,181,74629,1,8,0:0:0:0:
352,351,74838,6,0,P|366:304|349:258,1,99.0000030212403,2|8,0:0|0:0,0:0:0:0:
186,306,75255,2,0,P|209:315|243:312,1,49.5000015106202,2|0,0:0|0:0,0:0:0:0:
230,238,75463,2,0,P|184:226|137:242,1,99.0000030212403,10|0,0:0|0:0,0:0:0:0:
58,357,75880,1,10,0:0:0:0:
46,199,76088,38,0,P|43:173|54:145,1,49.5000015106202,2|0,0:0|0:0,0:0:0:0:
99,95,76296,1,10,0:0:0:0:
144,74,76400,1,0,0:0:0:0:
193,73,76504,1,0,0:0:0:0:
238,93,76608,1,0,0:0:0:0:
272,129,76713,6,0,P|286:174|266:230,1,99.0000030212403,6|2,0:0|0:0,0:0:0:0:
81,289,77130,2,0,P|67:244|87:188,1,99.0000030212403,6|2,0:0|0:0,0:0:0:0:
271,222,77547,1,10,0:0:0:0:
247,247,77651,1,0,0:0:0:0:
215,261,77755,1,0,0:0:0:0:
181,260,77859,1,0,0:0:0:0:
149,245,77963,1,8,0:0:0:0:
200,89,78172,38,0,P|214:134|194:190,1,99.0000030212403,2|8,0:0|0:0,0:0:0:0:
59,133,78588,2,0,P|82:127|106:131,1,49.5000015106202,2|0,0:0|0:0,0:0:0:0:
199,182,78796,2,0,P|246:196|292:179,1,99.0000030212403,10|0,0:0|0:0,0:0:0:0:
380,38,79213,1,10,0:0:0:0:
292,179,79422,5,10,0:0:0:0:
306,224,79526,1,8,0:0:0:0:
350,244,79630,1,8,0:0:0:0:
394,226,79734,1,8,0:0:0:0:
411,181,79838,1,8,0:0:0:0:
388,138,79942,1,8,0:0:0:0:
339,122,80047,38,0,P|280:107|233:131,1,99.0000030212403,6|0,0:0|0:0,0:0:0:0:
138,258,80463,1,10,0:0:0:0:
292,179,80672,1,2,0:0:0:0:
65,208,80880,1,10,0:0:0:0:
50,240,80984,1,0,0:0:0:0:
49,274,81088,1,0,0:0:0:0:
63,306,81192,1,0,0:0:0:0:
88,330,81296,1,8,0:0:0:0:
284,298,81505,5,6,0:0:0:0:
70,99,81922,37,6,0:0:0:0:
5,384,82338,5,6,0:0:0:0:
284,298,82755,37,6,0:0:0:0:
77,359,82963,1,6,0:0:0:0:
166,120,83171,5,2,0:0:0:0:
166,120,83275,1,2,0:0:0:0:
166,120,83380,1,6,0:0:0:0:
288,302,83588,1,2,0:0:0:0:
288,302,83692,2,0,P|261:308|238:303,1,49.5000015106202,2|8,0:0|0:0,0:0:0:0:
172,276,83901,1,2,0:0:0:0:
172,276,84005,2,0,P|145:270|122:275,1,49.5000015106202,2|0,0:0|0:0,0:0:0:0:
56,300,84213,37,6,0:0:0:0:
0,157,84422,1,2,0:0:0:0:
182,203,84630,1,10,0:0:0:0:
4,349,84838,2,0,P|-13:302|7:247,1,99.0000030212403,2|8,0:0|0:0,0:0:0:0:
158,135,85255,5,2,0:0:0:0:
158,134,85359,2,0,P|181:128|206:132,1,49.5000015106202,2|8,0:0|0:0,0:0:0:0:
280,161,85567,1,2,0:0:0:0:
280,161,85672,2,0,P|303:166|328:162,1,49.5000015106202,2|0,0:0|0:0,0:0:0:0:
401,175,85880,37,8,0:0:0:0:
377,218,85984,1,8,0:0:0:0:
367,266,86088,1,8,0:0:0:0:
374,315,86192,1,8,0:0:0:0:
402,355,86296,1,8,0:0:0:0:
448,367,86400,1,8,0:0:0:0:
487,339,86505,1,8,0:0:0:0:
487,291,86609,1,8,0:0:0:0:
447,263,86713,38,0,P|389:250|334:272,1,107.999996704102,12|2,1:3|1:0,0:0:0:0:
220,327,87130,2,0,B|223:324|223:324|219:320|219:320|223:316|223:316|219:312|219:312|223:308|223:308|219:304|219:304|223:300|223:300|219:296|219:296|223:292|223:292|219:288|219:288|223:284|223:284|219:280|219:280|223:276|223:276|219:272|219:272|223:268|223:268|219:264|219:264|223:260|223:260|219:256|219:256|223:252|223:252|219:248|219:248,1,107.999996704102,10|2,0:1|1:0,0:0:0:0:
226,177,87477,1,2,1:0:0:0:
226,177,87547,2,0,P|284:190|339:168,1,107.999996704102,2|2,3:1|1:2,0:0:0:0:
428,133,87963,2,0,P|444:131|470:137,2,26.9999991760254,2|2|2,1:0|1:0|1:0,0:0:0:0:
328,175,88241,1,8,1:0:0:0:
387,265,88380,38,0,P|426:283|402:243,1,107.999996704102,8|2,3:1|3:1,0:0:0:0:
328,175,88797,2,0,P|270:162|215:184,1,107.999996704102,2|2,1:0|3:1,0:0:0:0:
115,215,89213,5,2,1:0:0:0:
115,215,89283,2,0,P|104:252|118:292,2,77.9999964294435,8|8|8,1:0|1:0|1:0,0:0:0:0:
158,155,89630,1,2,1:0:0:0:
158,155,89700,2,0,P|168:117|155:78,2,77.9999964294435,8|8|8,1:0|1:0|1:0,0:0:0:0:
115,215,90047,38,0,P|57:228|2:206,1,107.999996704102,2|2,3:1|3:1,0:0:0:0:
67,95,90463,2,0,B|64:92|64:92|68:88|68:88|64:84|64:84|68:80|68:80|64:76|64:76|68:72|68:72|64:68|64:68|68:64|68:64|64:60|64:60|68:56|68:56|64:52|64:52|68:48|68:48|64:44|64:44|68:40|68:40|64:36|64:36|68:32|68:32|64:28|64:28|68:24|68:24|64:20|64:20|68:16|68:16,1,107.999996704102,2|2,3:1|3:1,0:0:0:0:
143,33,90811,1,2,1:0:0:0:
143,33,90880,2,0,P|201:46|256:24,1,107.999996704102,2|2,3:1|3:1,0:0:0:0:
351,5,91297,2,0,P|368:3|387:10,2,26.9999991760254,2|2|2,1:0|1:0|1:0,0:0:0:0:
245,31,91575,5,8,3:1:0:0:
327,103,91714,2,0,P|346:115|351:92,2,53.9999983520508,8|8|8,1:0|1:0|3:1,0:0:0:0:
245,31,92130,2,8,B|244:40|244:40|244:48|244:48|248:44|248:44|248:52|248:52|244:56|244:56|248:60|248:60|244:64|244:64|248:68|248:68|244:72|244:72|248:76|248:76|244:80|244:80|248:84|248:84|244:88|244:88|248:92|248:92|244:96|244:96|248:100|248:100|244:104|244:104|248:112|248:112,1,107.999996704102,10|2,3:1|1:2,0:1:0:0:
163,129,92547,2,8,B|162:138|162:138|162:146|162:146|166:142|166:142|166:150|166:150|162:154|162:154|166:158|166:158|162:162|162:162|166:166|166:166|162:170|162:170|166:174|166:174|162:178|162:178|166:182|166:182|162:186|162:186|166:190|166:190|162:194|162:194|166:198|166:198|162:202|162:202|166:210|166:210,1,107.999996704102,10|0,3:1|1:0,0:1:0:0:
153,282,92963,38,0,P|166:285|182:281,1,22.5,4|0,1:0|1:0,0:0:0:0:
512,228,93380,5,8,1:3:0:0:
512,228,93589,1,8,1:3:0:0:
407,242,93797,37,8,1:3:0:0:
407,242,94005,1,8,1:3:0:0:
303,258,94213,5,8,1:3:0:0:
303,258,94422,1,8,1:3:0:0:
335,158,94630,37,8,1:3:0:0:
335,158,94838,1,8,1:3:0:0:
439,140,95047,5,8,1:3:0:0:
439,140,95255,1,8,1:3:0:0:
371,59,95463,37,8,1:3:0:0:
371,59,95671,1,8,1:3:0:0:
407,242,95880,5,12,1:3:0:0:
304,203,96088,2,0,P|299:224|305:246,1,45
322,312,96297,2,0,P|343:305|358:289,1,45,8|0,0:3|0:0,0:0:0:0:
407,242,96505,2,0,P|390:226|368:221,1,45
229,209,96713,70,0,P|201:215|174:206,1,58.4999973220826,14|0,1:2|1:0,0:0:0:0:
59,156,96921,1,2,1:2:0:0:
59,156,97025,2,0,P|70:128|91:110,1,58.4999973220826,2|8,1:2|1:2,0:0:0:0:
188,34,97233,1,2,1:2:0:0:
188,34,97338,2,0,P|212:69|200:153,1,116.999994644165,2|8,1:2|1:2,0:0:0:0:
118,214,97651,5,2,1:2:0:0:
98,263,97755,1,2,1:2:0:0:
97,315,97859,1,2,1:2:0:0:
117,364,97964,2,0,P|165:346|136:334,1,116.999994644165,14|2,1:2|1:2,0:0:0:0:
0,203,98380,38,0,P|9:175|30:157,1,58.4999973220826,14|0,1:2|1:0,0:0:0:0:
132,84,98588,1,2,1:2:0:0:
132,84,98692,2,0,P|150:107|154:135,1,58.4999973220826,2|8,1:2|1:2,0:0:0:0:
171,257,98900,1,2,1:2:0:0:
171,257,99004,2,0,P|128:259|62:205,1,116.999994644165,2|8,1:2|1:2,0:0:0:0:
54,86,99317,6,0,P|47:49|66:20,2,67.5000025749208
132,84,99630,2,0,P|70:18|66:98,1,202.500007724762,6|0,0:0|1:0,0:0:0:0:
95,158,100047,69,12,0:3:0:0:
177,235,100255,1,8,0:3:0:0:
206,121,100464,1,8,0:3:0:0:
95,158,100672,2,0,P|78:163|52:159,1,45
73,89,100881,6,0,P|90:83|116:87,1,45,8|0,0:3|0:0,0:0:0:0:
185,111,101088,1,0,0:0:0:0:
293,154,101297,2,0,P|304:112|292:65,1,90,8|6,0:3|0:1,0:0:0:0:
226,180,101714,37,8,0:3:0:0:
259,291,101922,1,8,0:3:0:0:
339,209,102131,1,8,0:3:0:0:
226,180,102339,2,0,P|202:175|177:178,1,45
122,218,102547,6,0,P|100:222|79:216,1,45,8|0,0:3|0:0,0:0:0:0:
14,187,102755,1,0,0:0:0:0:
38,301,102963,1,14,0:0:0:0:
122,218,103171,2,0,P|144:214|166:218,1,45
341,176,103380,6,0,P|347:205|338:232,1,58.4999973220826,14|0,1:2|1:0,0:0:0:0:
289,347,103588,1,2,1:2:0:0:
289,347,103692,2,0,P|261:337|243:316,1,58.4999973220826,2|8,1:2|1:2,0:0:0:0:
166,218,103900,1,2,1:2:0:0:
166,218,104004,2,0,P|201:195|285:207,1,116.999994644165,2|8,1:2|1:2,0:0:0:0:
362,272,104317,5,2,1:2:0:0:
411,292,104421,1,2,1:2:0:0:
463,293,104525,1,2,1:2:0:0:
512,273,104630,2,0,P|494:225|482:254,1,116.999994644165,14|2,1:2|1:2,0:0:0:0:
348,345,105047,38,0,P|305:358|262:345,1,90,14|2,1:2|1:2,0:0:0:0:
194,305,105359,2,0,P|151:292|108:304,1,90,2|2,1:2|1:2,0:0:0:0:
43,350,105672,2,0,P|40:361|48:392,2,30,8|8|8,1:3|1:3|1:3,0:0:0:0:
87,170,105984,5,2,0:1:0:0:
87,170,106088,1,2,0:1:0:0:
87,170,106192,1,2,0:1:0:0:
87,170,106297,2,0,P|2:182|61:234,1,202.500007724762,6|0,1:0|1:0,0:0:0:0:
146,227,106713,70,0,P|167:228|196:219,1,36
242,321,107026,2,0,P|249:301|249:270,1,36
358,257,107338,2,0,P|341:243|312:234,1,36
335,127,107651,2,0,P|317:138|299:162,1,36
204,109,107963,2,0,P|209:129|227:154,2,36
146,227,108380,6,0,P|166:228|195:219,1,36
196,363,108692,2,0,P|211:349|225:322,1,36
331,313,109005,2,0,P|332:292|323:263,1,36
282,178,109317,2,0,P|268:162|241:148,1,36
72,222,109630,6,0,P|127:241|196:211,1,116.999994644165,6|0,1:3|0:0,0:0:0:0:
407,182,110047,6,0,P|364:169|311:185,1,90,6|0,0:0|0:0,0:0:0:0:
260,228,110358,2,0,P|254:249|257:271,1,45,2|8,0:0|0:0,0:0:0:0:
476,228,110672,2,0,P|489:185|473:132,1,90,2|8,0:0|0:0,0:0:0:0:
430,81,110984,2,0,P|408:75|386:78,1,45,2|0,0:0|0:0,0:0:0:0:
196,192,111297,2,0,P|219:197|241:192,1,45,14|0,0:0|0:0,0:0:0:0:
302,157,111504,2,0,P|324:151|346:154,1,45,2|0,0:0|0:0,0:0:0:0:
415,181,111713,37,6,0:0:0:0:
323,311,111921,1,2,0:0:0:0:
323,311,112026,2,0,P|301:316|278:310,1,45,2|8,0:0|0:0,0:0:0:0:
196,192,112338,1,2,0:0:0:0:
413,124,112547,6,0,P|420:152|415:180,1,58.4999973220826,8|0,3:0|3:0,0:0:0:0:
301,224,112754,2,0,P|296:195|303:167,1,58.4999973220826,8|0,3:0|3:0,0:0:0:0:
368,15,112963,38,0,P|397:8|425:13,1,58.4999973220826,8|0,3:0|3:0,0:0:0:0:
469,126,113172,2,0,P|441:131|413:124,1,58.4999973220826,8|0,3:0|3:0,0:0:0:0:
297,98,113380,6,0,P|254:85|201:101,1,90,6|0,0:0|0:0,0:0:0:0:
150,144,113692,2,0,P|145:166|148:188,1,45,2|8,0:0|0:0,0:0:0:0:
387,246,114005,2,0,P|400:203|384:150,1,90,2|8,0:0|0:0,0:0:0:0:
341,99,114317,2,0,P|319:94|297:97,1,45,2|0,0:0|0:0,0:0:0:0:
184,244,114629,1,10,0:0:0:0:
211,260,114733,1,0,0:0:0:0:
242,264,114837,1,0,0:0:0:0:
273,258,114941,1,0,0:0:0:0:
300,242,115047,38,0,P|343:229|396:245,1,90,6|0,0:0|0:0,0:0:0:0:
447,288,115359,2,0,P|452:310|449:332,1,45,2|8,0:0|0:0,0:0:0:0:
229,286,115672,2,0,P|216:243|232:190,1,90,2|8,0:0|0:0,0:0:0:0:
275,139,115984,2,0,P|297:134|319:137,1,45,2|0,0:0|0:0,0:0:0:0:
447,288,116297,1,10,0:0:0:0:
420,304,116400,1,0,0:0:0:0:
389,308,116504,1,0,0:0:0:0:
358,302,116608,1,0,0:0:0:0:
331,287,116713,6,0,P|295:284|271:295,1,45,6|0,0:0|0:0,0:0:0:0:
212,331,116922,1,0,0:0:0:0:
178,357,117026,1,0,0:0:0:0:
137,342,117130,1,8,0:0:0:0:
129,300,117234,1,0,0:0:0:0:
161,271,117338,2,0,P|188:259|213:265,1,45
286,286,117547,38,0,P|329:299|382:283,1,90,10|0,0:0|0:0,0:0:0:0:
433,240,117859,2,0,P|438:218|435:196,1,45,2|8,0:0|0:0,0:0:0:0:
223,97,118171,1,2,0:0:0:0:
37,368,118380,5,12,1:2:0:0:
326,215,118587,1,6,1:2:0:0:
0,160,118797,1,12,1:2:0:0:
265,33,119004,1,6,1:2:0:0:
265,33,119109,2,0,P|291:25|336:37,1,58.4999973220826,2|8,1:2|1:2,0:0:0:0:
459,144,119351,38,0,P|480:148|514:136,3,38.9999982147218,8|8|8|8,1:3|1:3|1:3|1:3,0:0:0:0:
479,76,119630,6,2,B|487:56|474:34|474:34|456:38|448:53|448:53|435:50|423:53|423:53|415:38|397:34|397:34|384:56|392:76,1,180,10|8,1:2|1:2,1:0:0:0:
435,318,120047,37,4,0:1:0:0:
223,252,120255,1,4,0:1:0:0:
392,76,120463,5,4,0:1:0:0:
326,288,120671,1,4,0:1:0:0:
223,75,120879,37,4,0:1:0:0:
262,51,120983,1,0,0:0:0:0:
307,42,121087,1,0,0:0:0:0:
353,51,121191,1,0,0:0:0:0:
392,76,121296,1,8,0:0:0:0:
433,97,121400,1,0,0:0:0:0:
478,88,121504,1,8,0:0:0:0:
511,56,121608,1,0,0:0:0:0:
495,14,121713,6,0,P|456:25|511:56,1,148.50000453186,6|0,0:3|0:0,0:0:0:0:
505,144,122130,2,0,P|456:146|402:108,1,99.0000030212403,10|2,0:0|0:0,0:0:0:0:
290,38,122547,1,10,0:0:0:0:
258,23,122651,1,0,0:0:0:0:
224,22,122755,1,0,0:0:0:0:
192,36,122859,1,0,0:0:0:0:
168,61,122963,1,8,0:0:0:0:
246,202,123172,38,0,P|260:155|243:109,1,99.0000030212403,2|8,0:0|0:0,0:0:0:0:
220,269,123589,2,0,P|243:275|267:271,1,49.5000015106202,2|0,0:0|0:0,0:0:0:0:
163,225,123797,2,0,P|149:272|166:318,1,99.0000030212403,10|0,0:0|0:0,0:0:0:0:
380,312,124214,2,0,P|423:275|378:309,1,148.50000453186,10|0,0:0|0:0,0:0:0:0:
304,315,124630,1,10,0:0:0:0:
259,336,124734,1,0,0:0:0:0:
210,337,124838,1,8,0:0:0:0:
165,317,124942,1,0,0:0:0:0:
131,281,125047,6,0,P|118:236|131:186,1,99.0000030212403,6|2,0:0|0:0,0:0:0:0:
381,103,125463,2,0,P|394:148|381:198,1,99.0000030212403,6|2,0:0|0:0,0:0:0:0:
229,279,125881,1,10,0:0:0:0:
197,294,125985,1,0,0:0:0:0:
163,295,126089,1,0,0:0:0:0:
131,281,126193,1,0,0:0:0:0:
107,256,126297,1,8,0:0:0:0:
220,147,126505,38,0,P|267:133|313:150,1,99.0000030212403,2|8,0:0|0:0,0:0:0:0:
153,173,126922,2,0,P|147:150|151:126,1,49.5000015106202,2|0,0:0|0:0,0:0:0:0:
197,230,127130,2,0,P|150:244|104:227,1,99.0000030212403,10|2,0:0|0:0,0:0:0:0:
14,91,127547,2,0,P|15:34|17:91,1,148.50000453186,10|0,0:0|0:0,0:0:0:0:
22,166,127963,1,10,0:0:0:0:
1,211,128067,1,0,0:0:0:0:
0,260,128171,1,8,0:0:0:0:
20,305,128275,1,0,0:0:0:0:
56,339,128380,6,0,P|101:352|151:339,1,99.0000030212403,6|2,0:0|0:0,0:0:0:0:
386,271,128797,2,0,P|341:258|291:271,1,99.0000030212403,6|2,0:0|0:0,0:0:0:0:
150,339,129214,1,10,0:0:0:0:
118,354,129318,1,0,0:0:0:0:
84,355,129422,1,0,0:0:0:0:
52,341,129526,1,0,0:0:0:0:
28,316,129630,1,8,0:0:0:0:
102,183,129838,38,0,P|116:230|99:276,1,99.0000030212403,2|8,0:0|0:0,0:0:0:0:
76,116,130255,2,0,P|99:110|123:114,1,49.5000015106202,2|0,0:0|0:0,0:0:0:0:
19,160,130463,2,0,P|5:113|22:67,1,99.0000030212403,10|0,0:0|0:0,0:0:0:0:
232,21,130881,2,0,P|272:61|230:23,1,148.50000453186,10|0,0:0|0:0,0:0:0:0:
152,52,131297,2,0,P|124:47|100:52,1,49.5000015106202,8|0,0:0|0:0,0:0:0:0:
30,76,131505,5,8,0:0:0:0:
30,76,131609,1,2,0:0:0:0:
30,76,131714,1,2,0:3:0:0:
193,219,131922,1,2,0:3:0:0:
235,6,132130,1,2,0:3:0:0:
30,76,132339,37,2,0:0:0:0:
213,145,132547,2,0,P|239:151|263:145,1,49.5000015106202,8|0,3:0|3:0,0:0:0:0:
282,6,132755,2,0,P|256:0|232:6,1,49.5000015106202,8|0,3:0|3:0,0:0:0:0:
143,71,132964,1,8,3:0:0:0:
280,239,133172,5,2,0:0:0:0:
280,239,133276,1,2,0:0:0:0:
280,239,133381,1,2,0:3:0:0:
357,36,133589,1,2,0:3:0:0:
143,71,133797,1,2,0:3:0:0:
433,239,134005,37,6,0:3:0:0:
164,285,134213,1,6,0:3:0:0:
377,12,134422,1,6,0:3:0:0:
109,58,134630,2,0,P|93:64|79:81,7,24.7500007553101,6|0|0|0|0|0|0|0,0:3|0:0|0:0|0:0|0:0|0:0|0:0|0:0,0:0:0:0:
88,70,135047,38,0,L|83:148,1,72,2|0,1:2|1:0,0:0:0:0:
80,261,135463,1,2,1:2:0:0:
80,261,135672,1,2,1:2:0:0:
80,261,135880,2,0,P|76:217|103:252,1,108,2|0,1:2|1:0,0:0:0:0:
80,261,136297,6,0,P|65:213|106:246,1,135,6|0,0:3|1:0,0:0:0:0:
114,278,136505,6,0,P|163:294|220:271,1,99.0000030212403,6|8,0:0|0:0,0:0:0:0:
408,216,136922,2,0,P|383:211|360:217,1,49.5000015106202,2|0,0:0|0:0,0:0:0:0:
298,276,137130,2,0,P|253:294|206:280,1,99.0000030212403,10|0,0:0|0:0,0:0:0:0:
79,155,137547,1,10,0:0:0:0:
228,50,137755,38,0,P|254:47|282:58,1,49.5000015106202,2|0,0:0|0:0,0:0:0:0:
332,103,137963,1,10,0:0:0:0:
353,148,138067,1,0,0:0:0:0:
354,197,138171,1,0,0:0:0:0:
334,242,138275,1,0,0:0:0:0:
298,276,138380,6,0,P|253:294|206:280,1,99.0000030212403,6|2,0:0|0:0,0:0:0:0:
0,167,138797,2,0,P|45:149|92:163,1,99.0000030212403,6|2,0:0|0:0,0:0:0:0:
206,280,139214,1,10,0:0:0:0:
238,295,139318,1,0,0:0:0:0:
272,296,139422,1,0,0:0:0:0:
304,282,139526,1,0,0:0:0:0:
328,257,139630,1,8,0:0:0:0:
254,121,139838,38,0,P|240:168|257:214,1,99.0000030212403,2|8,0:0|0:0,0:0:0:0:
280,54,140255,2,0,P|257:48|233:52,1,49.5000015106202,2|0,0:0|0:0,0:0:0:0:
254,121,140463,2,0,P|301:135|347:118,1,99.0000030212403,10|0,0:0|0:0,0:0:0:0:
512,16,140880,1,10,0:0:0:0:
346,118,141089,5,10,0:0:0:0:
360,163,141193,1,8,0:0:0:0:
404,183,141297,1,8,0:0:0:0:
448,165,141401,1,8,0:0:0:0:
465,120,141505,1,8,0:0:0:0:
442,77,141609,1,8,0:0:0:0:
393,61,141714,38,0,P|334:46|287:70,1,99.0000030212403,6|0,0:0|0:0,0:0:0:0:
192,198,142130,1,10,0:0:0:0:
346,118,142339,1,2,0:0:0:0:
118,147,142547,1,10,0:0:0:0:
104,179,142651,1,0,0:0:0:0:
102,213,142755,1,0,0:0:0:0:
117,245,142859,1,0,0:0:0:0:
142,269,142963,1,8,0:0:0:0:
326,269,143172,5,6,0:0:0:0:
47,355,143589,37,6,0:0:0:0:
112,70,144005,5,6,0:0:0:0:
326,269,144422,37,6,0:0:0:0:
415,71,144630,1,6,0:0:0:0:
441,328,144838,5,2,0:0:0:0:
441,328,144942,1,2,0:0:0:0:
441,328,145047,1,6,0:0:0:0:
242,262,145255,1,2,0:0:0:0:
242,262,145359,2,0,P|215:256|192:261,1,49.5000015106202,2|8,0:0|0:0,0:0:0:0:
126,288,145568,1,2,0:0:0:0:
126,288,145672,2,0,P|99:294|76:289,1,49.5000015106202,2|0,0:0|0:0,0:0:0:0:
10,264,145880,37,6,0:0:0:0:
100,141,146089,1,2,0:0:0:0:
193,260,146297,1,10,0:0:0:0:
10,264,146505,2,0,P|-7:217|13:162,1,99.0000030212403,2|8,0:0|0:0,0:0:0:0:
167,88,146922,5,2,0:0:0:0:
167,87,147026,2,0,P|190:81|215:85,1,49.5000015106202,2|8,0:0|0:0,0:0:0:0:
289,114,147235,1,2,0:0:0:0:
289,114,147339,2,0,P|312:119|337:115,1,49.5000015106202,2|0,0:0|0:0,0:0:0:0:
364,28,147547,37,8,0:0:0:0:
408,11,147651,1,8,0:0:0:0:
454,23,147755,1,8,0:0:0:0:
485,61,147859,1,8,0:0:0:0:
486,111,147963,1,8,0:0:0:0:
459,151,148067,1,8,0:0:0:0:
413,167,148171,1,8,0:0:0:0:
366,152,148276,1,8,0:0:0:0:
337,114,148380,1,6,3:0:0:0:
220,31,148588,38,0,L|144:31,1,72,2|0,1:0|1:0,0:0:0:0:
114,93,148901,2,0,L|150:157,1,72,2|0,1:0|1:0,0:0:0:0:
225,152,149213,2,0,L|262:88,1,72,2|0,1:0|1:0,0:0:0:0:
371,87,149526,38,0,P|413:100|456:88,1,90,2|0,1:0|1:0,0:0:0:0:
501,16,149838,2,0,P|458:3|415:14,1,90,2|0,1:0|1:0,0:0:0:0:
261,89,150255,6,0,L|261:164,1,72,2|0,1:0|1:0,0:0:0:0:
323,195,150568,2,0,L|387:158,1,72,2|0,1:0|1:0,0:0:0:0:
382,84,150880,2,0,L|318:46,1,72,2|0,1:0|1:0,0:0:0:0:
189,109,151193,38,0,P|146:121|103:110,1,90,2|0,1:0|1:0,0:0:0:0:
59,37,151505,2,0,P|101:24|144:35,1,90,2|0,1:0|1:0,0:0:0:0:
261,89,151922,6,0,L|260:164,1,72,2|0,1:0|1:0,0:0:0:0:
199,195,152235,2,0,L|134:158,1,72,2|0,1:0|1:0,0:0:0:0:
140,84,152547,2,0,L|203:46,1,72,2|0,1:0|1:0,0:0:0:0:
357,151,152860,38,0,P|399:163|442:152,1,90,2|0,1:0|1:0,0:0:0:0:
468,70,153172,2,0,P|449:65|425:69,1,45,2|0,1:0|1:0,0:0:0:0:
288,134,153380,37,0,0:0:0:0:
239,152,153484,1,0,0:0:0:0:
187,154,153588,1,2,0:1:0:0:
140,134,153692,1,0,0:0:0:0:
114,89,153796,1,0,0:0:0:0:
124,41,153900,1,2,0:1:0:0:
169,20,154004,1,0,0:0:0:0:
208,52,154109,1,0,0:0:0:0:
208,102,154213,1,2,0:1:0:0:
174,140,154317,1,0,0:0:0:0:
125,155,154421,1,2,0:1:0:0:
74,150,154525,1,0,0:0:0:0:
35,113,154630,38,2,P|49:44|62:116,1,175.499991966248,2|0,0:1|1:0,0:1:0:0:
21,194,155047,6,0,P|15:219|22:246,1,49.5000015106202,6|0,0:3|1:0,0:0:0:0:
58,304,155255,1,2,0:1:0:0:
98,330,155359,1,0,0:0:0:0:
146,323,155463,1,10,0:1:0:0:
177,286,155567,1,0,0:0:0:0:
176,237,155672,2,0,P|151:231|150:253,1,49.5000015106202,2|0,0:1|1:0,0:0:0:0:
214,346,155880,37,10,0:1:0:0:
254,374,155984,1,0,0:0:0:0:
302,383,156088,1,2,0:1:0:0:
350,370,156192,1,0,0:0:0:0:
388,339,156297,2,0,P|393:314|384:280,1,49.5000015106202,6|0,0:1|0:0,0:0:0:0:
337,226,156505,2,0,P|312:221|278:230,1,49.5000015106202,6|0,0:1|0:0,0:0:0:0:
152,302,156713,6,0,P|177:307|204:301,1,49.5000015106202,6|0,0:3|1:0,0:0:0:0:
262,265,156922,1,2,0:1:0:0:
288,225,157025,1,0,0:0:0:0:
281,177,157130,1,10,0:1:0:0:
244,146,157233,1,0,0:0:0:0:
195,147,157338,2,0,P|189:172|211:173,1,49.5000015106202,2|0,0:1|1:0,0:0:0:0:
307,110,157546,37,10,0:1:0:0:
347,82,157650,1,0,0:0:0:0:
395,73,157755,1,2,0:1:0:0:
443,86,157858,1,0,0:0:0:0:
481,117,157963,2,0,P|486:142|477:176,1,49.5000015106202,6|0,0:1|1:0,0:0:0:0:
430,230,158172,2,0,P|405:235|371:226,1,49.5000015106202,6|0,0:1|0:0,0:0:0:0:
245,153,158380,6,0,P|270:147|297:154,1,49.5000015106202,6|0,0:3|1:0,0:0:0:0:
355,190,158588,1,2,0:1:0:0:
381,230,158692,1,0,0:0:0:0:
374,278,158797,1,10,0:1:0:0:
337,309,158900,1,0,0:0:0:0:
291,324,159005,2,0,P|266:330|239:323,1,49.5000015106202,2|0,0:1|1:0,0:0:0:0:
152,282,159213,37,10,0:1:0:0:
117,248,159317,1,0,0:0:0:0:
121,200,159422,1,2,0:1:0:0:
160,173,159525,1,0,0:0:0:0:
206,186,159630,2,0,P|215:207|211:235,1,49.5000015106202,6|0,0:1|1:0,0:0:0:0:
93,362,159838,2,0,P|84:341|88:313,1,49.5000015106202,6|0,0:1|1:0,0:0:0:0:
206,186,160047,6,0,B|265:172|265:172|270:247|224:271|181:271|144:253|122:224|118:179|123:139|167:109|215:114,1,405.000015449525,6|2,0:3|1:2,0:0:0:0:
396,151,160880,2,0,P|365:242|390:150,1,270,6|2,0:3|1:2,0:0:0:0:
506,144,161297,38,0,L|502:236,1,90,6|0,0:0|1:0,0:0:0:0:
494,322,161505,2,0,P|509:344|511:317,1,67.5000025749208,6|0,0:0|1:0,0:0:0:0:
432,276,161713,1,6,0:0:0:0:
293,347,161922,5,2,0:1:0:0:
293,347,162026,2,0,P|262:351|234:344,1,49.5000015106202,2|8,0:1|1:0,0:0:0:0:
141,374,162234,1,2,0:1:0:0:
141,374,162338,2,0,P|127:345|125:316,1,49.5000015106202,2|0,0:1|1:0,0:0:0:0:
184,205,162547,37,10,0:1:0:0:
225,180,162651,1,0,0:0:0:0:
267,201,162755,1,2,0:1:0:0:
271,249,162859,1,0,0:0:0:0:
233,277,162963,2,0,P|208:282|175:273,1,49.5000015106202,6|0,0:1|1:0,0:0:0:0:
118,244,163172,1,2,0:1:0:0:
75,234,163276,1,0,0:0:0:0:
34,250,163380,1,6,0:3:0:0:
163,357,163588,5,2,0:1:0:0:
163,357,163692,2,0,P|194:361|222:354,1,49.5000015106202,2|8,0:1|1:0,0:0:0:0:
315,384,163900,1,2,0:1:0:0:
315,384,164005,2,0,P|329:355|331:326,1,49.5000015106202,2|0,0:1|1:0,0:0:0:0:
282,213,164213,37,10,0:1:0:0:
240,186,164317,1,0,0:0:0:0:
198,204,164422,1,2,0:1:0:0:
191,252,164525,1,0,0:0:0:0:
227,283,164630,2,0,P|251:289|285:282,1,49.5000015106202,6|0,0:1|1:0,0:0:0:0:
350,258,164838,1,10,0:1:0:0:
393,248,164942,1,0,0:0:0:0:
434,264,165047,1,6,0:3:0:0:
295,374,165255,5,2,0:1:0:0:
295,374,165359,2,0,P|264:378|236:371,1,49.5000015106202,2|8,0:1|1:0,0:0:0:0:
167,322,165567,1,2,0:1:0:0:
167,322,165671,2,0,P|163:291|170:263,1,49.5000015106202,2|0,0:1|1:0,0:0:0:0:
227,186,165880,37,10,0:1:0:0:
267,160,165984,1,0,0:0:0:0:
315,167,166088,1,2,0:1:0:0:
346,204,166192,1,0,0:0:0:0:
345,253,166297,2,0,P|320:259|319:237,1,49.5000015106202,6|0,0:1|1:0,0:0:0:0:
381,187,166505,1,2,0:1:0:0:
424,177,166609,1,0,0:0:0:0:
465,193,166713,1,6,0:3:0:0:
512,349,166922,5,2,0:1:0:0:
512,349,167026,2,0,P|481:353|453:346,1,49.5000015106202,2|8,0:1|1:0,0:0:0:0:
386,324,167234,1,2,0:1:0:0:
386,324,167338,2,0,P|355:320|327:327,1,49.5000015106202,2|0,0:1|1:0,0:0:0:0:
252,356,167547,37,10,0:1:0:0:
252,356,167651,1,2,0:1:0:0:
252,356,167755,2,0,L|240:296,1,49.5000015106202,2|0,0:1|1:0,0:0:0:0:
162,240,167963,2,0,L|152:288,1,49.5000015106202,10|0,0:1|1:0,0:0:0:0:
72,357,168172,2,0,L|62:308,1,49.5000015106202,10|0,0:1|1:0,0:0:0:0:
41,223,168380,1,6,0:3:0:0:
246,311,168588,5,2,0:1:0:0:
246,311,168692,2,0,P|277:315|305:308,1,49.5000015106202,2|8,0:1|1:0,0:0:0:0:
374,259,168900,1,2,0:1:0:0:
374,259,169005,2,0,P|378:228|371:200,1,49.5000015106202,2|0,0:1|1:0,0:0:0:0:
314,123,169213,37,10,0:1:0:0:
274,97,169317,1,0,0:0:0:0:
226,104,169421,1,2,0:1:0:0:
195,141,169525,1,0,0:0:0:0:
196,190,169630,2,0,P|221:196|222:174,1,49.5000015106202,6|0,0:1|1:0,0:0:0:0:
160,124,169838,1,2,0:1:0:0:
117,114,169942,1,0,0:0:0:0:
76,130,170046,1,6,0:3:0:0:
16,314,170255,5,2,0:1:0:0:
16,314,170359,2,0,P|39:320|72:312,1,49.5000015106202,2|8,0:1|1:0,0:0:0:0:
138,290,170567,1,2,0:1:0:0:
138,290,170671,2,0,P|161:284|194:292,1,49.5000015106202,2|0,0:1|1:0,0:0:0:0:
298,323,170880,37,8,0:1:0:0:
298,323,170984,1,2,0:0:0:0:
298,323,171088,2,0,P|295:376|268:354,1,116.999994644165,2|8,0:0|0:1,0:0:0:0:
127,144,171505,1,6,0:3:0:0:
385,240,171713,1,6,0:3:0:0:
192,376,171922,5,2,0:1:0:0:
192,376,172026,2,0,P|188:345|195:317,1,49.5000015106202,2|8,0:1|1:0,0:0:0:0:
165,224,172234,1,2,0:1:0:0:
165,224,172338,2,0,P|194:210|223:208,1,49.5000015106202,2|0,0:1|1:0,0:0:0:0:
321,242,172547,37,10,0:1:0:0:
363,269,172651,1,0,0:0:0:0:
405,251,172755,1,2,0:1:0:0:
412,203,172859,1,0,0:0:0:0:
376,172,172963,2,0,P|352:166|318:173,1,49.5000015106202,6|0,0:1|1:0,0:0:0:0:
253,197,173172,1,2,0:1:0:0:
210,207,173276,1,0,0:0:0:0:
169,191,173380,1,6,0:3:0:0:
117,32,173588,5,2,0:1:0:0:
117,32,173692,2,0,P|140:26|173:34,1,49.5000015106202,2|8,0:1|1:0,0:0:0:0:
239,56,173900,1,2,0:1:0:0:
239,56,174005,2,0,P|262:62|295:54,1,49.5000015106202,2|0,0:1|1:0,0:0:0:0:
446,17,174213,38,0,L|442:88,1,53.9999983520508,10|0,0:1|1:0,0:0:0:0:
367,40,174422,2,0,L|362:116,1,58.4999973220826,10|0,0:1|1:0,0:0:0:0:
287,57,174630,2,0,L|281:140,1,62.9999980773926,10|0,0:1|1:0,0:0:0:0:
209,69,174838,2,0,L|203:156,1,67.5000025749208,10|0,0:1|1:0,0:0:0:0:
204,232,175047,38,0,P|260:201|333:258,1,157.5,6|0,3:0|1:0,0:0:0:0:
389,297,175883,2,0,P|332:327|260:271,1,157.5,6|0,3:0|1:0,0:0:0:0:
331,249,176701,2,0,P|387:218|460:275,1,157.5,6|0,3:0|1:0,0:0:0:0:
389,297,177402,38,0,L|409:141,1,157.5,6|0,3:0|1:0,0:0:0:0:
338,129,178018,2,0,L|318:285,1,157.5,6|0,3:0|1:0,0:0:0:0:
246,267,178526,2,0,L|266:111,1,157.5,6|0,3:0|1:0,0:0:0:0:
270,31,178970,38,0,P|196:55|121:34,1,157.5,6|0,3:0|1:0,0:0:0:0:
53,14,179386,2,0,P|76:87|55:162,1,157.5,6|0,3:0|1:0,0:0:0:0:
29,235,179738,2,0,P|54:231|84:240,1,45,6|0,3:0|1:0,0:0:0:0:
143,259,180038,38,0,P|165:265|187:261,1,45,6|0,3:0|1:0,0:0:0:0:
256,228,180323,2,0,P|277:223|299:229,1,45,6|0,3:0|1:0,0:0:0:0:
365,267,180595,2,0,P|386:272|408:268,1,45,6|0,3:0|1:0,0:0:0:0:
464,217,180824,6,0,L|461:173,1,45,6|0,3:0|1:0,0:0:0:0:
389,198,181032,2,0,L|386:154,1,45,6|0,3:0|1:0,0:0:0:0:
316,190,181214,2,0,L|313:146,1,45,6|0,3:0|1:0,0:0:0:0:
241,177,181380,2,0,L|238:133,1,45,6|0,3:0|1:0,0:0:0:0:
167,157,181533,2,0,L|164:113,1,45,6|6,3:0|3:0,0:0:0:0:
256,192,181807,12,0,184526,1:0:0:0:
48,249,184630,6,0,P|52:236|65:231,3,26.9999991760254,2|2|2|2,1:2|1:2|1:2|1:2,0:0:0:0:
64,232,185047,6,2,B|33:240|44:279|71:287|109:276|116:241|94:165|94:165|70:81|70:81|246:30|246:30|270:114|270:114|292:191|285:226|247:237|220:228|209:190|239:181,1,728.999977752686,2|0,0:1|1:0,0:1:0:0:
353,165,187963,6,0,P|371:164|393:169,7,22.5,12|0|0|0|0|0|0|0,0:3|0:0|0:0|0:0|0:0|0:0|0:0|0:0,0:0:0:0:
408,188,188380,6,0,P|460:191|407:174,1,148.50000453186,6|0,0:3|1:0,0:0:0:0:
352,235,188797,6,0,L|352:309,2,72,2|2|8,1:2|1:2|1:2,0:0:0:0:
296,19,189422,37,2,0:3:0:0:
234,265,189630,1,2,0:3:0:0:
477,195,189838,2,0,P|489:138|468:87,1,99.0000030212403,2|0,0:3|1:0,0:0:0:0:
300,23,190255,5,2,1:2:0:0:
300,23,190463,2,0,L|213:23,1,72,8|2,1:2|1:2,0:0:0:0:
33,148,190880,38,0,P|27:170|34:199,1,49.5000015106202,6|0,0:0|0:0,0:0:0:0:
87,256,191088,1,8,0:3:0:0:
128,282,191192,1,8,0:3:0:0:
176,288,191296,1,8,0:3:0:0:
223,273,191400,1,8,0:3:0:0:
259,239,191505,2,0,P|264:216|258:188,1,49.5000015106202,8|0,0:3|1:0,0:0:0:0:
211,120,191713,38,0,P|195:74|232:117,1,148.50000453186,6|0,0:0|1:0,0:0:0:0:
184,185,192130,38,0,L|106:187,2,72,2|2|8,1:2|1:2|1:2,0:0:0:0:
397,246,192755,5,2,0:3:0:0:
151,308,192963,1,2,0:3:0:0:
221,65,193171,2,0,P|278:53|329:74,1,99.0000030212403,2|0,0:3|1:0,0:0:0:0:
401,250,193588,37,2,0:2:0:0:
401,250,193796,2,0,L|401:323,1,72,8|2,1:2|1:2,0:0:0:0:
200,354,194213,6,0,P|167:360|136:352,2,66.0000020141602,8|8|8,1:0|1:0|1:0,0:0:0:0:
266,319,194630,2,0,P|273:350|267:382,2,66.0000020141602,8|8|8,1:0|1:0|1:0,0:0:0:0:
225,240,195046,6,0,P|167:248|208:267,1,148.50000453186,6|0,0:0|1:0,0:0:0:0:
298,257,195463,6,0,L|375:257,2,72,2|2|8,1:2|1:2|1:2,0:0:0:0:
87,320,196088,37,2,0:3:0:0:
333,382,196296,1,2,0:3:0:0:
263,139,196504,2,0,P|206:127|155:148,1,99.0000030212403,2|0,0:3|1:0,0:0:0:0:
91,324,196922,5,2,1:2:0:0:
91,324,197130,2,0,L|177:324,1,72,8|2,1:2|1:2,0:0:0:0:
366,320,197547,37,6,0:0:0:0:
407,293,197651,1,2,0:0:0:0:
429,249,197755,1,10,0:0:0:0:
426,200,197859,1,10,0:0:0:0:
399,160,197963,1,10,0:0:0:0:
355,138,198067,1,2,0:0:0:0:
306,141,198171,1,10,0:0:0:0:
266,168,198276,1,2,0:0:0:0:
244,212,198380,37,6,0:0:0:0:
407,355,198588,1,2,0:0:0:0:
449,143,198797,2,0,P|401:129|353:144,1,99.0000030212403,10|0,0:0|0:0,0:0:0:0:
211,282,199213,1,10,0:0:0:0:
166,302,199317,1,8,0:0:0:0:
118,296,199421,1,8,0:0:0:0:
80,265,199525,1,8,0:0:0:0:
65,218,199630,2,0,P|60:189|69:158,1,49.5000015106202,10|0,0:0|0:0,0:0:0:0:
126,84,199838,5,2,0:0:0:0:
126,84,199942,1,2,0:0:0:0:
126,84,200047,1,2,0:3:0:0:
340,107,200255,1,2,0:3:0:0:
211,282,200463,1,2,0:3:0:0:
84,13,200671,37,6,0:3:0:0:
340,107,200879,1,6,0:3:0:0:
18,237,201088,1,6,0:3:0:0:
274,331,201296,2,0,P|291:333|311:325,7,24.7500007553101,6|0|0|0|0|0|0|0,0:3|0:0|0:0|0:0|0:0|0:0|0:0|0:0,0:0:0:0:
338,312,201713,6,0,P|382:314|331:337,1,148.50000453186,6|0,0:3|0:0,0:0:0:0:
282,257,202130,2,0,P|270:210|297:150,1,99.0000030212403,10|2,0:0|0:0,0:0:0:0:
470,194,202546,1,10,0:0:0:0:
446,219,202650,1,0,0:0:0:0:
414,233,202754,1,0,0:0:0:0:
380,232,202858,1,0,0:0:0:0:
348,217,202962,1,8,0:0:0:0:
405,62,203171,38,0,P|419:109|402:155,1,99.0000030212403,2|8,0:0|0:0,0:0:0:0:
247,228,203588,2,0,P|224:234|200:230,1,49.5000015106202,2|0,0:0|0:0,0:0:0:0:
122,191,203797,2,0,P|108:144|125:98,1,99.0000030212403,8|0,0:1|0:0,0:0:0:0:
305,53,204213,6,0,L|354:53,2,36,8|8|8,0:1|0:1|0:1,0:0:0:0:
124,98,204630,37,10,0:0:0:0:
103,143,204733,1,0,0:0:0:0:
102,192,204837,1,8,0:0:0:0:
122,237,204941,1,0,0:0:0:0:
158,271,205046,6,0,P|203:285|259:265,1,99.0000030212403,6|2,0:0|0:0,0:0:0:0:
493,195,205463,2,0,P|448:181|392:201,1,99.0000030212403,6|2,0:0|0:0,0:0:0:0:
251,270,205880,1,10,0:0:0:0:
219,285,205984,1,0,0:0:0:0:
185,286,206088,1,0,0:0:0:0:
153,272,206192,1,0,0:0:0:0:
129,247,206296,1,8,0:0:0:0:
208,108,206505,38,0,P|222:155|205:201,1,99.0000030212403,2|8,0:0|0:0,0:0:0:0:
15,274,206922,2,0,P|9:251|13:227,1,49.5000015106202,2|0,0:0|0:0,0:0:0:0:
52,149,207131,2,0,P|99:135|145:152,2,99.0000030212403,10|10|2,0:0|0:0|1:2,0:0:0:0:
73,309,207755,38,0,L|73:362,2,36,8|8|8,1:0|1:0|1:0,0:0:0:0:
99,287,208067,2,0,B|98:212,1,72,8|2,1:0|1:2,0:0:0:0:
145,135,208380,5,6,0:0:0:0:
319,199,208588,1,2,0:0:0:0:
99,287,208797,1,10,0:0:0:0:
274,352,209005,1,2,0:0:0:0:
145,135,209213,5,10,0:0:0:0:
130,103,209317,1,0,0:0:0:0:
129,69,209421,1,0,0:0:0:0:
143,37,209525,1,0,0:0:0:0:
168,13,209629,1,8,0:0:0:0:
342,92,209838,37,6,0:0:0:0:
342,92,210047,2,0,P|319:97|292:94,1,49.5000015106202,8|8,0:1|0:1,0:0:0:0:
208,83,210255,5,6,0:0:0:0:
291,361,210672,37,6,0:0:0:0:
291,361,210881,2,0,P|313:366|341:363,1,49.5000015106202,8|0,0:1|1:0,0:0:0:0:
421,337,211088,5,6,0:0:0:0:
355,142,211297,2,0,P|360:100|379:137,1,108,6|0,0:0|1:0,0:0:0:0:
348,218,211713,37,6,0:0:0:0:
248,340,211921,1,2,0:0:0:0:
248,340,212025,2,0,P|221:346|198:341,1,49.5000015106202,2|8,0:0|0:0,0:0:0:0:
132,314,212234,1,2,0:0:0:0:
132,314,212338,2,0,P|105:308|82:313,1,49.5000015106202,2|0,0:0|0:0,0:0:0:0:
15,345,212546,5,6,0:0:0:0:
71,178,212755,1,2,0:0:0:0:
199,341,212963,1,10,0:0:0:0:
255,174,213172,2,0,P|300:159|352:176,1,99.0000030212403,2|8,0:0|0:0,0:0:0:0:
315,364,213588,37,2,0:0:0:0:
315,365,213692,2,0,P|292:371|267:367,1,49.5000015106202,2|8,0:0|0:0,0:0:0:0:
153,343,213901,1,2,0:0:0:0:
153,343,214005,2,0,P|148:320|152:295,1,49.5000015106202,2|0,0:0|0:0,0:0:0:0:
164,208,214213,5,8,0:0:0:0:
207,184,214317,1,8,0:0:0:0:
255,174,214421,1,8,0:0:0:0:
304,181,214525,1,8,0:0:0:0:
344,209,214629,1,8,0:0:0:0:
356,255,214733,1,8,0:0:0:0:
333,299,214838,1,8,0:0:0:0:
285,312,214942,1,8,0:0:0:0:
238,293,215047,6,4,B|188:292|164:339|188:374|286:373|286:276|286:276|286:56|286:56|303:104|343:129|408:89|432:169|417:210,1,661.499979812623,6|0,0:3|1:0,0:3:0:0:
256,192,217338,12,0,218484,1:0:0:0:
203,152,218579,6,0,P|198:165|200:184,1,30
195,146,218747,2,0,P|181:149|168:163,1,30
190,140,218915,2,0,P|179:132|160:131,1,30
78,154,219083,38,0,P|72:140|74:119,1,35.9999989013672
69,160,219251,2,0,P|53:156|40:141,1,35.9999989013672
64,166,219419,2,0,P|52:174|31:175,2,35.9999989013672
162,130,219696,37,14,0:3:0:0:
256,357,219889,1,4,0:1:0:0:
307,33,220083,37,14,0:3:0:0:
211,249,220276,1,4,0:1:0:0:
106,16,220470,5,14,0:3:0:0:
237,154,220663,1,4,0:1:0:0:
277,169,220759,1,4,0:1:0:0:
318,152,220856,1,4,0:1:0:0:
335,112,220953,1,4,0:1:0:0:
319,71,221050,1,4,0:1:0:0:
282,48,221147,1,4,0:1:0:0:
239,69,221244,37,14,0:3:0:0:
122,273,221437,1,4,0:1:0:0:
434,180,221631,5,14,0:3:0:0:
317,384,221824,1,4,0:1:0:0:
210,104,222018,37,14,0:3:0:0:
239,69,222114,1,4,0:1:0:0:
281,55,222211,1,4,0:1:0:0:
324,64,222308,1,4,0:1:0:0:
356,95,222405,2,0,P|362:121|353:153,1,45,4|0,0:1|0:0,0:0:0:0:
321,211,222599,1,4,0:1:0:0:
90,269,222792,5,14,0:3:0:0:
161,17,222986,1,4,0:1:0:0:
321,211,223179,37,14,0:3:0:0:
40,130,223373,1,4,0:1:0:0:
334,76,223566,5,14,0:3:0:0:
367,105,223662,1,4,0:1:0:0:
376,148,223759,1,4,0:1:0:0:
359,189,223856,1,4,0:1:0:0:
321,211,223954,2,0,P|300:219|277:220,1,45,4|0,0:1|0:0,0:0:0:0:
197,210,224147,1,4,0:1:0:0:
58,25,224341,37,14,0:3:0:0:
2,271,224535,1,4,0:1:0:0:
2,271,224631,1,4,0:1:0:0:
2,271,224728,1,14,0:3:0:0:
240,209,224921,1,4,0:1:0:0:
240,209,225018,1,4,0:1:0:0:
240,209,225115,5,14,0:3:0:0:
271,242,225211,1,4,0:1:0:0:
314,254,225308,1,4,0:1:0:0:
357,243,225405,1,4,0:1:0:0:
388,211,225502,2,0,P|392:188|389:166,1,45,6|0,0:0|0:0,0:0:0:0:
346,51,225696,2,0,P|341:73|344:95,1,45,2|0,0:0|0:0,0:0:0:0:
459,271,225889,37,6,0:3:0:0:
459,271,225986,1,6,0:3:0:0:
459,271,226083,2,0,P|447:319|422:273,1,125.999996154785,6|0,0:3|1:0,0:0:0:0:
