osu file format v14

[General]
AudioFilename: audio.mp3
AudioLeadIn: 0
PreviewTime: 60344
Countdown: 0
SampleSet: Soft
StackLeniency: 0.7
Mode: 0
LetterboxInBreaks: 0
WidescreenStoryboard: 0

[Editor]
Bookmarks: 125716,152979,202743
DistanceSpacing: 0.6
BeatDivisor: 4
GridSize: 4
TimelineZoom: 1.9

[Metadata]
Title:Viva Happy
TitleUnicode:ビバハピ
Artist:Mitchie M
ArtistUnicode:Mitchie M
Creator:Remapper
Version:Yay!
Source:
Tags:kanor vocaloid japanese Hatsune Miku 初音ミク pop jpop j-pop Garden
BeatmapID:2387106
BeatmapSetID:1143108

[Difficulty]
HPDrainRate:6
CircleSize:4.5
OverallDifficulty:8
ApproachRate:9
SliderMultiplier:1.8
SliderTickRate:1

[Events]
//Background and Video events
0,0,"bg.jpg",0,0
Video,0,"video.mp4"
//Break Periods
2,19712,30669
2,87820,98372
//Storyboard Layer 0 (Background)
//Storyboard Layer 1 (Fail)
//Storyboard Layer 2 (Pass)
//Storyboard Layer 3 (Foreground)
//Storyboard Layer 4 (Overlay)
//Storyboard Sound Samples

[TimingPoints]
4918,405.405405405405,4,2,1,70,1,0
6134,-100,4,2,1,70,0,0
9580,-100,4,2,1,70,0,0
10188,-133.333333333333,4,2,1,70,0,0
10695,-80,4,2,1,70,0,0
10999,-100,4,2,1,70,0,0
12215,-200,4,2,1,70,0,0
12620,-80,4,2,1,70,0,0
13026,-80,4,2,0,70,0,0
13836,-80,4,2,3,70,0,0
13938,-100,4,2,0,70,0,0
14647,-100,4,2,3,70,0,0
18296,-100,4,2,1,70,0,0
18701,-80,4,2,3,70,0,0
19107,-100,4,2,0,80,0,0
32485,-100,4,2,1,80,0,0
32688,-100,4,2,1,60,0,0
33499,-100,4,2,1,70,0,0
33904,-80,4,2,1,80,0,0
34208,-80,4,2,1,5,0,0
34309,-100,4,2,1,60,0,0
36032,-100,4,2,1,5,0,0
36134,-100,4,2,1,70,0,0
36438,-100,4,2,1,5,0,0
36539,-100,4,2,1,80,0,0
36843,-100,4,2,1,5,0,0
36945,-100,4,2,1,80,0,0
37249,-100,4,2,1,5,0,0
37350,-100,4,2,1,70,0,0
37654,-100,4,2,1,5,0,0
37755,-100,4,2,1,60,0,0
38059,-100,4,2,1,5,0,0
38161,-66.6666666666667,4,2,1,80,0,0
38566,-100,4,2,1,80,0,0
38870,-100,4,2,1,5,0,0
38972,-100,4,2,1,80,0,0
39174,-100,4,2,1,60,0,0
39985,-100,4,2,1,70,0,0
40390,-100,4,2,1,80,0,0
40796,-100,4,2,1,60,0,0
42519,-100,4,2,1,5,0,0
42620,-100,4,2,1,70,0,0
42924,-100,4,2,1,5,0,0
43026,-100,4,2,1,80,0,0
43330,-100,4,2,1,5,0,0
43431,-100,4,2,1,80,0,0
43735,-100,4,2,1,5,0,0
43836,-100,4,2,1,70,0,0
44140,-100,4,2,1,5,0,0
44242,-100,4,2,1,60,0,0
44546,-100,4,2,1,5,0,0
44647,-66.6666666666667,4,2,1,80,0,0
45154,-66.6666666666667,4,2,0,80,0,0
45458,-133.333333333333,4,2,1,80,0,0
45559,-133.333333333333,4,2,1,60,0,0
48093,-133.333333333333,4,2,0,80,0,0
48904,-133.333333333333,4,2,1,60,0,0
54985,-133.333333333333,4,2,1,70,0,0
59242,-133.333333333333,4,2,1,60,0,0
59546,-100,4,2,1,70,0,0
59850,-80,4,2,1,80,0,0
60458,-80,4,2,0,60,0,0
61674,-100,4,2,1,100,0,0
84073,-100,4,2,1,5,0,0
84174,-100,4,2,1,100,0,0
84276,-100,4,2,1,5,0,0
84377,-133.333333333333,4,2,1,60,0,0
87620,-133.333333333333,4,2,1,80,0,0
98972,-133.333333333333,4,2,1,60,0,0
99174,-66.6666666666667,4,2,1,60,0,0
99276,-66.6666666666667,4,2,1,5,0,0
99377,-66.6666666666667,4,2,1,60,0,0
99478,-66.6666666666667,4,2,1,5,0,0
99580,-66.6666666666667,4,2,1,60,0,0
99681,-66.6666666666667,4,2,1,5,0,0
99782,-80,4,2,1,60,0,0
99884,-80,4,2,1,5,0,0
99985,-80,4,2,1,60,0,0
100086,-80,4,2,1,5,0,0
100188,-80,4,2,1,80,0,0
100593,-66.6666666666667,4,2,1,80,0,0
100695,-66.6666666666667,4,2,1,60,0,0
100999,-100,4,2,1,60,0,0
101607,-80,4,2,1,70,0,0
102012,-66.6666666666667,4,2,1,80,0,0
102417,-100,4,2,1,60,0,0
104140,-100,4,2,1,5,0,0
104242,-133.333333333333,4,2,1,70,0,0
104546,-133.333333333333,4,2,1,5,0,0
104647,-200,4,2,1,80,0,0
104951,-200,4,2,1,5,0,0
105053,-200,4,2,1,80,0,0
105357,-200,4,2,1,5,0,0
105458,-133.333333333333,4,2,1,70,0,0
105762,-133.333333333333,4,2,1,5,0,0
105863,-100,4,2,1,60,0,0
106167,-100,4,2,1,5,0,0
106269,-100,4,2,1,100,0,0
106472,-133.333333333333,4,2,1,60,0,0
107080,-66.6666666666667,4,2,1,80,0,0
107485,-100,4,2,1,60,0,0
108093,-80,4,2,1,70,0,0
108499,-66.6666666666667,4,2,1,80,0,0
108904,-100,4,2,1,60,0,0
110627,-100,4,2,1,5,0,0
110728,-133.333333333333,4,2,1,70,0,0
111032,-133.333333333333,4,2,1,5,0,0
111134,-200,4,2,1,80,0,0
111438,-200,4,2,1,5,0,0
111539,-200,4,2,1,80,0,0
111843,-200,4,2,1,5,0,0
111945,-133.333333333333,4,2,1,70,0,0
112249,-133.333333333333,4,2,1,5,0,0
112350,-100,4,2,1,60,0,0
112654,-100,4,2,1,5,0,0
112755,-66.6666666666667,4,2,1,60,0,0
113059,-100,4,2,1,70,0,0
113363,-80,4,2,1,80,0,0
113465,-80,4,2,1,5,0,0
113566,-100,4,2,1,80,0,0
114377,-133.333333333333,4,2,1,80,0,0
114478,-133.333333333333,4,2,1,60,0,0
116201,-100,4,2,0,80,0,0
116607,-133.333333333333,4,2,0,80,0,0
117012,-133.333333333333,4,2,1,60,0,0
118026,-66.6666666666667,4,2,1,60,0,0
118431,-133.333333333333,4,2,1,60,0,0
120863,-133.333333333333,4,2,1,80,0,0
120914,-133.333333333333,4,2,1,60,0,0
122384,-133.333333333333,4,2,1,5,0,0
122485,-66.6666666666667,4,2,1,80,0,0
122688,-80,4,2,1,80,0,0
122789,-80,4,2,1,5,0,0
122890,-80,4,2,1,80,0,0
123093,-100,4,2,1,80,0,0
123499,-100,4,2,1,70,0,0
126336,-133.333333333333,4,2,1,70,0,0
127350,-66.6666666666667,4,2,1,80,0,0
128161,-133.333333333333,4,2,1,80,0,0
128262,-133.333333333333,4,2,1,60,0,0
130086,-133.333333333333,4,2,1,5,0,0
130188,-133.333333333333,4,2,0,60,0,0
130593,-100,4,2,0,70,0,0
130999,-80,4,2,0,80,0,0
131404,-66.6666666666667,4,2,1,100,0,0
131810,-100,4,2,1,100,0,0
144377,-200,4,2,1,80,0,0
144681,-200,4,2,1,5,0,0
144782,-66.6666666666667,4,2,1,100,0,0
145188,-100,4,2,1,100,0,0
150863,-133.333333333333,4,2,1,60,0,0
151269,-133.333333333333,4,2,0,60,0,0
152485,-133.333333333333,4,2,1,60,0,0
153093,-133.333333333333,4,2,0,60,0,0
153499,-133.333333333333,4,2,1,60,0,0
157350,-222.222222222222,4,2,2,80,0,0
163634,-100,4,2,1,70,0,0
164647,-100,4,2,0,70,0,0
165458,-100,4,2,1,70,0,0
166269,-100,4,2,0,70,0,0
166472,-100,4,2,1,70,0,0
167890,-100,4,2,0,70,0,0
168701,-100,4,2,1,70,0,0
169512,-66.6666666666667,4,2,0,70,0,0
169715,-100,4,2,1,70,0,0
171134,-100,4,2,0,70,0,0
171336,-100,4,2,1,70,0,0
172755,-100,4,2,1,80,0,0
173363,-100,4,2,1,5,0,0
173566,-66.6666666666667,4,2,0,80,0,0
173769,-66.6666666666667,4,2,0,70,0,0
174174,-66.6666666666667,4,2,1,70,0,0
174377,-66.6666666666667,4,2,0,70,0,0
175188,-66.6666666666667,4,2,1,70,0,0
175492,-100,4,2,1,70,0,0
175999,-100,4,2,0,70,0,0
176201,-100,4,2,1,70,0,0
177823,-133.333333333333,4,2,1,60,0,0
178836,-133.333333333333,4,2,1,50,0,0
179647,-133.333333333333,4,2,1,80,0,0
180053,-133.333333333333,4,2,2,80,0,0
180255,-200,4,2,0,40,0,0
181675,-133.333333333333,4,2,0,50,0,0
183296,-100,4,2,0,60,0,0
184917,-100,4,2,0,70,0,0
186134,-100,4,2,1,80,0,0
186539,-66.6666666666667,4,2,1,100,0,0
186945,-100,4,2,1,100,0,0
190188,-66.6666666666667,4,2,1,100,0,0
190594,-100,4,2,1,100,0,0
194647,-133.333333333333,4,2,2,100,0,0
196269,-100,4,2,1,100,0,0
197688,-100,4,2,2,100,0,0
197890,-133.333333333333,4,2,1,80,0,0
199512,-100,4,2,1,100,0,0
204580,-133.333333333333,4,2,0,20,0,0
204681,-133.333333333333,4,2,0,5,0,0
204782,-100,4,2,0,30,0,0
204884,-100,4,2,0,5,0,0
204985,-80,4,2,0,40,0,0
205086,-80,4,2,0,5,0,0
205188,-66.6666666666667,4,2,0,50,0,0
205289,-66.6666666666667,4,2,0,5,0,0
205390,-57.1428571428571,4,2,0,60,0,0

[Colours]
Combo1 : 124,255,68
Combo2 : 245,71,128
Combo3 : 0,149,230
Combo4 : 255,206,60

[HitObjects]
65,133,6134,6,0,L|126:126,1,45,8|0,0:0|0:0,0:0:0:0:
142,209,6337,2,0,L|81:216,1,45,8|0,0:0|0:0,0:0:0:0:
36,120,6540,6,0,L|142:107,1,90,4|0,0:0|0:0,0:0:0:0:
214,76,6844,1,0,0:0:0:0:
214,76,6945,2,0,P|264:87|287:128,1,90,4|0,0:3|0:0,0:0:0:0:
266,203,7249,1,0,0:0:0:0:
266,203,7350,2,0,L|254:306,1,90,4|0,0:3|3:0,0:0:0:0:
256,293,7654,1,0,3:0:0:0:
256,293,7755,1,4,3:0:0:0:
383,263,7958,2,2,P|416:266|435:271,1,45,8|0,0:3|0:0,0:1:0:0:
489,321,8161,5,4,0:3:0:0:
506,352,8262,2,0,L|513:253,1,90
472,190,8567,2,0,L|465:91,1,90,4|0,0:3|0:0,0:0:0:0:
397,16,8871,1,0,0:0:0:0:
397,16,8972,2,0,P|344:12|324:49,1,90,4|0,0:3|3:0,0:0:0:0:
325,38,9276,1,0,3:0:0:0:
325,38,9377,1,4,3:0:0:0:
343,161,9580,2,2,P|354:181|356:204,1,45,8|0,0:3|0:0,0:1:0:0:
299,262,9783,5,4,3:0:0:0:
266,276,9884,2,0,B|224:280|224:280|217:283|217:283|176:288,1,90,0|0,3:0|0:0,0:0:0:0:
270,352,10188,6,0,L|369:362,1,67.5000025749208,4|0,3:0|3:0,0:0:0:0:
127,217,10593,5,4,3:0:0:0:
120,172,10695,2,0,B|66:192|66:192|87:247,1,112.5,0|0,3:0|0:0,0:0:0:0:
210,237,10999,6,0,L|196:136,1,90,4|0,3:0|3:0,0:0:0:0:
213,13,11404,5,12,3:0:0:0:
122,26,11506,1,8,3:0:0:0:
256,79,11708,5,8,3:0:0:0:
212,137,11810,1,12,3:0:0:0:
341,165,12012,5,8,3:0:0:0:
337,128,12114,1,8,3:0:0:0:
333,90,12215,2,2,P|366:72|399:74,1,67.5,2|0,1:0|0:0,0:1:0:0:
319,85,12620,6,2,P|398:61|459:122,1,168.75,2|0,1:0|0:0,0:1:0:0:
505,204,13026,5,2,0:0:0:0:
473,192,13127,1,2,0:0:0:0:
418,206,13228,1,2,0:0:0:0:
404,237,13329,1,2,0:0:0:0:
469,266,13431,6,0,B|452:213|452:213|396:197,1,112.5,14|0,0:0|0:0,0:0:0:0:
283,253,13837,5,4,3:0:0:0:
269,286,13938,2,0,L|262:379,1,90,0|0,3:0|0:0,0:0:0:0:
175,324,14242,2,0,L|110:328,1,45,10|0,0:0|0:0,0:0:0:0:
97,311,14445,2,0,L|32:315,1,45,2|0,0:0|0:0,0:0:0:0:
192,240,14647,6,0,B|138:242|138:242|123:236|123:236|6:243,1,180,4|8,3:0|0:0,0:0:0:0:
320,240,15255,2,0,B|374:238|374:238|389:244|389:244|498:237,1,180,0|4,3:0|0:3,0:0:0:0:
368,339,15863,1,8,0:0:0:0:
211,248,16066,1,2,0:0:0:0:
227,233,16167,1,2,0:0:0:0:
244,219,16269,6,0,L|134:219,1,90,4|0,0:3|0:0,0:0:0:0:
131,216,16573,2,0,L|141:305,1,90,2|0,0:0|0:0,0:0:0:0:
370,305,16877,2,0,L|381:216,1,90,4|2,0:3|0:0,0:0:0:0:
358,219,17181,2,0,L|268:219,1,90,2|2,0:0|0:0,0:0:0:0:
393,103,17485,1,2,3:0:0:0:
401,123,17586,1,2,3:0:0:0:
409,143,17688,1,2,3:0:0:0:
417,163,17789,1,2,3:0:0:0:
236,162,18094,1,4,0:0:0:0:
236,162,18296,6,0,B|254:158|254:158|260:159|260:159|279:154,1,45,8|0,0:0|0:0,0:0:0:0:
341,85,18499,2,0,B|359:81|359:81|365:82|365:82|384:77,1,45,8|0,0:0|0:0,0:0:0:0:
355,210,18701,6,0,P|362:171|359:148,1,56.25,4|0,3:0|3:0,0:0:0:0:
265,31,18904,2,0,P|258:70|261:93,1,56.25,4|0,3:0|3:0,0:0:0:0:
372,237,19107,5,8,0:0:0:0:
394,239,19208,1,0,1:0:0:0:
431,264,19309,1,0,1:0:0:0:
453,266,19411,1,0,1:0:0:0:
490,242,19512,5,4,1:0:0:0:
207,50,31269,5,4,0:0:0:0:
325,131,31404,5,4,0:0:0:0:
187,131,31539,5,4,0:0:0:0:
305,50,31675,5,4,0:0:0:0:
256,192,32485,5,4,0:0:0:0:
433,295,32688,1,0,3:0:0:0:
309,264,32891,1,8,3:0:0:0:
387,218,33093,1,0,3:0:0:0:
508,245,33296,1,8,3:0:0:0:
442,148,33499,1,4,3:0:0:0:
442,148,33600,2,8,L|441:75,1,45,0|8,3:0|0:3,0:3:0:0:
299,0,33904,6,0,B|259:20|259:20|309:152,1,168.75,4|0,0:0|0:0,0:0:0:0:
323,145,34309,6,0,L|224:158,1,90,0|8,3:0|0:3,0:0:0:0:
82,93,34816,1,0,3:0:0:0:
82,93,34917,1,8,3:0:0:0:
143,158,35121,1,4,0:3:0:0:
78,220,35323,1,8,3:0:0:0:
144,285,35729,5,4,3:0:0:0:
144,285,35830,1,0,3:0:0:0:
144,285,35931,2,0,L|133:338,1,45,0|0,3:0|0:0,3:0:0:0:
219,235,36134,5,4,3:0:0:0:
219,235,36235,1,0,3:0:0:0:
219,235,36336,2,0,L|272:246,1,45,0|0,3:0|0:0,3:0:0:0:
172,163,36539,5,4,3:0:0:0:
172,163,36640,1,0,3:0:0:0:
172,163,36742,2,0,L|183:110,1,45,0|0,3:0|0:0,3:0:0:0:
97,213,36944,5,4,3:0:0:0:
97,213,37046,1,0,3:0:0:0:
97,213,37147,2,0,L|44:202,1,45,0|0,3:0|0:0,3:0:0:0:
299,91,37350,5,4,3:0:0:0:
299,91,37451,1,0,3:0:0:0:
299,91,37553,2,0,L|246:80,1,45,0|0,3:0|0:0,3:0:0:0:
349,166,37755,5,4,3:0:0:0:
349,166,37857,1,0,3:0:0:0:
349,166,37958,2,0,L|338:219,1,45,0|0,3:0|0:0,3:0:0:0:
421,119,38161,6,0,B|471:94|511:132|511:132|499:167,1,135.000005149842,10|0,0:3|0:0,0:0:0:0:
371,44,38566,6,0,B|347:68|347:68|332:44|332:44|314:61|314:61|300:48|300:48|285:53|285:53|261:52,1,135,2|0,0:3|0:0,0:0:0:0:
190,46,38972,5,4,0:0:0:0:
105,78,39175,1,0,3:0:0:0:
142,159,39377,1,8,3:0:0:0:
174,41,39580,1,0,3:0:0:0:
89,73,39782,2,0,L|128:165,1,90,8|4,3:0|0:3,0:0:0:0:
158,36,40188,1,8,0:3:0:0:
13,55,40390,1,4,0:0:0:0:
159,228,40796,5,0,3:0:0:0:
244,260,40999,1,8,0:3:0:0:
215,349,41202,1,0,3:0:0:0:
215,349,41303,1,0,3:0:0:0:
215,349,41404,1,8,0:3:0:0:
141,214,41607,1,4,0:3:0:0:
265,261,41810,1,8,0:3:0:0:
458,293,42215,5,4,3:0:0:0:
458,293,42316,1,0,3:0:0:0:
458,293,42417,2,0,L|511:304,1,45,0|0,3:0|0:0,3:0:0:0:
408,218,42620,5,4,3:0:0:0:
408,218,42722,1,0,3:0:0:0:
408,218,42823,2,0,L|419:165,1,45,0|0,3:0|0:0,3:0:0:0:
336,265,43025,5,4,3:0:0:0:
336,265,43127,1,0,3:0:0:0:
336,265,43228,2,0,L|283:254,1,45,0|0,3:0|0:0,3:0:0:0:
386,340,43430,5,4,3:0:0:0:
386,340,43532,1,0,3:0:0:0:
386,340,43634,2,0,L|375:393,1,45,0|0,3:0|0:0,3:0:0:0:
304,119,43837,5,4,3:0:0:0:
304,119,43938,1,0,3:0:0:0:
304,119,44039,2,0,L|357:130,1,45,0|0,3:0|0:0,3:0:0:0:
232,166,44242,5,4,3:0:0:0:
232,166,44343,1,0,3:0:0:0:
232,166,44445,2,0,L|222:210,1,45,0|0,3:0|0:0,3:0:0:0:
182,91,44647,6,0,B|127:85|127:85|106:91|106:91|45:85,1,135.000005149842,2|0,3:0|3:0,0:0:0:0:
14,84,44952,1,0,3:0:0:0:
260,63,45154,5,2,3:0:0:0:
206,0,45255,1,2,3:0:0:0:
341,145,45458,6,0,L|351:283,1,135.000005149842,4|0,0:0|0:0,0:0:0:0:
277,315,46067,1,4,3:0:0:0:
277,315,46269,2,0,P|230:344|130:314,1,135.000005149842,0|0,1:0|0:0,0:0:0:0:
97,274,46877,1,4,3:0:0:0:
20,301,47080,6,0,L|11:376,1,67.5000025749208,4|0,3:0|0:0,0:0:0:0:
97,274,47485,2,0,L|105:206,1,67.5000025749208,0|4,1:0|3:0,0:0:0:0:
137,132,47891,1,0,1:0:0:0:
53,6,48094,2,0,L|104:-1,1,33.7500012874604,8|0,0:0|0:0,0:0:0:0:
130,55,48296,2,0,L|181:48,1,33.7500012874604,8|0,0:0|0:0,0:0:0:0:
218,105,48499,6,0,L|359:90,1,135.000005149842,12|0,0:0|0:0,0:0:0:0:
425,125,49107,2,0,P|437:168|416:208,1,67.5000025749208,0|4,0:0|3:0,0:0:0:0:
327,275,49512,2,0,P|358:243|403:241,1,67.5000025749208,0|0,1:0|0:0,0:0:0:0:
498,270,49817,1,0,0:0:0:0:
506,285,49918,2,0,P|462:273|438:235,1,67.5000025749208,0|4,0:0|3:0,0:0:0:0:
325,353,50323,6,0,L|208:366,2,101.250003862381,4|4|4,3:0|3:0|3:0,0:0:0:0:
401,327,51134,1,0,1:0:0:0:
189,273,51337,1,0,3:0:0:0:
189,273,51438,1,0,3:0:0:0:
189,273,51539,1,0,3:0:0:0:
189,273,51641,1,0,3:0:0:0:
189,273,51742,1,0,3:0:0:0:
119,315,51945,5,4,3:0:0:0:
246,170,52350,2,0,L|176:172,1,67.5000025749208,0|4,0:0|3:0,0:0:0:0:
47,112,52756,2,0,L|117:114,1,67.5000025749208,0|0,1:0|0:0,0:0:0:0:
247,54,53161,2,0,L|177:56,1,67.5000025749208,0|4,0:0|3:0,0:0:0:0:
96,200,53567,6,0,L|89:343,1,135.000005149842,4|0,3:0|0:0,0:0:0:0:
89,334,54174,1,4,3:0:0:0:
206,227,54378,1,0,1:0:0:0:
256,160,54581,1,4,3:0:0:0:
306,227,54783,1,0,0:0:0:0:
422,334,54985,6,0,L|416:200,1,135.000005149842,4|0,0:0|0:0,0:0:0:0:
495,297,55593,6,0,L|490:207,2,67.5000025749208,0|0|4,1:0|0:0|0:3,0:0:0:0:
416,200,56202,1,0,0:0:0:0:
280,151,56404,1,0,1:0:0:0:
360,137,56607,6,0,L|366:2,1,135.000005149842,4|0,0:0|0:0,0:0:0:0:
288,98,57215,6,0,L|292:-1,1,67.5000025749208,0|0,1:0|0:0,0:0:0:0:
360,137,57621,1,4,0:3:0:0:
256,230,57823,1,0,0:0:0:0:
334,251,58026,1,0,1:0:0:0:
186,127,58229,6,0,P|119:115|50:144,1,135.000005149842,4|0,0:0|0:0,0:0:0:0:
57,138,58837,2,0,L|71:216,1,67.5000025749208,0|0,1:0|0:0,0:0:0:0:
123,336,59242,6,0,P|165:342|198:371,1,67.5000025749208,4|0,0:0|0:0,0:0:0:0:
221,261,59546,6,0,P|279:256|329:226,1,90,4|0,0:0|0:0,0:0:0:0:
341,334,59850,6,0,L|422:339,1,56.25,4|0,0:0|0:0,0:0:0:0:
464,341,60053,5,4,0:0:0:0:
48,43,60458,1,2,0:0:0:0:
136,145,60661,1,2,0:0:0:0:
236,54,60864,1,2,0:0:0:0:
146,46,61067,1,2,0:0:0:0:
227,152,61269,1,2,1:2:0:0:
328,62,61472,1,2,0:0:0:0:
432,198,61674,6,0,L|444:324,1,90,4|0,0:0|0:0,0:0:0:0:
338,251,62080,1,0,1:0:0:0:
262,328,62283,2,0,P|210:340|173:317,1,90,0|4,3:0|0:3,0:0:0:0:
36,148,62688,2,0,P|88:136|125:159,1,90,0|0,0:0|1:0,0:0:0:0:
102,271,63093,6,2,B|80:210|80:210|123:144,1,135,2|0,0:1|0:0,0:0:0:0:
163,222,63499,6,2,L|208:359,1,135,2|0,0:1|0:0,0:0:0:0:
205,350,63904,6,2,L|101:356,1,90,2|4,0:1|0:3,0:0:0:0:
306,350,64309,1,2,0:1:0:0:
306,350,64512,2,2,L|396:355,1,90,2|0,1:0|0:0,0:0:0:0:
498,269,64917,6,0,L|520:168,1,90,4|0,0:3|0:0,0:0:0:0:
453,78,65323,1,0,1:0:0:0:
364,140,65526,2,0,P|322:156|291:111,1,90,0|4,3:0|0:3,0:0:0:0:
139,19,65931,2,0,P|99:2|67:30,1,90,0|0,0:0|1:0,0:0:0:0:
274,58,66336,6,2,B|218:68|218:68|197:82|197:82|120:101,1,135,2|0,0:1|0:0,0:0:0:0:
145,94,66742,6,2,B|157:181|157:181|216:195,1,135,2|0,0:1|0:0,0:0:0:0:
280,174,67147,6,2,B|285:220|285:220|250:254,1,90,2|4,0:1|0:3,0:0:0:0:
144,348,67553,1,2,0:1:0:0:
144,348,67756,2,2,B|139:302|139:302|174:268,1,90,2|0,1:0|0:0,0:0:0:0:
294,341,68161,6,0,L|387:358,1,90,4|0,0:3|0:0,0:0:0:0:
466,270,68567,1,0,1:0:0:0:
466,270,68769,2,0,L|377:253,1,90,0|4,3:0|0:3,0:0:0:0:
135,253,69174,2,0,L|46:270,1,90,0|0,0:0|1:0,0:0:0:0:
27,345,69580,6,0,B|37:362|37:362|139:342,1,90,0|4,0:0|0:3,0:0:0:0:
193,327,69985,1,0,0:0:0:0:
256,192,70188,1,0,1:0:0:0:
406,348,70391,2,0,B|475:362|475:362|485:345,1,90,0|4,0:0|0:3,0:0:0:0:
319,327,70796,1,0,0:0:0:0:
466,270,70999,2,0,L|377:253,1,90,0|0,1:0|0:0,0:0:0:0:
340,170,71404,6,0,L|363:49,1,90,4|0,0:3|3:0,0:0:0:0:
378,76,71708,1,0,3:0:0:0:
400,71,71810,1,0,1:0:0:0:
245,62,72012,1,0,3:0:0:0:
267,57,72113,1,0,3:0:0:0:
289,52,72215,1,4,3:0:0:0:
192,3,72418,1,0,0:0:0:0:
103,64,72621,1,0,1:0:0:0:
110,171,72823,1,0,0:0:0:0:
198,108,73026,5,4,0:3:0:0:
153,274,73229,1,2,3:0:0:0:
250,172,73431,1,2,0:3:0:0:
272,256,73634,1,0,0:0:0:0:
376,143,73837,1,4,0:3:0:0:
331,309,74040,1,6,0:3:0:0:
440,203,74242,1,6,0:3:0:0:
462,287,74445,1,4,0:3:0:0:
336,65,74647,6,0,B|439:51,1,90,4|0,0:0|0:0,0:0:0:0:
488,174,75053,1,0,1:0:0:0:
488,174,75256,2,0,B|398:186,1,90,0|4,3:0|0:3,0:0:0:0:
334,249,75661,2,0,P|325:292|330:337,1,90,0|0,0:0|1:0,0:0:0:0:
126,198,76066,6,2,B|144:133|144:133|227:141,1,135,2|0,0:1|0:0,0:0:0:0:
199,211,76472,6,2,L|206:305,1,90,2|0,0:1|1:0,0:0:0:0:
386,186,76877,6,2,B|368:251|368:251|285:243,1,135,2|0,0:1|0:0,0:0:0:0:
313,173,77283,1,2,0:1:0:0:
313,173,77485,2,2,L|306:79,1,90,2|0,1:0|0:0,0:0:0:0:
107,33,77890,6,0,P|62:44|42:90,1,90,4|0,0:3|0:0,0:0:0:0:
78,162,78296,1,0,1:0:0:0:
106,247,78499,2,0,B|144:252|144:252|153:260|153:260|209:265,1,90,0|4,3:0|0:3,0:0:0:0:
406,137,78904,2,0,B|368:132|368:132|359:124|359:124|303:119,1,90,0|0,0:0|1:0,0:0:0:0:
268,195,79309,6,2,B|224:145|224:145|239:78,1,135,2|0,0:1|0:0,0:0:0:0:
174,42,79715,6,2,L|149:143,1,90,2|0,0:1|1:0,0:0:0:0:
254,266,80120,6,2,P|303:260|332:229,1,90,2|4,0:1|0:3,0:0:0:0:
395,86,80526,1,2,0:1:0:0:
395,86,80728,2,2,P|346:92|316:122,1,90,2|4,1:0|0:3,0:0:0:0:
448,225,81134,6,0,L|450:344,1,90,4|0,0:3|0:0,0:0:0:0:
370,357,81539,1,0,1:0:0:0:
370,357,81742,2,0,P|320:354|282:384,1,90,0|4,3:0|0:3,0:0:0:0:
102,300,82148,2,0,P|58:295|20:318,1,90,0|0,0:0|1:0,0:0:0:0:
184,363,82553,1,4,0:3:0:0:
183,363,82756,6,0,P|202:298|192:180,1,180,4|0,0:3|1:0,0:0:0:0:
136,117,83364,2,0,L|32:91,1,90,0|4,0:0|0:3,0:0:0:0:
230,23,83769,1,0,0:0:0:0:
241,43,83871,1,4,0:3:0:0:
254,61,83972,2,0,L|304:51,1,45,4|0,0:3|0:0,0:0:0:0:
364,99,84175,2,0,L|409:76,1,45,4|0,0:3|0:0,0:0:0:0:
485,29,84377,6,0,L|474:186,1,135.000005149842,8|8,3:0|3:0,0:0:0:0:
374,237,84985,1,8,3:0:0:0:
401,356,85188,2,0,B|407:265|407:265|353:220,1,135.000005149842,8|8,3:0|3:0,0:0:0:0:
311,277,85796,1,8,3:0:0:0:
193,335,85999,6,0,P|129:346|109:335,1,67.5000025749208,8|0,3:0|0:0,0:0:0:0:
147,330,86303,2,0,P|83:341|63:330,1,67.5000025749208,8|0,3:0|0:0,0:0:0:0:
101,325,86607,5,8,3:0:0:0:
37,335,86809,1,2,3:0:0:0:
381,344,87215,6,0,L|331:339,1,33.7500012874604,8|0,0:0|3:0,0:0:0:0:
428,340,87417,2,0,L|378:335,1,33.7500012874604,8|0,0:0|3:0,0:0:0:0:
475,336,87620,5,4,3:1:0:0:
87,208,98972,5,4,0:3:0:0:
80,223,99073,1,4,0:3:0:0:
74,238,99174,6,0,L|155:229,1,67.5000025749208,4|0,0:3|0:0,0:0:0:0:
203,359,99377,2,0,P|190:320|193:288,1,67.5000025749208,4|0,0:3|0:0,0:0:0:0:
262,255,99580,2,0,L|329:262,1,67.5000025749208,4|0,0:3|0:0,0:0:0:0:
405,322,99782,6,0,P|404:353|392:389,1,56.25,4|0,0:3|0:0,0:0:0:0:
423,221,99985,2,0,P|423:189|435:153,1,56.25,4|0,0:3|0:0,0:0:0:0:
498,287,100188,1,14,0:3:0:0:
44,121,100593,6,0,B|28:40|28:40|105:18,1,135.000005149842,4|0,0:0|0:0,0:0:0:0:
125,102,100999,6,0,L|141:190,1,90,8|0,0:3|0:0,0:0:0:0:
141,190,101404,1,8,0:3:0:0:
328,314,101607,6,0,B|377:310|377:310|397:316|397:316|440:313,1,112.5,4|8,0:3|0:3,0:0:0:0:
276,381,102012,6,0,B|225:366|225:366|241:285,1,135.000005149842,4|8,0:0|0:3,0:0:0:0:
164,238,102417,6,0,L|142:331,1,90,0|8,0:0|0:3,0:0:0:0:
196,229,102823,1,0,3:0:0:0:
200,206,102925,1,0,3:0:0:0:
203,183,103026,2,0,L|200:126,1,45,8|0,0:3|0:0,0:0:0:0:
297,224,103229,1,4,0:3:0:0:
297,224,103431,2,0,P|364:219|390:228,1,90,8|0,0:3|0:0,0:0:0:0:
469,49,103837,5,4,3:0:0:0:
458,78,103938,1,0,3:0:0:0:
440,104,104039,2,0,P|416:129|391:146,1,45,0|0,3:0|0:0,3:0:0:0:
323,100,104242,5,4,3:0:0:0:
302,109,104343,1,0,3:0:0:0:
280,113,104445,2,0,P|255:113|234:109,1,33.7500012874604,0|0,3:0|0:0,3:0:0:0:
211,41,104647,5,4,3:0:0:0:
195,34,104749,1,0,3:0:0:0:
182,25,104850,2,0,P|169:12|160:0,1,22.5,0|0,3:0|0:0,3:0:0:0:
119,122,105053,5,4,3:0:0:0:
112,106,105154,1,0,3:0:0:0:
103,93,105255,2,0,P|90:80|78:71,1,22.5,0|0,3:0|0:0,3:0:0:0:
178,234,105458,5,4,3:0:0:0:
187,213,105559,1,0,3:0:0:0:
191,191,105661,2,0,P|191:166|187:145,1,33.7500012874604,0|0,3:0|0:0,3:0:0:0:
127,380,105863,5,4,3:0:0:0:
156,369,105965,1,0,3:0:0:0:
182,351,106066,2,0,P|207:327|224:302,1,45,0|0,3:0|0:0,3:0:0:0:
63,210,106269,5,8,0:1:0:0:
25,304,106472,6,2,B|63:306|63:306|85:287|85:287|115:290|115:290|150:256,1,135.000005149842,0|0,0:0|0:0,0:1:0:0:
409,199,107080,6,0,B|389:238|389:238|405:266|405:266|382:339,1,135.000005149842,4|0,0:0|0:0,0:0:0:0:
511,221,107485,6,0,L|490:126,1,90,8|0,3:0|0:0,0:0:0:0:
491,133,107891,1,8,3:0:0:0:
297,37,108093,6,0,B|276:103|276:103|319:135,1,112.5,4|8,0:3|3:0,0:0:0:0:
420,58,108499,6,0,B|381:38|381:38|353:54|353:54|280:31,1,135.000005149842,4|8,0:0|3:0,0:0:0:0:
182,98,108904,6,0,L|209:12,1,90,0|8,0:0|3:0,0:0:0:0:
148,106,109310,1,0,0:0:0:0:
156,136,109411,1,0,0:0:0:0:
166,165,109512,2,0,L|195:222,1,45,8|0,3:0|0:0,0:0:0:0:
85,177,109715,1,4,0:3:0:0:
85,177,109918,2,0,L|125:267,1,90,8|0,3:0|0:0,0:0:0:0:
43,335,110323,5,4,3:0:0:0:
54,306,110424,1,0,3:0:0:0:
72,280,110526,2,0,P|96:255|121:238,1,45,0|0,3:0|0:0,0:0:0:0:
189,284,110728,5,4,3:0:0:0:
210,275,110829,1,0,3:0:0:0:
232,271,110931,2,0,P|256:270|277:274,1,33.7500012874604,0|0,3:0|0:0,0:0:0:0:
301,343,111134,5,4,3:0:0:0:
317,350,111235,1,0,3:0:0:0:
330,359,111337,2,0,P|342:371|351:383,1,22.5,0|0,3:0|0:0,0:0:0:0:
393,262,111539,5,4,3:0:0:0:
400,278,111640,1,0,3:0:0:0:
409,291,111742,2,0,P|421:303|433:312,1,22.5,0|0,3:0|0:0,0:0:0:0:
334,150,111945,5,4,3:0:0:0:
325,171,112046,1,0,3:0:0:0:
321,193,112148,2,0,P|320:217|324:238,1,33.7500012874604,0|0,3:0|0:0,0:0:0:0:
385,4,112350,5,4,3:0:0:0:
356,15,112451,1,0,3:0:0:0:
330,33,112553,2,0,P|305:57|288:82,1,45,0|0,3:0|0:0,0:0:0:0:
449,174,112755,6,0,B|453:259|453:259|394:276,1,135.000005149842,2|0,0:3|3:0,0:0:0:0:
382,274,113059,6,0,P|337:304|326:354,1,90,0|0,3:0|3:0,0:0:0:0:
252,261,113363,6,0,L|158:253,1,56.25,0|0,3:0|3:0,3:0:0:0:
53,195,113566,6,0,B|65:223|93:235|93:235|77:258|77:258|119:300|105:359,1,180,6|0,0:0|0:0,0:0:0:0:
128,163,114377,6,0,B|157:146|157:146|145:26,1,135.000005149842,4|0,0:0|0:0,0:0:0:0:
146,44,114985,1,4,0:3:0:0:
243,142,115188,2,0,L|330:146,1,67.5000025749208,4|0,0:3|0:0,0:0:0:0:
387,69,115594,2,0,L|319:65,1,67.5000025749208,0|4,0:0|0:3,0:0:0:0:
235,261,115999,1,0,1:0:0:0:
124,230,116201,6,0,L|182:224,1,45,8|0,0:0|0:0,0:0:0:0:
306,287,116404,2,0,L|364:281,1,45,8|0,0:0|0:0,0:0:0:0:
418,332,116607,6,0,B|442:309|442:309|428:181,1,135.000005149842,12|0,0:0|0:0,0:0:0:0:
368,167,117215,2,0,L|378:84,1,67.5000025749208,0|4,0:0|0:3,0:0:0:0:
316,44,117621,1,0,1:0:0:0:
252,162,117823,1,0,0:0:0:0:
192,40,118026,6,2,P|136:93|66:73,1,135.000005149842,0|0,0:0|0:0,0:1:0:0:
32,130,118431,6,0,L|42:224,1,67.5000025749208,4|0,0:3|0:0,0:0:0:0:
66,217,118735,2,0,L|56:311,1,67.5000025749208,4|0,0:3|0:0,0:0:0:0:
42,313,119039,1,4,0:3:0:0:
138,345,119242,1,0,1:0:0:0:
374,345,119445,1,0,3:0:0:0:
374,345,119546,1,0,3:0:0:0:
374,345,119648,1,0,3:0:0:0:
374,345,119749,1,0,3:0:0:0:
374,345,119850,1,0,3:0:0:0:
470,313,120053,5,4,0:3:0:0:
458,178,120458,2,0,L|378:192,1,67.5000025749208
331,221,120863,2,0,L|321:247,6,16.8750006437302,6|0|0|0|0|0|0,0:0|3:0|3:0|3:0|3:0|3:0|0:0,0:0:0:0:
331,221,121269,2,0,L|326:298,1,67.5000025749208
185,288,121674,5,0,3:0:0:0:
185,288,121776,1,0,3:0:0:0:
185,288,121877,1,0,3:0:0:0:
185,288,121978,1,0,3:0:0:0:
185,288,122080,2,0,L|175:248,1,33.7500012874604,0|0,3:0|3:0,0:0:0:0:
117,199,122283,2,0,L|107:159,1,33.7500012874604,0|0,3:0|0:0,0:0:0:0:
36,109,122485,6,0,P|73:85|86:49,1,67.5000025749208,4|0,0:0|0:0,0:0:0:0:
167,1,122688,6,0,L|171:62,1,56.25,4|0,0:3|0:0,0:0:0:0:
234,157,122891,1,0,0:0:0:0:
234,157,123093,6,0,P|251:128|389:129,1,180,4|0,0:0|0:0,0:0:0:0:
424,200,123702,2,0,L|429:294,1,90,0|0,1:0|0:0,0:0:0:0:
283,237,124107,1,4,0:3:0:0:
428,289,124310,1,0,0:0:0:0:
381,121,124512,1,0,1:0:0:0:
297,316,124715,6,0,P|280:345|142:344,1,180,4|0,0:0|0:0,0:0:0:0:
83,289,125323,2,0,L|88:200,1,90,0|0,1:0|0:0,0:0:0:0:
150,352,125729,1,4,0:3:0:0:
6,247,125931,1,0,0:0:0:0:
167,165,126134,1,0,1:0:0:0:
61,357,126336,6,0,B|54:384|54:384|78:351|116:337|175:360,1,135.000005149842,4|0,0:0|0:0,0:0:0:0:
225,374,126945,1,0,1:0:0:0:
287,10,127350,6,0,B|383:36|383:36|440:16,1,135.000005149842,4|0,0:0|0:0,0:0:0:0:
390,2,127654,2,0,B|380:35|380:35|415:128,1,135.000005149842,4|0,0:0|0:0,0:0:0:0:
412,283,127958,2,0,B|400:252|400:252|409:218,1,67.5000025749208,4|0,0:0|0:0,0:0:0:0:
500,220,128161,6,0,B|494:132|414:101|337:127|320:201|320:201|311:265|223:267|210:208|210:208|195:157|125:154|109:210|109:210|92:243|60:240|42:228,1,641.250024461747,4|0,0:0|0:0,0:0:0:0:
15,150,130188,6,0,P|41:125|81:135,1,67.5000025749208,2|2,0:0|0:0,0:0:0:0:
193,327,130593,6,0,P|151:341|114:320,1,90,2|2,0:0|0:0,0:0:0:0:
202,86,130999,6,0,P|248:56|299:75,1,112.5,2|2,1:2|0:0,0:0:0:0:
474,299,131404,6,0,P|422:328|347:293,1,135.000005149842,4|0,0:0|0:0,0:0:0:0:
286,245,131810,5,0,1:0:0:0:
212,296,132012,2,0,L|196:389,1,90,0|4,3:0|0:3,0:0:0:0:
42,73,132418,2,0,L|26:161,1,90,0|0,0:0|1:0,0:0:0:0:
72,256,132823,6,2,B|114:252|114:252|140:149,1,135,2|0,0:1|0:0,0:0:0:0:
136,162,133229,6,2,B|158:251|158:251|200:255,1,135,2|0,0:1|0:0,0:0:0:0:
217,184,133634,6,2,B|265:173|265:173|317:198,1,90,2|4,0:1|0:3,0:0:0:0:
432,315,134039,1,2,0:1:0:0:
432,315,134242,2,2,B|383:325|383:325|332:301,1,90,2|0,1:0|0:0,0:0:0:0:
301,190,134648,6,0,P|335:138|376:141,1,90,4|0,0:3|0:0,0:0:0:0:
436,179,135053,1,0,1:0:0:0:
487,104,135256,2,0,L|409:60,1,90,0|4,3:0|0:3,0:0:0:0:
167,82,135661,2,0,L|89:38,1,90,0|0,0:0|1:0,0:0:0:0:
258,16,136066,6,2,B|290:43|290:43|262:161,1,135,2|0,0:1|0:0,0:0:0:0:
227,206,136472,6,2,B|186:207|186:207|161:231|161:231|128:238|128:238|108:266|108:266|58:276,1,180,2|0,0:1|0:0,0:0:0:0:
348,233,137080,6,2,B|383:253|383:253|393:286|393:286|419:308|419:308|422:343|422:343|461:376,1,180,2|0,0:1|0:0,0:0:0:0:
250,360,137688,1,4,0:3:0:0:
250,360,137891,6,0,L|275:268,1,90,4|0,0:0|0:0,0:0:0:0:
273,273,138296,1,0,1:0:0:0:
262,24,138499,2,0,L|237:116,1,90,0|4,3:0|0:3,0:0:0:0:
146,149,138904,2,0,L|58:126,1,90,0|0,0:0|1:0,0:0:0:0:
366,235,139310,6,0,L|453:257,1,90,0|4,0:0|0:3,0:0:0:0:
453,257,139715,1,0,0:0:0:0:
273,273,139918,1,0,1:0:0:0:
197,208,140121,2,0,P|143:198|104:238,1,90,0|4,0:0|0:3,0:0:0:0:
244,369,140526,1,0,0:0:0:0:
244,369,140729,2,0,P|286:381|325:361,1,90,0|0,1:0|0:0,0:0:0:0:
338,172,141134,6,0,L|355:291,1,90,4|0,0:3|3:0,0:0:0:0:
363,280,141438,1,0,3:0:0:0:
375,298,141539,1,0,1:0:0:0:
439,223,141742,1,0,3:0:0:0:
452,242,141844,1,0,3:0:0:0:
464,260,141945,1,4,3:0:0:0:
509,182,142148,1,0,0:0:0:0:
457,108,142350,1,0,1:0:0:0:
366,112,142553,1,0,0:0:0:0:
406,31,142756,5,4,0:3:0:0:
406,31,142958,1,6,0:3:0:0:
311,184,143161,1,6,0:3:0:0:
198,42,143364,1,0,0:0:0:0:
306,39,143566,1,4,0:3:0:0:
208,189,143769,1,6,0:3:0:0:
96,47,143972,1,6,0:3:0:0:
198,42,144175,1,0,0:0:0:0:
50,281,144377,6,0,B|79:298|79:298|111:289,1,67.5,2|0,0:0|0:0,0:0:0:0:
101,216,144782,6,0,P|134:279|205:282,1,135.000005149842,4|0,0:0|3:0,0:0:0:0:
264,233,145188,5,4,0:3:0:0:
264,233,145390,2,0,L|282:352,1,90,0|0,0:0|1:0,0:0:0:0:
360,190,145796,6,2,B|334:107|334:107|380:66,1,135,2|0,0:1|0:0,0:0:0:0:
472,96,146201,6,2,B|495:137|495:137|443:207,1,135,2|0,0:1|0:0,0:0:0:0:
413,131,146607,6,2,L|321:127,1,90,2|4,0:1|0:3,0:0:0:0:
195,254,147012,1,2,0:1:0:0:
195,254,147215,2,2,L|284:257,1,90,2|0,1:0|0:0,0:0:0:0:
458,344,147620,6,0,P|399:320|347:333,1,90,4|0,0:3|0:0,0:0:0:0:
294,364,148026,1,0,1:0:0:0:
207,343,148229,2,0,L|192:233,1,90,0|4,3:0|0:3,0:0:0:0:
51,112,148634,2,0,L|36:2,1,90,0|0,0:0|1:0,0:0:0:0:
46,202,149039,6,2,B|139:186|139:186|165:121,1,135,2|0,0:1|0:0,0:0:0:0:
185,75,149445,6,2,B|199:37|199:37|293:22,1,135,2|0,0:1|0:0,0:0:0:0:
254,107,149850,6,2,L|348:90,1,90,2|4,0:1|0:3,0:0:0:0:
505,168,150256,1,2,0:1:0:0:
505,168,150458,2,2,L|416:184,1,90,2|4,1:0|0:3,0:0:0:0:
368,241,150863,6,0,L|378:380,1,135.000005149842,4|2,0:3|0:0,0:0:0:0:
307,352,151472,2,0,P|241:348|179:380,1,135.000005149842,2|2,0:0|0:0,0:0:0:0:
100,253,152283,1,2,0:0:0:0:
154,312,152485,6,0,P|173:282|138:182,1,135.000005149842,4|4,0:3|0:3,0:0:0:0:
46,194,153093,2,0,P|27:224|62:324,1,135.000005149842,2|4,0:0|0:3,0:0:0:0:
154,312,153702,1,4,0:3:0:0:
177,314,153803,1,4,0:3:0:0:
199,321,153904,2,0,L|223:333,2,16.8750006437302,0|0|0,3:0|3:0|3:0,3:0:0:0:
199,321,154107,6,0,L|214:174,1,135.000005149842,8|8,0:3|0:3,0:0:0:0:
318,136,154715,1,8,0:3:0:0:
304,16,154918,2,0,B|285:99|285:99|325:144,1,135.000005149842,8|8,0:3|0:3,0:0:0:0:
391,127,155526,1,8,0:3:0:0:
429,229,155729,6,0,L|419:299,1,67.5000025749208,8|0,3:0|0:0,0:0:0:0:
440,264,156032,2,0,L|430:334,1,67.5000025749208,8|0,3:0|0:0,0:0:0:0:
451,299,156336,5,8,3:0:0:0:
441,365,156539,1,2,0:3:0:0:
70,366,157350,6,0,P|318:298|370:24,1,566.999982696534,4|0,0:0|0:0,0:0:0:0:
142,23,160593,6,0,P|184:288|441:366,1,566.999982696534,4|0,0:0|0:0,0:0:0:0:
475,272,163634,5,0,3:0:0:0:
491,256,163735,1,0,3:0:0:0:
507,240,163837,2,0,L|403:244,1,90,4|0,0:3|0:0,0:0:0:0:
337,286,164242,2,0,B|315:258|315:258|327:175,1,90,0|0,3:0|3:0,0:0:0:0:
327,126,164546,1,0,3:0:0:0:
327,126,164647,2,0,P|257:127|228:159,1,90,8|0,0:0|0:0,0:0:0:0:
85,314,165256,5,0,3:0:0:0:
65,302,165357,1,0,3:0:0:0:
45,290,165458,2,0,B|83:277|83:277|131:286,1,90,4|0,0:3|3:0,0:0:0:0:
153,293,165762,2,0,B|201:302|201:302|239:289,1,90,0|0,3:0|0:0,0:0:0:0:
259,277,166066,2,0,L|254:328,1,45,0|0,3:0|3:0,0:0:0:0:
349,345,166269,2,0,L|357:233,1,90,8|4,0:0|0:3,0:0:0:0:
133,90,166877,5,0,3:0:0:0:
113,79,166979,1,0,3:0:0:0:
93,67,167080,2,0,B|169:46|169:46|209:65,1,90,4|0,0:3|3:0,0:0:0:0:
192,69,167384,2,0,B|192:80|192:80|143:142,1,90,0|0,3:0|3:0,0:0:0:0:
122,166,167688,1,4,3:0:0:0:
112,344,167891,5,8,0:0:0:0:
87,267,167992,2,0,P|142:269|184:305,1,90,0|0,3:0|3:0,0:0:0:0:
270,384,168398,1,0,3:0:0:0:
270,384,168499,2,0,L|286:317,1,45,0|0,3:0|0:0,0:0:0:0:
332,277,168701,6,0,L|432:250,1,90,4|0,0:3|0:0,0:0:0:0:
455,185,169005,1,4,0:3:0:0:
461,154,169107,2,0,L|417:166,1,45
345,138,169310,1,4,0:3:0:0:
345,138,169512,6,0,P|256:98|199:125,1,135.000005149842,8|4,0:0|0:3,0:0:0:0:
168,150,169817,6,0,B|153:129|153:129|150:52,1,90,0|0,3:0|0:0,0:0:0:0:
83,22,170121,2,0,L|72:75,1,45,0|0,3:0|0:0,0:0:0:0:
47,244,170323,6,0,L|36:297,1,45,4|0,0:0|0:0,0:0:0:0:
115,343,170526,1,0,3:0:0:0:
132,329,170627,1,0,3:0:0:0:
131,351,170729,1,0,3:0:0:0:
148,337,170830,1,0,3:0:0:0:
134,340,170931,2,0,L|123:393,1,45,4|0,0:3|0:0,0:0:0:0:
246,283,171134,1,8,0:0:0:0:
256,363,171336,2,0,B|286:363|308:337|308:337|335:364|335:364|376:333|451:354,1,180,4|0,0:3|0:0,0:0:0:0:
453,238,171945,5,4,3:0:0:0:
430,213,172046,2,0,P|417:171|421:127,1,90,0|4,3:0|0:3,0:0:0:0:
338,121,172350,2,0,P|356:84|388:57,1,45,0|0,3:0|3:0,0:0:0:0:
316,15,172553,2,0,P|355:2|396:5,1,45,4|0,3:0|3:0,0:0:0:0:
128,183,172755,6,0,P|137:75|215:150,1,270,6|0,0:0|0:0,0:0:0:0:
128,183,173566,5,4,0:0:0:0:
0,141,173769,2,0,L|66:130,1,67.5000025749208,2|2,0:0|0:0,0:0:0:0:
204,243,174073,2,0,L|280:231,1,67.5000025749208,2|4,0:0|0:3,0:0:0:0:
377,321,174377,5,8,0:0:0:0:
506,278,174579,2,0,L|430:266,1,67.5000025749208,2|2,0:0|0:0,0:0:0:0:
302,380,174883,2,0,L|226:368,1,67.5000025749208,2|2,0:0|0:0,0:0:0:0:
154,318,175188,6,0,B|138:307|138:307|144:266|144:266|124:268|124:268|124:233|87:194,1,135.000005149842,4|0,0:3|3:0,0:0:0:0:
91,189,175492,1,4,0:3:0:0:
75,161,175594,2,0,L|78:67,1,90,0|4,3:0|0:3,0:0:0:0:
95,44,175898,1,0,3:0:0:0:
114,19,175999,1,8,0:0:0:0:
298,144,176201,5,4,3:0:0:0:
295,175,176303,1,0,3:0:0:0:
346,172,176404,5,0,3:0:0:0:
334,191,176506,1,0,3:0:0:0:
374,217,176607,5,0,3:0:0:0:
362,223,176709,1,0,3:0:0:0:
380,265,176809,5,4,3:0:0:0:
256,192,176911,12,2,179648,0:3:0:0:
256,192,180053,5,6,0:0:0:0:
376,364,180255,2,0,L|331:370,1,45,0|8,3:0|0:0,0:0:0:0:
294,352,180661,2,0,L|249:347,1,45,0|0,3:0|0:0,0:0:0:0:
215,369,181066,2,0,L|170:375,1,45,0|8,3:0|0:0,0:0:0:0:
135,348,181472,1,0,3:0:0:0:
256,271,181675,5,2,0:0:0:0:
62,218,181877,2,0,L|152:232,1,67.5000025749208,0|8,3:0|0:0,0:0:0:0:
194,198,182282,2,0,L|265:190,1,67.5000025749208,0|0,3:0|0:0,0:0:0:0:
321,225,182688,2,0,L|411:239,1,67.5000025749208,0|8,3:0|0:0,0:0:0:0:
449,192,183093,1,0,3:0:0:0:
256,111,183296,5,2,0:0:0:0:
509,55,183499,2,0,L|393:73,1,90,0|8,3:0|0:0,0:0:0:0:
339,28,183904,2,0,L|248:18,1,90,0|0,3:0|0:0,0:0:0:0:
178,63,184309,2,0,L|62:81,1,90,0|8,3:0|0:0,0:0:0:0:
14,21,184715,1,0,3:0:0:0:
98,170,184917,6,0,P|120:215|114:262,1,90,2|2,3:2|0:0,0:0:0:0:
16,376,185323,2,0,B|1:313|1:313|19:296,1,90,10|2,0:0|0:0,0:0:0:0:
185,330,185729,2,2,B|212:361|212:361|241:321|241:321|282:348|282:348|349:341,1,180,2|2,3:0|0:0,0:0:0:0:
486,72,186539,6,0,P|445:137|351:138,1,135.000005149842,4|0,0:0|0:0,0:0:0:0:
312,107,186945,1,0,1:0:0:0:
324,196,187148,2,0,L|337:305,1,90,0|4,3:0|0:3,0:0:0:0:
255,327,187553,2,0,P|202:353|160:328,1,90,0|0,0:0|1:0,0:0:0:0:
0,208,187958,6,0,P|52:181|95:207,1,90,0|4,0:0|0:3,0:0:0:0:
147,249,188364,1,0,0:0:0:0:
199,175,188567,1,0,1:0:0:0:
66,53,188769,2,0,B|89:36|89:36|149:46,1,90,0|4,0:0|0:3,0:0:0:0:
313,175,189175,1,0,0:0:0:0:
446,53,189377,2,0,B|423:36|423:36|362:46,1,90,0|0,1:0|0:0,0:0:0:0:
392,132,189783,6,0,P|409:203|412:252,1,90,4|0,0:3|0:0,0:0:0:0:
303,301,190188,6,0,B|286:332|286:332|245:312|245:312|195:331|149:315,1,135.000005149842,2|0,1:0|0:0,0:0:0:0:
77,249,190594,1,4,0:3:0:0:
192,322,190796,1,0,0:0:0:0:
64,335,190999,1,0,1:0:0:0:
114,147,191201,1,0,0:0:0:0:
228,163,191404,5,4,0:3:0:0:
64,223,191607,1,6,0:3:0:0:
160,73,191810,1,2,1:3:0:0:
188,250,192012,1,0,0:0:0:0:
304,132,192215,1,4,0:3:0:0:
290,221,192417,1,6,0:3:0:0:
386,71,192621,1,6,0:3:0:0:
414,248,192823,1,4,0:3:0:0:
262,346,193026,6,0,L|149:347,1,90,4|0,0:0|0:0,0:0:0:0:
37,226,193431,1,0,1:0:0:0:
37,226,193634,2,0,L|126:225,1,90,0|4,3:0|0:3,0:0:0:0:
262,106,194039,2,0,L|173:105,1,90,0|0,0:0|1:0,0:0:0:0:
96,54,194445,1,0,0:0:0:0:
385,204,194647,6,2,B|421:259|408:344|370:335|325:329|324:292,1,202.500007724762,8|0,0:0|0:0,0:0:0:0:
127,180,195458,6,2,B|91:125|104:40|142:49|187:55|188:92,1,202.500007724762,8|0,0:0|0:0,0:0:0:0:
261,159,196269,6,0,L|244:248,1,90,4|0,0:3|0:0,0:0:0:0:
185,316,196675,1,0,1:0:0:0:
106,273,196877,2,0,P|70:260|-4:277,1,90,0|4,3:0|0:3,0:0:0:0:
330,256,197282,2,0,P|294:243|220:260,1,90,0|0,0:0|1:0,0:0:0:0:
453,327,197688,1,8,0:0:0:0:
453,327,197890,6,2,P|444:242|129:202,1,472.500018024445,4|0,0:3|0:0,0:0:0:0:
211,239,199512,6,0,P|227:169|215:126,1,90,4|0,0:3|0:0,0:0:0:0:
167,81,199918,1,0,1:0:0:0:
99,20,200120,2,0,L|188:5,1,90,0|4,3:0|0:3,0:0:0:0:
324,5,200526,2,0,L|413:20,1,90,0|0,0:0|1:0,0:0:0:0:
446,103,200931,1,0,0:0:0:0:
367,147,201134,6,0,P|336:201|337:243,1,90,4|0,0:3|0:0,0:0:0:0:
393,295,201539,1,0,1:0:0:0:
463,384,201742,2,0,L|359:366,1,90,0|4,0:0|0:3,0:0:0:0:
137,368,202147,2,0,L|49:384,1,90,0|4,0:0|0:3,0:0:0:0:
48,384,202451,1,4,0:3:0:0:
49,384,202553,1,4,0:3:0:0:
256,320,202756,1,4,0:3:0:0:
52,230,204580,6,0,B|60:243|60:243|76:236,1,33.7500012874604,2|0,0:0|0:0,0:0:0:0:
159,147,204782,6,0,B|146:126|146:126|124:138,1,45,2|0,0:0|0:0,0:0:0:0:
197,252,204985,6,0,B|210:274|210:274|236:261,1,56.25,2|0,0:0|0:0,0:0:0:0:
332,114,205188,6,0,B|311:83|311:83|276:104,1,67.5000025749208,2|0,0:0|0:0,0:0:0:0:
365,269,205390,6,0,B|387:302|387:302|419:280,1,78.7500007510185,2|0,0:0|0:0,0:0:0:0:
316,186,205594,6,0,L|304:224,6,39.3750003755093,0|0|0|0|0|0|0,3:0|3:0|3:0|3:0|3:0|3:0|3:0,3:0:0:0:
303,313,205999,6,0,B|255:376|255:376|199:320,1,157.500001502037,2|6,0:0|0:0,0:0:0:0:
