osu file format v14

[General]
AudioFilename: audio.mp3
AudioLeadIn: 0
PreviewTime: 72171
Countdown: 0
SampleSet: Normal
StackLeniency: 0.7
Mode: 1
LetterboxInBreaks: 0
WidescreenStoryboard: 1

[Editor]
Bookmarks: 38914,44400,49885,55371,60857,73200,95142,106114,111600,117085,122571,134914,156857,167828,184285,189771,206228
DistanceSpacing: 0.9
BeatDivisor: 2
GridSize: 32
TimelineZoom: 2.1

[Metadata]
Title:Seraphim On The Ring feat. Hatsune Miku, Kagamine Rin, KAITO
TitleUnicode:リングの熾天使 feat. 初音ミク, 鏡音リン, KAITO
Artist:Mitchie M
ArtistUnicode:Mitchie M
Creator:Player0
Version:Cutie Angels
Source:
Tags:Ring no Shitenshi Japanese Pop JPop J-Pop Electronic VOCALOID バーチャル・ポップスター Virtual Popstar 初音ミク&鏡音リンのプロレス試合曲『リングの熾天使』実況はKAITO Hatsune Miku & Kagamine Rin no Pro Wrestling Shiai Kyoku "Ring no Shitenshi" Jikkyou wa KAITO Match Song Commentary キューティー・エンジェルズ Banger Bonanza 2022 BB2022 Qualifiers Custom Beatmap N5 Muse Dash Storyboarded Two Lane Taiko
BeatmapID:3578082
BeatmapSetID:1749123

[Difficulty]
HPDrainRate:5
CircleSize:5
OverallDifficulty:5
ApproachRate:5
SliderMultiplier:1.4
SliderTickRate:1

[Events]
//Background and Video events
0,0,"ringbg.jpg",0,0
//Break Periods
2,33628,37885
2,184142,188057
//Storyboard Layer 0 (Background)
//Storyboard Layer 1 (Fail)
//Storyboard Layer 2 (Pass)
//Storyboard Layer 3 (Foreground)
//Storyboard Layer 4 (Overlay)
//Storyboard Sound Samples

[TimingPoints]
6000,342.857142857143,4,1,0,100,1,0
6000,-100,4,2,1,100,0,0
6685,-100,4,2,2,100,0,0
7371,-100,4,2,3,100,0,0
8057,-100,4,2,4,100,0,0
8742,-100,4,2,1,100,0,0
9428,-100,4,2,2,100,0,0
10114,-100,4,2,3,100,0,0
10800,-100,4,2,4,100,0,0
11485,-100,4,2,1,100,0,0
11828,-100,4,2,2,100,0,0
12171,-100,4,2,3,100,0,0
12514,-100,4,2,4,100,0,0
12857,-100,4,2,1,100,0,0
13200,-100,4,2,2,100,0,0
13542,-100,4,2,3,100,0,0
13885,-100,4,2,4,100,0,0
14228,-100,4,2,1,100,0,0
14571,-100,4,2,2,100,0,0
14914,-100,4,2,3,100,0,0
15257,-100,4,2,4,100,0,0
15600,-100,4,2,1,100,0,0
15942,-100,4,2,2,100,0,0
16285,-100,4,2,3,100,0,0
16628,-100,4,2,4,100,0,0
16971,-100,4,2,1,100,0,0
17085,-100,4,2,2,100,0,0
17200,-100,4,2,3,100,0,0
17314,-100,4,2,4,100,0,0
17657,-100,4,2,1,100,0,0
17771,-100,4,2,2,100,0,0
17885,-100,4,2,3,100,0,0
18000,-100,4,2,4,100,0,0
18342,-100,4,2,1,100,0,0
18685,-100,4,2,2,100,0,0
19028,-100,4,2,3,100,0,0
19371,-100,4,2,4,100,0,0
19714,-100,4,2,1,100,0,0
19828,-100,4,2,2,100,0,0
19942,-100,4,2,3,100,0,0
20057,-100,4,2,4,100,0,0
20400,-100,4,2,1,100,0,0
20514,-100,4,2,2,100,0,0
20628,-100,4,2,3,100,0,0
20742,-100,4,2,4,100,0,0
21085,-100,4,2,1,100,0,0
21428,-100,4,2,2,100,0,0
21771,-100,4,2,3,100,0,0
22457,-100,4,2,4,100,0,0
22571,-100,4,2,1,100,0,0
22685,-100,4,2,2,100,0,0
22800,-100,4,2,3,100,0,0
23142,-100,4,2,4,100,0,0
23257,-100,4,2,1,100,0,0
23371,-100,4,2,2,100,0,0
23485,-100,4,2,3,100,0,0
23828,-100,4,2,4,100,0,0
24171,-100,4,2,1,100,0,0
24514,-100,4,2,2,100,0,0
24857,-100,4,2,3,100,0,0
25200,-100,4,2,4,100,0,0
25314,-100,4,2,1,100,0,0
25428,-100,4,2,2,100,0,0
25542,-100,4,2,3,100,0,0
25885,-100,4,2,4,100,0,0
26000,-100,4,2,1,100,0,0
26114,-100,4,2,2,100,0,0
26228,-100,4,2,3,100,0,0
26571,-100,4,2,4,100,0,0
26914,-100,4,2,1,100,0,0
27257,-100,4,2,2,100,0,0
27942,-100,4,2,3,100,0,0
28285,-100,4,2,4,100,0,0
28628,-100,4,2,1,100,0,0
28971,-100,4,2,2,100,0,0
29314,-100,4,2,3,100,0,0
29542,-100,4,2,4,100,0,0
29657,-100,4,2,1,100,0,0
29885,-100,4,2,2,100,0,0
30000,-100,4,2,3,100,0,0
30228,-100,4,2,4,100,0,0
30342,-100,4,2,1,100,0,0
30685,-100,4,2,2,100,0,0
31028,-100,4,2,3,100,0,0
31371,-100,4,2,4,100,0,0
31714,-100,4,2,1,100,0,0
32057,-100,4,2,2,100,0,0
32285,-100,4,2,3,100,0,0
32514,-100,4,2,4,100,0,0
32742,-100,4,2,1,100,0,0
32971,-100,4,2,2,100,0,0
33200,-100,4,2,3,100,0,0
33428,-100,4,2,4,100,0,0
39085,-100,4,2,1,100,0,0
39257,-100,4,2,2,100,0,0
39428,-100,4,2,3,100,0,0
39600,-100,4,2,4,100,0,0
39942,-100,4,2,1,100,0,0
40285,-100,4,2,2,100,0,0
40457,-100,4,2,3,100,0,0
40628,-100,4,2,4,100,0,0
40800,-100,4,2,1,100,0,0
41142,-100,4,2,2,100,0,0
41828,-100,4,2,3,100,0,0
42000,-100,4,2,4,100,0,0
42171,-100,4,2,1,100,0,0
42514,-100,4,2,2,100,0,0
42685,-100,4,2,3,100,0,0
43028,-100,4,2,4,100,0,0
43200,-100,4,2,1,100,0,0
43371,-100,4,2,2,100,0,0
43542,-100,4,2,3,100,0,0
43885,-100,4,2,4,100,0,0
44400,-100,4,2,1,100,0,0
44742,-100,4,2,2,100,0,0
45085,-100,4,2,3,100,0,0
45428,-100,4,2,4,100,0,0
45771,-100,4,2,1,100,0,0
46114,-100,4,2,2,100,0,0
46285,-100,4,2,3,100,0,0
46628,-100,4,2,4,100,0,0
47142,-100,4,2,1,100,0,0
47485,-100,4,2,2,100,0,0
47657,-100,4,2,3,100,0,0
47828,-100,4,2,4,100,0,0
48000,-100,4,2,1,100,0,0
48342,-100,4,2,2,100,0,0
48685,-100,4,2,3,100,0,0
49028,-100,4,2,4,100,0,0
49200,-100,4,2,1,100,0,0
49371,-100,4,2,2,100,0,0
49714,-100,4,2,3,100,0,0
50057,-100,4,2,4,100,0,0
50228,-100,4,2,1,100,0,0
50400,-100,4,2,2,100,0,0
50571,-100,4,2,3,100,0,0
50914,-100,4,2,4,100,0,0
51257,-100,4,2,1,100,0,0
51428,-100,4,2,2,100,0,0
51600,-100,4,2,3,100,0,0
51771,-100,4,2,4,100,0,0
52114,-100,4,2,1,100,0,0
52800,-100,4,2,2,100,0,0
52971,-100,4,2,3,100,0,0
53142,-100,4,2,4,100,0,0
53314,-100,4,2,1,100,0,0
53657,-100,4,2,2,100,0,0
54000,-100,4,2,3,100,0,0
54171,-100,4,2,4,100,0,0
54342,-100,4,2,1,100,0,0
54514,-100,4,2,2,100,0,0
54857,-100,4,2,3,100,0,0
55371,-100,4,2,4,100,0,0
55714,-100,4,2,1,100,0,0
56057,-100,4,2,2,100,0,0
56400,-100,4,2,3,100,0,0
56742,-100,4,2,4,100,0,0
57085,-100,4,2,1,100,0,0
57257,-100,4,2,2,100,0,0
57600,-100,4,2,3,100,0,0
58114,-100,4,2,4,100,0,0
58457,-100,4,2,1,100,0,0
58628,-100,4,2,2,100,0,0
58800,-100,4,2,3,100,0,0
58971,-100,4,2,4,100,0,0
59314,-100,4,2,1,100,0,0
59657,-100,4,2,2,100,0,0
60857,-100,4,2,3,100,0,0
61371,-100,4,2,4,100,0,0
61714,-100,4,2,1,100,0,0
61885,-100,4,2,2,100,0,0
62057,-100,4,2,3,100,0,0
62228,-100,4,2,4,100,0,0
62571,-100,4,2,1,100,0,0
62742,-100,4,2,2,100,0,0
63085,-100,4,2,3,100,0,0
63600,-100,4,2,4,100,0,0
64114,-100,4,2,1,100,0,0
64457,-100,4,2,2,100,0,0
64628,-100,4,2,3,100,0,0
64800,-100,4,2,4,100,0,0
64971,-100,4,2,1,100,0,0
65314,-100,4,2,2,100,0,0
65485,-100,4,2,3,100,0,0
65828,-100,4,2,4,100,0,0
66342,-100,4,2,1,100,0,0
66685,-100,4,2,2,100,0,0
66857,-100,4,2,3,100,0,0
67200,-100,4,2,4,100,0,0
67371,-100,4,2,1,100,0,0
67714,-100,4,2,2,100,0,0
68057,-100,4,2,3,100,0,0
68228,-100,4,2,4,100,0,0
68571,-100,4,2,1,100,0,0
68742,-100,4,2,2,100,0,0
69085,-100,4,2,3,100,0,0
69428,-100,4,2,4,100,0,0
69771,-100,4,2,1,100,0,0
69942,-100,4,2,2,100,0,0
70114,-100,4,2,3,100,0,0
70285,-100,4,2,4,100,0,0
70628,-100,4,2,1,100,0,0
70800,-100,4,2,2,100,0,0
71142,-100,4,2,3,100,0,0
71485,-100,4,2,4,100,0,0
71828,-100,4,2,1,100,0,0
72171,-100,4,2,2,100,0,0
72514,-100,4,2,3,100,0,0
72685,-100,4,2,4,100,0,0
72857,-100,4,2,1,100,0,0
73028,-100,4,2,2,100,0,0
73371,-100,4,2,3,100,0,0
73542,-100,4,2,4,100,0,0
73714,-100,4,2,1,100,0,0
74057,-100,4,2,2,100,0,0
74228,-100,4,2,3,100,0,0
74400,-100,4,2,4,100,0,0
74742,-100,4,2,1,100,0,0
74914,-100,4,2,2,100,0,0
75085,-100,4,2,3,100,0,0
75428,-100,4,2,4,100,0,0
75600,-100,4,2,1,100,0,0
75942,-100,4,2,2,100,0,0
76285,-100,4,2,3,100,0,0
76457,-100,4,2,4,100,0,0
76800,-100,4,2,1,100,0,0
77142,-100,4,2,2,100,0,0
77485,-100,4,2,3,100,0,0
77657,-100,4,2,4,100,0,0
78000,-100,4,2,1,100,0,0
78085,-100,4,2,2,100,0,0
78171,-100,4,2,3,100,0,0
78342,-100,4,2,4,100,0,0
78514,-100,4,2,1,100,0,0
78857,-100,4,2,2,100,0,0
79028,-100,4,2,3,100,0,0
79200,-100,4,2,4,100,0,0
79542,-100,4,2,1,100,0,0
79714,-100,4,2,2,100,0,0
79885,-100,4,2,3,100,0,0
80228,-100,4,2,4,100,0,0
80400,-100,4,2,1,100,0,0
80571,-100,4,2,2,100,0,0
80914,-100,4,2,3,100,0,0
81085,-100,4,2,4,100,0,0
81257,-100,4,2,1,100,0,0
81428,-100,4,2,2,100,0,0
81771,-100,4,2,3,100,0,0
82114,-100,4,2,4,100,0,0
82285,-100,4,2,1,100,0,0
82628,-100,4,2,2,100,0,0
83142,-100,4,2,3,100,0,0
83485,-100,4,2,4,100,0,0
83657,-100,4,2,1,100,0,0
83828,-100,4,2,2,100,0,0
84000,-100,4,2,3,100,0,0
84342,-100,4,2,4,100,0,0
84514,-100,4,2,1,100,0,0
84685,-100,4,2,2,100,0,0
85028,-100,4,2,3,100,0,0
85200,-100,4,2,4,100,0,0
85371,-100,4,2,1,100,0,0
85714,-100,4,2,2,100,0,0
85885,-100,4,2,3,100,0,0
86057,-100,4,2,4,100,0,0
86400,-100,4,2,1,100,0,0
86571,-100,4,2,2,100,0,0
86914,-100,4,2,3,100,0,0
87257,-100,4,2,4,100,0,0
87428,-100,4,2,1,100,0,0
87771,-100,4,2,2,100,0,0
88114,-100,4,2,3,100,0,0
88457,-100,4,2,4,100,0,0
88628,-100,4,2,1,100,0,0
88971,-100,4,2,2,100,0,0
89057,-100,4,2,3,100,0,0
89142,-100,4,2,4,100,0,0
89314,-100,4,2,1,100,0,0
89657,-100,4,2,2,100,0,0
89828,-100,4,2,3,100,0,0
90000,-100,4,2,4,100,0,0
90342,-100,4,2,1,100,0,0
90514,-100,4,2,2,100,0,0
90685,-100,4,2,3,100,0,0
91028,-100,4,2,4,100,0,0
91200,-100,4,2,1,100,0,0
91371,-100,4,2,2,100,0,0
91714,-100,4,2,3,100,0,0
91885,-100,4,2,4,100,0,0
92057,-100,4,2,1,100,0,0
92400,-100,4,2,2,100,0,0
92914,-100,4,2,3,100,0,0
93257,-100,4,2,4,100,0,0
93428,-100,4,2,1,100,0,0
93600,-100,4,2,2,100,0,0
93771,-100,4,2,3,100,0,0
94285,-100,4,2,4,100,0,0
94371,-100,4,2,1,100,0,0
94457,-100,4,2,2,100,0,0
94628,-100,4,2,3,100,0,0
94800,-100,4,2,4,100,0,0
95142,-100,4,2,1,100,0,0
99257,-100,4,2,2,100,0,0
100971,-100,4,2,3,100,0,0
101314,-100,4,2,4,100,0,0
101657,-100,4,2,1,100,0,0
102000,-100,4,2,2,100,0,0
102514,-100,4,2,3,100,0,0
102857,-100,4,2,4,100,0,0
103028,-100,4,2,1,100,0,0
103200,-100,4,2,2,100,0,0
103542,-100,4,2,3,100,0,0
103714,-100,4,2,4,100,0,0
103885,-100,4,2,1,100,0,0
104057,-100,4,2,2,100,0,0
104400,-100,4,2,3,100,0,0
104742,-100,4,2,4,100,0,0
104914,-100,4,2,1,100,0,0
105085,-100,4,2,2,100,0,0
105257,-100,4,2,3,100,0,0
105600,-100,4,2,4,100,0,0
106114,-100,4,2,1,100,0,0
106457,-100,4,2,2,100,0,0
106800,-100,4,2,3,100,0,0
107142,-100,4,2,4,100,0,0
107485,-100,4,2,1,100,0,0
107828,-100,4,2,2,100,0,0
108000,-100,4,2,3,100,0,0
108342,-100,4,2,4,100,0,0
108857,-100,4,2,1,100,0,0
109200,-100,4,2,2,100,0,0
109371,-100,4,2,3,100,0,0
109542,-100,4,2,4,100,0,0
109714,-100,4,2,1,100,0,0
110057,-100,4,2,2,100,0,0
110400,-100,4,2,3,100,0,0
110742,-100,4,2,4,100,0,0
110914,-100,4,2,1,100,0,0
111085,-100,4,2,2,100,0,0
111428,-100,4,2,3,100,0,0
111771,-100,4,2,4,100,0,0
111942,-100,4,2,1,100,0,0
112114,-100,4,2,2,100,0,0
112285,-100,4,2,3,100,0,0
112628,-100,4,2,4,100,0,0
112971,-100,4,2,1,100,0,0
113142,-100,4,2,2,100,0,0
113314,-100,4,2,3,100,0,0
113485,-100,4,2,4,100,0,0
113828,-100,4,2,1,100,0,0
114514,-100,4,2,2,100,0,0
114685,-100,4,2,3,100,0,0
114857,-100,4,2,4,100,0,0
115028,-100,4,2,1,100,0,0
115371,-100,4,2,2,100,0,0
115714,-100,4,2,3,100,0,0
115885,-100,4,2,4,100,0,0
116057,-100,4,2,1,100,0,0
116228,-100,4,2,2,100,0,0
116571,-100,4,2,3,100,0,0
117085,-100,4,2,4,100,0,0
117428,-100,4,2,1,100,0,0
117771,-100,4,2,2,100,0,0
118114,-100,4,2,3,100,0,0
118457,-100,4,2,4,100,0,0
118800,-100,4,2,1,100,0,0
118971,-100,4,2,2,100,0,0
119314,-100,4,2,3,100,0,0
119828,-100,4,2,4,100,0,0
120171,-100,4,2,1,100,0,0
120342,-100,4,2,2,100,0,0
120514,-100,4,2,3,100,0,0
120685,-100,4,2,4,100,0,0
121028,-100,4,2,1,100,0,0
121371,-100,4,2,2,100,0,0
122571,-100,4,2,3,100,0,0
123085,-100,4,2,4,100,0,0
123428,-100,4,2,1,100,0,0
123600,-100,4,2,2,100,0,0
123771,-100,4,2,3,100,0,0
123942,-100,4,2,4,100,0,0
124285,-100,4,2,1,100,0,0
124457,-100,4,2,2,100,0,0
124800,-100,4,2,3,100,0,0
125314,-100,4,2,4,100,0,0
125828,-100,4,2,1,100,0,0
126171,-100,4,2,2,100,0,0
126342,-100,4,2,3,100,0,0
126514,-100,4,2,4,100,0,0
126685,-100,4,2,1,100,0,0
127028,-100,4,2,2,100,0,0
127200,-100,4,2,3,100,0,0
127542,-100,4,2,4,100,0,0
128057,-100,4,2,1,100,0,0
128400,-100,4,2,2,100,0,0
128571,-100,4,2,3,100,0,0
128914,-100,4,2,4,100,0,0
129085,-100,4,2,1,100,0,0
129428,-100,4,2,2,100,0,0
129771,-100,4,2,3,100,0,0
129942,-100,4,2,4,100,0,0
130285,-100,4,2,1,100,0,0
130457,-100,4,2,2,100,0,0
130800,-100,4,2,3,100,0,0
131142,-100,4,2,4,100,0,0
131485,-100,4,2,1,100,0,0
131657,-100,4,2,2,100,0,0
131828,-100,4,2,3,100,0,0
132000,-100,4,2,4,100,0,0
132342,-100,4,2,1,100,0,0
132514,-100,4,2,2,100,0,0
132857,-100,4,2,3,100,0,0
133200,-100,4,2,4,100,0,0
133542,-100,4,2,1,100,0,0
133885,-100,4,2,2,100,0,0
134228,-100,4,2,3,100,0,0
134400,-100,4,2,4,100,0,0
134571,-100,4,2,1,100,0,0
134742,-100,4,2,2,100,0,0
135085,-100,4,2,3,100,0,0
135257,-100,4,2,4,100,0,0
135428,-100,4,2,1,100,0,0
135771,-100,4,2,2,100,0,0
135942,-100,4,2,3,100,0,0
136114,-100,4,2,4,100,0,0
136457,-100,4,2,1,100,0,0
136628,-100,4,2,2,100,0,0
136800,-100,4,2,3,100,0,0
137142,-100,4,2,4,100,0,0
137314,-100,4,2,1,100,0,0
137657,-100,4,2,2,100,0,0
138000,-100,4,2,3,100,0,0
138171,-100,4,2,4,100,0,0
138514,-100,4,2,1,100,0,0
138857,-100,4,2,2,100,0,0
139200,-100,4,2,3,100,0,0
139371,-100,4,2,4,100,0,0
139714,-100,4,2,1,100,0,0
139800,-100,4,2,2,100,0,0
139885,-100,4,2,3,100,0,0
140057,-100,4,2,4,100,0,0
140228,-100,4,2,1,100,0,0
140571,-100,4,2,2,100,0,0
140742,-100,4,2,3,100,0,0
140914,-100,4,2,4,100,0,0
141257,-100,4,2,1,100,0,0
141428,-100,4,2,2,100,0,0
141600,-100,4,2,3,100,0,0
141942,-100,4,2,4,100,0,0
142114,-100,4,2,1,100,0,0
142285,-100,4,2,2,100,0,0
142628,-100,4,2,3,100,0,0
142800,-100,4,2,4,100,0,0
142971,-100,4,2,1,100,0,0
143142,-100,4,2,2,100,0,0
143485,-100,4,2,3,100,0,0
143828,-100,4,2,4,100,0,0
144000,-100,4,2,1,100,0,0
144342,-100,4,2,2,100,0,0
144857,-100,4,2,3,100,0,0
145028,-100,4,2,4,100,0,0
145114,-100,4,2,1,100,0,0
145200,-100,4,2,2,100,0,0
145371,-100,4,2,3,100,0,0
145542,-100,4,2,4,100,0,0
145714,-100,4,2,1,100,0,0
146057,-100,4,2,2,100,0,0
146228,-100,4,2,3,100,0,0
146400,-100,4,2,4,100,0,0
146742,-100,4,2,1,100,0,0
146914,-100,4,2,2,100,0,0
147085,-100,4,2,3,100,0,0
147428,-100,4,2,4,100,0,0
147600,-100,4,2,1,100,0,0
147771,-100,4,2,2,100,0,0
148114,-100,4,2,3,100,0,0
148285,-100,4,2,4,100,0,0
148628,-100,4,2,1,100,0,0
148971,-100,4,2,2,100,0,0
149142,-100,4,2,3,100,0,0
149485,-100,4,2,4,100,0,0
149828,-100,4,2,1,100,0,0
150685,-100,4,2,2,100,0,0
151028,-100,4,2,3,100,0,0
151371,-100,4,2,4,100,0,0
151542,-100,4,2,1,100,0,0
151714,-100,4,2,2,100,0,0
152057,-100,4,2,3,100,0,0
152228,-100,4,2,4,100,0,0
152400,-100,4,2,1,100,0,0
152742,-100,4,2,2,100,0,0
152914,-100,4,2,3,100,0,0
153085,-100,4,2,4,100,0,0
153428,-100,4,2,1,100,0,0
153600,-100,4,2,2,100,0,0
153771,-100,4,2,3,100,0,0
154114,-100,4,2,4,100,0,0
154628,-100,4,2,1,100,0,0
154971,-100,4,2,2,100,0,0
155142,-100,4,2,3,100,0,0
155314,-100,4,2,4,100,0,0
155485,-100,4,2,1,100,0,0
156000,-100,4,2,2,100,0,0
156085,-100,4,2,3,100,0,0
156171,-100,4,2,4,100,0,0
156342,-100,4,2,1,100,0,0
156514,-100,4,2,2,100,0,0
156857,-100,4,2,3,100,0,0
159600,-100,4,2,4,100,0,0
160114,-100,4,2,1,100,0,0
160285,-100,4,2,2,100,0,0
160628,-100,4,2,3,100,0,0
160971,-100,4,2,4,100,0,0
161485,-100,4,2,1,100,0,0
161657,-100,4,2,2,100,0,0
162000,-100,4,2,3,100,0,0
162342,-100,4,2,4,100,0,0
162857,-100,4,2,1,100,0,0
163028,-100,4,2,2,100,0,0
163371,-100,4,2,3,100,0,0
163714,-100,4,2,4,100,0,0
164057,-100,4,2,1,100,0,0
164400,-100,4,2,2,100,0,0
164742,-100,4,2,3,100,0,0
164914,-100,4,2,4,100,0,0
165085,-100,4,2,1,100,0,0
166800,-100,4,2,2,100,0,0
167828,-100,4,2,3,100,0,0
168342,-100,4,2,4,100,0,0
168514,-100,4,2,1,100,0,0
168685,-100,4,2,2,100,0,0
168857,-100,4,2,3,100,0,0
169028,-100,4,2,4,100,0,0
169200,-100,4,2,1,100,0,0
169714,-100,4,2,2,100,0,0
169885,-100,4,2,3,100,0,0
170057,-100,4,2,4,100,0,0
170228,-100,4,2,1,100,0,0
170400,-100,4,2,2,100,0,0
170571,-100,4,2,3,100,0,0
171085,-100,4,2,4,100,0,0
171257,-100,4,2,1,100,0,0
171428,-100,4,2,2,100,0,0
171600,-100,4,2,3,100,0,0
171771,-100,4,2,4,100,0,0
171942,-100,4,2,1,100,0,0
172457,-100,4,2,2,100,0,0
172971,-100,4,2,3,100,0,0
173314,-100,4,2,4,100,0,0
173828,-100,4,2,1,100,0,0
174000,-100,4,2,2,100,0,0
174171,-100,4,2,3,100,0,0
174342,-100,4,2,4,100,0,0
174514,-100,4,2,1,100,0,0
174685,-100,4,2,2,100,0,0
175200,-100,4,2,3,100,0,0
175371,-100,4,2,4,100,0,0
175542,-100,4,2,1,100,0,0
175714,-100,4,2,2,100,0,0
175885,-100,4,2,3,100,0,0
176057,-100,4,2,4,100,0,0
176571,-100,4,2,1,100,0,0
176742,-100,4,2,2,100,0,0
176914,-100,4,2,3,100,0,0
177085,-100,4,2,4,100,0,0
177257,-100,4,2,1,100,0,0
177428,-100,4,2,2,100,0,0
177942,-100,4,2,3,100,0,0
178114,-100,4,2,4,100,0,0
178200,-100,4,2,1,100,0,0
178285,-100,4,2,2,100,0,0
178457,-100,4,2,3,100,0,0
178628,-100,4,2,4,100,0,0
178800,-100,4,2,1,100,0,0
179314,-100,4,2,2,100,0,0
179485,-100,4,2,3,100,0,0
179657,-100,4,2,4,100,0,0
179828,-100,4,2,1,100,0,0
180000,-100,4,2,2,100,0,0
180171,-100,4,2,3,100,0,0
180685,-100,4,2,4,100,0,0
180857,-100,4,2,1,100,0,0
181028,-100,4,2,2,100,0,0
181200,-100,4,2,3,100,0,0
181371,-100,4,2,4,100,0,0
181542,-100,4,2,1,100,0,0
182057,-100,4,2,2,100,0,0
182228,-100,4,2,3,100,0,0
182400,-100,4,2,4,100,0,0
182571,-100,4,2,1,100,0,0
182742,-100,4,2,2,100,0,0
182914,-100,4,2,3,100,0,0
183428,-100,4,2,4,100,0,0
183942,-100,4,2,1,100,0,0
189257,-100,4,2,2,100,0,0
189342,-100,4,2,3,100,0,0
189428,-100,4,2,4,100,0,0
189600,-100,4,2,1,100,0,0
189942,-100,4,2,2,100,0,0
190114,-100,4,2,3,100,0,0
190285,-100,4,2,4,100,0,0
190628,-100,4,2,1,100,0,0
190800,-100,4,2,2,100,0,0
190971,-100,4,2,3,100,0,0
191314,-100,4,2,4,100,0,0
191485,-100,4,2,1,100,0,0
191657,-100,4,2,2,100,0,0
192000,-100,4,2,3,100,0,0
192171,-100,4,2,4,100,0,0
192342,-100,4,2,1,100,0,0
192514,-100,4,2,2,100,0,0
192857,-100,4,2,3,100,0,0
193200,-100,4,2,4,100,0,0
193371,-100,4,2,1,100,0,0
193714,-100,4,2,2,100,0,0
194228,-100,4,2,3,100,0,0
194571,-100,4,2,4,100,0,0
194742,-100,4,2,1,100,0,0
194914,-100,4,2,2,100,0,0
195085,-100,4,2,3,100,0,0
195428,-100,4,2,4,100,0,0
195600,-100,4,2,1,100,0,0
195771,-100,4,2,2,100,0,0
196114,-100,4,2,3,100,0,0
196285,-100,4,2,4,100,0,0
196457,-100,4,2,1,100,0,0
196800,-100,4,2,2,100,0,0
196971,-100,4,2,3,100,0,0
197142,-100,4,2,4,100,0,0
197485,-100,4,2,1,100,0,0
197657,-100,4,2,2,100,0,0
198000,-100,4,2,3,100,0,0
198342,-100,4,2,4,100,0,0
198514,-100,4,2,1,100,0,0
198857,-100,4,2,2,100,0,0
199200,-100,4,2,3,100,0,0
199542,-100,4,2,4,100,0,0
199714,-100,4,2,1,100,0,0
200057,-100,4,2,2,100,0,0
200142,-100,4,2,3,100,0,0
200228,-100,4,2,4,100,0,0
200400,-100,4,2,1,100,0,0
200742,-100,4,2,2,100,0,0
201085,-100,4,2,3,100,0,0
201257,-100,4,2,4,100,0,0
201428,-100,4,2,1,100,0,0
201600,-100,4,2,2,100,0,0
201771,-100,4,2,3,100,0,0
202114,-100,4,2,4,100,0,0
202457,-100,4,2,1,100,0,0
202628,-100,4,2,2,100,0,0
202800,-100,4,2,3,100,0,0
202971,-100,4,2,4,100,0,0
203142,-100,4,2,1,100,0,0
203485,-100,4,2,2,100,0,0
204000,-100,4,2,3,100,0,0
204342,-100,4,2,4,100,0,0
204514,-100,4,2,1,100,0,0
204685,-100,4,2,2,100,0,0
204857,-100,4,2,3,100,0,0
205371,-100,4,2,4,100,0,0
205457,-100,4,2,1,100,0,0
205542,-100,4,2,2,100,0,0
205714,-100,4,2,3,100,0,0
205885,-100,4,2,4,100,0,0
206228,-100,4,2,1,100,0,0
206571,-100,4,2,2,100,0,0
207085,-100,4,2,3,100,0,0
207257,-100,4,2,4,100,0,0
207600,-100,4,2,1,100,0,0
207942,-100,4,2,2,100,0,0
208457,-100,4,2,3,100,0,0
208628,-100,4,2,4,100,0,0
208971,-100,4,2,1,100,0,0
209314,-100,4,2,2,100,0,0
209828,-100,4,2,3,100,0,0
210000,-100,4,2,4,100,0,0
210342,-100,4,2,1,100,0,0
210685,-100,4,2,2,100,0,0
211200,-100,4,2,3,100,0,0
211285,-100,4,2,4,100,0,0
211371,-100,4,2,1,100,0,0
211542,-100,4,2,2,100,0,0
211714,-100,4,2,3,100,0,0
212057,-100,4,2,4,100,0,0
212228,-100,4,2,1,100,0,0
212400,-100,4,2,2,100,0,0
212742,-100,4,2,3,100,0,0
213085,-100,4,2,4,100,0,0
213428,-100,4,2,1,100,0,0
213600,-100,4,2,2,100,0,0
213771,-100,4,2,3,100,0,0
214114,-100,4,2,4,100,0,0
214457,-100,4,2,1,100,0,0
214800,-100,4,2,2,100,0,0
214971,-100,4,2,3,100,0,0
215142,-100,4,2,4,100,0,0
215485,-100,4,2,1,100,0,0
215828,-100,4,2,2,100,0,0
216171,-100,4,2,3,100,0,0
216514,-100,4,2,4,100,0,0
216685,-100,4,2,1,100,0,0

[HitObjects]
218,179,5999,5,0,0:0:0:0:
218,179,6685,1,0,0:0:0:0:
218,179,7371,1,0,0:0:0:0:
218,179,8057,1,0,0:0:0:0:
218,179,8742,1,0,0:0:0:0:
218,179,9428,1,0,0:0:0:0:
218,179,10114,1,0,0:0:0:0:
218,179,10800,1,0,0:0:0:0:
218,179,11485,1,0,0:0:0:0:
226,258,11828,1,0,0:0:0:0:
200,152,12171,1,0,0:0:0:0:
226,258,12514,1,0,0:0:0:0:
200,152,12857,1,0,0:0:0:0:
226,258,13200,1,0,0:0:0:0:
200,152,13542,1,0,0:0:0:0:
186,208,13885,1,0,0:0:0:0:
200,152,14228,1,0,0:0:0:0:
186,208,14571,1,0,0:0:0:0:
200,152,14914,1,0,0:0:0:0:
186,208,15257,1,0,0:0:0:0:
200,152,15600,1,0,0:0:0:0:
186,208,15942,1,0,0:0:0:0:
200,152,16285,1,0,0:0:0:0:
200,152,16628,1,0,0:0:0:0:
353,172,16971,5,8,0:0:0:0:
353,172,17085,1,8,0:0:0:0:
353,172,17200,1,8,0:0:0:0:
353,172,17314,1,8,0:0:0:0:
353,172,17657,1,8,0:0:0:0:
353,172,17771,1,8,0:0:0:0:
353,172,17885,1,8,0:0:0:0:
353,172,18000,1,8,0:0:0:0:
327,155,18342,1,0,0:0:0:0:
327,155,18685,1,0,0:0:0:0:
327,155,19028,1,0,0:0:0:0:
327,155,19371,1,0,0:0:0:0:
245,151,19714,1,8,0:0:0:0:
245,151,19828,1,8,0:0:0:0:
245,151,19942,1,8,0:0:0:0:
245,151,20057,1,8,0:0:0:0:
245,151,20400,1,8,0:0:0:0:
245,151,20514,1,8,0:0:0:0:
245,151,20628,1,8,0:0:0:0:
245,151,20742,1,8,0:0:0:0:
313,158,21085,1,0,0:0:0:0:
313,158,21428,1,0,0:0:0:0:
313,158,21771,1,8,0:0:0:0:
353,172,22457,5,8,0:0:0:0:
353,172,22571,1,8,0:0:0:0:
353,172,22685,1,8,0:0:0:0:
353,172,22800,1,8,0:0:0:0:
353,172,23142,1,8,0:0:0:0:
353,172,23257,1,8,0:0:0:0:
353,172,23371,1,8,0:0:0:0:
353,172,23485,1,8,0:0:0:0:
327,155,23828,1,0,0:0:0:0:
327,155,24171,1,0,0:0:0:0:
327,155,24514,1,0,0:0:0:0:
327,155,24857,1,0,0:0:0:0:
245,151,25200,1,8,0:0:0:0:
245,151,25314,1,8,0:0:0:0:
245,151,25428,1,8,0:0:0:0:
245,151,25542,1,8,0:0:0:0:
245,151,25885,1,8,0:0:0:0:
245,151,26000,1,8,0:0:0:0:
245,151,26114,1,8,0:0:0:0:
245,151,26228,1,8,0:0:0:0:
313,158,26571,1,0,0:0:0:0:
313,158,26914,1,0,0:0:0:0:
313,158,27257,1,8,0:0:0:0:
148,241,27942,1,8,0:0:0:0:
148,241,28285,1,8,0:0:0:0:
148,241,28628,1,8,0:0:0:0:
148,241,28971,1,8,0:0:0:0:
148,241,29314,1,0,0:0:0:0:
148,241,29542,1,0,0:0:0:0:
144,244,29657,1,0,0:0:0:0:
143,245,29885,1,0,0:0:0:0:
143,245,30000,1,0,0:0:0:0:
143,245,30228,1,0,0:0:0:0:
142,246,30342,1,0,0:0:0:0:
223,157,30685,1,8,0:0:0:0:
223,157,31028,1,8,0:0:0:0:
223,157,31371,1,8,0:0:0:0:
223,157,31714,1,8,0:0:0:0:
173,158,32057,1,0,0:0:0:0:
173,158,32285,1,0,0:0:0:0:
173,158,32514,1,0,0:0:0:0:
173,158,32742,1,0,0:0:0:0:
173,158,32971,1,0,0:0:0:0:
173,158,33200,1,0,0:0:0:0:
186,166,33428,1,8,0:0:0:0:
189,157,39085,5,0,0:0:0:0:
217,194,39257,5,8,0:0:0:0:
176,145,39428,1,8,0:0:0:0:
217,194,39600,1,8,0:0:0:0:
217,194,39942,1,0,0:0:0:0:
176,145,40285,1,8,0:0:0:0:
176,145,40457,1,8,0:0:0:0:
146,159,40628,1,8,0:0:0:0:
146,159,40800,1,0,0:0:0:0:
236,209,41142,1,8,0:0:0:0:
132,239,41828,1,8,0:0:0:0:
132,239,42000,1,8,0:0:0:0:
132,239,42171,1,8,0:0:0:0:
132,239,42514,1,0,0:0:0:0:
132,239,42685,1,0,0:0:0:0:
147,158,43028,1,8,0:0:0:0:
147,158,43200,1,0,0:0:0:0:
147,158,43371,1,0,0:0:0:0:
147,158,43542,1,0,0:0:0:0:
147,158,43885,1,8,0:0:0:0:
147,158,44400,1,0,0:0:0:0:
147,158,44742,1,0,0:0:0:0:
147,158,45085,1,8,0:0:0:0:
147,158,45428,1,8,0:0:0:0:
147,158,45771,1,0,0:0:0:0:
116,177,46114,1,8,0:0:0:0:
147,158,46285,1,8,0:0:0:0:
116,177,46628,1,0,0:0:0:0:
121,179,47142,1,0,0:0:0:0:
129,180,47485,1,0,0:0:0:0:
129,180,47657,1,0,0:0:0:0:
121,179,47828,1,8,0:0:0:0:
121,179,48000,1,8,0:0:0:0:
129,180,48342,1,8,0:0:0:0:
129,180,48685,1,8,0:0:0:0:
129,173,49028,1,8,0:0:0:0:
129,173,49200,1,8,0:0:0:0:
129,173,49371,1,0,0:0:0:0:
129,173,49714,1,0,0:0:0:0:
129,173,50057,1,8,0:0:0:0:
129,173,50228,1,8,0:0:0:0:
129,173,50400,1,8,0:0:0:0:
129,173,50571,1,0,0:0:0:0:
129,173,50914,1,0,0:0:0:0:
122,173,51257,1,0,0:0:0:0:
122,173,51428,1,0,0:0:0:0:
122,173,51600,1,0,0:0:0:0:
122,173,51771,1,8,0:0:0:0:
122,173,52114,1,8,0:0:0:0:
122,173,52800,1,8,0:0:0:0:
122,173,52971,1,8,0:0:0:0:
122,173,53142,1,0,0:0:0:0:
122,173,53314,1,0,0:0:0:0:
122,173,53657,1,8,0:0:0:0:
122,173,54000,1,0,0:0:0:0:
122,173,54171,1,8,0:0:0:0:
122,173,54342,1,8,0:0:0:0:
122,173,54514,1,8,0:0:0:0:
122,173,54857,1,8,0:0:0:0:
147,158,55371,1,0,0:0:0:0:
147,158,55714,1,0,0:0:0:0:
147,158,56057,1,8,0:0:0:0:
147,158,56400,1,8,0:0:0:0:
147,158,56742,1,0,0:0:0:0:
116,177,57085,1,8,0:0:0:0:
147,158,57257,1,8,0:0:0:0:
116,177,57600,1,0,0:0:0:0:
121,179,58114,1,0,0:0:0:0:
129,180,58457,1,0,0:0:0:0:
129,180,58628,1,0,0:0:0:0:
121,179,58800,1,8,0:0:0:0:
121,179,58971,1,8,0:0:0:0:
129,180,59314,1,8,0:0:0:0:
119,215,59657,1,0,0:0:0:0:
266,289,60857,1,0,0:0:0:0:
266,289,61371,1,0,0:0:0:0:
166,178,61714,1,0,0:0:0:0:
166,178,61885,1,0,0:0:0:0:
166,178,62057,1,8,0:0:0:0:
166,178,62228,1,8,0:0:0:0:
132,171,62571,1,0,0:0:0:0:
132,171,62742,1,0,0:0:0:0:
132,171,63085,1,8,0:0:0:0:
126,170,63600,1,8,0:0:0:0:
126,170,64114,1,8,0:0:0:0:
126,170,64457,1,8,0:0:0:0:
126,170,64628,1,8,0:0:0:0:
126,170,64800,1,0,0:0:0:0:
126,170,64971,1,0,0:0:0:0:
126,170,65314,1,8,0:0:0:0:
126,170,65485,1,8,0:0:0:0:
126,170,65828,1,0,0:0:0:0:
238,181,66342,1,8,0:0:0:0:
238,181,66685,1,0,0:0:0:0:
238,181,66857,1,8,0:0:0:0:
238,181,67200,1,0,0:0:0:0:
238,181,67371,1,8,0:0:0:0:
238,181,67714,1,8,0:0:0:0:
238,181,68057,1,0,0:0:0:0:
238,181,68228,1,8,0:0:0:0:
238,181,68571,1,0,0:0:0:0:
238,181,68742,1,8,0:0:0:0:
265,182,69085,1,0,0:0:0:0:
265,182,69428,1,8,0:0:0:0:
254,176,69771,1,8,0:0:0:0:
256,177,69942,1,8,0:0:0:0:
265,182,70114,1,8,0:0:0:0:
265,182,70285,1,0,0:0:0:0:
256,168,70628,1,8,0:0:0:0:
261,168,70800,1,8,0:0:0:0:
258,161,71142,1,0,0:0:0:0:
258,161,71485,1,8,0:0:0:0:
258,161,71828,1,0,0:0:0:0:
260,154,72171,1,8,0:0:0:0:
131,186,72514,1,0,0:0:0:0:
131,186,72685,1,0,0:0:0:0:
131,186,72857,1,0,0:0:0:0:
131,186,73028,1,8,0:0:0:0:
162,195,73371,1,0,0:0:0:0:
163,198,73542,1,0,0:0:0:0:
162,195,73714,1,0,0:0:0:0:
154,198,74057,1,8,0:0:0:0:
155,198,74228,1,8,0:0:0:0:
155,198,74400,1,8,0:0:0:0:
155,198,74742,1,0,0:0:0:0:
154,198,74914,1,0,0:0:0:0:
154,198,75085,1,0,0:0:0:0:
155,198,75428,1,8,0:0:0:0:
155,198,75600,1,8,0:0:0:0:
147,198,75942,1,0,0:0:0:0:
146,197,76285,1,8,0:0:0:0:
146,197,76457,1,8,0:0:0:0:
140,197,76800,1,8,0:0:0:0:
146,197,77142,1,8,0:0:0:0:
140,197,77485,1,0,0:0:0:0:
140,197,77657,1,0,0:0:0:0:
140,197,78000,1,0,0:0:0:0:
133,197,78085,1,0,0:0:0:0:
140,197,78171,1,0,0:0:0:0:
133,197,78342,1,0,0:0:0:0:
132,195,78514,1,0,0:0:0:0:
202,190,78857,1,8,0:0:0:0:
132,195,79028,1,0,0:0:0:0:
202,190,79200,1,8,0:0:0:0:
133,197,79542,1,0,0:0:0:0:
132,195,79714,1,8,0:0:0:0:
132,195,79885,1,0,0:0:0:0:
132,195,80228,1,8,0:0:0:0:
198,180,80400,1,0,0:0:0:0:
132,195,80571,1,8,0:0:0:0:
132,195,80914,1,0,0:0:0:0:
166,128,81085,1,0,0:0:0:0:
166,128,81257,1,0,0:0:0:0:
122,199,81428,1,0,0:0:0:0:
121,199,81771,1,8,0:0:0:0:
206,154,82114,1,8,0:0:0:0:
206,154,82285,1,8,0:0:0:0:
206,154,82628,1,8,0:0:0:0:
258,113,83142,1,0,0:0:0:0:
206,154,83485,1,0,0:0:0:0:
206,154,83657,1,0,0:0:0:0:
206,154,83828,1,0,0:0:0:0:
258,101,84000,1,8,0:0:0:0:
162,195,84342,1,0,0:0:0:0:
163,198,84514,1,0,0:0:0:0:
162,195,84685,1,0,0:0:0:0:
154,198,85028,1,8,0:0:0:0:
155,198,85200,1,8,0:0:0:0:
155,198,85371,1,8,0:0:0:0:
155,198,85714,1,0,0:0:0:0:
154,198,85885,1,0,0:0:0:0:
154,198,86057,1,0,0:0:0:0:
155,198,86400,1,8,0:0:0:0:
155,198,86571,1,8,0:0:0:0:
147,198,86914,1,0,0:0:0:0:
146,197,87257,1,8,0:0:0:0:
146,197,87428,1,8,0:0:0:0:
140,197,87771,1,8,0:0:0:0:
146,197,88114,1,8,0:0:0:0:
140,197,88457,1,0,0:0:0:0:
140,197,88628,1,0,0:0:0:0:
140,197,88971,1,0,0:0:0:0:
133,197,89057,1,0,0:0:0:0:
140,197,89142,1,0,0:0:0:0:
133,197,89314,1,0,0:0:0:0:
132,195,89657,1,8,0:0:0:0:
246,331,89828,1,8,0:0:0:0:
154,239,90000,1,0,0:0:0:0:
133,197,90342,1,0,0:0:0:0:
132,195,90514,1,0,0:0:0:0:
154,239,90685,1,8,0:0:0:0:
132,195,91028,1,8,0:0:0:0:
246,331,91200,1,8,0:0:0:0:
154,239,91371,1,0,0:0:0:0:
132,195,91714,1,0,0:0:0:0:
132,195,91885,1,0,0:0:0:0:
154,239,92057,1,8,0:0:0:0:
122,199,92400,1,0,0:0:0:0:
143,150,92914,1,8,0:0:0:0:
206,154,93257,1,8,0:0:0:0:
206,154,93428,1,8,0:0:0:0:
206,154,93600,1,8,0:0:0:0:
171,149,93771,1,0,0:0:0:0:
224,165,94285,1,8,0:0:0:0:
198,191,94371,1,8,0:0:0:0:
224,165,94457,1,8,0:0:0:0:
224,165,94628,1,8,0:0:0:0:
224,165,94800,1,8,0:0:0:0:
221,169,95142,1,0,0:0:0:0:
156,226,99257,1,0,0:0:0:0:
118,220,100971,1,8,0:0:0:0:
118,220,101314,1,8,0:0:0:0:
118,220,101657,1,0,0:0:0:0:
118,220,102000,1,8,0:0:0:0:
118,220,102514,1,8,0:0:0:0:
113,214,102857,1,0,0:0:0:0:
118,220,103028,1,0,0:0:0:0:
270,251,103200,1,0,0:0:0:0:
122,173,103542,1,8,0:0:0:0:
122,173,103714,1,8,0:0:0:0:
122,173,103885,1,0,0:0:0:0:
122,173,104057,1,0,0:0:0:0:
122,173,104400,1,8,0:0:0:0:
122,173,104742,1,0,0:0:0:0:
122,173,104914,1,8,0:0:0:0:
122,173,105085,1,8,0:0:0:0:
122,173,105257,1,8,0:0:0:0:
122,173,105600,1,8,0:0:0:0:
147,158,106114,5,0,0:0:0:0:
147,158,106457,1,0,0:0:0:0:
147,158,106800,1,8,0:0:0:0:
147,158,107142,1,8,0:0:0:0:
147,158,107485,1,0,0:0:0:0:
116,177,107828,1,8,0:0:0:0:
147,158,108000,1,8,0:0:0:0:
116,177,108342,1,0,0:0:0:0:
121,179,108857,1,0,0:0:0:0:
129,180,109200,1,0,0:0:0:0:
129,180,109371,1,0,0:0:0:0:
121,179,109542,1,8,0:0:0:0:
121,179,109714,1,8,0:0:0:0:
129,180,110057,1,8,0:0:0:0:
129,180,110400,1,8,0:0:0:0:
129,173,110742,1,8,0:0:0:0:
129,173,110914,1,8,0:0:0:0:
129,173,111085,1,0,0:0:0:0:
129,173,111428,1,0,0:0:0:0:
129,173,111771,1,8,0:0:0:0:
129,173,111942,1,8,0:0:0:0:
129,173,112114,1,8,0:0:0:0:
129,173,112285,1,0,0:0:0:0:
129,173,112628,1,0,0:0:0:0:
122,173,112971,1,0,0:0:0:0:
122,173,113142,1,0,0:0:0:0:
122,173,113314,1,0,0:0:0:0:
122,173,113485,1,8,0:0:0:0:
122,173,113828,1,8,0:0:0:0:
122,173,114514,1,8,0:0:0:0:
122,173,114685,1,8,0:0:0:0:
122,173,114857,1,0,0:0:0:0:
122,173,115028,1,0,0:0:0:0:
122,173,115371,1,8,0:0:0:0:
122,173,115714,1,0,0:0:0:0:
122,173,115885,1,8,0:0:0:0:
122,173,116057,1,8,0:0:0:0:
122,173,116228,1,8,0:0:0:0:
122,173,116571,1,8,0:0:0:0:
147,158,117085,1,0,0:0:0:0:
147,158,117428,1,0,0:0:0:0:
147,158,117771,1,8,0:0:0:0:
147,158,118114,1,8,0:0:0:0:
147,158,118457,1,0,0:0:0:0:
116,177,118800,1,8,0:0:0:0:
147,158,118971,1,8,0:0:0:0:
116,177,119314,1,0,0:0:0:0:
121,179,119828,1,0,0:0:0:0:
129,180,120171,1,0,0:0:0:0:
129,180,120342,1,0,0:0:0:0:
121,179,120514,1,8,0:0:0:0:
121,179,120685,1,8,0:0:0:0:
129,180,121028,1,8,0:0:0:0:
119,215,121371,1,0,0:0:0:0:
266,289,122571,1,0,0:0:0:0:
266,289,123085,1,0,0:0:0:0:
166,178,123428,1,0,0:0:0:0:
166,178,123600,1,0,0:0:0:0:
166,178,123771,1,8,0:0:0:0:
166,178,123942,1,8,0:0:0:0:
132,171,124285,1,0,0:0:0:0:
132,171,124457,1,0,0:0:0:0:
132,171,124800,1,8,0:0:0:0:
126,170,125314,1,8,0:0:0:0:
126,170,125828,1,8,0:0:0:0:
126,170,126171,1,8,0:0:0:0:
126,170,126342,1,8,0:0:0:0:
126,170,126514,1,0,0:0:0:0:
126,170,126685,1,0,0:0:0:0:
126,170,127028,1,8,0:0:0:0:
126,170,127200,1,8,0:0:0:0:
126,170,127542,1,0,0:0:0:0:
238,181,128057,1,8,0:0:0:0:
238,181,128400,1,0,0:0:0:0:
238,181,128571,1,8,0:0:0:0:
238,181,128914,1,0,0:0:0:0:
238,181,129085,1,8,0:0:0:0:
238,181,129428,1,8,0:0:0:0:
238,181,129771,1,0,0:0:0:0:
238,181,129942,1,8,0:0:0:0:
238,181,130285,1,0,0:0:0:0:
238,181,130457,1,8,0:0:0:0:
265,182,130800,1,0,0:0:0:0:
265,182,131142,1,8,0:0:0:0:
254,176,131485,1,8,0:0:0:0:
256,177,131657,1,8,0:0:0:0:
265,182,131828,1,8,0:0:0:0:
265,182,132000,1,0,0:0:0:0:
256,168,132342,1,8,0:0:0:0:
261,168,132514,1,8,0:0:0:0:
211,109,132857,1,0,0:0:0:0:
191,90,133200,1,0,0:0:0:0:
145,198,133542,1,0,0:0:0:0:
145,198,133885,1,0,0:0:0:0:
131,186,134228,1,0,0:0:0:0:
131,186,134400,1,0,0:0:0:0:
131,186,134571,1,0,0:0:0:0:
131,186,134742,1,8,0:0:0:0:
162,195,135085,1,0,0:0:0:0:
163,198,135257,1,0,0:0:0:0:
162,195,135428,1,0,0:0:0:0:
154,198,135771,1,8,0:0:0:0:
155,198,135942,1,8,0:0:0:0:
155,198,136114,1,8,0:0:0:0:
155,198,136457,1,0,0:0:0:0:
154,198,136628,1,0,0:0:0:0:
154,198,136800,1,0,0:0:0:0:
155,198,137142,1,8,0:0:0:0:
155,198,137314,1,8,0:0:0:0:
147,198,137657,1,0,0:0:0:0:
146,197,138000,1,8,0:0:0:0:
146,197,138171,1,8,0:0:0:0:
140,197,138514,1,8,0:0:0:0:
146,197,138857,1,8,0:0:0:0:
140,197,139200,1,0,0:0:0:0:
140,197,139371,1,0,0:0:0:0:
140,197,139714,1,0,0:0:0:0:
133,197,139800,1,0,0:0:0:0:
140,197,139885,1,0,0:0:0:0:
133,197,140057,1,0,0:0:0:0:
133,167,140228,1,0,0:0:0:0:
132,195,140571,1,8,0:0:0:0:
135,161,140742,1,0,0:0:0:0:
136,161,140914,1,8,0:0:0:0:
132,195,141257,1,0,0:0:0:0:
199,151,141428,1,8,0:0:0:0:
199,151,141600,1,0,0:0:0:0:
132,195,141942,1,8,0:0:0:0:
169,162,142114,1,0,0:0:0:0:
132,195,142285,1,8,0:0:0:0:
132,195,142628,1,0,0:0:0:0:
155,196,142800,1,8,0:0:0:0:
165,172,142971,1,0,0:0:0:0:
122,199,143142,1,0,0:0:0:0:
121,199,143485,1,8,0:0:0:0:
206,154,143828,1,8,0:0:0:0:
206,154,144000,1,8,0:0:0:0:
206,154,144342,1,8,0:0:0:0:
258,113,144857,1,0,0:0:0:0:
190,270,145028,1,0,0:0:0:0:
134,222,145114,1,0,0:0:0:0:
206,154,145200,1,0,0:0:0:0:
206,154,145371,1,0,0:0:0:0:
206,154,145542,1,0,0:0:0:0:
258,101,145714,1,8,0:0:0:0:
162,195,146057,1,0,0:0:0:0:
163,198,146228,1,0,0:0:0:0:
162,195,146400,1,0,0:0:0:0:
154,198,146742,1,8,0:0:0:0:
155,198,146914,1,8,0:0:0:0:
155,198,147085,1,8,0:0:0:0:
155,198,147428,1,0,0:0:0:0:
154,198,147600,1,0,0:0:0:0:
154,198,147771,1,0,0:0:0:0:
155,198,148114,1,8,0:0:0:0:
155,198,148285,1,8,0:0:0:0:
147,198,148628,1,0,0:0:0:0:
146,197,148971,1,8,0:0:0:0:
146,197,149142,1,8,0:0:0:0:
125,185,149485,1,8,0:0:0:0:
125,185,149828,1,8,0:0:0:0:
140,197,150685,1,0,0:0:0:0:
133,197,151028,1,0,0:0:0:0:
116,207,151371,1,0,0:0:0:0:
155,227,151542,1,8,0:0:0:0:
208,187,151714,1,8,0:0:0:0:
106,208,152057,1,8,0:0:0:0:
155,227,152228,1,0,0:0:0:0:
132,195,152400,1,0,0:0:0:0:
106,208,152742,1,0,0:0:0:0:
155,227,152914,1,8,0:0:0:0:
132,195,153085,1,8,0:0:0:0:
106,208,153428,1,8,0:0:0:0:
155,227,153600,1,0,0:0:0:0:
132,195,153771,1,0,0:0:0:0:
122,199,154114,1,0,0:0:0:0:
143,150,154628,1,8,0:0:0:0:
206,154,154971,1,8,0:0:0:0:
206,154,155142,1,8,0:0:0:0:
206,154,155314,1,8,0:0:0:0:
171,149,155485,1,0,0:0:0:0:
224,165,156000,1,8,0:0:0:0:
198,191,156085,1,8,0:0:0:0:
224,165,156171,1,8,0:0:0:0:
224,165,156342,1,8,0:0:0:0:
224,165,156514,1,8,0:0:0:0:
221,169,156857,1,0,0:0:0:0:
235,200,159600,1,0,0:0:0:0:
235,200,160114,1,0,0:0:0:0:
235,200,160285,1,8,0:0:0:0:
235,200,160628,1,8,0:0:0:0:
235,200,160971,1,0,0:0:0:0:
235,200,161485,1,0,0:0:0:0:
235,200,161657,1,8,0:0:0:0:
235,200,162000,1,8,0:0:0:0:
235,200,162342,1,0,0:0:0:0:
235,200,162857,1,0,0:0:0:0:
235,200,163028,1,8,0:0:0:0:
235,200,163371,1,8,0:0:0:0:
235,200,163714,1,0,0:0:0:0:
235,200,164057,1,0,0:0:0:0:
235,200,164400,1,8,0:0:0:0:
235,200,164742,1,8,0:0:0:0:
239,197,164914,1,8,0:0:0:0:
239,197,165085,1,0,0:0:0:0:
91,237,166800,1,0,0:0:0:0:
198,235,167828,1,0,0:0:0:0:
198,235,168342,1,0,0:0:0:0:
198,235,168514,1,8,0:0:0:0:
198,235,168685,1,8,0:0:0:0:
186,227,168857,1,8,0:0:0:0:
198,235,169028,1,8,0:0:0:0:
198,235,169200,1,0,0:0:0:0:
151,163,169714,1,8,0:0:0:0:
151,163,169885,1,0,0:0:0:0:
151,163,170057,1,0,0:0:0:0:
151,163,170228,1,0,0:0:0:0:
151,163,170400,1,0,0:0:0:0:
151,163,170571,1,8,0:0:0:0:
222,162,171085,1,0,0:0:0:0:
222,162,171257,1,8,0:0:0:0:
222,162,171428,1,8,0:0:0:0:
222,162,171600,1,8,0:0:0:0:
222,162,171771,1,8,0:0:0:0:
227,157,171942,1,8,0:0:0:0:
227,157,172457,1,8,0:0:0:0:
273,142,172971,1,8,0:0:0:0:
273,142,173314,1,0,0:0:0:0:
273,142,173828,1,0,0:0:0:0:
273,142,174000,1,8,0:0:0:0:
273,142,174171,1,8,0:0:0:0:
273,142,174342,1,8,0:0:0:0:
273,142,174514,1,8,0:0:0:0:
273,142,174685,1,0,0:0:0:0:
273,142,175200,1,8,0:0:0:0:
273,142,175371,1,0,0:0:0:0:
273,142,175542,1,0,0:0:0:0:
273,142,175714,1,0,0:0:0:0:
273,142,175885,1,0,0:0:0:0:
273,142,176057,1,8,0:0:0:0:
273,142,176571,1,0,0:0:0:0:
273,142,176742,1,8,0:0:0:0:
273,142,176914,1,8,0:0:0:0:
273,142,177085,1,8,0:0:0:0:
273,142,177257,1,8,0:0:0:0:
355,107,177428,1,8,0:0:0:0:
355,107,177942,1,8,0:0:0:0:
348,107,178114,1,8,0:0:0:0:
348,107,178200,1,8,0:0:0:0:
326,101,178285,1,8,0:0:0:0:
348,107,178457,1,8,0:0:0:0:
348,107,178628,1,8,0:0:0:0:
198,235,178800,1,0,0:0:0:0:
198,235,179314,1,0,0:0:0:0:
198,235,179485,1,8,0:0:0:0:
198,235,179657,1,0,0:0:0:0:
186,227,179828,1,0,0:0:0:0:
198,235,180000,1,8,0:0:0:0:
198,235,180171,1,0,0:0:0:0:
151,163,180685,1,8,0:0:0:0:
151,163,180857,1,0,0:0:0:0:
151,163,181028,1,8,0:0:0:0:
151,163,181200,1,8,0:0:0:0:
151,163,181371,1,0,0:0:0:0:
151,163,181542,1,8,0:0:0:0:
222,162,182057,1,0,0:0:0:0:
222,162,182228,1,8,0:0:0:0:
222,162,182400,1,0,0:0:0:0:
222,162,182571,1,0,0:0:0:0:
222,162,182742,1,8,0:0:0:0:
227,157,182914,1,0,0:0:0:0:
227,157,183428,1,0,0:0:0:0:
273,142,183942,1,0,0:0:0:0:
326,101,189257,5,0,0:0:0:0:
156,124,189342,1,0,0:0:0:0:
140,197,189428,1,0,0:0:0:0:
348,107,189600,1,0,0:0:0:0:
146,162,189942,1,8,0:0:0:0:
132,195,190114,1,8,0:0:0:0:
166,156,190285,1,8,0:0:0:0:
133,197,190628,1,0,0:0:0:0:
132,195,190800,1,0,0:0:0:0:
132,195,190971,1,0,0:0:0:0:
132,195,191314,1,8,0:0:0:0:
153,164,191485,1,8,0:0:0:0:
132,195,191657,1,8,0:0:0:0:
132,195,192000,1,0,0:0:0:0:
132,195,192171,1,0,0:0:0:0:
141,145,192342,1,0,0:0:0:0:
122,199,192514,1,0,0:0:0:0:
121,199,192857,1,8,0:0:0:0:
206,154,193200,1,8,0:0:0:0:
206,154,193371,1,8,0:0:0:0:
206,154,193714,1,8,0:0:0:0:
258,113,194228,1,0,0:0:0:0:
206,154,194571,1,0,0:0:0:0:
206,154,194742,1,0,0:0:0:0:
206,154,194914,1,0,0:0:0:0:
258,101,195085,1,8,0:0:0:0:
162,195,195428,1,0,0:0:0:0:
163,198,195600,1,0,0:0:0:0:
162,195,195771,1,0,0:0:0:0:
154,198,196114,1,8,0:0:0:0:
155,198,196285,1,8,0:0:0:0:
155,198,196457,1,8,0:0:0:0:
155,198,196800,1,0,0:0:0:0:
154,198,196971,1,0,0:0:0:0:
154,198,197142,1,0,0:0:0:0:
155,198,197485,1,8,0:0:0:0:
155,198,197657,1,8,0:0:0:0:
147,198,198000,1,0,0:0:0:0:
146,197,198342,1,8,0:0:0:0:
146,197,198514,1,8,0:0:0:0:
140,197,198857,1,8,0:0:0:0:
146,197,199200,1,8,0:0:0:0:
140,197,199542,1,0,0:0:0:0:
140,197,199714,1,0,0:0:0:0:
140,197,200057,1,0,0:0:0:0:
133,197,200142,1,0,0:0:0:0:
140,197,200228,1,0,0:0:0:0:
133,197,200400,1,0,0:0:0:0:
132,195,200742,1,8,0:0:0:0:
132,195,201085,1,8,0:0:0:0:
143,167,201257,1,8,0:0:0:0:
133,197,201428,1,0,0:0:0:0:
132,195,201600,1,0,0:0:0:0:
226,212,201771,1,8,0:0:0:0:
132,195,202114,1,8,0:0:0:0:
132,195,202457,1,8,0:0:0:0:
143,167,202628,1,8,0:0:0:0:
132,195,202800,1,0,0:0:0:0:
132,195,202971,1,0,0:0:0:0:
227,222,203142,1,8,0:0:0:0:
122,199,203485,1,0,0:0:0:0:
143,150,204000,1,8,0:0:0:0:
206,154,204342,1,8,0:0:0:0:
206,154,204514,1,8,0:0:0:0:
206,154,204685,1,8,0:0:0:0:
171,149,204857,1,0,0:0:0:0:
224,165,205371,1,8,0:0:0:0:
198,191,205457,1,8,0:0:0:0:
224,165,205542,1,8,0:0:0:0:
224,165,205714,1,8,0:0:0:0:
224,165,205885,1,8,0:0:0:0:
221,169,206228,1,0,0:0:0:0:
207,164,206571,1,0,0:0:0:0:
207,164,207085,1,8,0:0:0:0:
207,164,207257,1,8,0:0:0:0:
207,164,207600,1,0,0:0:0:0:
207,164,207942,1,0,0:0:0:0:
207,164,208457,1,8,0:0:0:0:
207,164,208628,1,8,0:0:0:0:
207,164,208971,1,0,0:0:0:0:
207,164,209314,1,0,0:0:0:0:
207,164,209828,1,8,0:0:0:0:
207,164,210000,1,8,0:0:0:0:
207,164,210342,1,0,0:0:0:0:
207,164,210685,1,0,0:0:0:0:
207,164,211200,1,8,0:0:0:0:
200,164,211285,1,8,0:0:0:0:
207,164,211371,1,8,0:0:0:0:
207,164,211542,1,8,0:0:0:0:
198,165,211714,1,0,0:0:0:0:
256,260,212057,1,8,0:0:0:0:
256,260,212228,1,8,0:0:0:0:
256,260,212400,1,8,0:0:0:0:
260,264,212742,1,8,0:0:0:0:
315,189,213085,1,0,0:0:0:0:
315,189,213428,1,8,0:0:0:0:
315,189,213600,1,8,0:0:0:0:
315,189,213771,1,8,0:0:0:0:
315,189,214114,1,8,0:0:0:0:
315,189,214457,1,0,0:0:0:0:
315,189,214800,1,8,0:0:0:0:
315,189,214971,1,8,0:0:0:0:
315,189,215142,1,8,0:0:0:0:
322,186,215485,1,8,0:0:0:0:
322,185,215828,1,0,0:0:0:0:
327,187,216171,1,8,0:0:0:0:
325,192,216514,1,8,0:0:0:0:
325,192,216685,1,8,0:0:0:0:
325,192,216857,1,8,0:0:0:0:
327,187,217028,1,8,0:0:0:0:
327,187,217200,1,0,0:0:0:0:
