osu file format v14

[General]
AudioFilename: Burenai Ai De.mp3
AudioLeadIn: 0
PreviewTime: 52308
Countdown: 0
SampleSet: Soft
StackLeniency: 0.7
Mode: 0
LetterboxInBreaks: 1
WidescreenStoryboard: 1

[Editor]
Bookmarks: 35288,39745
DistanceSpacing: 1.2
BeatDivisor: 4
GridSize: 4
TimelineZoom: 1

[Metadata]
Title:Burenai Ai De
TitleUnicode:ぶれないアイで
Artist:Mitchie M
ArtistUnicode:Mitchie M
Creator:xNousagi
Version:Insane
Source:
Tags:hatsune miku vocaloid
BeatmapID:702786
BeatmapSetID:315157

[Difficulty]
HPDrainRate:6
CircleSize:4
OverallDifficulty:7.5
ApproachRate:9
SliderMultiplier:1.6
SliderTickRate:1

[Events]
//Background and Video events
0,0,"bg.jpg",0,0
//Break Periods
2,83287,87270
//Storyboard Layer 0 (Background)
//Storyboard Layer 1 (Fail)
//Storyboard Layer 2 (Pass)
//Storyboard Layer 3 (Foreground)
//Storyboard Sound Samples

[TimingPoints]
2653,434.782608695652,4,2,0,100,1,0
23549,-100,4,2,0,100,0,0
53087,-66.6666666666667,4,2,0,100,0,1
80913,-62.5,4,2,0,100,0,0
119174,-62.5,4,2,0,100,0,1
147000,-100,4,2,0,100,0,0

[HitObjects]
80,156,2653,6,0,P|108:108|148:96,1,80
160,176,3087,1,0,0:0:0:0:
208,260,3305,2,0,P|184:292|148:312,1,80
84,244,3739,2,0,P|72:204|80:160,1,80
158,114,4174,1,0,0:0:0:0:
272,168,4392,1,0,0:0:0:0:
324,104,4609,2,0,P|360:128|376:176,1,80
240,188,5044,2,0,L|276:224,2,40
128,312,5479,2,0,P|100:280|96:228,1,80
248,204,5913,2,0,L|288:168,2,40
356,296,6348,2,0,P|384:280|408:232,1,80
440,144,6783,6,0,L|412:104,2,40
364,288,7218,2,0,P|328:312|284:324,1,80
152,160,7652,2,0,L|124:112,2,40
216,104,8087,2,0,L|216:172,2,40
296,168,8522,2,0,L|296:120,2,40
384,140,8957,2,0,L|356:92,2,40
204,160,9609,1,0,0:0:0:0:
196,88,9826,2,0,P|232:52|280:40,1,80
336,40,10479,5,0,0:0:0:0:
308,120,10696,1,0,0:0:0:0:
392,124,10913,2,0,P|364:176|328:200,1,80
252,208,11348,1,0,0:0:0:0:
184,160,11566,2,0,L|148:128,2,40
72,220,12000,1,0,0:0:0:0:
72,220,12218,2,0,P|76:144|140:96,1,160
168,304,12870,2,0,P|204:304|244:276,1,80
276,100,13305,2,0,P|284:148|268:200,1,80
84,176,13739,2,0,P|80:140|88:76,1,80
224,232,14174,2,0,P|268:216|296:180,2,80
256,332,14826,5,0,0:0:0:0:
340,228,15044,1,0,0:0:0:0:
252,132,15261,1,0,0:0:0:0:
144,56,15479,1,0,0:0:0:0:
104,172,15696,1,0,0:0:0:0:
130,153,15805,1,0,0:0:0:0:
158,136,15913,1,0,0:0:0:0:
187,121,16022,1,0,0:0:0:0:
217,109,16131,1,0,0:0:0:0:
248,99,16239,1,0,0:0:0:0:
280,91,16348,1,0,0:0:0:0:
308,84,16457,1,0,0:0:0:0:
348,84,16566,2,0,P|316:192|276:228,1,160
120,208,17435,5,0,0:0:0:0:
164,72,17652,1,0,0:0:0:0:
284,104,17870,1,0,0:0:0:0:
212,148,18087,1,0,0:0:0:0:
160,312,18305,1,0,0:0:0:0:
244,248,18522,2,0,L|296:284,2,40
360,308,18957,2,0,L|412:248,1,80
409,250,19392,2,0,L|423:163,1,80
421,181,19826,2,0,L|412:96,1,80
412,100,20261,2,0,L|360:36,1,80
236,60,20913,5,0,0:0:0:0:
200,136,21131,1,0,0:0:0:0:
284,132,21348,1,0,0:0:0:0:
152,280,21566,2,0,L|116:200,1,80
336,280,22000,2,0,L|368:204,1,80
123,216,22435,2,0,L|87:136,1,80
361,214,22870,2,0,L|392:136,1,80
272,32,23522,6,0,L|336:112,2,80
236,128,24174,2,0,L|304:216,1,80
192,292,24609,2,0,B|180:228|108:252|108:132,1,160
148,84,25261,1,0,0:0:0:0:
248,136,25479,2,0,L|280:172,2,40
328,76,25913,2,0,P|364:112|364:156,1,80
296,72,26348,2,0,P|248:76|192:116,1,80
296,156,26783,2,0,L|344:228,1,80
268,292,27218,1,0,0:0:0:0:
192,228,27435,1,0,0:0:0:0:
156,136,27870,5,0,0:0:0:0:
204,48,28087,1,0,0:0:0:0:
288,88,28305,1,0,0:0:0:0:
380,48,28522,2,0,P|424:80|444:128,1,80
440,208,28957,2,0,P|432:244|376:284,1,80
196,48,29392,2,0,P|160:64|124:100,1,80
200,164,29826,2,0,P|192:220|208:268,1,80
103,268,30261,1,0,0:0:0:0:
336,96,30479,5,0,0:0:0:0:
336,96,30696,2,0,P|356:144|368:200,1,80
412,84,31131,2,0,L|448:184,1,80
140,156,31566,2,0,L|164:232,1,80
268,240,32000,1,0,0:0:0:0:
348,180,32218,2,0,L|304:112,1,80
152,184,32652,1,0,0:0:0:0:
148,84,32870,2,0,P|196:64|232:68,1,80
220,168,33305,1,0,0:0:0:0:
316,136,33522,1,0,0:0:0:0:
224,264,33739,1,0,0:0:0:0:
184,44,33957,1,0,0:0:0:0:
276,84,34174,1,0,0:0:0:0:
240,156,34392,1,0,0:0:0:0:
108,144,34609,2,0,L|144:228,1,80
240,220,35044,5,0,0:0:0:0:
376,52,35261,1,0,0:0:0:0:
276,68,35479,1,0,0:0:0:0:
180,44,35696,2,0,L|144:100,1,40
272,180,36131,2,0,L|256:120,1,40
104,192,36566,2,0,L|112:232,1,40
128,316,36783,2,0,L|120:264,1,40
168,184,37000,2,0,L|176:224,1,40
192,312,37218,2,0,L|176:256,1,40
168,184,37435,6,0,P|172:216|268:304,1,160
60,308,38305,1,0,0:0:0:0:
160,324,38522,1,0,0:0:0:0:
248,276,38739,1,0,0:0:0:0:
340,247,38957,1,0,0:0:0:0:
404,148,39174,1,0,0:0:0:0:
308,120,39609,1,0,0:0:0:0:
108,88,40044,2,0,L|136:56,1,40
124,108,40261,2,0,L|168:80,1,40
140,132,40479,2,0,L|180:112,1,40
236,248,40913,5,0,0:0:0:0:
312,312,41131,2,0,P|356:276|376:232,1,80
284,200,41566,1,0,0:0:0:0:
408,164,41783,1,0,0:0:0:0:
348,84,42000,2,0,P|288:48|256:40,1,80
224,124,42435,2,0,P|256:96|296:96,1,80
340,184,42870,2,0,P|316:208|244:224,1,80
192,276,43305,2,0,P|208:320|248:344,1,80
132,340,43739,1,0,0:0:0:0:
296,276,43957,1,0,0:0:0:0:
104,160,44174,5,0,0:0:0:0:
160,76,44392,2,0,P|280:112|304:172,1,160
340,224,45044,1,0,0:0:0:0:
432,160,45261,2,0,P|440:103|436:52,1,80
344,112,45696,1,0,0:0:0:0:
424,296,46131,2,0,B|356:284|324:360|268:312,1,160
136,176,46783,1,0,0:0:0:0:
260,260,47000,1,0,0:0:0:0:
264,80,47218,2,0,P|224:40|192:28,1,80
277,91,47652,1,0,0:0:0:0:
364,68,47870,6,0,P|408:116|416:152,1,80
252,188,48305,1,0,0:0:0:0:
328,312,48522,2,0,P|364:280|376:228,1,80
252,188,48957,1,0,0:0:0:0:
164,80,49174,2,0,P|144:84|116:124,2,40
120,172,49609,1,0,0:0:0:0:
152,272,50044,1,0,0:0:0:0:
92,104,50479,1,0,0:0:0:0:
272,48,50696,1,0,0:0:0:0:
400,168,50913,1,0,0:0:0:0:
336,312,51348,2,0,L|284:284,1,40
340,192,51566,2,0,L|288:208,1,40
272,312,51783,2,0,L|216:284,1,40
272,192,52000,2,0,L|224:208,2,40
176,100,52435,5,0,0:0:0:0:
260,44,52652,2,0,P|312:64|340:96,1,80
312,204,53087,1,0,0:0:0:0:
173,162,53305,1,0,0:0:0:0:
312,204,53522,1,0,0:0:0:0:
320,60,53739,1,0,0:0:0:0:
204,124,53957,1,0,0:0:0:0:
152,340,54174,1,0,0:0:0:0:
424,212,54392,1,0,0:0:0:0:
216,36,54609,1,0,0:0:0:0:
252,174,54826,1,0,0:0:0:0:
356,336,55044,1,0,0:0:0:0:
92,176,55261,1,0,0:0:0:0:
356,44,55479,1,0,0:0:0:0:
252,174,55696,1,0,0:0:0:0:
180,312,55913,6,0,P|144:288|124:232,1,105.000004005432
144,160,56348,1,0,0:0:0:0:
176,56,56566,2,0,P|136:64|84:104,1,105.000004005432
224,188,57000,2,0,L|308:276,1,120.000004577637
304,144,57435,1,0,0:0:0:0:
428,88,57652,2,0,P|444:168|448:208,2,120.000004577637
100,256,58522,2,0,P|88:196|92:132,2,120.000004577637
160,64,59174,1,0,0:0:0:0:
248,48,59392,2,0,P|316:48|404:108,2,120.000004577637
296,184,60044,1,0,0:0:0:0:
228,312,60261,1,0,0:0:0:0:
104,236,60479,2,0,L|208:120,1,120.000004577637
224,248,60913,1,0,0:0:0:0:
376,52,61131,5,0,0:0:0:0:
88,144,61348,1,0,0:0:0:0:
344,328,61566,1,0,0:0:0:0:
277,200,61783,1,0,0:0:0:0:
424,208,62000,1,0,0:0:0:0:
132,300,62218,1,0,0:0:0:0:
220,40,62435,1,0,0:0:0:0:
257,178,62652,1,0,0:0:0:0:
104,68,62870,6,0,P|92:128|112:240,1,120.000004577637
400,76,63305,2,0,P|420:128|396:212,1,120.000004577637
224,216,63739,1,0,0:0:0:0:
224,216,63957,2,0,P|284:296|328:196,1,240.000009155274
144,200,65044,2,0,L|200:240,1,60.0000022888184
336,160,65261,2,0,L|264:124,1,60.0000022888184
164,96,65479,2,0,L|216:68,1,60.0000022888184
324,256,65696,2,0,L|272:296,1,60.0000022888184
220,172,65913,2,0,L|272:140,2,60.0000022888184
120,304,66348,5,0,0:0:0:0:
264,320,66566,1,0,0:0:0:0:
384,244,66783,1,0,0:0:0:0:
312,144,67000,2,0,B|252:196|160:100|160:100|132:208,1,240.000009155274
272,36,67652,2,0,L|264:96,1,60.0000022888184
96,244,68087,2,0,P|72:188|80:120,1,120.000004577637
208,184,68522,1,0,0:0:0:0:
200,320,68739,2,0,L|220:252,1,60.0000022888184
436,308,69066,2,0,L|400:244,1,60.0000022888184
328,164,69392,2,0,L|304:240,1,60.0000022888184
320,48,69826,6,0,P|380:100|420:160,2,120.000004577637
112,300,70479,2,0,B|140:208|32:192|104:60,1,240.000009155274
176,192,71131,2,0,L|220:144,2,60.0000022888184
80,100,71566,1,0,0:0:0:0:
212,44,71783,1,0,0:0:0:0:
364,60,72000,1,0,0:0:0:0:
436,184,72218,2,0,L|376:184,1,60.0000022888184
232,184,72544,2,0,L|308:184,1,60.0000022888184
144,184,72870,2,0,L|64:184,1,60.0000022888184
420,268,73305,2,0,P|392:328|316:332,2,120.000004577637
164,228,73957,2,0,P|112:192|72:116,1,120.000004577637
220,80,74392,2,0,B|304:184|304:184|280:332,1,240.000009155274
416,216,75044,5,0,0:0:0:0:
96,300,75261,1,0,0:0:0:0:
176,44,75479,1,0,0:0:0:0:
224,179,75696,1,0,0:0:0:0:
264,328,75913,1,0,0:0:0:0:
384,92,76131,1,0,0:0:0:0:
84,164,76348,1,0,0:0:0:0:
224,179,76566,1,0,0:0:0:0:
160,280,76783,2,0,L|148:160,1,120.000004577637
240,48,77218,1,0,0:0:0:0:
240,48,77435,2,0,P|356:112|388:248,1,240.000009155274
256,260,78087,2,0,L|244:200,5,60.0000022888184
206,139,78739,2,0,L|256:224,2,60.0000022888184
204,124,79174,1,0,0:0:0:0:
96,212,79392,6,0,P|152:292|196:316,1,120.000004577637
388,136,79826,2,0,P|356:92|256:32,1,120.000004577637
256,184,80479,5,0,0:0:0:0:
124,126,80696,2,0,L|190:89,2,60.0000022888184
256,192,81131,12,0,83087,0:0:0:0:
220,152,87870,5,0,0:0:0:0:
