osu file format v14

[General]
AudioFilename: 19 Birthday Song for .mp3
AudioLeadIn: 0
PreviewTime: 207251
Countdown: 1
SampleSet: Soft
StackLeniency: 0.7
Mode: 0
LetterboxInBreaks: 0
EpilepsyWarning: 1
WidescreenStoryboard: 0

[Editor]
Bookmarks: 115052
DistanceSpacing: 1.1
BeatDivisor: 16
GridSize: 4
TimelineZoom: 3.199999

[Metadata]
Title:Birthday Song for Miku
TitleUnicode:Birthday Song for ミク
Artist:Mitchie M
ArtistUnicode:Mitchie M
Creator:Krisom
Version:Hard
Source:
Tags:Japanese Pop Vocaloid KAITO MEIKO Kagamine Rin Len 鏡音リン 鏡音レン Megurine Luka 巡音ルカ Hatsune 初音ミク 5th バースデーベスト ~memories~ best DakeDekaane Greatest Idol グレイテスト・アイドル at First Sight REALISTIC VIRTUAL SINGING
BeatmapID:480519
BeatmapSetID:203283

[Difficulty]
HPDrainRate:6
CircleSize:4
OverallDifficulty:6
ApproachRate:7
SliderMultiplier:2.6
SliderTickRate:2

[Events]
//Background and Video events
0,5,"BG.png",0,0
//Break Periods
2,96879,104922
2,208679,215494
//Storyboard Layer 0 (Background)
Sprite,Background,Centre,"BG.png",320,240 F,0,-15,,0
Sprite,Background,Centre,"SB\White.jpg",320,240 M,0,394,,315,236 F,0,394,680,0,1 S,0,680,,0.85 F,0,680,252108,1 C,0,56679,57822,0,0,0,255,255,255 C,0,57822,96679,255,255,255 C,0,96679,103537,255,255,255 C,0,103537,105822,255,255,255,0,0,0 C,0,105822,140108,0,0,0 C,0,140108,142394,0,0,0,255,255,255 C,0,142394,181251,255,255,255 C,0,181251,185822,255,255,255,0,0,0 C,0,185822,201822,0,0,0 C,0,201822,206394,0,0,0,255,255,255 C,0,206394,258965,255,255,255 F,0,252108,252679,1,0 F,0,252679,,0
Sprite,Background,Centre,"SB\Shaded rectangle.jpg",320,240 M,0,38679,,187,236 S,0,38679,,0.8 F,0,38679,39251,0,1 C,0,38679,41251,0,0,255 F,0,39251,56679,1,0.9877622 C,0,41251,41537,0,0,255,192,192,192 C,0,41537,53251,192,192,192 C,0,53251,56679,192,192,192,0,0,255 F,0,56679,57251,0.9877622,0
Sprite,Background,Centre,"SB\Shaded rectangle.jpg",320,240 M,0,45537,,320,236 S,0,45537,,0.8 F,0,45537,46108,0,1 C,0,45537,47822,255,255,0 F,0,46108,56679,1,0.9737303 C,0,47822,48394,255,255,0,192,192,192 C,0,48394,50394,192,192,192 C,0,50394,50679,192,192,192,255,255,0 C,0,50679,52679,255,255,0 C,0,52679,52965,255,255,0,192,192,192 C,0,52965,56679,192,192,192,255,255,0 F,0,56679,57251,0.9737303,0
Sprite,Background,Centre,"SB\Shaded rectangle.jpg",320,240 M,0,21251,,55,236 S,0,21251,,0.8 F,0,21251,21822,0,1 C,0,21251,29822,255,0,0 F,0,21822,56679,1,0.9982487 C,0,29822,30394,255,0,0,192,192,192 C,0,30394,47537,192,192,192 C,0,47537,48108,192,192,192,255,0,0 C,0,48108,49822,255,0,0 C,0,49822,50394,255,0,0,192,192,192 C,0,50394,53251,192,192,192 C,0,53251,56679,192,192,192,255,0,0 F,0,56679,57251,0.9982487,0
Sprite,Background,Centre,"SB\Shaded rectangle.jpg",320,240 M,0,29822,,456,236 S,0,29822,,0.8 F,0,29822,30394,0,1 C,0,29822,38965,255,128,64 F,0,30394,56679,1,0.9965035 C,0,38965,39537,255,128,64,192,192,192 C,0,39537,41251,192,192,192 C,0,41251,41537,192,192,192,255,128,64 C,0,41537,43251,255,128,64 C,0,43251,43537,255,128,64,192,192,192 C,0,43537,50394,192,192,192 C,0,50394,50679,192,192,192,255,128,64 C,0,50679,52679,255,128,64 C,0,52679,52965,255,128,64,192,192,192 C,0,52965,57251,192,192,192,255,128,64 F,0,56679,57251,0.9965035,0
Sprite,Background,Centre,"SB\Shaded rectangle.jpg",320,240 M,0,43251,,592,236 S,0,43251,,0.8 F,0,43251,43822,0,1 C,0,43251,45822,255,128,255 F,0,43822,56679,1,0.9947461 C,0,45822,46108,255,128,255,192,192,192 C,0,46108,53251,192,192,192 C,0,53251,56679,192,192,192,255,128,255 F,0,56679,57251,0.9947461,0
Sprite,Background,Centre,"SB\Shaded rectangle.jpg",320,240 M,0,105251,,592,236 S,0,105251,,0.8 F,0,105251,105822,0,1 C,0,105251,108822,192,192,192 F,0,105822,112108,1 C,0,108822,108965,192,192,192,255,128,255 C,0,108965,109251,255,128,255,192,192,192 C,0,109251,117822,192,192,192 F,0,112108,112537,1,0.5386667 F,0,112537,112679,0.5386667,0.9929947 F,0,112679,112965,0.9929947,0.5129947 F,0,112965,113108,0.5129947,1 F,0,113108,113394,1,0.56 F,0,113394,113537,0.56,1 F,0,113537,113822,1,0.472 F,0,113822,113965,0.472,0.8506666 F,0,113965,114251,0.8506666,0.5122797 F,0,114251,114822,0.5122797,0.5749878 F,0,114822,114965,0.5749878,1 F,0,114965,115108,1,0 F,0,115108,115537,0 F,0,115537,115822,0,1 F,0,115822,140679,1,0.9929824 C,0,117822,118394,192,192,192,255,128,255 C,0,118394,118679,255,128,255,192,192,192 C,0,118679,127822,192,192,192 C,0,127822,128394,192,192,192,255,128,255 C,0,128394,130394,255,128,255 C,0,130394,130965,255,128,255,192,192,192 C,0,130965,137822,192,192,192 C,0,137822,140679,192,192,192,255,128,255 F,0,140679,141251,0.9929824,0
Sprite,Background,Centre,"SB\Shaded rectangle.jpg",320,240 M,0,105251,,456,236 S,0,105251,,0.8 F,0,105251,105822,0,1 C,0,105251,114965,192,192,192 F,0,105822,112108,1 F,0,112108,112537,1,0.5386667 F,0,112537,112679,0.5386667,0.9929947 F,0,112679,112965,0.9929947,0.5129947 F,0,112965,113108,0.5129947,1 F,0,113108,113394,1,0.56 F,0,113394,113537,0.56,1 F,0,113537,113822,1,0.472 F,0,113822,113965,0.472,0.8506666 F,0,113965,114251,0.8506666,0.5122797 F,0,114251,114822,0.5122797,0.5749878 F,0,114822,114965,0.5749878,1 F,0,114965,115108,1,0 C,0,114965,115537,192,192,192,255,128,64 F,0,115108,115537,0 F,0,115537,115822,0,1 C,0,115537,122965,255,128,64 F,0,115822,140679,1,0.9929824 C,0,122965,123537,255,128,64,192,192,192 C,0,123537,125537,192,192,192 C,0,125537,126108,192,192,192,255,128,64 C,0,126108,127822,255,128,64 C,0,127822,128394,255,128,64,192,192,192 C,0,128394,134679,192,192,192 C,0,134679,135251,192,192,192,255,128,64 C,0,135251,137251,255,128,64 C,0,137251,137822,255,128,64,192,192,192 C,0,137822,141251,192,192,192,255,128,64 F,0,140679,141251,0.9929824,0
Sprite,Background,Centre,"SB\Shaded rectangle.jpg",320,240 M,0,105251,,55,236 S,0,105251,,0.8 F,0,105251,105822,0,1 C,0,105251,132679,192,192,192 F,0,105822,112108,1 F,0,112108,112537,1,0.5386667 F,0,112537,112679,0.5386667,0.9929947 F,0,112679,112965,0.9929947,0.5129947 F,0,112965,113108,0.5129947,1 F,0,113108,113394,1,0.56 F,0,113394,113537,0.56,1 F,0,113537,113822,1,0.472 F,0,113822,113965,0.472,0.8506666 F,0,113965,114251,0.8506666,0.5122797 F,0,114251,114822,0.5122797,0.5749878 F,0,114822,114965,0.5749878,1 F,0,114965,115108,1,0 F,0,115108,115537,0 F,0,115537,115822,0,1 F,0,115822,140679,1,0.9929824 C,0,132679,133251,192,192,192,255,0,0 C,0,133251,134965,255,0,0 C,0,134965,135537,255,0,0,192,192,192 C,0,135537,137822,192,192,192 C,0,137822,140679,192,192,192,255,0,0 F,0,140679,141251,0.9929824,0
Sprite,Background,Centre,"SB\Shaded rectangle.jpg",320,240 M,0,105251,,187,236 S,0,105251,,0.8 F,0,105251,105822,0,1 C,0,105251,123537,192,192,192 F,0,105822,112108,1 F,0,112108,112537,1,0.5386667 F,0,112537,112679,0.5386667,0.9929947 F,0,112679,112965,0.9929947,0.5129947 F,0,112965,113108,0.5129947,1 F,0,113108,113394,1,0.56 F,0,113394,113537,0.56,1 F,0,113537,113822,1,0.472 F,0,113822,113965,0.472,0.8506666 F,0,113965,114251,0.8506666,0.5122797 F,0,114251,114822,0.5122797,0.5749878 F,0,114822,114965,0.5749878,1 F,0,114965,115108,1,0 F,0,115108,115537,0 F,0,115537,115822,0,1 F,0,115822,140679,1,0.9929824 C,0,123537,123822,192,192,192,0,0,255 C,0,123822,125822,0,0,255 C,0,125822,126108,0,0,255,192,192,192 C,0,126108,137822,192,192,192 C,0,137822,140679,192,192,192,0,0,255 F,0,140679,141251,0.9929824,0
Sprite,Background,Centre,"SB\Shaded rectangle.jpg",320,240 M,0,105251,,320,236 S,0,105251,,0.8 F,0,105251,105822,0,1 C,0,105251,114394,255,255,0 F,0,105822,112108,1 F,0,112108,112537,1,0.5386667 F,0,112537,112679,0.5386667,0.9929947 F,0,112679,112965,0.9929947,0.5129947 F,0,112965,113108,0.5129947,1 F,0,113108,113394,1,0.56 F,0,113394,113537,0.56,1 F,0,113537,113822,1,0.472 F,0,113822,113965,0.472,0.8506666 F,0,113965,114251,0.8506666,0.5122797 F,0,114251,114822,0.5122797,0.5749878 C,0,114394,114965,255,255,0,192,192,192 F,0,114822,114965,0.5749878,1 F,0,114965,115108,1,0 C,0,114965,130108,192,192,192 F,0,115108,115537,0 F,0,115537,115822,0,1 F,0,115822,140679,1,0.9929824 C,0,130108,130679,192,192,192,255,255,0 C,0,130679,132965,255,255,0 C,0,132965,133537,255,255,0,192,192,192 C,0,133537,134679,192,192,192 C,0,134679,135251,192,192,192,255,255,0 C,0,135251,137251,255,255,0 C,0,137251,137822,255,255,0,192,192,192 C,0,137822,141251,192,192,192,255,255,0 F,0,140679,141251,0.9929824,0
//Storyboard Layer 1 (Fail)
//Storyboard Layer 2 (Pass)
//Storyboard Layer 3 (Foreground)
Sprite,Foreground,Centre,"SB\Meiko.png",320,240 M,0,21251,,55,236 S,0,21251,,0.8 F,0,21251,21822,0,1 F,0,21822,56679,1 F,0,56679,57251,1,0
Sprite,Foreground,Centre,"SB\Rin.png",320,240 M,0,29822,,456,236 S,0,29822,,0.8 F,0,29822,30394,0,1 F,0,30394,56679,1,0.9772727 F,0,56679,57251,0.9772727,0
Sprite,Foreground,Centre,"SB\Kaito.png",320,240 M,0,38679,,187,236 S,0,38679,,0.8 F,0,38679,39251,0,1 F,0,39251,56679,1 F,0,56679,57251,1,0
Sprite,Foreground,Centre,"SB\Luka.png",320,240 M,0,43251,,592,236 S,0,43251,,0.8 F,0,43251,43822,0,1 F,0,43822,56679,1,0.9807355 F,0,56679,57251,0.9807355,0
Sprite,Foreground,Centre,"SB\Len.png",320,240 M,0,45537,,320,236 S,0,45537,,0.8 F,0,45537,46108,0,1 F,0,46108,56679,1,0.9859895 F,0,56679,57251,0.9859895,0
Sprite,Foreground,Centre,"SB\Meiko.png",320,240 M,0,105251,,55,236 S,0,105251,,0.8 F,0,105251,105822,0,1 F,0,105822,114965,1 F,0,114965,115108,1,0 F,0,115108,115537,0 F,0,115537,115822,0,1 F,0,115822,140679,1 F,0,140679,141251,1,0
Sprite,Foreground,Centre,"SB\Len.png",320,240 M,0,105251,,320,236 S,0,105251,,0.8 F,0,105251,105822,0,1 F,0,105822,114965,1 F,0,114965,115108,1,0 F,0,115108,115537,0 F,0,115537,115822,0,1 F,0,115822,140679,1 F,0,140679,141251,1,0
Sprite,Foreground,Centre,"SB\Luka.png",320,240 M,0,105251,,592,236 S,0,105251,,0.8 F,0,105251,105822,0,1 F,0,105822,114965,1 F,0,114965,115108,1,0 F,0,115108,115537,0 F,0,115537,115822,0,1 F,0,115822,140679,1 F,0,140679,141251,1,0
Sprite,Foreground,Centre,"SB\Kaito.png",320,240 M,0,105251,,187,236 S,0,105251,,0.8 F,0,105251,105822,0,1 F,0,105822,114965,1 F,0,114965,115108,1,0 F,0,115108,115537,0 F,0,115537,115822,0,1 F,0,115822,140679,1 F,0,140679,141251,1,0
Sprite,Foreground,Centre,"SB\Rin.png",320,240 M,0,105251,,456,236 S,0,105251,,0.8 F,0,105251,105822,0,1 F,0,105822,114965,1 F,0,114965,115108,1,0 F,0,115108,115537,0 F,0,115537,115822,0,1 F,0,115822,140679,1 F,0,140679,141251,1,0
Sprite,Foreground,Centre,"SB\Song 1.png",320,240 F,0,59537,60108,0,1 M,0,59537,65251,146,141,164,141 F,0,60108,64679,1 F,0,64679,65251,1,0
Sprite,Foreground,Centre,"SB\Song 2.png",320,240 F,0,61822,62394,0,1 M,0,61822,67537,503,341,471,341 F,0,62394,66965,1 F,0,66965,67537,1,0
Sprite,Foreground,Centre,"SB\Song 3.png",320,240 F,0,64108,64679,0,1 M,0,64108,69822,112,366,112,287 F,0,64679,69251,1 F,0,69251,69822,1,0
Sprite,Foreground,Centre,"SB\Song 4.png",320,240 F,0,66394,66965,0,1 M,0,66394,72108,497,110,497,169 F,0,66965,71537,1 F,0,71537,72108,1,0
Sprite,Foreground,Centre,"SB\Song 5.png",320,240 F,0,68679,69251,0,1 M,0,68679,74394,180,60,250,60 F,0,69251,73822,1 F,0,73822,74394,1,0
Sprite,Foreground,Centre,"SB\Song 6.png",320,240 F,0,70965,71537,0,1 M,0,70965,76679,419,408,358,408 F,0,71537,76108,1 F,0,76108,76679,1,0
Sprite,Foreground,Centre,"SB\Song 7.png",320,240 F,0,73251,73822,0,1 M,0,73251,78965,566,139,566,222 F,0,73822,78394,1 F,0,78394,78965,1,0
Sprite,Foreground,Centre,"SB\Song 8.png",320,240 F,0,75537,76108,0,1 M,0,75537,81251,77,290,77,252 F,0,76108,80679,1 F,0,80679,81251,1,0
Sprite,Foreground,Centre,"SB\Song 9.png",320,240 F,0,77822,78394,0,1 M,0,77822,83537,273,72,330,72 F,0,78394,82965,1 F,0,82965,83537,1,0
Sprite,Foreground,Centre,"SB\Song 11.png",320,240 F,0,80108,80679,0,1 M,0,80108,85822,348,371,254,371 F,0,80679,85251,1 F,0,85251,85822,1,0
Sprite,Foreground,Centre,"SB\Song 12.png",320,240 F,0,82394,82965,0,1 M,0,82394,88108,561,181,561,274 F,0,82965,87537,1 F,0,87537,88108,1,0
Sprite,Foreground,Centre,"SB\Song 13.png",320,240 F,0,84679,85251,0,1 M,0,84679,90394,82,275,82,241 F,0,85251,89822,1 F,0,89822,90394,1,0
Sprite,Foreground,Centre,"SB\Song 14.png",320,240 F,0,86965,87537,0,1 M,0,86965,92679,362,80,496,80 F,0,87537,92108,1 F,0,92108,92679,1,0 M,0,92679,,496,80
Sprite,Foreground,Centre,"SB\Song 15.png",320,240 F,0,89251,89822,0,1 M,0,89251,94965,412,403,358,403 F,0,89822,94394,1 F,0,94394,94965,1,0
Sprite,Foreground,Centre,"SB\Song 16.png",320,240 F,0,91537,92108,0,1 M,0,91537,97251,86,203,86,249 F,0,92108,96679,1 F,0,96679,97251,1,0
Sprite,Foreground,Centre,"SB\Song 17.png",320,240 F,0,93251,93822,0,1 M,0,93251,97251,555,262,555,230 F,0,93822,96679,1 F,0,96679,97251,1,0
Sprite,Foreground,Centre,"SB\Miku.png",320,240 M,0,57822,,320,240 C,0,57822,,0,0,0 F,0,57822,60108,0,1 S,0,57822,60108,0.3920002,0.4346668 F,0,60108,96679,1 F,0,96679,98965,1,0
Sprite,Foreground,Centre,"SB\Miku.png",320,240 L,60108,64 F,0,0,286,1,0 S,0,0,286,0.4346668,0.467 F,0,286,571,0 S,0,286,571,0.4346668 C,0,60108,,0,0,0 F,0,96679,97822,1,0 S,0,96679,97822,0.4346668,0.5413334
Sprite,Foreground,Centre,"SB\Song b1.png",320,240 F,0,144108,144679,0,1 M,0,144108,149822,208,401,233,401 F,0,144679,149251,1 F,0,149251,149822,1,0
Sprite,Foreground,Centre,"SB\Song b2.png",320,240 F,0,146394,146965,0,1 M,0,146394,152108,410,65,362,65 F,0,146965,151537,1 F,0,151537,152108,1,0
Sprite,Foreground,Centre,"SB\Song b3.png",320,240 F,0,148679,149251,0,0.9967972 M,0,148679,154394,84,224,84,243 F,0,149251,153822,0.9967972,0.9712028 F,0,153822,154394,0.9712028,0
Sprite,Foreground,Centre,"SB\Song b4.png",320,240 F,0,150965,151537,0,1 M,0,150965,156679,561,284,561,231 F,0,151537,156108,1 F,0,156108,156679,1,0
Sprite,Foreground,Centre,"SB\Song b5.png",320,240 F,0,153251,153822,0,1 M,0,153251,158965,233,391,289,391 F,0,153822,158394,1 F,0,158394,158965,1,0
Sprite,Foreground,Centre,"SB\Song b6.png",320,240 F,0,155537,156108,0,1 M,0,155537,161251,289,70,330,71 F,0,156108,160679,1 F,0,160679,161251,1,0
Sprite,Foreground,Centre,"SB\Song b7.png",320,240 F,0,157822,158394,0,1 M,0,157822,163537,567,244,567,270 F,0,158394,163108,1 F,0,163108,163537,1,0
Sprite,Foreground,Centre,"SB\Song b8.png",320,240 F,0,160108,160679,0,1 M,0,160108,165822,86,225,84,265 F,0,160679,165251,1 F,0,165251,165822,1,0
Sprite,Foreground,Centre,"SB\Song b9.png",320,240 F,0,162394,162965,0,1 M,0,162394,168108,370,66,328,66 F,0,162965,167537,1 F,0,167537,168108,1,0
Sprite,Foreground,Centre,"SB\Song b17.png",320,240 F,0,164679,165251,0,1 M,0,164679,170394,399,408,350,406 F,0,165251,169822,1 F,0,169822,170394,1,0
Sprite,Foreground,Centre,"SB\Song b11.png",320,240 F,0,166965,167537,0,1 M,0,166965,172679,87,278,87,232 F,0,167537,172108,1 F,0,172108,172679,1,0
Sprite,Foreground,Centre,"SB\Song b12.png",320,240 F,0,169251,169822,0,1 M,0,169251,174965,554,141,554,202 F,0,169822,174394,1 F,0,174394,174965,1,0
Sprite,Foreground,Centre,"SB\Song b13.png",320,240 F,0,171537,172108,0,1 M,0,171537,177251,323,402,286,401 F,0,172108,176679,1 F,0,176679,177251,1,0
Sprite,Foreground,Centre,"SB\Song b14.png",320,240 F,0,173822,174394,0,1 M,0,173822,179537,233,67,359,69 F,0,174394,178965,1 F,0,178965,179537,1,0
Sprite,Foreground,Centre,"SB\Song b15.png",320,240 F,0,176108,176679,0,1 M,0,176108,181822,555,308,553,266 F,0,176679,181251,1 F,0,181251,181822,1,0
Sprite,Foreground,Centre,"SB\Song b16.png",320,240 F,0,177822,178394,0,1 M,0,177822,181822,89,229,87,288 F,0,178394,181251,1 F,0,181251,181822,1,0
Sprite,Foreground,Centre,"SB\Miku.png",320,240 L,144679,64 F,0,0,286,1,0 S,0,0,286,0.4346668,0.467 F,0,286,571,0 S,0,286,571,0.4346668 C,0,144679,,0,0,0 F,0,181251,182394,1,0 S,0,181251,182394,0.4346668,0.5413334
Sprite,Foreground,Centre,"SB\Miku.png",320,240 M,0,141251,,320,240 C,0,141251,142251,0,0,0 F,0,141251,142394,0,1 S,0,141251,142394,0.3920002,0.4346668 F,0,142394,181251,1 F,0,181251,183537,1,0
Sprite,Foreground,Centre,"SB\bling3.png",320,240 S,0,185251,,0.9039996 F,0,185251,185822,0,1 M,0,185251,202965,294,356,346,359 F,0,185822,202394,1 F,0,202394,202965,1,0
Sprite,Foreground,Centre,"SB\light.png",320,240 M,0,201822,,318,383 S,0,201822,,0.52 F,0,201822,205822,0,1 R,0,201822,206394,0,3.52 F,0,205822,206394,1,0
Sprite,Foreground,Centre,"SB\Mini Miku.png",320,240 S,0,208679,,0.552 F,0,208679,209251,0,1 M,0,208679,211537,454,344,430,343 F,0,209251,215537,1 F,0,215537,216108,1,0
Sprite,Foreground,Centre,"SB\Present Box 2.png",320,240 M,0,211537,,344,374 S,0,211537,,0.8293335 F,0,211537,212108,0,1 F,0,212108,,1 F,0,212108,215537,1,0.9807355 F,0,215537,216108,0.9807355,0
Sprite,Foreground,Centre,"SB\Present Box.png",320,240 M,0,206394,,314,376 F,0,206394,207537,1,0 S,0,206394,207537,0.8613333,1.213333
Sprite,Foreground,Centre,"SB\Present Box.png",320,240 M,0,201822,,314,376 F,0,201822,206394,0,1 S,0,201822,206394,0.6266665,0.8613333 F,0,206394,211537,1 F,0,211537,212108,1,0
Sprite,Foreground,Centre,"SB\Note 1.png",320,240 S,0,212108,,0.6266668 F,0,212108,212679,0,1 M,0,212108,216108,334,309,350,285 F,0,212679,215537,1 F,0,215537,216108,1,0 M,0,216108,,350,285
Sprite,Foreground,Centre,"SB\Note 3.jpg",320,240 S,0,212679,,0.8293329 F,0,212679,213251,0,1 M,0,212679,216108,268,297,267,275 F,0,213251,215537,1 F,0,215537,216108,1,0
Sprite,Foreground,Centre,"SB\Note 2.jpg",320,240 S,0,213251,,0.8293335 F,0,213251,213822,0,1 M,0,213251,216108,312,277,304,232 F,0,213822,215537,1 F,0,215537,216108,1,0
Sprite,Foreground,Centre,"SB\Note 2.jpg",320,240 S,0,214394,,0.6586667 R,0,214394,,-0.6613336 F,0,214394,214965,0,1 M,0,214394,216108,244,306,227,292 F,0,214965,215537,1 F,0,215537,216108,1,0
Sprite,Foreground,Centre,"SB\Note 1.png",320,240 S,0,214965,,0.6906667 R,0,214965,,-0.5973337 F,0,214965,215537,0,1 M,0,214965,216108,336,331,337,321 F,0,215537,216108,1,0
Sprite,Foreground,Centre,"SB\Note 3.jpg",320,240 S,0,213822,,0.6586667 R,0,213822,,1.066667 F,0,213822,214394,0,1 M,0,213822,216108,251,341,242,343 F,0,214394,215537,1 F,0,215537,216108,1,0
Sprite,Foreground,Centre,"SB\Happy Birthday.png",320,240 F,0,2108,2394,0,1 M,0,2108,4394,282,199,311,200 F,0,2394,4108,1 F,0,4108,4394,1,0
Sprite,Foreground,Centre,"SB\Happy Birthday.png",320,240 F,0,4108,4394,0,1 M,0,4108,6965,427,281,384,283 F,0,4394,6679,1 F,0,6679,6965,1,0
Sprite,Foreground,Centre,"SB\To You.png",320,240 M,0,6965,,320,240 F,0,6965,7251,0,1 S,0,6965,9822,1,1.074667 F,0,7251,9537,1 F,0,9537,9822,1,0
Sprite,Foreground,Centre,"SB\Happy Birthday.png",320,240 S,0,11251,,1 F,0,11251,11537,0,1 M,0,11251,13537,436,195,384,194 F,0,11537,13251,1 F,0,13251,13537,1,0
Sprite,Foreground,Centre,"SB\Happy Birthday.png",320,240 F,0,13537,13822,0,1 M,0,13537,16108,248,305,312,302 F,0,13822,15822,1 F,0,15822,16108,1,0
Sprite,Foreground,Centre,"SB\To You.png",320,240 M,0,16108,,326,86 F,0,16108,16394,0,1 S,0,16108,18965,1,1.138667 F,0,16394,18679,1 F,0,18679,18965,1,0
Sprite,Foreground,Centre,"SB\Happy Birthday.png",320,240 F,0,66108,66394,0,1 S,0,66108,67822,1.053334,1.096 F,0,66394,67537,1,0.979021 F,0,67537,67822,0.979021,0
Sprite,Foreground,Centre,"SB\Miku Thank You.png",320,240 F,0,84394,84679,0,1 S,0,84394,86108,0.9893332,1.053333 F,0,84679,85822,1 F,0,85822,86108,1,0
Sprite,Foreground,Centre,"SB\Happy Birthday.png",320,240 F,0,150679,150965,0,1 S,0,150679,152394,1,1.149333 F,0,150965,152108,1 F,0,152108,152394,1,0
Sprite,Foreground,Centre,"SB\Miku Thank You.png",320,240 F,0,168965,169251,0,1 S,0,168965,170679,1,1.074667 F,0,169251,170394,1 F,0,170394,170679,1,0
Sprite,Foreground,Centre,"SB\Happy Birthday.png",320,240 M,0,214679,,320,455 F,0,214679,214965,0,1 S,0,214679,216108,1,1.064 F,0,214965,215822,1 F,0,215822,216108,1,0.4346665
Sprite,Foreground,Centre,"SB\Song c1.png",320,240 F,0,217822,218108,0,1 M,0,217822,222394,256,80,299,80 F,0,218108,222108,1 F,0,222108,222394,1,0
Sprite,Foreground,Centre,"SB\Song c2.png",320,240 F,0,220108,220394,0,1 M,0,220108,224679,387,395,351,396 F,0,220394,224394,1 F,0,224394,224679,1,0
Sprite,Foreground,Centre,"SB\Song c3.png",320,240 F,0,222394,222679,0,1 M,0,222394,226965,80,194,80,227 F,0,222679,226679,1 F,0,226679,226965,1,0
Sprite,Foreground,Centre,"SB\Song c4.png",320,240 F,0,224679,224965,0,1 M,0,224679,229251,561,276,561,257 F,0,228965,229251,1,0
Sprite,Foreground,Centre,"SB\Song c5.png",320,240 F,0,226965,227251,0,1 M,0,226965,231537,254,78,299,77 F,0,227251,231251,1 F,0,231251,231537,1,0
Sprite,Foreground,Centre,"SB\Song c6.png",320,240 F,0,229251,229537,0,1 M,0,229251,233822,324,396,360,401 F,0,229537,233537,1 F,0,233537,233822,1,0
Sprite,Foreground,Centre,"SB\Song c7.png",320,240 F,0,231537,231822,0,1 M,0,231537,236108,80,216,80,240 F,0,231822,235822,1 F,0,235822,236108,1,0
Sprite,Foreground,Centre,"SB\Song c8.png",320,240 F,0,233822,234108,0,1 M,0,233822,238394,557,269,557,286 F,0,234108,238108,1 F,0,238108,238394,1,0
Sprite,Foreground,Centre,"SB\Song c9.png",320,240 F,0,236108,236394,0,1 M,0,236108,240679,263,83,305,84 F,0,236394,240394,1 F,0,240394,240679,1,0
Sprite,Foreground,Centre,"SB\Song c11.png",320,240 F,0,238394,238679,0,1 M,0,238394,242965,384,400,337,398 F,0,238679,242679,1 F,0,242679,242965,1,0
Sprite,Foreground,Centre,"SB\Song c12.png",320,240 F,0,242965,243251,0,1 M,0,242965,247537,285,241,341,242 F,0,243251,247251,1 F,0,247251,247537,1,0
Sprite,Foreground,Centre,"SB\Crypton Vocaloids.png",320,240 F,0,248108,252108,0,1 S,0,248108,261251,0.8080002,0.849042 F,0,252108,260965,1 F,0,260965,261251,1,0
Sprite,Foreground,Centre,"SB\Miku Thank You.png",320,240 M,0,232965,,320,240 F,0,232965,233251,0,1 S,0,232965,234965,0.9146666,1.021333 R,0,232965,234965,0,0.04266693 F,0,233251,234679,1 F,0,234679,234965,1,0
//Storyboard Layer 4 (Overlay)
//Storyboard Sound Samples

[TimingPoints]
680,571.428571428571,4,2,0,70,1,0
57822,-84.7457627118644,4,2,0,70,0,0
59965,-84.7457627118644,4,2,0,70,0,1
78179,-84.7457627118644,4,2,0,70,0,0
78251,-84.7457627118644,4,2,0,70,0,1
96679,-100,4,2,0,70,0,0
131965,-100,4,2,0,40,0,0
132537,-200,4,2,0,70,0,0
133251,-100,4,2,0,70,0,0
143394,-90.0900900900901,4,2,0,70,0,0
144679,-84.7457627118644,4,2,0,70,0,1
149822,-90.9090909090909,4,1,0,70,0,1
150394,-84.7457627118644,4,2,0,70,0,1
162894,-84.7457627118644,4,2,0,70,0,0
162965,-84.7457627118644,4,2,0,70,0,1
168108,-90.9090909090909,4,1,0,70,0,1
168679,-84.7457627118644,4,2,0,70,0,1
181251,-84.7457627118644,4,2,0,70,0,0
185822,-133.333333333333,4,2,0,50,0,0
215537,-84.7457627118644,4,2,0,70,0,0
217679,-84.7457627118644,4,2,0,70,0,1
226965,-84.7457627118644,4,2,0,70,0,0
227537,-84.7457627118644,4,2,0,100,0,1
227679,-84.7457627118644,4,2,0,70,0,1
240251,-78.125,4,2,0,70,0,1
240537,-84.7457627118644,4,2,0,70,0,1
247537,-84.7457627118644,4,2,0,70,0,0
256679,-84.7457627118644,4,2,0,7,0,0

[Colours]
Combo1 : 17,234,87
Combo2 : 224,7,7
Combo3 : 18,124,255
Combo4 : 238,133,28
Combo5 : 255,192,0
Combo6 : 235,101,245
Combo7 : 9,255,187
Combo8 : 24,206,216
SliderBorder : 202,202,202

[HitObjects]
40,228,21251,5,4,0:0:0:0:
152,316,21537,2,0,P|208:356|264:336,2,130,2|8|2,0:0|3:1|0:0,0:0:0:0:
184,252,22251,2,0,B|196:212|160:196|124:180|136:140,1,130,8|8,0:1|0:1,0:0:0:0:
76,100,22679,2,0,L|204:76,1,130,0|8,3:0|0:1,0:0:0:0:
344,56,23251,1,2,0:0:0:0:
476,108,23537,5,2,3:1:0:0:
504,244,23822,2,0,L|372:264,1,130,0|8,3:0|0:1,0:0:0:0:
392,332,24251,2,0,P|340:372|276:360,2,130,0|8|8,3:0|0:1|0:1,0:0:0:0:
376,264,24965,2,0,B|360:224|360:224|380:188|380:188|364:144,1,130,0|8,3:0|0:1,0:0:0:0:
324,36,25537,6,2,P|212:8|144:116,1,260,2|0,2:1|3:0,0:0:0:0:
184,252,26394,1,8,0:1:0:0:
192,264,26537,1,0,3:0:0:0:
334,264,26822,2,0,B|372:256|372:256|420:280|460:264,1,130,8|8,0:1|0:1,0:0:0:0:
496,200,27251,2,0,B|476:160|476:160|452:144|452:144|432:88,2,130,0|8|0,3:0|0:1|3:0,0:0:0:0:
392,296,28108,5,2,0:1:0:0:
256,344,28394,1,2,0:1:0:0:
120,296,28679,1,2,0:1:0:0:
28,188,28965,1,2,0:1:0:0:
16,116,29108,2,0,B|80:120|80:120|132:80,1,130,2|2,0:1|3:1,0:0:0:0:
152,12,29537,2,0,P|220:4|260:44,1,130,2|2,3:1|3:1,0:0:0:0:
304,100,29965,1,2,3:1:0:0:
372,120,30108,1,2,3:1:0:0:
432,248,30394,5,4,0:0:0:0:
316,332,30679,2,0,B|287:357|255:333|223:309|193:335,2,130,2|8|2,0:0|0:1|0:0,0:0:0:0:
352,268,31394,2,0,P|384:224|456:228,1,130,0|0,3:1|3:1,0:0:0:0:
512,272,31822,2,0,P|476:216|484:152,1,130,0|8,3:0|0:1,0:0:0:0:
512,16,32394,1,2,0:0:0:0:
512,16,32679,54,0,B|465:26|465:26|441:48|441:48|390:60,1,130,2|2,0:1|0:0,0:0:0:0:
256,100,33251,1,8,0:1:0:0:
124,48,33537,1,2,0:0:0:0:
52,40,33679,1,2,0:0:0:0:
36,108,33822,2,0,P|92:160|80:212,2,130,0|2|8,3:0|0:0|3:1,0:0:0:0:
188,36,34679,6,2,P|300:8|368:116,1,260,2|0,2:1|3:0,0:0:0:0:
328,252,35536,1,8,0:1:0:0:
320,264,35679,1,0,3:0:0:0:
192,332,35965,2,0,P|116:340|76:300,1,130,8|8,0:1|0:1,0:0:0:0:
52,240,36394,2,0,B|98:229|98:229|122:207|122:207|173:195,1,130,0|8,3:0|0:1,0:0:0:0:
300,160,36965,1,0,3:0:0:0:
396,76,37251,5,2,0:1:0:0:
256,52,37537,1,2,0:1:0:0:
116,76,37822,1,2,0:1:0:0:
92,216,38108,1,2,0:1:0:0:
108,228,38251,1,2,3:1:0:0:
256,252,38537,1,2,0:1:0:0:
256,272,38680,1,2,3:1:0:0:
420,216,38965,1,2,0:1:0:0:
404,228,39108,1,2,3:1:0:0:
388,240,39251,1,2,3:1:0:0:
316,360,39537,6,0,P|256:384|196:360,1,130,4|2,0:0|0:0,0:0:0:0:
196,220,40108,2,0,P|256:196|316:220,1,130,8|2,0:1|0:0,0:0:0:0:
344,284,40537,2,0,B|388:300|388:300|432:280|472:308,1,130,0|0,3:0|3:0,0:0:0:0:
512,360,40965,2,0,L|492:220,1,130,0|8,3:0|0:1,0:0:0:0:
468,88,41537,5,2,0:0:0:0:
344,20,41822,1,0,0:0:0:0:
340,164,42108,1,2,0:0:0:0:
44,296,42679,1,2,0:0:0:0:
168,364,42964,1,0,0:0:0:0:
172,220,43250,1,2,0:0:0:0:
392,40,43822,53,2,0:0:0:0:
256,84,44108,1,4,3:2:0:0:
120,40,44394,1,2,0:0:0:0:
36,152,44679,2,0,L|156:216,1,130,8|2,0:1|0:0,0:0:0:0:
178,279,45108,2,0,P|226:335|282:331,1,130,0|0,3:0|3:0,3:0:0:0:
250,267,45537,2,2,P|202:211|146:215,1,130,0|8,3:0|0:1,0:0:0:0:
44,88,46108,5,2,0:0:0:0:
168,20,46393,1,0,0:0:0:0:
172,164,46679,1,2,0:0:0:0:
468,296,47250,1,2,0:0:0:0:
344,364,47537,1,0,0:0:0:0:
340,220,47821,1,2,0:0:0:0:
256,39,48108,6,8,L|268:104,3,65,0|0|8|8,1:1|1:1|0:3|0:3,0:0:0:0:
288,172,48679,2,0,P|228:208|160:184,1,130,4|2,0:0|0:0,0:0:0:0:
108,68,49251,1,8,0:1:0:0:
12,172,49537,1,2,0:0:0:0:
0,244,49679,2,8,B|48:252|48:252|64:272|64:272|118:282,1,130,8|8,0:1|0:1,0:0:0:0:
164,336,50108,2,0,P|152:276|200:228,1,130,0|8,3:0|0:1,0:0:0:0:
256,100,50679,5,2,0:0:0:0:
280,92,50965,1,0,0:0:0:0:
308,100,51251,1,2,0:0:0:0:
256,284,51822,1,2,0:0:0:0:
232,292,52108,1,0,0:0:0:0:
204,284,52394,1,2,0:0:0:0:
256,100,52965,1,2,0:0:0:0:
256,192,53251,12,2,57822,0:0:0:0:
124,336,58679,21,0,0:0:0:0:
256,364,58965,1,2,0:0:0:0:
388,336,59251,1,0,3:0:0:0:
456,224,59537,2,0,P|471:150|425:91,1,153.399994616394,8|0,0:0|3:0,0:0:0:0:
364,48,59965,2,0,P|256:15|148:48,1,230.099991924591,6|0,1:1|1:0,0:0:0:0:
84,180,60679,1,8,0:1:0:0:
144,304,60965,5,2,0:0:0:0:
256,384,61251,1,0,1:0:0:0:
368,304,61537,1,2,0:0:0:0:
328,172,61822,2,0,B|256:144|256:144|184:172,1,153.399994616394,8|2,0:1|0:0,0:0:0:0:
148,112,62251,2,0,B|256:72|256:72|364:112,1,230.099991924591,6|0,1:0|1:0,0:0:0:0:
456,224,62965,1,8,0:1:0:0:
388,336,63251,5,2,0:0:0:0:
256,364,63537,1,0,1:0:0:0:
124,336,63823,1,2,0:0:0:0:
56,224,64109,2,0,P|41:150|87:91,1,153.399994616394,8|2,0:1|0:0,0:0:0:0:
148,48,64537,2,0,P|256:15|364:48,1,230.099991924591,6|0,1:1|1:0,0:0:0:0:
428,180,65251,1,8,0:1:0:0:
84,180,65822,1,2,0:0:0:0:
188,272,66108,86,0,P|256:302|324:272,1,153.399994616394,2|8,0:0|0:1,0:0:0:0:
372,140,66679,2,0,P|256:56|140:140,1,306.799989232788,2|2,0:0|0:0,0:0:0:0:
256,220,67537,1,8,0:1:0:0:
376,284,67822,5,2,0:0:0:0:
504,232,68108,1,0,1:0:0:0:
456,104,68394,1,2,0:0:0:0:
328,152,68679,2,0,B|256:180|256:180|184:152,1,153.399994616394,8|2,0:1|0:0,0:0:0:0:
152,92,69108,2,0,P|256:48|360:92,1,230.099991924591,6|2,1:0|0:0,0:0:0:0:
256,192,69822,1,8,0:1:0:0:
136,284,70108,5,2,0:0:0:0:
8,232,70394,1,0,1:0:0:0:
56,104,70680,1,2,0:0:0:0:
184,152,70965,2,0,P|256:176|328:152,1,153.399994616394,8|2,0:1|0:0,0:0:0:0:
348,84,71394,2,0,B|300:32|300:32|212:32|212:32|164:84,1,230.099991924591,6|2,1:0|0:0,0:0:0:0:
44,152,72108,85,8,0:1:0:0:
72,288,72394,1,2,0:0:0:0:
184,368,72679,1,0,1:0:0:0:
328,368,72965,1,2,0:0:0:0:
440,288,73251,1,8,0:1:0:0:
468,152,73537,1,2,0:0:0:0:
392,36,73822,5,2,1:2:0:0:
100,56,74394,1,2,1:2:0:0:
120,348,74965,1,2,1:2:0:0:
412,328,75537,1,2,1:2:0:0:
448,196,75822,2,0,B|416:124|292:112|288:212|256:200|256:200|224:212|220:112|96:124|64:196,1,460.199983849183,2|8,1:2|0:1,0:0:0:0:
52,332,76965,5,2,0:0:0:0:
184,372,77251,1,0,1:0:0:0:
224,240,77537,1,2,0:0:0:0:
92,196,77822,2,0,P|60:136|96:64,1,153.399994616394,8|2,0:1|0:0,0:0:0:0:
152,24,78251,2,0,B|196:-24|256:12|256:36|316:72|360:24,1,230.099991924591,6|2,1:1|0:0,0:0:0:0:
384,160,78965,85,8,0:1:0:0:
256,260,79251,1,2,0:0:0:0:
128,160,79537,1,0,1:0:0:0:
256,64,79822,1,2,0:0:0:0:
324,188,80108,2,0,B|284:216|284:216|228:216|228:216|188:188,1,153.399994616394,8|2,0:1|0:0,0:0:0:0:
160,124,80537,2,0,P|256:70|352:124,1,230.099991924591,6|2,1:0|0:0,0:0:0:0:
288,240,81251,1,8,0:1:0:0:
288,240,81537,5,2,0:0:0:0:
328,372,81822,1,0,1:0:0:0:
460,332,82108,1,2,0:0:0:0:
420,196,82393,2,0,P|452:136|416:64,1,153.399994616394,8|2,0:1|0:0,0:0:0:0:
360,24,82822,2,0,B|316:-24|256:12|256:36|196:72|152:24,1,230.099991924591,6|2,1:1|0:0,0:0:0:0:
128,160,83537,1,8,0:1:0:0:
384,160,84108,1,2,0:0:0:0:
328,288,84394,5,2,0:0:0:0:
184,288,84679,1,8,3:1:0:0:
128,160,84965,2,0,B|176:104|232:124|256:164|256:164|280:124|336:104|384:160,1,306.799989232788,2|2,0:0|0:0,0:0:0:0:
52,236,86108,85,2,0:0:0:0:
120,348,86394,1,0,3:0:0:0:
256,380,86679,1,2,0:0:0:0:
392,348,86965,1,8,0:1:0:0:
460,236,87251,1,2,0:0:0:0:
328,192,87537,6,0,B|336:152|388:160|388:160|388:124|388:124|444:120|472:52,2,230.099991924591,6|2|0,0:0|0:0|0:0,0:0:0:0:
184,192,88679,2,0,B|176:152|124:160|124:160|124:124|124:124|68:120|40:52,2,230.099991924591,6|2|2,0:0|0:0|0:0,0:0:0:0:
256,312,89822,2,0,B|260:288|276:272|276:272|244:256|244:256|296:184|256:116,2,230.099991924591,6|2|2,0:0|0:0|0:0,0:0:0:0:
360,220,90965,1,2,0:0:0:0:
256,116,91251,1,0,3:0:0:0:
152,220,91537,1,8,0:1:0:0:
152,220,91679,1,2,0:1:0:0:
48,40,92108,5,2,1:2:0:0:
48,40,92251,1,0,3:0:0:0:
48,40,92537,2,0,P|128:112|228:68,1,230.099991924591,8|2,0:1|0:0,0:0:0:0:
464,40,93251,1,2,1:2:0:0:
464,40,93394,1,0,3:0:0:0:
464,40,93680,2,0,P|384:112|284:68,1,230.099991924591,8|2,0:1|0:0,0:0:0:0:
132,60,94394,85,2,0:3:0:0:
256,4,94679,1,8,0:3:0:0:
380,60,94965,1,8,0:1:0:0:
416,192,95251,2,0,P|384:240|352:232,1,95.8749966352464,2|2,3:0|3:0,0:0:0:0:
304,212,95537,2,0,B|256:204|256:204|208:212,1,95.8749966352464,0|0,3:0|3:0,0:0:0:0:
158,233,95822,2,0,P|112:233|96:192,1,95.8749966352464,8|8,3:0|3:0,0:0:0:0:
128,156,96108,1,8,0:1:0:0:
256,104,96394,1,4,3:0:0:0:
384,156,96679,1,4,0:1:0:0:
452,308,105822,85,4,0:0:0:0:
348,364,106108,1,2,0:0:0:0:
232,364,106394,2,0,B|180:364|180:364|152:352|152:352|100:352,1,130,8|0,0:1|3:0,0:0:0:0:
32,352,106822,2,0,P|8:292|32:232,1,130,8|8,0:1|0:1,0:0:0:0:
88,188,107251,2,0,B|128:148|128:148|128:72,2,130,0|8|2,3:0|0:1|0:0,0:0:0:0:
196,284,108108,6,0,P|236:232|356:248,1,195,2|2,0:1|0:0,0:0:0:0:
380,312,108679,2,0,L|416:184,2,130,8|0|2,0:1|3:0|0:0,0:0:0:0:
316,348,109394,1,2,0:0:0:0:
244,340,109537,1,0,3:0:0:0:
120,268,109822,1,8,0:1:0:0:
216,168,110108,54,0,B|248:112|248:112|320:92,2,130,2|0|0,0:1|3:0|3:0,0:0:0:0:
140,194,110822,1,0,3:0:0:0:
140,194,110965,2,0,B|187:240|187:240|252:240,1,130,8|0,0:1|3:1,0:0:0:0:
312,291,111394,2,0,B|328:227|328:227|296:172,2,130,2|2|2,3:0|0:0|3:0,0:0:0:0:
215,167,112108,2,0,B|247:111|247:111|311:94,1,130,8|2,3:1|0:0,0:0:0:0:
367,7,112679,5,2,0:0:0:0:
380,76,112822,1,0,0:0:0:0:
354,247,113108,1,2,0:0:0:0:
372,316,113251,1,0,0:0:0:0:
201,290,113537,1,2,3:2:0:0:
132,308,113680,1,0,3:0:0:0:
158,137,113965,1,0,3:0:0:0:
140,68,114108,1,0,3:0:0:0:
256,16,114394,22,0,L|280:52,6,43.3333333333333,0|0|0|0|0|0|4,0:0|0:0|0:0|0:0|0:0|0:0|0:3,0:0:0:0:
256,16,115537,102,0,P|184:12|152:56,1,130,12|0,0:1|3:0,0:0:0:0:
128,120,115965,2,0,B|116:160|152:176|188:192|176:232,1,130,8|8,0:1|0:1,0:0:0:0:
116,272,116394,2,0,L|244:308,1,130,0|8,3:0|0:1,0:0:0:0:
384,332,116965,1,2,0:0:0:0:
468,232,117251,6,0,P|492:160|460:124,1,130,2|0,0:1|3:0,0:0:0:0:
324,80,117822,1,8,0:1:0:0:
192,132,118108,1,2,0:0:0:0:
124,156,118251,1,0,3:0:0:0:
56,180,118394,2,0,B|72:228|72:228|92:248|92:248|112:300,2,130,2|0|8,0:3|3:0|0:1,0:0:0:0:
8,44,119251,1,2,0:0:0:0:
148,8,119537,5,4,0:3:0:0:
172,76,119679,1,2,0:0:0:0:
196,144,119822,2,0,P|256:168|316:144,2,130,4|8|2,0:3|0:1|0:0,0:0:0:0:
160,208,120537,2,0,B|192:228|220:236|220:236|220:304,1,130,8|8,0:1|0:1,0:0:0:0:
292,299,120965,2,0,B|292:236|292:236|320:228|352:208,1,130,0|8,3:0|0:1,0:0:0:0:
484,156,121537,1,2,0:0:0:0:
396,44,121822,53,2,0:1:0:0:
256,12,122108,1,2,0:1:0:0:
116,44,122394,1,2,0:1:0:0:
160,180,122679,1,2,0:1:0:0:
172,168,122822,1,2,0:1:0:0:
352,180,123108,1,2,0:1:0:0:
340,168,123251,1,2,0:1:0:0:
256,260,123537,2,0,B|252:296|252:296|260:320|260:320|256:348,1,81.25,0|8,1:0|0:3,0:0:0:0:
256,368,123822,1,12,0:3:0:0:
120,324,124108,5,4,0:0:0:0:
64,192,124394,1,2,0:0:0:0:
120,60,124679,2,0,P|176:24|236:40,1,130,8|0,0:1|3:0,0:0:0:0:
224,112,125108,2,0,B|272:124|272:124|300:120|300:120|356:132,1,130,0|0,3:0|3:0,0:0:0:0:
424,128,125537,2,0,P|364:188|376:232,1,130,0|8,3:0|0:1,0:0:0:0:
412,360,126108,5,2,0:0:0:0:
268,344,126394,1,0,0:0:0:0:
156,256,126679,1,2,0:0:0:0:
100,24,127251,1,2,0:0:0:0:
244,40,127537,1,0,0:0:0:0:
356,128,127822,1,2,0:0:0:0:
140,316,128394,5,2,0:0:0:0:
280,344,128679,2,0,P|340:376|404:360,1,130,4|2,0:2|0:0,3:0:0:0:
444,228,129251,2,0,P|391:175|390:119,1,130,8|0,0:1|3:0,0:0:0:0:
396,53,129679,2,0,B|324:48|324:48|276:88,1,130,0|0,3:0|3:0,0:0:0:0:
228,132,130108,1,0,3:0:0:0:
116,224,130394,1,8,0:1:0:0:
100,360,130679,5,2,0:0:0:0:
244,344,130965,1,0,0:0:0:0:
356,256,131250,1,2,0:0:0:0:
412,24,131822,1,2,0:0:0:0:
268,40,132108,1,0,0:0:0:0:
156,128,132393,1,0,0:0:0:0:
132,272,132679,54,2,B|145:303|145:303|162:298|162:298|174:347|222:351,1,130,2|4,0:0|0:0,0:0:0:0:
356,336,133537,1,2,0:0:0:0:
428,212,133822,2,0,L|460:72,1,130,8|0,0:1|3:0,0:0:0:0:
408,32,134251,2,0,L|270:74,1,130,0|0,3:0|3:0,0:0:0:0:
260,136,134679,2,0,L|365:233,1,130,0|8,3:0|0:1,0:0:0:0:
256,328,135251,5,2,0:0:0:0:
280,304,135537,1,0,0:0:0:0:
272,272,135822,1,2,0:0:0:0:
256,56,136394,1,2,0:0:0:0:
232,80,136680,1,0,0:0:0:0:
240,112,136965,1,2,0:0:0:0:
256,376,137537,5,2,0:0:0:0:
184,252,137822,2,0,B|140:236|140:236|96:248|60:208,2,130,4|2|8,0:0|0:0|0:1,0:0:0:0:
328,252,138679,2,0,B|372:236|372:236|416:248|452:208,2,130,4|2|2,0:0|0:0|0:3,0:0:0:0:
204,180,139537,1,8,0:1:0:0:
256,48,139822,1,2,0:0:0:0:
308,180,140108,1,2,0:1:0:0:
376,308,140394,5,0,3:0:0:0:
352,320,140537,1,2,0:1:0:0:
160,320,140822,1,0,3:0:0:0:
136,308,140965,2,2,P|256:124|376:308,1,520,2|2,0:1|0:0,0:0:0:0:
352,320,142251,1,2,0:0:0:0:
332,332,142394,5,0,1:0:0:0:
112,76,142679,1,2,0:1:0:0:
180,332,142965,1,0,1:0:0:0:
400,76,143251,1,2,0:1:0:0:
332,332,143537,2,0,B|344:364|344:364|280:348|280:348|288:340|288:340|224:324|224:324|232:316|232:316|168:300|168:300|180:332,1,288.600007045899,0|8,1:0|0:1,0:0:0:0:
52,352,144394,5,2,0:0:0:0:
36,284,144537,1,2,0:0:0:0:
20,216,144679,2,0,P|64:168|148:176,2,153.399994616394,4|2|8,0:1|0:0|0:1,0:0:0:0:
52,352,145537,1,2,0:0:0:0:
180,300,145822,1,0,1:0:0:0:
256,184,146108,1,2,0:0:0:0:
332,300,146394,1,8,0:1:0:0:
460,352,146679,5,2,0:0:0:0:
476,284,146822,1,2,0:0:0:0:
492,216,146965,2,0,P|448:168|364:176,2,153.399994616394,4|2|8,0:1|0:0|0:1,0:0:0:0:
380,296,147822,5,2,0:0:0:0:
256,360,148108,1,0,1:0:0:0:
132,296,148394,1,2,0:0:0:0:
184,168,148679,2,0,P|256:144|328:168,1,153.399994616394,8|2,0:1|0:0,0:0:0:0:
368,108,149108,2,0,P|256:72|144:108,1,230.099991924591,6|2,0:1|0:0,0:0:0:0:
136,72,149679,1,2,0:0:0:0:
120,36,149822,2,2,P|256:-1|392:36,1,286.000008728028,2|2,2:1|0:0,1:1:0:0:
436,168,150679,85,2,0:0:0:0:
376,292,150965,1,8,0:1:0:0:
256,220,151251,1,2,0:0:0:0:
136,292,151537,1,0,3:0:0:0:
76,168,151822,1,2,0:0:0:0:
120,36,152108,2,2,B|196:16|256:85|256:85|316:16|392:36,1,306.799989232788,2|0,0:0|3:0,0:0:0:0:
436,168,152965,5,2,0:0:0:0:
388,300,153251,1,8,0:1:0:0:
256,344,153537,1,2,0:0:0:0:
187,335,153679,1,2,0:0:0:0:
124,300,153822,2,0,P|76:244|76:168,1,153.399994616394,6|2,0:1|0:0,0:0:0:0:
148,52,154394,2,0,P|196:108|196:184,2,153.399994616394,8|2|0,0:1|0:0|3:0,0:0:0:0:
76,168,155251,5,2,0:0:0:0:
124,300,155537,1,8,0:1:0:0:
256,344,155822,1,2,0:0:0:0:
325,335,155964,1,2,0:0:0:0:
388,300,156108,2,0,P|436:244|436:168,1,153.399994616394,6|2,0:1|0:0,0:0:0:0:
364,52,156679,2,0,P|316:108|316:184,1,153.399994616394,8|2,0:1|0:0,0:0:0:0:
428,264,157251,85,0,3:0:0:0:
328,360,157537,1,2,0:0:0:0:
184,360,157822,1,8,0:1:0:0:
84,264,158108,1,2,0:0:0:0:
112,128,158394,5,2,1:2:0:0:
320,48,158965,1,2,1:2:0:0:
400,256,159537,1,2,1:2:0:0:
192,336,160108,1,2,1:2:0:0:
108,228,160394,2,0,B|64:124|276:64|256:192|236:320|448:260|404:156,1,460.199983849183,2|8,1:2|0:1,0:0:0:0:
364,24,161537,5,2,0:0:0:0:
228,36,161822,1,0,1:0:0:0:
108,100,162108,1,2,0:0:0:0:
52,228,162394,2,0,P|32:308|88:356,1,153.399994616394,8|2,0:1|0:0,0:0:0:0:
144,372,162822,1,2,0:0:0:0:
196,328,162965,2,0,P|216:248|160:200,1,153.399994616394,6|2,0:1|0:0,0:0:0:0:
64,116,163537,1,8,0:1:0:0:
148,24,163822,85,2,0:0:0:0:
284,36,164107,1,0,1:0:0:0:
404,100,164393,1,2,0:0:0:0:
460,228,164679,2,0,P|480:308|424:356,1,153.399994616394,8|2,0:1|0:0,0:0:0:0:
368,372,165107,1,2,0:0:0:0:
316,328,165251,2,0,P|296:248|352:200,1,153.399994616394,6|2,0:1|0:0,0:0:0:0:
448,116,165822,1,8,0:1:0:0:
368,4,166108,5,2,0:0:0:0:
256,84,166394,1,0,1:0:0:0:
144,4,166679,1,2,0:0:0:0:
184,136,166965,2,0,P|256:160|328:136,1,153.399994616394,8|2,0:1|0:0,0:0:0:0:
368,196,167394,2,0,P|256:232|144:196,1,230.099991924591,6|2,0:1|0:0,0:0:0:0:
136,232,167965,1,2,0:0:0:0:
120,268,168108,2,2,P|256:305|392:268,1,286.000008728028,2|2,2:1|0:0,0:0:0:0:
328,152,168965,5,2,0:0:0:0:
184,152,169250,1,8,3:1:0:0:
128,28,169536,2,0,B|176:84|232:64|256:24|256:24|280:64|336:84|384:28,2,306.799989232788,2|2|2,0:0|0:0|0:0,0:0:0:0:
104,164,170965,1,0,3:0:0:0:
184,276,171251,1,2,0:0:0:0:
328,276,171537,1,8,0:1:0:0:
408,164,171822,1,2,0:0:0:0:
368,32,172108,86,0,B|333:42|329:67|329:67|304:69|304:69|267:158|188:136,2,230.099991924591,6|2|0,0:0|0:0|0:0,0:0:0:0:
256,4,173251,2,0,B|256:28|264:40|264:40|248:52|248:52|296:104|220:152|256:216,2,230.099991924591,6|2|2,0:0|0:0|0:0,0:0:0:0:
144,32,174394,2,0,B|178:42|182:67|182:67|207:69|207:69|244:158|324:136,2,230.099991924591,6|2|2,0:0|0:0|0:0,0:0:0:0:
152,168,175537,1,2,0:0:0:0:
256,272,175823,1,0,3:0:0:0:
360,168,176109,1,8,0:1:0:0:
360,168,176251,1,2,0:1:0:0:
472,272,176680,5,2,1:2:0:0:
472,272,176823,1,0,3:0:0:0:
472,272,177109,2,0,P|392:200|292:244,1,230.099991924591,8|2,0:1|0:0,0:0:0:0:
40,272,177823,1,2,1:2:0:0:
40,272,177966,1,0,3:0:0:0:
40,272,178252,2,0,P|120:200|220:244,1,230.099991924591,8|2,0:1|0:0,0:0:0:0:
380,128,178965,5,2,0:3:0:0:
256,72,179250,1,8,0:3:0:0:
132,128,179536,1,8,0:1:0:0:
96,268,179822,2,0,P|128:316|160:308,1,95.8749966352464,2|2,3:0|3:0,0:0:0:0:
208,288,180108,2,0,B|256:280|256:280|304:288,1,95.8749966352464,0|0,3:0|3:0,0:0:0:0:
353,309,180393,2,0,P|398:309|415:267,1,95.8749966352464,8|8,3:0|3:0,0:0:0:0:
384,224,180679,1,8,0:1:0:0:
256,172,180965,1,4,3:0:0:0:
128,224,181250,1,4,0:1:0:0:
256,16,181822,85,8,0:1:0:0:
384,224,182394,1,2,0:0:0:0:
256,276,182679,1,0,3:0:0:0:
128,224,182965,1,8,0:1:0:0:
256,36,183537,5,8,0:1:0:0:
256,36,183822,1,8,0:1:0:0:
160,136,184108,2,0,P|192:184|232:196,1,95.8749966352464,8|8,0:1|0:1,0:0:0:0:
285,195,184394,2,0,P|328:177|352:136,1,95.8749966352464,8|8,0:1|0:1,0:0:0:0:
328,96,184679,2,0,B|256:68|256:68|184:96,1,153.399994616394,8|8,0:1|0:1,0:0:0:0:
256,300,185251,5,4,0:3:0:0:
116,192,185822,53,4,0:1:0:0:
256,88,186394,1,0,1:0:0:0:
396,192,186965,2,0,P|432:280|396:368,1,195.00000743866,0|0,1:0|1:0,0:0:0:0:
308,368,187822,1,0,0:0:0:0:
256,296,188108,101,0,1:0:0:0:
80,296,188679,2,0,P|56:228|80:160,1,146.250005578995,0|4,1:0|0:3,0:0:0:0:
108,128,189251,2,0,B|176:128|176:128|220:160|220:160|292:160,1,195.00000743866,4|0,0:3|1:0,0:0:0:0:
380,160,190108,1,2,0:0:0:0:
452,208,190394,6,0,L|356:256,1,97.50000371933,0|0,1:0|0:0,0:0:0:0:
452,292,190965,2,0,L|356:340,1,97.50000371933,0|0,1:0|0:0,0:0:0:0:
284,368,191537,2,0,B|252:396|216:376|216:360|180:340|148:368,2,146.250005578995,0|2|0,1:0|0:0|0:0,0:0:0:0:
332,296,192679,1,0,1:0:0:0:
344,120,193251,1,0,1:0:0:0:
344,120,193679,2,0,P|256:49|168:120,1,243.750009298325,2|0,0:0|1:0,0:0:0:0:
156,208,194679,1,0,1:0:0:0:
156,295,194965,70,0,P|200:315|244:295,1,97.50000371933,0|2,1:0|0:0,0:0:0:0:
300,232,195537,2,0,P|344:212|388:232,1,97.50000371933,0|0,1:0|0:0,0:0:0:0:
424,312,196108,2,0,P|388:224|424:136,1,195.00000743866,0|0,1:0|1:0,0:0:0:0:
480,68,196965,1,0,0:0:0:0:
392,68,197251,54,0,B|324:68|324:68|280:100|280:100|208:100,1,195.00000743866,0|0,1:0|1:0,0:0:0:0:
100,100,198108,1,0,0:0:0:0:
100,100,198251,1,4,0:3:0:0:
100,100,198394,2,0,L|72:216,1,97.50000371933,4|0,0:3|0:0,0:0:0:0:
148,244,198965,2,0,L|176:128,1,97.50000371933,0|0,1:0|0:0,0:0:0:0:
168,64,199537,53,2,1:2:0:0:
344,64,200108,1,2,1:2:0:0:
392,232,200679,2,0,B|360:260|324:240|324:224|288:204|256:232,1,146.250005578995,2|0,1:2|1:0,0:0:0:0:
220,260,201251,2,0,P|176:280|132:260,1,97.50000371933,2|0,1:2|1:0,0:0:0:0:
80,192,201822,1,2,1:2:0:0:
256,192,202108,12,2,206394,0:0:0:0:
440,100,216394,69,2,0:0:0:0:
444,236,216679,1,0,3:0:0:0:
352,340,216965,1,2,0:0:0:0:
216,320,217251,2,0,B|180:348|144:332|144:308|108:292|72:320,1,153.399994616394,0|2,1:0|0:0,0:0:0:0:
20,360,217679,2,0,L|72:208,1,153.399994616394,6|0,0:1|3:0,0:0:0:0:
28,160,218108,2,0,P|92:112|164:132,1,153.399994616394,0|8,3:0|0:1,0:0:0:0:
220,252,218679,53,2,0:0:0:0:
348,300,218965,1,0,1:0:0:0:
448,208,219251,1,2,0:0:0:0:
420,72,219537,2,0,B|340:80|340:80|292:144,1,153.399994616394,8|2,0:1|0:0,0:0:0:0:
328,200,219965,2,0,P|264:152|192:160,1,153.399994616394,6|2,0:1|0:0,0:0:0:0:
172,224,220394,2,0,P|236:272|308:264,1,153.399994616394,0|8,1:0|0:1,0:0:0:0:
432,212,220965,85,2,0:0:0:0:
384,84,221251,1,0,3:0:0:0:
256,32,221537,1,2,0:0:0:0:
128,84,221822,1,8,0:1:0:0:
80,212,222108,1,2,0:0:0:0:
144,336,222394,5,2,1:2:0:0:
400,304,222965,1,2,1:2:0:0:
368,48,223537,1,2,1:2:0:0:
112,80,224108,1,2,1:2:0:0:
107,224,224394,2,0,B|113:337|330:298|256:192|181:85|398:46|404:159,1,460.199983849183,2|8,1:2|0:1,0:0:0:0:
448,292,225537,69,2,0:0:0:0:
324,356,225822,1,0,3:0:0:0:
192,324,226108,1,2,0:0:0:0:
96,224,226394,2,0,B|68:188|84:152|108:152|124:116|96:80,1,153.399994616394,8|2,1:1|0:0,0:0:0:0:
48,36,226822,1,4,0:3:0:0:
48,36,227537,70,0,P|104:80|180:60,1,153.399994616394,12|2,0:1|0:0,0:0:0:0:
312,20,228108,1,0,1:0:0:0:
424,100,228394,1,2,0:0:0:0:
359,220,228679,2,0,P|316:282|243:297,1,153.399994616394,8|2,0:1|0:0,0:0:0:0:
178,265,229108,2,0,P|147:197|172:127,1,153.399994616394,6|2,0:1|0:0,0:0:0:0:
230,87,229537,2,0,P|305:95|353:151,1,153.399994616394,0|8,3:0|0:1,0:0:0:0:
340,288,230108,53,2,0:0:0:0:
216,352,230394,1,0,1:0:0:0:
80,320,230679,1,2,0:0:0:0:
28,192,230965,2,0,B|48:144|48:144|96:136|96:136|116:84,1,153.399994616394,8|2,0:1|0:0,0:0:0:0:
80,28,231394,2,0,P|128:80|200:56,1,153.399994616394,6|2,0:1|0:0,0:0:0:0:
252,12,231822,2,0,B|308:28|308:28|368:16|396:72,1,153.399994616394,0|8,3:0|0:1,0:0:0:0:
460,180,232394,2,0,B|404:164|404:164|344:176|316:120,1,153.399994616394,0|2,3:0|0:0,0:0:0:0:
196,76,232965,85,2,0:0:0:0:
80,148,233251,1,8,3:1:0:0:
120,280,233537,2,0,P|256:340|392:280,2,306.799989232788,2|2|2,0:0|0:0|0:0,0:0:0:0:
80,148,234965,53,2,1:0:0:0:
256,12,235394,1,2,1:0:0:0:
432,148,235822,1,2,1:0:0:0:
432,348,236108,102,0,B|386:365|386:365|332:351|332:351|300:315,1,153.399994616394,4|2,0:0|0:0,0:0:0:0:
320,244,236537,2,0,B|365:226|365:226|419:240|419:240|451:276,1,153.399994616394,8|2,0:1|0:0,0:0:0:0:
432,348,236965,1,8,0:1:0:0:
192,244,237251,2,0,B|146:226|146:226|92:240|92:240|60:276,1,153.399994616394,4|2,0:0|0:0,0:0:0:0:
80,348,237679,2,0,B|125:365|125:365|179:351|179:351|211:315,1,153.399994616394,8|2,0:1|0:0,0:0:0:0:
256,260,238108,1,8,0:1:0:0:
324,28,238394,54,0,B|284:0|284:0|228:0|228:0|188:28,1,153.399994616394,4|2,0:0|0:0,0:0:0:0:
152,88,238822,2,0,B|147:136|147:136|175:185|175:185|219:205,1,153.399994616394,8|2,0:1|0:0,0:0:0:0:
292,204,239251,2,0,B|336:183|336:183|364:134|364:134|359:86,1,153.399994616394,8|2,0:1|0:0,0:0:0:0:
256,8,239822,1,0,3:0:0:0:
180,84,240108,1,2,0:0:0:0:
180,84,240251,2,0,P|256:116|332:84,1,166.4,2|0,0:1|0:0,0:0:0:0:
392,40,240679,53,4,0:0:0:0:
392,40,240822,1,2,0:0:0:0:
392,40,241108,2,0,P|320:108|344:228,1,230.099991924591,0|2,3:0|0:0,0:0:0:0:
169,226,241822,1,4,0:0:0:0:
169,226,241965,1,2,0:0:0:0:
169,226,242251,2,0,P|195:119|120:39,1,230.099991924591,0|2,3:0|0:0,0:0:0:0:
68,152,242965,37,2,0:3:0:0:
256,84,243250,1,8,0:3:0:0:
444,152,243536,1,8,0:1:0:0:
436,276,243822,2,0,P|388:308|348:296,1,95.8749966352464,2|2,3:0|3:0,0:0:0:0:
304,292,244108,2,0,B|256:284|256:284|208:292,1,95.8749966352464,0|0,3:0|3:0,0:0:0:0:
152,304,244393,2,0,P|106:304|69:273,1,95.8749966352464,8|8,3:0|3:0,0:0:0:0:
100,232,244679,1,8,0:1:0:0:
256,192,244965,1,4,3:0:0:0:
412,232,245250,1,4,0:1:0:0:
428,108,245537,21,0,3:0:0:0:
324,36,245822,1,8,0:1:0:0:
188,36,246108,1,2,3:0:0:0:
84,108,246394,1,2,0:0:0:0:
144,240,246679,5,2,0:0:0:0:
188,292,246822,1,2,0:0:0:0:
256,312,246965,1,0,3:0:0:0:
324,292,247108,1,0,3:0:0:0:
368,240,247251,1,8,0:1:0:0:
208,212,247537,22,0,B|192:140|256:116|320:92|304:20,2,230.099991924591,4|0|0,0:1|0:0|0:0,0:0:0:0:
304,212,248679,2,0,B|320:140|256:116|192:92|208:20,2,230.099991924591,0|0|0,0:0|0:0|0:0,0:0:0:0:
256,292,249822,1,0,0:0:0:0:
256,292,250965,6,0,B|240:200|232:140|148:180|96:80|156:-4|232:24|256:53|256:53|280:24|356:-4|416:80|364:180|280:140|272:200|296:232,1,613.599978465577,2|0,0:0|0:0,0:0:0:0:
256,192,252251,12,2,256679,0:0:0:0:
