osu file format v14

[General]
AudioFilename: audio.mp3
AudioLeadIn: 0
PreviewTime: 57858
Countdown: 1
SampleSet: Normal
StackLeniency: 0.7
Mode: 1
LetterboxInBreaks: 0
WidescreenStoryboard: 1

[Editor]
Bookmarks: 58221
DistanceSpacing: 0.1
BeatDivisor: 4
GridSize: 32
TimelineZoom: 2.3

[Metadata]
Title:Amazing Magician
TitleUnicode:アメイジング・マジシャン
Artist:Mitchie M
ArtistUnicode:Mitchie M
Creator:bossandy
Version:Muzukashii
Source:魔法使いと黒猫のウィズ
Tags:hatsune miku 初音ミク v4x vocaloid クイズRPG quiz rpg mahou tsukai to kuro neko no wiz collab collaboration yuki_momoiro722 Video Game Jpop J-Pop Japanese Novelty
BeatmapID:1843186
BeatmapSetID:875544

[Difficulty]
HPDrainRate:7
CircleSize:2
OverallDifficulty:5
ApproachRate:8
SliderMultiplier:1.4
SliderTickRate:1

[Events]
//Background and Video events
0,0,"BG.png",0,70
//Break Periods
//Storyboard Layer 0 (Background)
//Storyboard Layer 1 (Fail)
//Storyboard Layer 2 (Pass)
//Storyboard Layer 3 (Foreground)
//Storyboard Layer 4 (Overlay)
//Storyboard Sound Samples

[TimingPoints]
40,363.636363636364,4,1,0,80,1,0
58221,-100,4,1,0,80,0,1
81494,-100,4,1,0,80,0,0

[HitObjects]
256,192,2949,5,8,0:0:0:0:
256,192,3130,1,8,0:0:0:0:
256,192,3494,1,8,0:0:0:0:
256,192,4403,1,8,0:0:0:0:
256,192,4585,1,8,0:0:0:0:
256,192,4949,1,8,0:0:0:0:
256,192,5858,1,8,0:0:0:0:
256,192,6039,1,8,0:0:0:0:
256,192,6403,1,8,0:0:0:0:
256,192,7312,1,8,0:0:0:0:
256,192,7494,1,8,0:0:0:0:
256,192,7858,1,8,0:0:0:0:
256,192,8585,1,8,0:0:0:0:
256,192,8767,1,8,0:0:0:0:
256,192,8949,1,0,0:0:0:0:
256,192,9312,1,8,0:0:0:0:
256,192,10040,1,8,0:0:0:0:
256,192,10221,1,8,0:0:0:0:
256,192,10403,1,0,0:0:0:0:
256,192,10767,1,8,0:0:0:0:
256,192,10949,1,8,0:0:0:0:
256,192,11040,1,8,0:0:0:0:
256,192,11221,1,8,0:0:0:0:
256,192,11312,1,8,0:0:0:0:
256,192,11494,1,0,0:0:0:0:
256,192,11676,1,4,0:0:0:0:
256,192,12040,1,8,0:0:0:0:
256,192,12403,1,0,0:0:0:0:
256,192,12949,1,0,0:0:0:0:
256,192,13040,1,0,0:0:0:0:
256,192,13130,1,0,0:0:0:0:
256,192,13494,1,8,0:0:0:0:
256,192,13858,1,0,0:0:0:0:
256,192,14040,1,0,0:0:0:0:
256,192,14221,1,8,0:0:0:0:
256,192,14403,1,8,0:0:0:0:
256,192,14585,1,0,0:0:0:0:
256,192,14949,1,8,0:0:0:0:
256,192,15312,1,0,0:0:0:0:
256,192,15858,1,8,0:0:0:0:
256,192,15949,1,8,0:0:0:0:
256,192,16040,1,8,0:0:0:0:
256,192,16403,1,0,0:0:0:0:
256,192,16767,1,8,0:0:0:0:
256,192,16949,1,8,0:0:0:0:
256,192,17130,1,8,0:0:0:0:
256,192,17312,1,8,0:0:0:0:
256,192,17494,1,4,0:0:0:0:
256,192,17676,1,4,0:0:0:0:
256,192,18040,1,4,0:0:0:0:
256,192,18221,1,4,0:0:0:0:
256,192,18585,1,12,0:0:0:0:
256,192,18767,1,12,0:0:0:0:
256,192,19130,1,12,0:0:0:0:
256,192,19312,1,12,0:0:0:0:
256,192,19676,2,0,L|416:192,1,140,0|12,0:0|0:0,0:0:0:0:
256,192,20403,5,4,0:0:0:0:
256,192,20767,1,8,0:0:0:0:
256,192,21312,1,0,0:0:0:0:
256,192,21494,1,8,0:0:0:0:
256,192,21858,1,0,0:0:0:0:
256,192,22221,1,8,0:0:0:0:
256,192,22767,1,0,0:0:0:0:
256,192,22949,1,8,0:0:0:0:
256,192,23130,1,0,0:0:0:0:
256,192,23312,1,0,0:0:0:0:
256,192,23676,1,8,0:0:0:0:
256,192,24221,1,0,0:0:0:0:
256,192,24403,1,8,0:0:0:0:
256,192,24767,1,0,0:0:0:0:
256,192,25130,1,8,0:0:0:0:
256,192,25494,1,8,0:0:0:0:
256,192,25676,1,0,0:0:0:0:
256,192,25858,1,8,0:0:0:0:
256,192,26221,1,0,0:0:0:0:
256,192,26585,1,8,0:0:0:0:
256,192,27130,1,0,0:0:0:0:
256,192,27312,1,8,0:0:0:0:
256,192,27676,1,0,0:0:0:0:
256,192,28040,1,12,0:0:0:0:
256,192,28403,1,0,0:0:0:0:
256,192,28767,1,8,0:0:0:0:
256,192,28949,1,0,0:0:0:0:
256,192,29312,1,8,0:0:0:0:
256,192,29676,1,0,0:0:0:0:
256,192,30040,1,8,0:0:0:0:
256,192,30403,1,0,0:0:0:0:
256,192,30767,1,8,0:0:0:0:
256,192,31130,1,0,0:0:0:0:
256,192,31312,1,8,0:0:0:0:
256,192,31494,1,0,0:0:0:0:
256,192,31676,1,8,0:0:0:0:
256,192,32040,5,4,0:0:0:0:
256,192,32404,1,8,0:0:0:0:
256,192,32949,1,0,0:0:0:0:
256,192,33131,1,8,0:0:0:0:
256,192,33495,1,0,0:0:0:0:
256,192,33858,1,8,0:0:0:0:
256,192,34404,1,0,0:0:0:0:
256,192,34586,1,8,0:0:0:0:
256,192,34949,1,0,0:0:0:0:
256,192,35313,1,8,0:0:0:0:
256,192,35858,1,0,0:0:0:0:
256,192,36040,1,8,0:0:0:0:
256,192,36222,1,0,0:0:0:0:
256,192,36404,1,0,0:0:0:0:
256,192,36767,1,8,0:0:0:0:
256,192,37131,1,8,0:0:0:0:
256,192,37313,1,0,0:0:0:0:
256,192,37495,1,8,0:0:0:0:
256,192,37858,1,0,0:0:0:0:
256,192,38222,1,8,0:0:0:0:
256,192,38767,5,0,0:0:0:0:
256,192,38949,1,8,0:0:0:0:
256,192,39313,1,0,0:0:0:0:
256,192,39677,1,12,0:0:0:0:
256,192,40040,1,8,0:0:0:0:
256,192,40221,1,0,0:0:0:0:
256,192,40404,1,8,0:0:0:0:
256,192,40767,1,0,0:0:0:0:
256,192,41130,1,8,0:0:0:0:
256,192,41494,1,0,0:0:0:0:
256,192,41676,1,8,0:0:0:0:
256,192,42040,1,0,0:0:0:0:
256,192,42403,1,8,0:0:0:0:
256,192,42767,1,0,0:0:0:0:
256,192,42949,1,0,0:0:0:0:
256,192,43130,1,8,0:0:0:0:
256,192,43313,1,8,0:0:0:0:
256,192,43494,1,8,0:0:0:0:
256,192,44040,5,12,0:0:0:0:
256,192,44585,1,0,0:0:0:0:
256,192,44767,1,8,0:0:0:0:
256,192,45130,1,0,0:0:0:0:
256,192,45312,1,8,0:0:0:0:
256,192,45494,1,8,0:0:0:0:
256,192,45858,1,0,0:0:0:0:
256,192,46130,1,8,0:0:0:0:
256,192,46403,1,0,0:0:0:0:
256,192,46767,1,8,0:0:0:0:
256,192,46949,1,0,0:0:0:0:
256,192,47130,1,0,0:0:0:0:
256,192,47494,1,8,0:0:0:0:
256,192,47676,1,0,0:0:0:0:
256,192,47858,1,0,0:0:0:0:
256,192,48221,1,0,0:0:0:0:
256,192,48403,1,8,0:0:0:0:
256,192,48585,1,0,0:0:0:0:
256,192,48767,1,8,0:0:0:0:
256,192,48949,1,8,0:0:0:0:
256,192,49130,1,0,0:0:0:0:
256,192,49312,1,0,0:0:0:0:
256,192,49858,1,12,0:0:0:0:
256,192,50403,1,8,0:0:0:0:
256,192,50585,1,0,0:0:0:0:
256,192,50949,1,8,0:0:0:0:
256,192,51130,1,8,0:0:0:0:
256,192,51312,1,0,0:0:0:0:
256,192,51494,1,8,0:0:0:0:
256,192,51858,1,8,0:0:0:0:
256,192,52040,1,0,0:0:0:0:
256,192,52403,1,0,0:0:0:0:
256,192,52676,1,0,0:0:0:0:
256,192,52949,1,8,0:0:0:0:
256,192,53130,1,0,0:0:0:0:
256,192,53403,1,0,0:0:0:0:
256,192,53676,1,8,0:0:0:0:
256,192,53858,1,0,0:0:0:0:
256,192,54130,1,8,0:0:0:0:
256,192,54403,1,8,0:0:0:0:
256,192,54585,1,8,0:0:0:0:
256,192,54858,1,0,0:0:0:0:
256,192,55130,1,8,0:0:0:0:
256,192,55312,1,0,0:0:0:0:
256,192,55676,1,8,0:0:0:0:
256,192,56040,1,8,0:0:0:0:
256,192,56221,1,8,0:0:0:0:
256,192,56403,1,0,0:0:0:0:
256,192,56767,1,4,0:0:0:0:
256,192,57858,1,8,0:0:0:0:
256,192,58221,1,12,0:0:0:0:
256,192,58403,1,0,0:0:0:0:
256,192,58767,1,8,0:0:0:0:
256,192,59130,1,0,0:0:0:0:
256,192,59494,1,8,0:0:0:0:
256,192,59676,1,0,0:0:0:0:
256,192,59767,1,0,0:0:0:0:
256,192,59858,1,0,0:0:0:0:
256,192,60040,1,8,0:0:0:0:
256,192,60403,1,8,0:0:0:0:
256,192,60585,1,0,0:0:0:0:
256,192,61130,1,8,0:0:0:0:
256,192,61312,1,0,0:0:0:0:
256,192,61676,1,8,0:0:0:0:
256,192,62040,1,0,0:0:0:0:
256,192,62403,1,8,0:0:0:0:
256,192,62585,1,0,0:0:0:0:
256,192,62676,1,0,0:0:0:0:
256,192,62767,1,0,0:0:0:0:
256,192,62949,1,8,0:0:0:0:
256,192,63312,1,8,0:0:0:0:
256,192,63494,1,8,0:0:0:0:
256,192,64040,1,0,0:0:0:0:
256,192,64403,1,8,0:0:0:0:
256,192,64585,1,0,0:0:0:0:
256,192,64949,1,8,0:0:0:0:
256,192,65312,1,0,0:0:0:0:
256,192,65494,1,0,0:0:0:0:
256,192,65858,1,8,0:0:0:0:
256,192,66040,1,8,0:0:0:0:
256,192,66403,1,8,0:0:0:0:
256,192,66767,1,8,0:0:0:0:
256,192,66949,1,0,0:0:0:0:
256,192,67130,1,0,0:0:0:0:
256,192,67312,1,12,0:0:0:0:
256,192,67676,1,0,0:0:0:0:
256,192,67858,1,8,0:0:0:0:
256,192,68040,1,12,0:0:0:0:
256,192,68403,1,8,0:0:0:0:
256,192,68585,1,0,0:0:0:0:
256,192,68949,1,8,0:0:0:0:
256,192,69312,1,0,0:0:0:0:
256,192,69676,1,8,0:0:0:0:
256,192,69858,1,12,0:0:0:0:
256,192,70040,1,0,0:0:0:0:
256,192,70404,1,8,0:0:0:0:
256,192,70767,1,0,0:0:0:0:
256,192,71131,1,8,0:0:0:0:
256,192,71313,1,0,0:0:0:0:
256,192,71404,1,0,0:0:0:0:
256,192,71494,1,0,0:0:0:0:
256,192,71676,1,8,0:0:0:0:
256,192,72040,1,8,0:0:0:0:
256,192,72221,1,0,0:0:0:0:
256,192,72767,1,8,0:0:0:0:
256,192,72949,1,0,0:0:0:0:
256,192,73312,1,8,0:0:0:0:
256,192,73676,1,0,0:0:0:0:
256,192,74040,1,8,0:0:0:0:
256,192,74221,1,0,0:0:0:0:
256,192,74585,1,8,0:0:0:0:
256,192,74767,1,8,0:0:0:0:
256,192,75130,1,0,0:0:0:0:
256,192,75494,1,8,0:0:0:0:
256,192,75676,1,0,0:0:0:0:
256,192,75858,1,0,0:0:0:0:
256,192,76221,1,0,0:0:0:0:
256,192,76403,1,8,0:0:0:0:
256,192,76767,1,0,0:0:0:0:
256,192,76949,1,8,0:0:0:0:
256,192,77312,1,8,0:0:0:0:
256,192,77494,1,8,0:0:0:0:
256,192,77858,1,8,0:0:0:0:
256,192,78130,1,8,0:0:0:0:
256,192,78403,1,0,0:0:0:0:
256,192,78585,1,8,0:0:0:0:
256,192,78858,1,0,0:0:0:0:
256,192,79130,1,0,0:0:0:0:
256,192,79494,1,8,0:0:0:0:
256,192,79676,1,8,0:0:0:0:
256,192,80040,1,8,0:0:0:0:
256,192,80403,1,8,0:0:0:0:
256,192,80585,1,0,0:0:0:0:
256,192,80949,1,0,0:0:0:0:
256,192,81312,1,8,0:0:0:0:
256,192,81494,1,4,0:0:0:0:
256,192,81676,12,0,86221,0:0:0:0:
