osu file format v14

[General]
AudioFilename: chikyuu saigo no kokuhaku wo.mp3
AudioLeadIn: 0
PreviewTime: 83981
Countdown: 0
SampleSet: None
StackLeniency: 0.5
Mode: 0
LetterboxInBreaks: 0
WidescreenStoryboard: 1

[Editor]
Bookmarks: 23672,33771,43876,48929,53981,74192,84297,103876,107034,117139,127244,137350,147455,170192,175244,177771,182823,187876,190402,192929,203034,214402,240929,251034
DistanceSpacing: 1.3
BeatDivisor: 4
GridSize: 4
TimelineZoom: 1.500006

[Metadata]
Title:Chikyuu Saigo no Kokuhaku o
TitleUnicode:地球最後の告白を
Artist:Mitani Nana
ArtistUnicode:実谷なな
Creator:DT-sama
Version:Kokuhaku
Source:
Tags:
BeatmapID:1179470
BeatmapSetID:557191

[Difficulty]
HPDrainRate:7
CircleSize:4
OverallDifficulty:9
ApproachRate:9
SliderMultiplier:2.1
SliderTickRate:1

[Events]
//Background and Video events
0,0,"BG.jpg",0,0
//Break Periods
2,79444,80539
2,107234,110066
2,117339,126171
2,142602,144013
2,172918,176223
2,193129,200539
2,208287,209697
//Storyboard Layer 0 (Background)
//Storyboard Layer 1 (Fail)
//Storyboard Layer 2 (Pass)
//Storyboard Layer 3 (Foreground)
//Storyboard Sound Samples

[TimingPoints]
3566,428.571428571429,4,3,0,30,1,8
20708,416.666666666667,4,3,0,20,1,0
23509,315.789473684211,4,3,0,100,1,0
23666,315.789473684211,4,3,0,70,1,0
23666,-133.333333333333,4,3,0,70,0,0
24297,-142.857142857143,4,3,0,70,0,0
24929,-125,4,3,0,70,0,0
25560,-111.111111111111,4,3,0,70,0,0
26192,-100,4,3,0,70,0,0
33771,-133.333333333333,4,3,0,70,0,0
48929,-114.942528735632,4,3,0,70,0,0
51455,-100,4,3,0,70,0,0
53981,-100,4,3,0,70,0,0
64087,-83.3333333333333,4,3,0,70,0,0
64244,-100,4,3,0,70,0,0
84297,-83.3333333333333,4,3,0,70,0,1
104508,-83.3333333333333,4,3,0,70,0,0
107034,-100,4,3,0,70,0,0
127244,-133.333333333333,4,3,0,70,0,0
144613,-100,4,3,0,70,0,0
147455,-83.3333333333333,4,3,0,70,0,1
167666,-83.3333333333333,4,3,0,70,0,0
170192,-100,4,3,0,70,0,0
177771,-83.3333333333333,4,3,0,70,0,0
182823,-100,4,3,0,70,0,0
185350,-83.3333333333333,4,3,0,70,0,0
187876,-100,4,3,0,70,0,0
203034,-117.647058823529,4,3,0,70,0,0
214402,-76.9230769230769,4,3,0,70,0,1
228297,-76.9230769230769,4,3,0,70,0,0
234613,-76.9230769230769,4,3,0,70,0,1
238402,-76.9230769230769,4,3,0,70,0,0

[Colours]
Combo1 : 255,0,198
Combo2 : 249,233,119
Combo3 : 0,196,244
Combo4 : 243,73,1

[HitObjects]
48,344,23509,5,0,0:0:0:0:
115,335,23588,1,0,0:0:0:0:
172,291,23666,2,0,P|191:225|252:143,1,157.500006008148
320,72,24297,6,0,B|384:120|336:160|408:212,1,146.999995513916
476,280,24929,6,0,B|396:336|392:280|296:328,1,168
212,372,25560,6,0,B|164:240|232:288|192:168,1,188.999994232178
164,28,26192,6,0,B|176:136|252:72|304:128|292:220,1,210
284,224,26587,1,0,0:0:0:0:
252,256,26666,5,0,0:0:0:0:
208,252,26744,1,0,0:0:0:0:
180,208,26823,1,0,0:0:0:0:
204,160,26902,1,0,0:0:0:0:
256,148,26981,5,0,0:0:0:0:
320,140,27060,1,0,0:0:0:0:
352,84,27139,1,0,0:0:0:0:
320,28,27218,1,0,0:0:0:0:
256,16,27297,5,0,0:0:0:0:
444,316,27613,5,0,0:0:0:0:
64,312,27929,5,0,0:0:0:0:
324,112,28244,6,0,B|208:160|288:200|164:264,1,210
84,208,28718,5,0,0:0:0:0:
96,104,28876,1,0,0:0:0:0:
196,68,29034,1,0,0:0:0:0:
268,144,29192,1,0,0:0:0:0:
256,248,29350,1,0,0:0:0:0:
348,296,29508,1,0,0:0:0:0:
348,296,29587,1,0,0:0:0:0:
348,296,29666,1,0,0:0:0:0:
444,260,29823,1,0,0:0:0:0:
444,156,29981,6,0,P|424:104|376:48,1,105
394,64,30218,1,0,0:0:0:0:
394,64,30297,1,0,0:0:0:0:
300,44,30455,1,0,0:0:0:0:
328,140,30613,6,0,B|304:184|352:228|320:272,1,105
256,312,30929,5,0,0:0:0:0:
231,318,31008,1,0,0:0:0:0:
200,314,31087,1,0,0:0:0:0:
161,292,31166,1,0,0:0:0:0:
110,234,31244,5,0,0:0:0:0:
264,92,31402,1,0,0:0:0:0:
244,196,31560,1,0,0:0:0:0:
148,152,31718,1,0,0:0:0:0:
172,48,31876,5,0,0:0:0:0:
344,188,32034,1,0,0:0:0:0:
300,296,32192,1,0,0:0:0:0:
424,264,32350,1,0,0:0:0:0:
380,372,32508,5,0,0:0:0:0:
110,234,32666,1,0,0:0:0:0:
244,196,32823,1,0,0:0:0:0:
424,264,32981,1,0,0:0:0:0:
168,384,33139,5,0,0:0:0:0:
388,84,33297,1,0,0:0:0:0:
388,84,33771,6,0,B|336:160|372:156|312:252,1,157.500006008148
452,160,34244,1,0,0:0:0:0:
479,253,34402,2,0,B|379:261|419:237|325:227,1,157.500006008148
124,300,35034,6,0,B|176:224|140:228|200:132,1,157.500006008148
56,228,35508,1,0,0:0:0:0:
33,131,35665,2,0,B|133:123|93:147|186:156,1,157.500006008148
256,220,36139,1,0,0:0:0:0:
344,184,36297,6,0,B|360:280|304:240|344:356,1,157.500006008148
432,344,36771,1,0,0:0:0:0:
488,272,36929,1,0,0:0:0:0:
484,176,37087,2,0,P|456:136|396:112,2,78.7500030040742
432,344,37560,6,0,B|344:324|360:372|252:336,1,157.500006008148
192,316,38034,1,0,0:0:0:0:
254,248,38192,5,0,0:0:0:0:
164,223,38350,1,0,0:0:0:0:
287,170,38508,1,0,0:0:0:0:
233,62,38666,1,0,0:0:0:0:
352,48,38823,6,0,B|356:128|416:88|416:184,1,157.500006008148
392,328,39455,6,0,B|388:248|328:288|328:192,1,157.500006008148
316,100,39929,1,0,0:0:0:0:
232,68,40087,6,0,B|172:156|136:100|116:200,1,157.500006008148
200,212,40560,1,0,0:0:0:0:
124,256,40718,2,0,B|137:331|173:275|233:363,1,157.500006008148
200,212,41192,1,0,0:0:0:0:
200,212,41350,6,0,B|260:180|296:256|368:216,1,157.500006008148
392,112,41823,1,0,0:0:0:0:
372,124,41981,1,0,0:0:0:0:
440,208,42139,1,0,0:0:0:0:
348,332,42297,1,0,0:0:0:0:
376,320,42455,1,0,0:0:0:0:
404,304,42613,5,0,0:0:0:0:
351,223,42771,1,0,0:0:0:0:
276,272,42929,1,0,0:0:0:0:
232,180,43087,1,0,0:0:0:0:
144,272,43244,5,0,0:0:0:0:
100,340,43402,1,0,0:0:0:0:
40,208,43560,1,0,0:0:0:0:
72,204,43718,1,0,0:0:0:0:
184,36,43876,6,0,B|200:124|128:92|152:200,1,157.500006008148
244,188,44350,1,0,0:0:0:0:
335,200,44508,2,0,B|356:292|284:260|300:348,1,157.500006008148
388,364,44981,1,0,0:0:0:0:
475,345,45139,6,0,B|491:259|419:291|440:200,1,157.500006008148
456,124,45613,1,0,0:0:0:0:
412,60,45771,1,0,0:0:0:0:
332,60,45929,1,0,0:0:0:0:
272,112,46087,1,0,0:0:0:0:
200,100,46244,1,0,0:0:0:0:
200,100,46402,6,0,B|128:100|156:176|52:152,1,157.500006008148
32,80,46876,1,0,0:0:0:0:
88,24,47034,1,0,0:0:0:0:
168,24,47192,1,0,0:0:0:0:
200,100,47350,1,0,0:0:0:0:
200,100,47508,6,0,B|168:156|112:96|60:156,1,157.500006008148
96,232,47981,5,0,0:0:0:0:
200,244,48139,1,0,0:0:0:0:
80,244,48297,1,0,0:0:0:0:
216,264,48455,1,0,0:0:0:0:
336,188,48613,1,0,0:0:0:0:
400,60,48771,1,0,0:0:0:0:
432,76,48850,1,0,0:0:0:0:
448,104,48929,6,0,B|440:208|484:184|472:292,1,182.700001533279
352,364,49402,1,0,0:0:0:0:
376,332,49560,1,0,0:0:0:0:
216,264,49718,1,0,0:0:0:0:
244,288,49876,1,0,0:0:0:0:
336,188,50034,2,0,B|260:80|172:172|92:44,1,274.050002299919
288,44,50823,5,0,0:0:0:0:
376,32,50981,1,0,0:0:0:0:
448,96,51139,1,0,0:0:0:0:
448,96,51297,6,0,B|440:172|348:184|420:300,1,182.700001533279
480,328,51771,1,0,0:0:0:0:
388,360,51929,1,0,0:0:0:0:
352,272,52087,1,0,0:0:0:0:
440,236,52244,1,0,0:0:0:0:
440,352,52402,1,0,0:0:0:0:
288,320,52560,1,0,0:0:0:0:
280,160,52718,5,0,0:0:0:0:
132,112,52876,1,0,0:0:0:0:
52,248,53034,1,0,0:0:0:0:
144,376,53192,1,0,0:0:0:0:
288,320,53350,5,0,0:0:0:0:
319,290,53429,1,0,0:0:0:0:
359,278,53508,1,0,0:0:0:0:
397,291,53587,1,0,0:0:0:0:
435,304,53666,1,0,0:0:0:0:
472,284,53744,1,0,0:0:0:0:
507,259,53823,1,0,0:0:0:0:
507,206,53902,1,0,0:0:0:0:
464,176,53981,6,0,B|343:127|410:89|302:40,1,210
204,68,54455,1,0,0:0:0:0:
140,152,54613,1,0,0:0:0:0:
228,212,54771,1,0,0:0:0:0:
132,280,54929,2,0,P|208:324|256:320,1,105
328,268,55244,6,0,P|384:240|400:360,1,210
452,176,55718,1,0,0:0:0:0:
356,136,55876,1,0,0:0:0:0:
440,72,56034,1,0,0:0:0:0:
452,176,56192,1,0,0:0:0:0:
368,240,56350,6,0,P|312:264|204:168,1,210
312,156,56823,1,0,0:0:0:0:
240,84,56981,2,0,B|104:84|168:160|28:148,1,210
60,40,57455,1,0,0:0:0:0:
128,128,57613,2,0,P|196:180|336:132,1,210
408,92,58087,6,0,P|456:128|464:188,1,105
312,272,58402,5,0,0:0:0:0:
312,160,58560,1,0,0:0:0:0:
208,16,58718,5,0,0:0:0:0:
208,152,58876,1,0,0:0:0:0:
104,352,59034,6,0,B|36:212|144:240|92:132,1,210
408,32,59666,6,0,B|476:172|368:144|420:252,1,210
336,344,60139,1,0,0:0:0:0:
200,336,60297,6,0,B|132:248|240:232|156:128,1,210
64,108,60771,1,0,0:0:0:0:
24,208,60929,1,0,0:0:0:0:
125,235,61087,2,0,B|121:235|176:168|164:104,1,105
248,72,61402,1,0,0:0:0:0:
352,80,61560,5,0,0:0:0:0:
408,168,61718,1,0,0:0:0:0:
304,172,61876,1,0,0:0:0:0:
352,80,62034,1,0,0:0:0:0:
456,80,62192,5,0,0:0:0:0:
512,168,62350,1,0,0:0:0:0:
500,200,62508,1,0,0:0:0:0:
420,248,62666,1,0,0:0:0:0:
440,268,62823,5,0,0:0:0:0:
480,352,62981,1,0,0:0:0:0:
328,356,63139,1,0,0:0:0:0:
348,332,63218,1,0,0:0:0:0:
160,240,63376,1,0,0:0:0:0:
176,264,63455,1,0,0:0:0:0:
280,260,63613,1,0,0:0:0:0:
304,228,63692,1,0,0:0:0:0:
300,188,63771,1,0,0:0:0:0:
296,148,63850,1,0,0:0:0:0:
320,116,63929,1,0,0:0:0:0:
348,60,64008,1,0,0:0:0:0:
408,40,64087,6,0,P|448:104|432:200,1,125.999996154785
416,252,64402,1,0,0:0:0:0:
324,300,64560,1,0,0:0:0:0:
232,252,64718,1,0,0:0:0:0:
196,152,64876,1,0,0:0:0:0:
328,180,65034,2,0,P|244:280|236:284,1,105
112,320,65350,6,0,B|48:188|120:224|88:84,1,210
160,32,65823,1,0,0:0:0:0:
220,120,65981,5,0,0:0:0:0:
220,240,66139,1,0,0:0:0:0:
324,328,66297,5,0,0:0:0:0:
324,176,66455,1,0,0:0:0:0:
408,40,66613,6,0,P|448:104|404:240,1,210
304,336,67087,2,0,B|188:356|240:272|76:328,1,210
16,356,67560,1,0,0:0:0:0:
152,228,67718,2,0,P|192:128|40:156,1,315
300,204,68508,5,0,0:0:0:0:
344,300,68666,1,0,0:0:0:0:
440,308,68823,1,0,0:0:0:0:
440,308,68981,6,0,P|404:224|468:116,1,210
348,140,69455,1,0,0:0:0:0:
252,96,69613,1,0,0:0:0:0:
220,8,69771,2,0,P|140:16|76:120,1,210
188,216,70244,6,0,P|208:280|76:320,1,210
32,200,70718,1,0,0:0:0:0:
156,120,70876,1,0,0:0:0:0:
212,120,70955,1,0,0:0:0:0:
240,160,71034,1,0,0:0:0:0:
324,264,71192,1,0,0:0:0:0:
440,220,71350,1,0,0:0:0:0:
408,100,71508,2,0,B|280:136|320:296|168:276,1,315
26,127,72297,6,0,B|130:187|70:215|198:295,1,210
256,176,72771,1,0,0:0:0:0:
308,200,72850,1,0,0:0:0:0:
316,256,72929,5,0,0:0:0:0:
400,344,73087,1,0,0:0:0:0:
456,244,73244,1,0,0:0:0:0:
432,208,73323,1,0,0:0:0:0:
424,80,73481,1,0,0:0:0:0:
460,112,73560,1,0,0:0:0:0:
320,56,73718,1,0,0:0:0:0:
276,56,73797,1,0,0:0:0:0:
252,88,73876,1,0,0:0:0:0:
236,128,73955,1,0,0:0:0:0:
200,148,74034,1,0,0:0:0:0:
148,148,74113,1,0,0:0:0:0:
100,172,74192,5,0,0:0:0:0:
136,332,74350,1,0,0:0:0:0:
296,360,74508,1,0,0:0:0:0:
368,216,74666,1,0,0:0:0:0:
248,104,74823,2,0,B|144:136|120:56|28:120,1,210
44,264,75297,5,0,0:0:0:0:
92,328,75376,1,0,0:0:0:0:
176,320,75455,5,0,0:0:0:0:
327,382,75613,1,0,0:0:0:0:
442,267,75771,1,0,0:0:0:0:
365,125,75929,1,0,0:0:0:0:
205,159,76086,2,0,B|171:262|92:236|91:348,1,210
244,368,76560,1,0,0:0:0:0:
348,288,76718,5,0,0:0:0:0:
328,156,76876,1,0,0:0:0:0:
444,108,77034,1,0,0:0:0:0:
464,240,77192,2,0,P|452:300|408:336,1,105
276,344,77508,1,0,0:0:0:0:
244,200,77666,1,0,0:0:0:0:
120,256,77823,2,0,P|184:344|312:320,1,210
360,252,78297,5,0,0:0:0:0:
384,164,78455,1,0,0:0:0:0:
300,144,78613,1,0,0:0:0:0:
280,224,78771,1,0,0:0:0:0:
440,228,78929,1,0,0:0:0:0:
360,92,79087,1,0,0:0:0:0:
224,168,79244,1,0,0:0:0:0:
316,184,81139,5,0,0:0:0:0:
240,144,81297,1,0,0:0:0:0:
200,220,81455,1,0,0:0:0:0:
280,260,81613,1,0,0:0:0:0:
144,216,81771,5,0,0:0:0:0:
328,296,81929,1,0,0:0:0:0:
308,92,82087,1,0,0:0:0:0:
120,36,82244,5,0,0:0:0:0:
120,340,82402,1,0,0:0:0:0:
424,340,82560,1,0,0:0:0:0:
420,36,82718,1,0,0:0:0:0:
32,188,82876,1,0,0:0:0:0:
424,340,83192,5,0,0:0:0:0:
112,36,83350,1,0,0:0:0:0:
256,192,83429,12,0,84218,0:0:0:0:
212,336,84297,6,0,B|320:332|332:208|452:196,1,251.999992309571
460,324,84771,1,0,0:0:0:0:
332,320,84929,1,0,0:0:0:0:
292,200,85087,2,0,B|236:132|176:200|48:40,1,251.999992309571
200,40,85560,5,0,0:0:0:0:
224,56,85639,1,0,0:0:0:0:
248,72,85718,1,0,0:0:0:0:
352,196,85876,1,0,0:0:0:0:
340,40,86034,1,0,0:0:0:0:
256,168,86192,1,0,0:0:0:0:
412,116,86350,1,0,0:0:0:0:
460,208,86508,2,0,P|424:272|360:300,1,125.999996154785
192,252,86823,6,0,P|172:353|267:313,1,251.999992309571
284,268,87218,1,0,0:0:0:0:
280,216,87297,1,0,0:0:0:0:
232,96,87455,1,0,0:0:0:0:
72,68,87613,1,0,0:0:0:0:
128,232,87771,1,0,0:0:0:0:
232,96,87929,1,0,0:0:0:0:
372,112,88087,5,0,0:0:0:0:
436,204,88244,1,0,0:0:0:0:
404,300,88402,1,0,0:0:0:0:
328,344,88560,2,0,B|228:336|264:184|172:160,1,251.999992309571
80,212,89034,1,0,0:0:0:0:
48,320,89192,1,0,0:0:0:0:
176,160,89350,6,0,B|256:104|320:192|436:104,1,251.999992309571
488,12,89823,2,0,P|416:116|480:216,1,251.999992309571
476,328,90297,1,0,0:0:0:0:
420,352,90376,1,0,0:0:0:0:
364,332,90455,1,0,0:0:0:0:
264,256,90613,5,0,0:0:0:0:
324,72,90771,1,0,0:0:0:0:
199,184,90929,5,0,0:0:0:0:
388,143,91087,1,0,0:0:0:0:
229,92,91244,5,0,0:0:0:0:
358,235,91402,1,0,0:0:0:0:
208,352,91560,1,0,0:0:0:0:
79,209,91718,1,0,0:0:0:0:
229,92,91876,5,0,0:0:0:0:
276,80,91955,1,0,0:0:0:0:
324,92,92034,1,0,0:0:0:0:
356,132,92113,1,0,0:0:0:0:
380,176,92192,1,0,0:0:0:0:
368,224,92271,1,0,0:0:0:0:
376,272,92350,1,0,0:0:0:0:
408,312,92429,1,0,0:0:0:0:
460,316,92508,5,0,0:0:0:0:
412,284,92587,1,0,0:0:0:0:
356,284,92666,1,0,0:0:0:0:
312,320,92744,1,0,0:0:0:0:
264,348,92823,1,0,0:0:0:0:
208,356,92902,1,0,0:0:0:0:
160,328,92981,1,0,0:0:0:0:
104,328,93060,1,0,0:0:0:0:
64,368,93139,5,0,0:0:0:0:
36,312,93218,1,0,0:0:0:0:
52,252,93297,1,0,0:0:0:0:
108,220,93376,1,0,0:0:0:0:
160,184,93455,1,0,0:0:0:0:
184,128,93534,1,0,0:0:0:0:
164,68,93613,1,0,0:0:0:0:
104,56,93692,1,0,0:0:0:0:
56,96,93771,5,0,0:0:0:0:
84,132,93850,1,0,0:0:0:0:
128,144,93929,1,0,0:0:0:0:
172,136,94008,1,0,0:0:0:0:
212,120,94087,5,0,0:0:0:0:
260,112,94166,1,0,0:0:0:0:
308,144,94244,1,0,0:0:0:0:
320,204,94323,1,0,0:0:0:0:
324,288,94481,5,0,0:0:0:0:
332,300,94560,1,0,0:0:0:0:
340,316,94639,1,0,0:0:0:0:
360,332,94718,5,0,0:0:0:0:
416,328,94797,1,0,0:0:0:0:
464,284,94876,1,0,0:0:0:0:
472,220,94955,1,0,0:0:0:0:
404,60,95113,1,0,0:0:0:0:
368,112,95192,1,0,0:0:0:0:
200,84,95350,1,0,0:0:0:0:
256,84,95429,1,0,0:0:0:0:
304,112,95508,1,0,0:0:0:0:
336,160,95587,1,0,0:0:0:0:
332,220,95666,6,0,B|232:320|204:228|88:360,1,251.999992309571
224,372,96139,1,0,0:0:0:0:
232,168,96297,5,0,0:0:0:0:
224,372,96455,1,0,0:0:0:0:
314,324,96613,1,0,0:0:0:0:
141,215,96771,1,0,0:0:0:0:
228,268,96929,6,0,B|360:232|324:164|448:120,1,251.999992309571
448,244,97402,1,0,0:0:0:0:
395,335,97560,2,0,P|355:223|380:176,1,125.999996154785
384,168,97797,1,0,0:0:0:0:
431,126,97876,1,0,0:0:0:0:
496,144,97955,1,0,0:0:0:0:
448,244,98034,6,0,P|360:176|336:112,1,125.999996154785
300,48,98350,1,0,0:0:0:0:
248,40,98429,1,0,0:0:0:0:
200,52,98508,1,0,0:0:0:0:
168,84,98587,1,0,0:0:0:0:
152,136,98666,5,0,0:0:0:0:
464,352,98981,5,0,0:0:0:0:
20,224,99297,5,0,0:0:0:0:
152,136,99455,5,0,0:0:0:0:
394,215,99613,1,0,0:0:0:0:
152,294,99771,1,0,0:0:0:0:
302,88,99929,1,0,0:0:0:0:
302,343,100087,1,0,0:0:0:0:
260,204,100402,5,0,0:0:0:0:
369,294,100718,5,0,0:0:0:0:
219,87,100876,1,0,0:0:0:0:
219,342,101034,1,0,0:0:0:0:
368,136,101192,1,0,0:0:0:0:
126,214,101350,1,0,0:0:0:0:
260,204,101666,5,0,0:0:0:0:
307,59,101823,1,0,0:0:0:0:
259,55,101902,1,0,0:0:0:0:
219,87,101981,5,0,0:0:0:0:
126,214,102139,1,0,0:0:0:0:
219,342,102297,1,0,0:0:0:0:
369,294,102455,1,0,0:0:0:0:
368,136,102613,1,0,0:0:0:0:
219,87,102929,5,0,0:0:0:0:
88,116,103087,1,0,0:0:0:0:
80,172,103166,1,0,0:0:0:0:
126,214,103245,5,0,0:0:0:0:
219,342,103403,1,0,0:0:0:0:
369,294,103561,1,0,0:0:0:0:
368,136,103719,1,0,0:0:0:0:
219,87,103877,1,0,0:0:0:0:
212,368,104034,1,0,0:0:0:0:
388,124,104193,1,0,0:0:0:0:
104,220,104350,1,0,0:0:0:0:
384,308,104508,5,0,0:0:0:0:
88,109,104666,1,0,0:0:0:0:
88,109,104744,1,0,0:0:0:0:
88,109,104823,1,0,0:0:0:0:
137,357,104981,1,0,0:0:0:0:
336,61,105139,1,0,0:0:0:0:
236,208,105297,5,0,0:0:0:0:
384,308,105455,1,0,0:0:0:0:
424,292,105534,1,0,0:0:0:0:
448,256,105613,1,0,0:0:0:0:
96,288,107034,5,0,0:0:0:0:
96,288,110666,5,0,0:0:0:0:
120,304,110744,1,0,0:0:0:0:
144,316,110823,1,0,0:0:0:0:
296,328,110981,5,0,0:0:0:0:
288,288,111060,1,0,0:0:0:0:
256,264,111139,1,0,0:0:0:0:
168,155,111297,5,0,0:0:0:0:
202,125,111376,1,0,0:0:0:0:
248,128,111455,1,0,0:0:0:0:
400,192,111613,5,0,0:0:0:0:
432,140,111692,1,0,0:0:0:0:
412,80,111771,1,0,0:0:0:0:
356,56,111850,5,0,0:0:0:0:
296,72,111929,1,0,0:0:0:0:
248,128,112008,1,0,0:0:0:0:
256,200,112087,6,0,B|288:324|332:252|380:376,1,210
420,268,112560,1,0,0:0:0:0:
368,140,112718,1,0,0:0:0:0:
240,76,112876,1,0,0:0:0:0:
140,100,113034,1,0,0:0:0:0:
216,172,113192,1,0,0:0:0:0:
356,40,113350,6,0,P|456:84|468:180,1,210
384,236,113823,1,0,0:0:0:0:
312,352,113981,5,0,0:0:0:0:
240,236,114139,1,0,0:0:0:0:
308,124,114297,5,0,0:0:0:0:
104,232,114455,1,0,0:0:0:0:
104,288,114534,1,0,0:0:0:0:
144,332,114613,5,0,0:0:0:0:
384,236,114771,1,0,0:0:0:0:
240,236,114929,1,0,0:0:0:0:
312,352,115087,1,0,0:0:0:0:
308,124,115244,5,0,0:0:0:0:
488,328,115402,1,0,0:0:0:0:
144,332,115560,1,0,0:0:0:0:
312,240,115718,1,0,0:0:0:0:
312,240,115797,1,0,0:0:0:0:
312,240,115876,5,0,0:0:0:0:
420,160,116034,1,0,0:0:0:0:
368,120,116113,1,0,0:0:0:0:
308,124,116192,1,0,0:0:0:0:
256,160,116271,1,0,0:0:0:0:
196,152,116350,1,0,0:0:0:0:
404,356,116508,5,0,0:0:0:0:
240,76,116666,1,0,0:0:0:0:
196,296,117139,5,0,0:0:0:0:
104,108,126771,5,0,0:0:0:0:
16,168,126929,1,0,0:0:0:0:
20,284,127087,5,0,0:0:0:0:
72,320,127166,1,0,0:0:0:0:
128,304,127244,6,0,B|180:280|176:216|232:184,1,157.500006008148
352,168,127718,2,0,P|348:240|288:296,1,157.500006008148
228,184,128192,1,0,0:0:0:0:
256,64,128350,2,0,B|348:48|368:92|448:76,1,157.500006008148
500,20,128823,2,0,P|452:92|456:180,1,157.500006008148
476,236,129297,1,0,0:0:0:0:
448,308,129455,1,0,0:0:0:0:
372,324,129613,1,0,0:0:0:0:
300,292,129771,6,0,B|248:216|200:228|164:168,1,157.500006008148
164,56,130244,2,0,P|108:68|40:140,2,157.500006008148
284,88,131034,6,0,B|344:128|316:164|420:224,1,157.500006008148
140,308,131666,6,0,B|155:298|171:334|215:306,1,78.7500030040742
256,244,131981,1,0,0:0:0:0:
244,164,132139,1,0,0:0:0:0:
256,120,132218,1,0,0:0:0:0:
284,88,132297,6,0,B|316:164|344:128|388:228,1,157.500006008148
272,228,132771,1,0,0:0:0:0:
172,196,132929,5,0,0:0:0:0:
121,246,133087,1,0,0:0:0:0:
172,297,133244,1,0,0:0:0:0:
222,246,133402,1,0,0:0:0:0:
173,167,133560,5,0,0:0:0:0:
93,245,133718,1,0,0:0:0:0:
173,325,133875,1,0,0:0:0:0:
251,245,134033,1,0,0:0:0:0:
173,132,134192,5,0,0:0:0:0:
57,244,134350,1,0,0:0:0:0:
173,360,134507,1,0,0:0:0:0:
285,244,134665,1,0,0:0:0:0:
328,200,134744,1,0,0:0:0:0:
384,200,134823,5,0,0:0:0:0:
124,192,134981,1,0,0:0:0:0:
341,321,135139,5,0,0:0:0:0:
164,70,135297,1,0,0:0:0:0:
154,341,135455,5,0,0:0:0:0:
80,108,135613,1,0,0:0:0:0:
313,37,135770,1,0,0:0:0:0:
382,270,135928,1,0,0:0:0:0:
368,304,136008,1,0,0:0:0:0:
341,321,136087,5,0,0:0:0:0:
288,288,136166,1,0,0:0:0:0:
231,287,136244,1,0,0:0:0:0:
188,315,136323,1,0,0:0:0:0:
154,341,136402,5,0,0:0:0:0:
112,328,136481,1,0,0:0:0:0:
98,296,136560,1,0,0:0:0:0:
116,267,136639,1,0,0:0:0:0:
124,232,136718,5,0,0:0:0:0:
124,232,137350,5,0,0:0:0:0:
164,164,137508,1,0,0:0:0:0:
232,128,137666,1,0,0:0:0:0:
308,112,137823,1,0,0:0:0:0:
384,136,137981,2,0,P|416:248|304:280,1,236.250009012223
340,208,138613,5,0,0:0:0:0:
400,260,138771,1,0,0:0:0:0:
392,340,138929,1,0,0:0:0:0:
320,368,139087,1,0,0:0:0:0:
264,312,139244,2,0,B|216:284|200:224|120:228,1,157.500006008148
72,296,139718,1,0,0:0:0:0:
180,312,139876,5,0,0:0:0:0:
224,208,140034,1,0,0:0:0:0:
336,152,140192,1,0,0:0:0:0:
352,312,140350,2,0,P|300:336|192:292,1,157.500006008148
88,176,140823,2,0,P|126:178|156:202,1,78.7500030040742
104,300,141139,5,0,0:0:0:0:
196,276,141297,1,0,0:0:0:0:
260,208,141455,1,0,0:0:0:0:
304,124,141613,1,0,0:0:0:0:
120,80,141771,5,0,0:0:0:0:
160,184,141929,1,0,0:0:0:0:
256,236,142087,1,0,0:0:0:0:
364,234,142244,1,0,0:0:0:0:
292,26,142402,5,0,0:0:0:0:
132,76,144613,5,0,0:0:0:0:
152,88,144692,1,0,0:0:0:0:
196,88,144771,1,0,0:0:0:0:
232,60,144850,1,0,0:0:0:0:
292,26,144929,5,0,0:0:0:0:
412,236,145087,1,0,0:0:0:0:
172,232,145244,1,0,0:0:0:0:
292,152,145402,1,0,0:0:0:0:
248,384,145560,5,0,0:0:0:0:
296,364,145639,1,0,0:0:0:0:
312,312,145718,1,0,0:0:0:0:
280,272,145797,1,0,0:0:0:0:
240,236,145876,1,0,0:0:0:0:
244,184,145955,1,0,0:0:0:0:
292,152,146034,1,0,0:0:0:0:
132,76,146350,5,0,0:0:0:0:
404,240,146508,1,0,0:0:0:0:
497,89,146666,1,0,0:0:0:0:
497,127,146744,1,0,0:0:0:0:
464,168,146823,5,0,0:0:0:0:
308,216,146981,5,0,0:0:0:0:
315,274,147060,1,0,0:0:0:0:
356,319,147139,1,0,0:0:0:0:
416,332,147218,1,0,0:0:0:0:
468,308,147297,1,0,0:0:0:0:
500,256,147376,1,0,0:0:0:0:
464,168,147455,6,0,B|324:72|360:180|200:72,1,251.999992309571
328,12,147929,1,0,0:0:0:0:
380,128,148087,1,0,0:0:0:0:
288,212,148244,2,0,B|180:272|128:184|24:264,1,251.999992309571
128,340,148718,5,0,0:0:0:0:
168,352,148797,1,0,0:0:0:0:
208,348,148876,1,0,0:0:0:0:
408,260,149034,5,0,0:0:0:0:
320,340,149192,2,0,P|272:216|392:152,1,251.999992309571
480,172,149666,2,0,P|492:88|476:48,1,125.999996154785
368,112,149981,5,0,0:0:0:0:
260,48,150139,1,0,0:0:0:0:
144,100,150297,5,0,0:0:0:0:
296,108,150455,1,0,0:0:0:0:
136,132,150613,1,0,0:0:0:0:
252,180,150771,1,0,0:0:0:0:
124,156,150929,1,0,0:0:0:0:
260,272,151087,1,0,0:0:0:0:
100,176,151245,5,0,0:0:0:0:
196,336,151402,1,0,0:0:0:0:
352,312,151560,1,0,0:0:0:0:
396,192,151718,2,0,B|335:53|275:145|231:9,1,251.999992309571
360,24,152192,1,0,0:0:0:0:
452,112,152350,1,0,0:0:0:0:
128,80,152508,6,0,B|180:228|208:132|288:292,1,251.999992309571
172,336,152981,2,0,P|224:224|344:212,1,251.999992309571
343,376,153455,2,0,P|326:316|279:275,1,125.999996154785
172,336,153771,5,0,0:0:0:0:
84,244,153929,1,0,0:0:0:0:
180,160,154087,1,0,0:0:0:0:
268,252,154244,1,0,0:0:0:0:
171,358,154402,5,0,0:0:0:0:
61,243,154560,1,0,0:0:0:0:
181,138,154718,1,0,0:0:0:0:
291,253,154875,1,0,0:0:0:0:
170,375,155034,5,0,0:0:0:0:
128,364,155113,1,0,0:0:0:0:
104,328,155192,1,0,0:0:0:0:
112,284,155271,1,0,0:0:0:0:
144,252,155350,1,0,0:0:0:0:
172,264,155429,1,0,0:0:0:0:
204,260,155508,1,0,0:0:0:0:
232,244,155587,1,0,0:0:0:0:
244,216,155666,5,0,0:0:0:0:
272,160,155744,1,0,0:0:0:0:
336,144,155823,1,0,0:0:0:0:
392,176,155902,1,0,0:0:0:0:
408,236,155981,1,0,0:0:0:0:
360,236,156060,1,0,0:0:0:0:
316,256,156139,1,0,0:0:0:0:
292,288,156218,1,0,0:0:0:0:
268,324,156297,5,0,0:0:0:0:
256,356,156376,1,0,0:0:0:0:
208,372,156455,1,0,0:0:0:0:
172,368,156534,1,0,0:0:0:0:
140,356,156613,5,0,0:0:0:0:
112,332,156692,1,0,0:0:0:0:
100,284,156771,1,0,0:0:0:0:
120,236,156850,1,0,0:0:0:0:
172,200,156929,1,0,0:0:0:0:
236,192,157008,1,0,0:0:0:0:
304,164,157087,5,0,0:0:0:0:
342,97,157166,1,0,0:0:0:0:
300,33,157244,1,0,0:0:0:0:
224,29,157323,1,0,0:0:0:0:
189,97,157402,1,0,0:0:0:0:
231,160,157481,1,0,0:0:0:0:
304,164,157560,5,0,0:0:0:0:
316,188,157639,1,0,0:0:0:0:
328,212,157718,1,0,0:0:0:0:
340,236,157797,1,0,0:0:0:0:
352,260,157876,2,0,P|360:304|348:344,1,62.9999980773926
124,332,158034,5,0,0:0:0:0:
160,344,158113,1,0,0:0:0:0:
200,336,158192,2,0,P|248:308|268:268,1,62.9999980773926
312,184,158350,5,0,0:0:0:0:
272,152,158429,1,0,0:0:0:0:
224,140,158508,1,0,0:0:0:0:
180,168,158587,1,0,0:0:0:0:
160,216,158666,1,0,0:0:0:0:
108,252,158744,1,0,0:0:0:0:
44,252,158823,6,0,B|12:104|120:164|128:16,1,251.999992309571
0,48,159297,2,0,P|80:144|232:116,1,251.999992309571
127,28,159771,1,0,0:0:0:0:
64,136,159929,1,0,0:0:0:0:
136,240,160087,6,0,P|80:324|48:228,1,251.999992309571
128,124,160560,1,0,0:0:0:0:
232,52,160718,2,0,B|288:84|228:128|320:192,1,125.999996154785
288,224,160955,1,0,0:0:0:0:
327,246,161034,1,0,0:0:0:0:
389,246,161113,1,0,0:0:0:0:
476,212,161192,6,0,B|504:136|420:168|436:92,1,125.999996154785
480,16,161508,5,0,0:0:0:0:
420,64,161587,1,0,0:0:0:0:
360,76,161666,1,0,0:0:0:0:
316,68,161744,1,0,0:0:0:0:
288,52,161823,5,0,0:0:0:0:
48,260,162139,5,0,0:0:0:0:
412,304,162455,5,0,0:0:0:0:
324,180,162613,5,0,0:0:0:0:
190,97,162771,1,0,0:0:0:0:
107,231,162929,1,0,0:0:0:0:
240,314,163087,1,0,0:0:0:0:
190,97,163244,1,0,0:0:0:0:
333,279,163876,5,0,0:0:0:0:
288,87,164034,1,0,0:0:0:0:
97,132,164192,1,0,0:0:0:0:
141,323,164350,1,0,0:0:0:0:
288,87,164508,1,0,0:0:0:0:
252,363,164981,5,0,0:0:0:0:
252,363,165060,1,0,0:0:0:0:
252,363,165139,5,0,0:0:0:0:
372,168,165297,1,0,0:0:0:0:
178,48,165455,1,0,0:0:0:0:
57,241,165613,1,0,0:0:0:0:
372,168,165771,1,0,0:0:0:0:
141,324,166244,5,0,0:0:0:0:
141,324,166323,1,0,0:0:0:0:
141,324,166402,5,0,0:0:0:0:
333,279,166560,1,0,0:0:0:0:
288,87,166718,1,0,0:0:0:0:
97,131,166876,1,0,0:0:0:0:
252,363,167034,5,0,0:0:0:0:
372,168,167192,1,0,0:0:0:0:
178,48,167350,1,0,0:0:0:0:
57,241,167508,1,0,0:0:0:0:
104,272,167587,1,0,0:0:0:0:
160,272,167666,5,0,0:0:0:0:
184,160,167823,1,0,0:0:0:0:
148,212,167902,1,0,0:0:0:0:
160,272,167981,1,0,0:0:0:0:
224,280,168060,1,0,0:0:0:0:
272,320,168139,1,0,0:0:0:0:
57,241,168297,5,0,0:0:0:0:
276,204,168455,1,0,0:0:0:0:
108,380,168613,1,0,0:0:0:0:
156,336,168692,1,0,0:0:0:0:
160,272,168771,1,0,0:0:0:0:
160,272,169718,5,0,0:0:0:0:
128,232,169797,1,0,0:0:0:0:
136,184,169876,1,0,0:0:0:0:
160,140,169955,1,0,0:0:0:0:
148,92,170034,1,0,0:0:0:0:
100,72,170113,1,0,0:0:0:0:
60,80,170192,5,0,0:0:0:0:
44,288,170350,1,0,0:0:0:0:
232,196,170508,1,0,0:0:0:0:
104,176,170666,5,0,0:0:0:0:
60,80,170823,1,0,0:0:0:0:
172,96,170981,1,0,0:0:0:0:
152,284,171139,5,0,0:0:0:0:
172,96,171297,2,0,P|236:124|244:136,1,52.5
320,216,171455,1,0,0:0:0:0:
328,244,171534,1,0,0:0:0:0:
312,276,171613,1,0,0:0:0:0:
264,268,171692,1,0,0:0:0:0:
228,288,171771,1,0,0:0:0:0:
200,320,171850,1,0,0:0:0:0:
152,320,171929,5,0,0:0:0:0:
152,320,172008,1,0,0:0:0:0:
152,320,172087,6,0,L|112:340,1,26.25
152,320,172166,2,0,L|128:352,1,26.25
152,320,172244,2,0,L|144:356,1,26.25
152,320,172323,2,0,L|160:360,1,26.25
176,340,172402,5,0,0:0:0:0:
212,360,172481,1,0,0:0:0:0:
252,348,172560,1,0,0:0:0:0:
296,348,172639,1,0,0:0:0:0:
336,364,172718,5,0,0:0:0:0:
412,52,176823,5,0,0:0:0:0:
428,72,176902,1,0,0:0:0:0:
444,96,176981,1,0,0:0:0:0:
456,136,177060,1,0,0:0:0:0:
436,180,177139,1,0,0:0:0:0:
388,192,177218,1,0,0:0:0:0:
328,164,177297,5,0,0:0:0:0:
260,132,177376,1,0,0:0:0:0:
212,76,177455,1,0,0:0:0:0:
132,76,177534,1,0,0:0:0:0:
72,140,177613,5,0,0:0:0:0:
180,292,177771,5,0,0:0:0:0:
168,200,177929,1,0,0:0:0:0:
84,256,178087,1,0,0:0:0:0:
100,352,178244,5,0,0:0:0:0:
268,236,178402,1,0,0:0:0:0:
72,160,178560,1,0,0:0:0:0:
232,64,178718,1,0,0:0:0:0:
248,156,178876,5,0,0:0:0:0:
152,112,179034,1,0,0:0:0:0:
164,208,179192,1,0,0:0:0:0:
48,272,179350,5,0,0:0:0:0:
32,60,179508,1,0,0:0:0:0:
248,156,179666,1,0,0:0:0:0:
232,308,179823,5,0,0:0:0:0:
260,324,179902,1,0,0:0:0:0:
300,328,179981,1,0,0:0:0:0:
344,316,180060,1,0,0:0:0:0:
380,276,180139,1,0,0:0:0:0:
400,204,180218,1,0,0:0:0:0:
392,120,180297,5,0,0:0:0:0:
248,156,180455,1,0,0:0:0:0:
248,156,180613,1,0,0:0:0:0:
444,336,180771,2,0,B|504:280|436:240|500:168,1,125.999996154785
308,288,181087,1,0,0:0:0:0:
392,120,181244,5,0,0:0:0:0:
316,104,181323,1,0,0:0:0:0:
288,120,181402,2,0,B|252:136|252:136|240:192|176:176,1,125.999996154785
100,84,181718,1,0,0:0:0:0:
100,84,181876,1,0,0:0:0:0:
28,208,182034,1,0,0:0:0:0:
100,84,182192,5,0,0:0:0:0:
80,120,182271,1,0,0:0:0:0:
96,160,182350,1,0,0:0:0:0:
116,196,182429,1,0,0:0:0:0:
120,236,182508,1,0,0:0:0:0:
96,268,182587,1,0,0:0:0:0:
64,296,182666,5,0,0:0:0:0:
64,296,182744,1,0,0:0:0:0:
64,296,182823,6,0,B|104:368|224:308|296:360,1,210
256,252,183297,1,0,0:0:0:0:
454,298,183455,6,0,B|415:368|295:308|258:343,1,210
256,252,183929,1,0,0:0:0:0:
256,156,184087,5,0,0:0:0:0:
256,252,184244,1,0,0:0:0:0:
256,156,184402,6,0,B|204:148|192:96|128:76,1,105
68,120,184718,5,0,0:0:0:0:
60,156,184797,1,0,0:0:0:0:
88,184,184876,1,0,0:0:0:0:
96,216,184955,1,0,0:0:0:0:
60,260,185034,2,0,P|100:336|160:364,1,105
212,264,185350,6,0,B|304:148|340:244|420:96,1,251.999992309571
304,72,185823,1,0,0:0:0:0:
312,304,185981,1,0,0:0:0:0:
252,156,186139,1,0,0:0:0:0:
232,140,186218,1,0,0:0:0:0:
212,128,186297,1,0,0:0:0:0:
448,256,186455,1,0,0:0:0:0:
188,108,186613,5,0,0:0:0:0:
160,92,186692,1,0,0:0:0:0:
80,192,186850,1,0,0:0:0:0:
88,240,186929,1,0,0:0:0:0:
60,64,187087,5,0,0:0:0:0:
76,128,187166,1,0,0:0:0:0:
136,144,187244,1,0,0:0:0:0:
184,160,187323,1,0,0:0:0:0:
212,200,187402,1,0,0:0:0:0:
200,248,187481,1,0,0:0:0:0:
204,300,187560,2,0,P|244:344|348:360,1,125.999996154785
416,300,187876,5,0,0:0:0:0:
440,236,187981,1,0,0:0:0:0:
388,192,188087,1,0,0:0:0:0:
316,180,188192,1,0,0:0:0:0:
268,128,188297,1,0,0:0:0:0:
276,60,188402,1,0,0:0:0:0:
344,44,188508,5,0,0:0:0:0:
364,112,188613,2,0,P|368:184|344:220,1,70
288,304,188823,1,0,0:0:0:0:
220,284,188929,2,0,P|180:184|184:164,1,70
216,68,189139,5,0,0:0:0:0:
244,132,189244,1,0,0:0:0:0:
184,172,189350,1,0,0:0:0:0:
124,140,189455,1,0,0:0:0:0:
64,172,189560,1,0,0:0:0:0:
60,244,189666,1,0,0:0:0:0:
108,304,189771,6,0,B|156:336|204:284|240:296,1,105
260,308,190008,1,0,0:0:0:0:
304,336,190087,2,0,P|400:316|420:288,1,105
448,224,190402,5,0,0:0:0:0:
460,212,190481,1,0,0:0:0:0:
464,184,190560,1,0,0:0:0:0:
460,148,190639,1,0,0:0:0:0:
436,112,190718,5,0,0:0:0:0:
388,80,190797,1,0,0:0:0:0:
332,76,190876,1,0,0:0:0:0:
260,112,190955,1,0,0:0:0:0:
204,180,191034,1,0,0:0:0:0:
116,168,191113,1,0,0:0:0:0:
84,104,191192,1,0,0:0:0:0:
104,44,191271,1,0,0:0:0:0:
144,16,191350,5,0,0:0:0:0:
168,44,191429,1,0,0:0:0:0:
180,72,191508,1,0,0:0:0:0:
180,96,191587,1,0,0:0:0:0:
172,116,191666,5,0,0:0:0:0:
84,172,191823,1,0,0:0:0:0:
180,228,191981,1,0,0:0:0:0:
168,236,192060,1,0,0:0:0:0:
156,244,192139,1,0,0:0:0:0:
88,188,192297,1,0,0:0:0:0:
24,296,192455,1,0,0:0:0:0:
108,360,192613,1,0,0:0:0:0:
192,348,192771,1,0,0:0:0:0:
244,312,192929,5,0,0:0:0:0:
256,192,201139,12,0,202955,0:0:0:0:
136,228,203034,5,0,0:0:0:0:
220,148,203192,1,0,0:0:0:0:
136,68,203350,1,0,0:0:0:0:
48,148,203508,1,0,0:0:0:0:
16,272,203666,2,0,B|68:344|108:284|204:348,1,178.500003404617
376,228,204297,5,0,0:0:0:0:
292,148,204455,1,0,0:0:0:0:
376,68,204613,1,0,0:0:0:0:
464,148,204771,1,0,0:0:0:0:
496,272,204929,2,0,B|444:344|404:284|308:348,1,178.500003404617
256,356,205402,1,0,0:0:0:0:
256,184,205560,5,0,0:0:0:0:
256,272,205718,1,0,0:0:0:0:
176,228,205876,1,0,0:0:0:0:
332,228,206034,1,0,0:0:0:0:
184,136,206192,2,0,P|212:104|272:92,2,89.2500017023087
328,136,206666,6,0,P|256:92|176:152,1,178.500003404617
256,272,207139,1,0,0:0:0:0:
256,92,207297,1,0,0:0:0:0:
256,124,207376,1,0,0:0:0:0:
256,160,207455,5,0,0:0:0:0:
156,216,207613,1,0,0:0:0:0:
68,176,207771,1,0,0:0:0:0:
84,88,207929,1,0,0:0:0:0:
152,44,208087,5,0,0:0:0:0:
88,264,210297,5,0,0:0:0:0:
140,252,210376,1,0,0:0:0:0:
192,268,210455,1,0,0:0:0:0:
244,292,210534,1,0,0:0:0:0:
296,280,210613,5,0,0:0:0:0:
324,104,210771,1,0,0:0:0:0:
156,160,210929,1,0,0:0:0:0:
128,336,211087,5,0,0:0:0:0:
392,356,211244,1,0,0:0:0:0:
416,88,211402,1,0,0:0:0:0:
416,88,211481,1,0,0:0:0:0:
416,88,211560,1,0,0:0:0:0:
148,68,211718,1,0,0:0:0:0:
128,336,211876,5,0,0:0:0:0:
128,336,211955,1,0,0:0:0:0:
128,336,212034,5,0,0:0:0:0:
416,88,212192,1,0,0:0:0:0:
428,132,212271,1,0,0:0:0:0:
412,172,212350,1,0,0:0:0:0:
376,196,212429,1,0,0:0:0:0:
332,208,212508,5,0,0:0:0:0:
292,244,212587,1,0,0:0:0:0:
288,296,212666,1,0,0:0:0:0:
328,332,212744,1,0,0:0:0:0:
392,356,212823,1,0,0:0:0:0:
392,356,212902,1,0,0:0:0:0:
392,356,212981,5,0,0:0:0:0:
148,68,213297,5,0,0:0:0:0:
392,356,213455,1,0,0:0:0:0:
256,192,213534,12,0,214008,0:0:0:0:
244,360,214087,5,0,0:0:0:0:
296,364,214166,1,0,0:0:0:0:
332,324,214244,1,0,0:0:0:0:
380,300,214323,1,0,0:0:0:0:
448,320,214402,6,0,B|300:284|380:184|220:156,1,272.999987503052
168,276,214876,1,0,0:0:0:0:
304,300,215034,1,0,0:0:0:0:
384,188,215192,2,0,P|364:88|200:52,1,272.999987503052
36,276,215666,5,0,0:0:0:0:
104,288,215744,1,0,0:0:0:0:
160,248,215823,1,0,0:0:0:0:
272,124,215981,1,0,0:0:0:0:
72,68,216139,2,0,B|216:116|148:232|336:220,1,272.999987503052
388,116,216613,1,0,0:0:0:0:
436,244,216771,1,0,0:0:0:0:
336,336,216929,6,0,P|224:336|176:296,1,136.499993751526
280,208,217244,1,0,0:0:0:0:
116,84,217402,1,0,0:0:0:0:
160,284,217560,1,0,0:0:0:0:
252,100,217718,1,0,0:0:0:0:
72,196,217876,1,0,0:0:0:0:
256,288,218034,1,0,0:0:0:0:
396,204,218192,5,0,0:0:0:0:
344,76,218350,1,0,0:0:0:0:
220,68,218508,1,0,0:0:0:0:
124,124,218666,2,0,B|56:240|208:260|124:392,1,272.999987503052
16,308,219139,1,0,0:0:0:0:
236,208,219297,1,0,0:0:0:0:
124,256,219455,6,0,B|216:352|320:272|388:300,1,272.999987503052
492,384,219929,2,0,P|424:308|440:116,1,272.999987503052
296,192,220402,1,0,0:0:0:0:
196,100,220560,1,0,0:0:0:0:
328,64,220718,5,0,0:0:0:0:
376,236,220876,1,0,0:0:0:0:
204,284,221034,1,0,0:0:0:0:
152,112,221192,1,0,0:0:0:0:
420,130,221350,5,0,0:0:0:0:
310,325,221508,1,0,0:0:0:0:
116,215,221666,1,0,0:0:0:0:
222,17,221824,1,0,0:0:0:0:
296,192,221981,5,0,0:0:0:0:
344,220,222060,1,0,0:0:0:0:
364,272,222139,1,0,0:0:0:0:
352,324,222218,1,0,0:0:0:0:
308,356,222297,5,0,0:0:0:0:
280,300,222376,1,0,0:0:0:0:
224,280,222455,1,0,0:0:0:0:
164,296,222534,1,0,0:0:0:0:
116,336,222613,5,0,0:0:0:0:
140,272,222692,1,0,0:0:0:0:
112,208,222771,1,0,0:0:0:0:
60,164,222850,1,0,0:0:0:0:
72,96,222929,1,0,0:0:0:0:
136,72,223008,1,0,0:0:0:0:
192,112,223087,1,0,0:0:0:0:
260,104,223166,1,0,0:0:0:0:
296,48,223244,5,0,0:0:0:0:
272,88,223323,1,0,0:0:0:0:
292,132,223402,1,0,0:0:0:0:
308,176,223481,1,0,0:0:0:0:
288,220,223560,1,0,0:0:0:0:
244,236,223639,1,0,0:0:0:0:
200,212,223718,5,0,0:0:0:0:
200,212,223797,1,0,0:0:0:0:
200,212,223876,1,0,0:0:0:0:
232,200,223955,1,0,0:0:0:0:
280,196,224034,1,0,0:0:0:0:
324,220,224113,1,0,0:0:0:0:
360,280,224192,5,0,0:0:0:0:
396,300,224271,1,0,0:0:0:0:
436,296,224350,1,0,0:0:0:0:
472,272,224429,1,0,0:0:0:0:
448,208,224508,5,0,0:0:0:0:
440,260,224587,1,0,0:0:0:0:
480,300,224666,1,0,0:0:0:0:
496,352,224744,1,0,0:0:0:0:
452,384,224823,2,0,P|376:372|352:348,1,68.2499968757631
68,336,224981,5,0,0:0:0:0:
112,284,225060,1,0,0:0:0:0:
176,264,225139,2,0,P|252:304|320:288,1,136.499993751526
379,245,225455,5,0,0:0:0:0:
363,181,225534,1,0,0:0:0:0:
319,129,225613,1,0,0:0:0:0:
351,69,225692,1,0,0:0:0:0:
419,61,225771,6,0,B|411:217|295:201|299:309,1,272.999987503052
428,256,226244,2,0,B|312:140|240:272|160:116,1,272.999987503052
292,72,226718,1,0,0:0:0:0:
168,20,226876,1,0,0:0:0:0:
60,104,227034,6,0,P|40:216|216:236,1,272.999987503052
204,140,227508,1,0,0:0:0:0:
84,208,227666,1,0,0:0:0:0:
268,300,227823,5,0,0:0:0:0:
299,294,227902,1,0,0:0:0:0:
352,270,227981,1,0,0:0:0:0:
396,223,228060,1,0,0:0:0:0:
409,144,228139,6,0,B|344:136|352:72|268:48,1,136.499993751526
80,84,228455,5,0,0:0:0:0:
120,152,228534,1,0,0:0:0:0:
168,184,228613,1,0,0:0:0:0:
200,196,228692,1,0,0:0:0:0:
228,204,228771,5,0,0:0:0:0:
52,336,229087,5,0,0:0:0:0:
480,24,229402,5,0,0:0:0:0:
289,53,229560,5,0,0:0:0:0:
339,367,229718,1,0,0:0:0:0:
114,142,229876,1,0,0:0:0:0:
427,192,230034,1,0,0:0:0:0:
144,337,230192,1,0,0:0:0:0:
260,204,230507,5,0,0:0:0:0:
412,294,230823,5,0,0:0:0:0:
186,68,230981,1,0,0:0:0:0:
236,382,231139,1,0,0:0:0:0:
380,99,231297,1,0,0:0:0:0:
312,88,231376,1,0,0:0:0:0:
268,140,231455,5,0,0:0:0:0:
256,228,231560,1,0,0:0:0:0:
168,248,231666,1,0,0:0:0:0:
144,337,231771,5,0,0:0:0:0:
427,192,231929,1,0,0:0:0:0:
114,142,232087,5,0,0:0:0:0:
144,337,232244,1,0,0:0:0:0:
339,367,232403,1,0,0:0:0:0:
427,192,232560,1,0,0:0:0:0:
289,53,232718,1,0,0:0:0:0:
67,48,233192,1,0,0:0:0:0:
49,116,233271,1,0,0:0:0:0:
99,176,233350,5,0,0:0:0:0:
196,348,233508,1,0,0:0:0:0:
389,312,233666,1,0,0:0:0:0:
412,116,233824,1,0,0:0:0:0:
234,32,233982,1,0,0:0:0:0:
183,379,234139,1,0,0:0:0:0:
439,104,234298,1,0,0:0:0:0:
71,179,234455,1,0,0:0:0:0:
406,331,234613,5,0,0:0:0:0:
68,39,234771,1,0,0:0:0:0:
68,39,234849,1,0,0:0:0:0:
68,39,234928,1,0,0:0:0:0:
91,354,235086,1,0,0:0:0:0:
384,18,235244,1,0,0:0:0:0:
237,184,235402,5,0,0:0:0:0:
406,331,235560,1,0,0:0:0:0:
458,318,235639,1,0,0:0:0:0:
493,277,235718,1,0,0:0:0:0:
444,172,235876,5,0,0:0:0:0:
444,172,235955,1,0,0:0:0:0:
444,172,236034,1,0,0:0:0:0:
328,224,236192,1,0,0:0:0:0:
284,256,236271,1,0,0:0:0:0:
232,276,236350,1,0,0:0:0:0:
212,328,236429,1,0,0:0:0:0:
236,376,236508,5,0,0:0:0:0:
181,0,236665,1,0,0:0:0:0:
443,282,236824,1,0,0:0:0:0:
66,205,236981,1,0,0:0:0:0:
409,49,237139,5,0,0:0:0:0:
63,348,237297,1,0,0:0:0:0:
63,348,237375,1,0,0:0:0:0:
63,348,237454,1,0,0:0:0:0:
86,25,237612,1,0,0:0:0:0:
387,370,237770,1,0,0:0:0:0:
236,200,237928,5,0,0:0:0:0:
409,49,238086,1,0,0:0:0:0:
463,62,238165,1,0,0:0:0:0:
499,104,238244,1,0,0:0:0:0:
256,192,239666,12,0,240613,0:0:0:0:
504,164,240929,5,0,0:0:0:0:
