osu file format v14

[General]
AudioFilename: audio.mp3
AudioLeadIn: 0
PreviewTime: 56557
Countdown: 0
SampleSet: Soft
StackLeniency: 0.7
Mode: 0
LetterboxInBreaks: 0
WidescreenStoryboard: 1

[Editor]
Bookmarks: 22798,45474,68239,90474,110415,113151,135739
DistanceSpacing: 1.3
BeatDivisor: 2
GridSize: 32
TimelineZoom: 1.2

[Metadata]
Title:Eli Eli (Maduk Remix)
TitleUnicode:Eli Eli (Maduk Remix)
Artist:Misun
ArtistUnicode:Misun
Creator:Milan-
Version:Normal
Source:
Tags:dnb drum and bass liquid
BeatmapID:2188459
BeatmapSetID:708908

[Difficulty]
HPDrainRate:3
CircleSize:3
OverallDifficulty:3
ApproachRate:4.5
SliderMultiplier:1
SliderTickRate:1

[Events]
//Background and Video events
0,0,"osu! Winter Fanart 2017 - Evaine.jpg",0,0
//Break Periods
2,34326,44160
//Storyboard Layer 0 (Background)
//Storyboard Layer 1 (Fail)
//Storyboard Layer 2 (Pass)
//Storyboard Layer 3 (Foreground)
//Storyboard Layer 4 (Overlay)
//Storyboard Sound Samples

[TimingPoints]
244,352.941176470588,4,2,1,50,1,0
22832,-125,4,2,1,50,0,0
28479,-125,4,2,1,30,0,0
28579,-125,4,2,1,50,0,0
34126,-125,4,2,1,40,0,0
45420,-125,4,2,1,50,0,0
56714,-100,4,2,1,70,0,0
79302,-100,4,2,1,75,0,1
101538,-100,4,2,1,75,0,0
101891,-100,4,2,1,70,0,0

[Colours]
Combo1 : 168,196,159
Combo2 : 187,198,208
Combo3 : 226,215,173
Combo4 : 208,187,198

[HitObjects]
66,42,22832,6,0,L|146:56,1,80,4|2,0:0|3:0,0:0:0:0:
190,205,23714,2,0,L|181:259,1,40,0|2,0:0|3:0,0:0:0:0:
244,328,24243,2,0,L|324:342,1,80,2|2,0:0|3:0,0:0:0:0:
415,215,25126,2,0,L|421:175,2,40,0|2|0,0:0|3:0|0:0,0:0:0:0:
410,266,25655,1,2,0:0:0:0:
307,247,26008,6,0,P|242:214|214:168,2,120,2|0|2,3:0|0:0|0:0,0:0:0:0:
435,82,27773,1,2,0:0:0:0:
236,18,28479,6,0,L|156:32,1,80,4|2,0:0|3:0,0:0:0:0:
139,134,29185,2,0,L|59:148,1,80,2|2,0:0|3:0,0:0:0:0:
20,244,29891,2,0,L|110:265,1,80,2|2,0:0|3:0,0:0:0:0:
161,344,30596,2,0,L|251:365,1,80,0|2,0:0|3:0,0:0:0:0:
342,355,31302,6,0,B|406:263|406:263|399:250|399:250|466:158,1,240,2|2,0:0|3:0,0:0:0:0:
421,63,32714,2,0,B|310:43|310:43|306:29|306:29|194:11,1,240,2|2,0:0|3:0,0:0:0:0:
101,58,34126,1,4,0:0:0:0:
147,330,45420,6,0,P|103:323|18:225,1,160,2|4,0:0|0:3,0:0:0:0:
34,143,46479,1,0,0:0:0:0:
96,60,46832,2,0,L|279:84,1,160,4|4,0:3|0:3,0:0:0:0:
353,48,47891,1,0,0:0:0:0:
429,118,48243,6,0,P|433:164|361:271,1,160,2|4,0:0|0:3,0:0:0:0:
316,343,49302,1,0,0:0:0:0:
215,317,49655,2,0,P|211:271|283:164,1,160,4|4,0:3|0:3,0:0:0:0:
475,204,51067,5,2,0:0:0:0:
432,109,51420,1,4,0:3:0:0:
333,76,51773,1,4,0:3:0:0:
230,93,52126,1,4,0:3:0:0:
132,129,52479,6,0,L|51:104,1,80,2|4,0:0|0:3,0:0:0:0:
23,204,53185,2,0,L|99:227,1,80,4|4,0:3|0:3,0:0:0:0:
256,192,53891,12,2,55655,0:0:0:0:
476,66,56714,6,0,L|324:82,1,150,4|0,0:0|0:0,0:0:0:0:
277,57,57420,2,0,L|174:68,1,100,0|8,0:0|0:0,0:0:0:0:
80,118,58126,2,0,P|49:157|45:206,1,100,0|8,0:0|0:0,0:0:0:0:
123,284,58832,2,0,L|175:280,1,50,2|2,0:0|0:0,0:0:0:0:
221,305,59185,1,8,0:0:0:0:
325,338,59538,5,2,0:0:0:0:
424,290,59891,1,8,0:0:0:0:
454,184,60243,1,2,0:0:0:0:
410,82,60596,1,8,0:0:0:0:
302,58,60949,1,2,0:0:0:0:
197,93,61302,2,0,L|126:109,1,50,8|2,0:0|0:0,0:0:0:0:
100,131,61655,2,0,P|70:206|67:233,1,100,2|8,0:0|0:0,0:0:0:0:
152,294,62361,6,0,P|182:219|185:192,1,100,4|8,0:0|0:0,0:0:0:0:
280,147,63067,2,0,P|328:160|394:148,1,100,0|8,0:0|0:0,0:0:0:0:
428,134,63596,1,0,0:0:0:0:
476,160,63773,2,0,P|487:230|489:265,1,100,0|8,0:0|0:0,0:0:0:0:
385,298,64479,2,0,P|377:272|370:237,2,50,2|2|8,0:0|0:0|0:0,0:0:0:0:
358,346,65008,1,0,0:0:0:0:
304,358,65185,6,0,L|194:346,1,100,2|8,0:0|0:0,0:0:0:0:
113,284,65891,2,0,L|3:272,1,100,2|8,0:0|0:0,0:0:0:0:
12,163,66596,1,2,0:0:0:0:
94,90,66949,1,8,0:0:0:0:
203,100,67302,2,0,P|209:121|216:152,2,50,2|2|8,0:0|0:0|0:0,0:0:0:0:
283,24,68008,5,4,0:0:0:0:
384,65,68361,2,0,B|406:91|406:91|396:225,1,150,8|2,0:0|0:0,0:0:0:0:
393,261,69067,1,8,0:0:0:0:
314,337,69420,1,0,0:0:0:0:
222,275,69773,1,8,0:0:0:0:
120,316,70126,2,0,P|95:323|71:327,2,50,2|2|8,0:0|0:0|0:0,0:0:0:0:
132,207,70832,6,0,P|102:145|87:84,1,100,0|8,0:0|0:0,0:0:0:0:
179,47,71538,2,0,P|171:23|162:0,2,50,2|2|8,0:0|0:0|0:0,0:0:0:0:
253,128,72243,2,0,P|301:135|369:125,1,100,0|8,0:0|0:0,0:0:0:0:
404,112,72773,1,2,0:0:0:0:
455,129,72949,2,0,P|434:195|431:227,1,100,2|8,0:0|0:0,0:0:0:0:
489,318,73655,5,4,0:0:0:0:
384,352,74008,2,0,L|232:329,1,150,8|2,0:0|0:0,0:0:0:0:
181,318,74714,1,8,0:0:0:0:
246,229,75067,1,0,0:0:0:0:
204,126,75420,1,8,0:0:0:0:
94,112,75773,1,2,0:0:0:0:
29,201,76126,1,8,0:0:0:0:
29,201,76302,6,0,B|164:174|95:261|256:239,1,200,4|0,0:0|0:0,0:0:0:0:
265,269,77185,2,0,L|282:331,2,50,2|2|8,0:0|0:0|0:0,0:0:0:0:
289,161,77891,6,0,L|278:98,1,50,2|2,0:0|0:0,0:0:0:0:
309,65,78243,1,8,0:0:0:0:
406,116,78596,2,0,L|395:179,1,50,2|2,0:0|0:0,0:0:0:0:
426,212,78948,1,8,0:0:0:0:
377,310,79302,6,0,P|331:344|204:293,1,200,4|2,0:0|0:0,0:0:0:0:
138,214,80361,1,10,0:0:0:0:
28,214,80714,2,0,P|92:206|196:42,1,250,2|2,0:0|0:0,0:0:0:0:
238,30,81773,6,0,L|356:42,2,100,8|2|8,0:0|0:0|0:0,0:0:0:0:
77,69,83008,1,0,0:0:0:0:
77,69,83185,2,0,L|91:123,1,50,10|2,0:0|0:0,0:0:0:0:
54,160,83538,2,0,P|105:275|181:278,1,200,2|2,0:0|0:0,0:0:0:0:
271,248,84596,2,0,L|337:246,1,50,10|2,0:0|0:0,0:0:0:0:
358,205,84949,6,0,P|456:232|497:343,1,200,4|2,0:0|0:0,0:0:0:0:
402,370,86008,1,10,0:0:0:0:
295,343,86361,2,0,P|246:300|273:133,1,250,2|2,0:0|0:0,0:0:0:0:
323,116,87420,6,0,L|447:110,2,100,10|2|10,0:0|0:0|0:0,0:0:0:0:
162,76,88655,2,0,L|136:14,2,50,2|8|0,0:0|0:0|0:0,0:0:0:0:
137,125,89185,2,0,L|93:231,1,100,2|8,0:0|0:0,0:0:0:0:
208,226,89891,2,0,L|219:338,1,100,2|10,0:0|0:0,0:0:0:0:
267,350,90420,1,2,0:0:0:0:
321,352,90596,6,0,P|396:311|388:191,1,200,4|2,0:0|0:0,0:0:0:0:
427,99,91655,1,10,0:0:0:0:
320,127,92008,2,0,P|252:127|90:32,1,250,2|2,0:0|0:0,0:0:0:0:
45,60,93067,6,0,P|19:128|16:188,1,100,8|2,0:0|0:0,0:0:0:0:
90,235,93773,1,8,0:0:0:0:
221,334,94302,1,0,0:0:0:0:
221,334,94479,2,0,L|284:324,1,50,10|2,0:0|0:0,0:0:0:0:
316,295,94832,2,0,P|401:318|517:359,1,200,2|2,0:0|0:0,0:0:0:0:
493,245,95891,2,0,P|445:233|423:227,1,50,10|2,0:0|0:0,0:0:0:0:
425,181,96243,6,0,P|367:203|241:109,1,200,4|2,0:0|0:0,0:0:0:0:
165,73,97302,1,10,0:0:0:0:
76,137,97655,2,0,P|23:199|95:343,1,250,2|2,0:0|0:0,0:0:0:0:
138,341,98714,1,10,0:0:0:0:
247,352,99067,6,0,L|358:347,1,100,2|10,0:0|0:0,0:0:0:0:
433,206,99949,1,2,0:0:0:0:
433,206,100126,2,0,L|451:90,2,100,8|2|8,0:0|0:0|0:0,0:0:0:0:
382,227,101008,2,0,L|282:231,1,100,2|2,0:0|0:0,0:0:0:0:
227,238,101538,1,12,0:0:0:0:
129,187,101891,5,4,0:0:0:0:
52,265,102243,2,0,P|26:330|23:363,2,100,8|0|8,0:0|0:0|0:0,0:0:0:0:
129,187,103302,2,0,L|111:73,1,100,0|8,0:0|0:0,0:0:0:0:
215,47,104008,2,0,L|222:-9,2,50,2|2|8,0:0|0:0|0:0,0:0:0:0:
250,89,104538,6,0,P|329:117|393:117,1,100,0|0,0:0|0:0,0:0:0:0:
398,107,105067,1,8,0:0:0:0:
384,160,105243,2,0,P|346:217|324:319,1,150,2|8,0:0|0:0,0:0:0:0:
222,337,106126,2,0,P|217:308|214:271,2,50,2|0|8,0:0|0:0|0:0,0:0:0:0:
171,358,106655,2,0,L|50:336,1,100,2|2,0:0|0:0,0:0:0:0:
18,329,107185,1,10,0:0:0:0:
46,222,107538,5,4,0:0:0:0:
86,119,107891,2,0,L|71:18,1,100,8|0,0:0|0:0,0:0:0:0:
125,10,108420,1,0,0:0:0:0:
179,5,108596,2,0,L|193:103,1,100,8|0,0:0|0:0,0:0:0:0:
209,213,109302,1,8,0:0:0:0:
229,321,109655,2,0,P|212:343|185:370,2,50,2|2|8,0:0|0:0|0:0,0:0:0:0:
281,303,110185,6,0,P|355:315|403:322,1,100,0|2,0:0|0:0,0:0:0:0:
433,332,110714,1,8,0:0:0:0:
473,294,110891,2,0,P|493:230|491:119,1,150,2|8,0:0|0:0,0:0:0:0:
433,57,111773,2,0,L|465:2,2,50,2|2|8,0:0|0:0|0:0,0:0:0:0:
381,77,112302,2,0,P|273:106|247:105,1,100,2|2,0:0|0:0,0:0:0:0:
233,88,112832,1,10,0:0:0:0:
136,141,113185,5,4,0:0:0:0:
27,158,113538,1,8,0:0:0:0:
27,158,113714,2,0,L|69:323,1,150,2|8,0:0|0:0,0:0:0:0:
83,355,114420,2,0,L|242:305,1,150,2|8,0:0|0:0,0:0:0:0:
336,314,115302,1,2,0:0:0:0:
421,244,115655,1,10,0:0:0:0:
421,244,115832,2,0,L|379:79,1,150,2|8,0:0|0:0,0:0:0:0:
365,49,116538,2,0,L|206:99,1,150,2|8,0:0|0:0,0:0:0:0:
118,130,117420,5,2,0:0:0:0:
197,206,117773,1,10,0:0:0:0:
306,200,118126,1,2,0:0:0:0:
366,291,118479,1,8,0:0:0:0:
276,355,118832,6,0,P|239:352|163:346,1,100,4|8,0:0|0:0,0:0:0:0:
122,361,119361,2,0,P|74:338|56:230,1,150,0|8,0:0|0:0,0:0:0:0:
119,166,120243,2,0,P|128:116|108:63,1,100,2|10,0:0|0:0,0:0:0:0:
119,15,120773,2,0,P|212:61|284:43,1,150,2|8,0:0|0:0,0:0:0:0:
364,55,121655,5,4,0:0:0:0:
465,98,122008,1,8,0:0:0:0:
468,303,122714,2,0,L|489:359,2,50,8|0|2,0:0|0:0|0:0,0:0:0:0:
365,261,123420,1,10,0:0:0:0:
264,305,123773,2,0,L|196:287,1,50,2|2,0:0|0:0,0:0:0:0:
162,277,124126,1,8,0:0:0:0:
67,332,124479,1,4,0:0:0:0:
