osu file format v14

[General]
AudioFilename: audio.mp3
AudioLeadIn: 0
PreviewTime: 56557
Countdown: 0
SampleSet: Soft
StackLeniency: 0.5
Mode: 0
LetterboxInBreaks: 0
WidescreenStoryboard: 1

[Editor]
Bookmarks: 22798,45474,68239,90474,110415,113151,135739
DistanceSpacing: 0.9
BeatDivisor: 4
GridSize: 32
TimelineZoom: 1.8

[Metadata]
Title:Eli Eli (Maduk Remix)
TitleUnicode:Eli Eli (Maduk Remix)
Artist:Misun
ArtistUnicode:Misun
Creator:Milan-
Version:Insane
Source:
Tags:dnb drum and bass liquid
BeatmapID:1498730
BeatmapSetID:708908

[Difficulty]
HPDrainRate:6.5
CircleSize:4
OverallDifficulty:8
ApproachRate:9
SliderMultiplier:1.8
SliderTickRate:1

[Events]
//Background and Video events
0,0,"osu! Winter Fanart 2017 - Evaine.jpg",0,0
//Break Periods
2,34326,44820
//Storyboard Layer 0 (Background)
//Storyboard Layer 1 (Fail)
//Storyboard Layer 2 (Pass)
//Storyboard Layer 3 (Foreground)
//Storyboard Layer 4 (Overlay)
//Storyboard Sound Samples

[TimingPoints]
244,352.941176470588,4,2,1,50,1,0
22832,-125,4,2,1,50,0,0
28479,-125,4,2,1,30,0,0
28579,-125,4,2,1,50,0,0
34126,-125,4,2,1,40,0,0
45420,-100,4,2,1,50,0,0
56714,-100,4,2,1,70,0,0
79302,-83.3333333333333,4,2,1,75,0,1
101538,-83.3333333333333,4,2,1,75,0,0
101891,-100,4,2,1,70,0,0

[Colours]
Combo1 : 168,196,159
Combo2 : 187,198,208
Combo3 : 226,215,173
Combo4 : 208,187,198

[HitObjects]
44,33,22832,6,0,L|53:112,1,72,4|0,0:0|0:0,0:0:0:0:
52,104,23096,1,0,0:0:0:0:
52,104,23185,1,2,3:0:0:0:
140,74,23361,1,0,0:0:0:0:
175,190,23538,2,0,L|186:155,2,36
271,116,23891,1,2,3:0:0:0:
463,129,24067,2,0,P|447:129|421:131,1,36
460,138,24243,6,0,B|365:128|431:193|305:188,2,144,2|2|0,0:0|3:0|0:0,0:0:0:0:
511,304,25126,1,0,0:0:0:0:
441,241,25302,1,2,3:0:0:0:
352,272,25479,1,0,0:0:0:0:
352,272,25567,1,0,0:0:0:0:
352,272,25655,6,0,L|366:353,1,72,2|0,0:0|0:0,0:0:0:0:
249,261,26008,2,0,L|262:127,1,108,2|0,3:0|0:0,0:0:0:0:
250,143,26361,2,0,L|256:71,1,72
342,108,26714,1,2,3:0:0:0:
167,89,26891,2,0,P|143:92|115:100,1,36
165,99,27067,6,0,P|81:129|41:186,1,144,2|2,0:0|3:3,0:0:0:0:
144,203,27596,1,0,0:0:0:0:
144,203,27685,1,0,0:0:0:0:
144,203,27773,2,0,P|124:245|123:277,1,72,2|0,0:0|0:0,0:0:0:0:
277,342,28126,1,2,3:0:0:0:
216,270,28302,1,0,0:0:0:0:
216,270,28391,1,0,0:0:0:0:
216,270,28479,5,4,0:0:0:0:
307,251,28655,1,0,0:0:0:0:
333,160,28832,1,2,3:0:0:0:
242,179,29008,1,0,0:0:0:0:
258,54,29185,2,0,L|269:89,2,36,2|0|0,0:0|0:0|0:0,0:0:0:0:
333,160,29538,2,0,P|369:171|404:173,1,72,2|0,3:0|0:0,0:0:0:0:
242,179,29891,6,0,P|194:204|142:217,1,108,2|0,0:0|0:0,0:0:0:0:
127,225,30243,2,0,P|79:215|47:196,1,72,2|0,3:0|0:0,0:0:0:0:
208,298,30596,1,0,0:0:0:0:
208,298,30685,1,0,0:0:0:0:
208,298,30773,1,2,0:0:0:0:
285,260,30949,1,2,3:0:0:0:
369,278,31126,1,0,0:0:0:0:
448,245,31302,6,0,P|465:208|468:82,1,144,2|2,0:0|3:0,0:0:0:0:
409,47,31832,1,0,0:0:0:0:
262,53,32008,1,0,0:0:0:0:
336,96,32185,1,2,0:0:0:0:
262,140,32361,1,2,3:0:0:0:
111,95,32538,1,0,0:0:0:0:
111,95,32626,1,0,0:0:0:0:
111,95,32714,6,0,L|192:99,1,72,2|0,0:0|0:0,0:0:0:0:
41,183,33067,1,2,3:0:0:0:
11,102,33243,1,0,0:0:0:0:
5,287,33420,1,2,0:0:0:0:
25,203,33596,1,2,0:0:0:0:
170,329,33773,1,2,3:0:0:0:
162,243,33949,1,2,0:0:0:0:
333,277,34126,5,4,0:0:0:0:
357,102,45420,5,2,0:0:0:0:
333,131,46126,1,4,0:3:0:0:
282,147,46832,1,4,0:3:0:0:
202,117,47538,1,4,0:3:0:0:
101,181,48244,5,2,0:0:0:0:
82,311,48949,1,4,0:3:0:0:
254,358,49655,1,4,0:3:0:0:
411,204,50361,1,4,0:3:0:0:
394,180,51067,5,2,0:0:0:0:
394,180,51420,1,4,0:3:0:0:
319,207,51773,1,4,0:3:0:0:
319,207,52126,1,4,0:3:0:0:
244,237,52479,5,2,0:0:0:0:
394,180,52832,1,4,0:3:0:0:
164,207,53185,1,4,0:3:0:0:
470,218,53538,1,4,0:3:0:0:
323,215,53891,5,2,0:0:0:0:
317,201,54067,1,4,0:3:0:0:
375,279,54244,5,2,0:0:0:0:
369,293,54420,1,4,0:3:0:0:
244,238,54597,5,2,0:0:0:0:
448,319,54773,1,4,0:3:0:0:
222,339,54949,5,2,0:0:0:0:
470,218,55125,1,4,0:3:0:0:
264,109,55302,5,2,0:0:0:0:
264,109,55391,1,4,0:3:0:0:
264,109,55479,1,2,0:0:0:0:
264,109,55567,1,4,0:3:0:0:
264,109,55655,2,0,P|267:133|272:180,1,45,2|4,0:0|0:3,0:0:0:0:
347,127,55832,2,0,P|346:185|342:200,1,45,2|4,0:0|0:3,0:0:0:0:
425,95,56008,2,0,P|428:119|433:166,1,45,2|4,0:0|0:3,0:0:0:0:
504,78,56185,2,0,P|503:136|499:151,1,45,2|4,0:0|0:3,0:0:0:0:
450,275,56361,1,12,0:0:0:0:
450,275,56714,6,0,P|386:255|340:206,1,135,4|0,0:0|0:0,0:0:0:0:
270,239,57067,2,0,P|252:182|255:132,1,90,8|0,0:0|0:0,0:0:0:0:
449,0,57420,2,0,P|446:44|430:86,1,90
201,74,57773,2,0,L|316:55,1,90,8|0,0:0|0:0,0:0:0:0:
354,108,58126,5,0,0:0:0:0:
251,152,58302,1,0,0:0:0:0:
145,188,58479,1,8,0:0:0:0:
340,206,58655,5,2,0:0:0:0:
341,221,58743,1,0,0:0:0:0:
342,237,58831,1,2,0:0:0:0:
343,253,58919,1,0,0:0:0:0:
344,268,59008,1,2,0:0:0:0:
251,152,59185,5,8,0:0:0:0:
434,235,59361,1,0,0:0:0:0:
269,353,59538,5,2,0:0:0:0:
242,276,59714,1,2,0:0:0:0:
190,339,59891,5,8,0:0:0:0:
344,268,60067,1,0,0:0:0:0:
323,100,60244,5,2,0:0:0:0:
251,152,60420,1,2,0:0:0:0:
326,181,60597,5,8,0:0:0:0:
174,176,60773,1,0,0:0:0:0:
23,165,60949,6,0,P|32:197|43:258,1,90,2|0,0:0|0:0,0:0:0:0:
139,102,61302,2,0,P|148:70|159:9,1,90,8|2,0:0|0:0,0:0:0:0:
158,14,61567,1,0,0:0:0:0:
158,14,61655,2,0,P|184:28|213:43,1,45,2|0,0:0|0:0,0:0:0:0:
252,97,61832,2,0,P|288:97|327:88,1,45,2|0,0:0|0:0,0:0:0:0:
366,146,62008,2,0,P|400:131|444:96,1,90,8|0,0:0|0:0,0:0:0:0:
512,299,62361,6,0,P|464:245|381:222,1,135,4|0,0:0|0:0,0:0:0:0:
387,300,62714,2,0,P|342:297|299:310,1,90,8|0,0:0|0:0,0:0:0:0:
208,160,63067,2,0,L|233:288,1,90
48,98,63420,2,0,P|90:111|135:108,1,90,8|0,0:0|0:0,0:0:0:0:
338,44,63773,6,0,P|271:48|200:93,1,135
208,160,64126,2,0,L|225:248,1,90,8|2,0:0|0:0,0:0:0:0:
210,252,64391,1,0,0:0:0:0:
195,257,64479,1,2,0:0:0:0:
180,263,64567,1,0,0:0:0:0:
166,267,64655,1,2,0:0:0:0:
303,280,64832,5,8,0:0:0:0:
455,228,65008,1,0,0:0:0:0:
303,198,65185,5,2,0:0:0:0:
373,237,65361,1,2,0:0:0:0:
268,354,65538,5,8,0:0:0:0:
303,198,65714,1,0,0:0:0:0:
338,41,65891,5,2,0:0:0:0:
283,100,66067,1,2,0:0:0:0:
208,67,66244,2,0,P|176:63|102:49,1,90,8|0,0:0|0:0,0:0:0:0:
404,91,66597,6,0,P|436:87|510:73,1,90,2|0,0:0|0:0,0:0:0:0:
323,190,66949,1,8,0:0:0:0:
264,6,67126,1,2,0:0:0:0:
264,6,67214,1,0,0:0:0:0:
264,6,67302,1,2,0:0:0:0:
338,41,67479,1,2,0:0:0:0:
283,100,67655,2,0,P|247:162|237:203,1,90,8|0,0:0|0:0,0:0:0:0:
436,355,68008,6,0,P|433:287|411:224,1,135,4|0,0:0|0:0,0:0:0:0:
344,260,68361,2,0,L|229:254,1,90,8|2,0:0|0:0,0:0:0:0:
254,255,68626,1,0,0:0:0:0:
254,255,68714,1,2,0:0:0:0:
447,131,68891,2,0,L|332:137,1,90,2|8,0:0|0:0,0:0:0:0:
283,100,69244,1,0,0:0:0:0:
179,289,69420,6,0,P|118:286|49:246,1,135
110,197,69773,2,0,P|66:147|53:93,1,90,8|2,0:0|0:0,0:0:0:0:
57,125,70038,1,0,0:0:0:0:
57,125,70126,1,2,0:0:0:0:
292,199,70302,2,0,P|225:194|178:165,1,90,2|8,0:0|0:0,0:0:0:0:
199,104,70655,1,0,0:0:0:0:
302,283,70832,5,0,0:0:0:0:
274,73,71008,1,0,0:0:0:0:
366,233,71185,2,0,P|432:228|479:199,1,90,8|2,0:0|0:0,0:0:0:0:
453,219,71449,1,0,0:0:0:0:
453,219,71538,1,2,0:0:0:0:
351,47,71714,2,0,P|400:90|454:104,1,90,2|8,0:0|0:0,0:0:0:0:
501,82,72067,1,0,0:0:0:0:
292,199,72244,5,0,0:0:0:0:
422,99,72420,1,0,0:0:0:0:
225,153,72597,2,0,P|207:108|205:46,1,90,8|2,0:0|0:0,0:0:0:0:
203,66,72861,1,0,0:0:0:0:
203,66,72949,2,0,P|179:84|145:102,1,45,2|0,0:0|0:0,0:0:0:0:
126,170,73126,2,0,P|99:173|79:174,1,45,2|0,0:0|0:0,0:0:0:0:
8,242,73302,2,0,P|43:257|102:291,1,90,8|0,0:0|0:0,0:0:0:0:
326,203,73655,6,0,P|263:223|208:264,1,135,4|0,0:0|0:0,0:0:0:0:
176,332,74008,2,0,L|158:227,1,90,8|2,0:0|0:0,0:0:0:0:
160,243,74273,1,0,0:0:0:0:
160,243,74361,1,2,0:0:0:0:
331,378,74538,2,0,L|313:273,1,90,2|8,0:0|0:0,0:0:0:0:
390,256,74891,1,0,0:0:0:0:
247,69,75067,6,0,P|302:106|368:116,1,135
418,178,75420,2,0,L|515:155,1,90,8|2,0:0|0:0,0:0:0:0:
505,157,75685,1,0,0:0:0:0:
505,157,75773,1,2,0:0:0:0:
335,193,75949,1,2,0:0:0:0:
449,89,76126,1,8,0:0:0:0:
382,270,76302,6,0,B|281:311|318:225|195:276,1,180,4|0,0:0|0:0,0:1:0:0:
74,202,76832,5,8,0:0:0:0:
254,341,77008,1,0,0:0:0:0:
148,168,77185,5,2,0:0:0:0:
74,202,77361,1,2,0:0:0:0:
140,249,77538,5,8,0:0:0:0:
240,29,77714,1,0,0:0:0:0:
168,67,77891,5,2,0:0:0:0:
168,67,78067,1,2,0:0:0:0:
303,88,78244,1,8,0:0:0:0:
216,217,78420,5,2,0:0:0:0:
240,29,78597,1,2,0:0:0:0:
64,103,78773,1,2,0:0:0:0:
172,116,78949,5,8,0:0:0:0:
375,51,79302,6,0,B|404:116|336:166|336:166|359:203|336:256,1,215.999993408203,4|8,0:0|0:0,0:0:0:0:
263,215,79832,1,0,0:0:0:0:
259,232,79920,1,0,0:0:0:0:
260,249,80008,1,2,0:0:0:0:
427,192,80185,1,2,0:0:0:0:
285,378,80361,1,10,0:0:0:0:
449,355,80538,1,2,0:0:0:0:
355,285,80714,6,0,B|227:232|270:322|116:293,1,215.999993408203,2|8,0:0|0:0,0:0:0:0:
79,242,81244,1,0,0:0:0:0:
89,231,81332,1,0,0:0:0:0:
104,223,81420,1,0,0:0:0:0:
178,74,81597,2,0,P|191:126|178:178,1,107.999996704102,2|8,0:0|0:0,0:0:0:0:
9,11,81949,1,2,0:0:0:0:
9,11,82038,1,0,0:0:0:0:
9,11,82126,6,0,P|77:52|107:125,1,161.999995056153,2|0,0:0|0:0,0:0:0:0:
178,178,82479,2,0,L|327:166,1,107.999996704102,8|0,0:0|0:0,0:0:0:0:
285,169,82744,1,0,0:0:0:0:
285,169,82832,1,0,0:0:0:0:
100,208,83008,1,0,0:0:0:0:
272,91,83185,1,10,0:0:0:0:
287,296,83361,1,2,0:0:0:0:
59,310,83538,6,0,P|139:309|207:268,1,161.999995056153,2|0,0:0|0:0,0:0:0:0:
295,303,83891,2,0,L|411:294,1,107.999996704102,8|2,0:0|0:0,0:0:0:0:
402,294,84155,1,0,0:0:0:0:
402,294,84244,2,0,P|412:337|413:372,1,53.9999983520508,2|0,0:0|0:0,0:0:0:0:
451,213,84420,2,0,P|461:190|483:154,1,53.9999983520508,2|0,0:0|0:0,0:0:0:0:
359,207,84597,1,10,0:0:0:0:
491,292,84773,1,2,0:0:0:0:
401,126,84949,6,0,B|318:105|270:184|270:184|250:151|179:138,1,215.999993408203,4|8,0:0|0:0,0:0:0:0:
135,138,85479,1,0,0:0:0:0:
134,155,85567,1,0,0:0:0:0:
139,172,85655,1,2,0:0:0:0:
247,45,85832,1,2,0:0:0:0:
51,110,86008,1,10,0:0:0:0:
204,235,86185,1,2,0:0:0:0:
8,300,86361,6,0,P|67:280|172:317,1,161.999995056153,2|0,0:0|0:0,0:0:0:0:
240,310,86714,2,0,L|353:293,1,107.999996704102,8|0,0:0|0:0,0:0:0:0:
347,278,86979,1,0,0:0:0:0:
348,262,87067,1,0,0:0:0:0:
349,247,87155,1,0,0:0:0:0:
350,231,87243,1,2,0:0:0:0:
307,382,87420,1,10,0:0:0:0:
437,264,87597,1,2,0:0:0:0:
280,181,87773,6,0,P|221:201|116:164,1,161.999995056153,2|0,0:0|0:0,0:0:0:0:
52,196,88126,2,0,L|39:83,1,107.999996704102,10|0,0:0|0:0,0:0:0:0:
39,88,88391,1,0,0:0:0:0:
39,88,88479,1,0,0:0:0:0:
218,122,88655,2,0,L|205:9,1,107.999996704102,2|8,0:0|0:0,0:0:0:0:
118,0,89008,1,0,0:0:0:0:
301,60,89185,5,2,0:0:0:0:
312,145,89361,1,0,0:0:0:0:
323,230,89538,1,8,0:0:0:0:
422,129,89714,1,2,0:0:0:0:
422,129,89802,1,0,0:0:0:0:
422,129,89891,2,0,P|413:159|394:183,1,53.9999983520508,2|0,0:0|0:0,0:0:0:0:
506,250,90067,2,0,P|495:232|485:200,1,53.9999983520508,2|0,0:0|0:0,0:0:0:0:
412,264,90244,1,10,0:0:0:0:
511,120,90420,1,2,0:0:0:0:
457,343,90597,6,0,B|334:377|389:278|226:325,1,215.999993408203,4|8,0:0|0:0,0:0:0:0:
166,297,91126,1,0,0:0:0:0:
162,314,91214,1,0,0:0:0:0:
163,331,91302,1,2,0:0:0:0:
226,236,91479,1,2,0:0:0:0:
69,259,91655,1,10,0:0:0:0:
46,116,91832,1,2,0:0:0:0:
264,124,92008,6,0,B|172:87|113:168|113:168|134:195|181:201,1,215.999993408203,2|8,0:0|0:0,0:0:0:0:
226,236,92538,1,0,0:0:0:0:
230,219,92626,1,0,0:0:0:0:
233,204,92714,1,0,0:0:0:0:
412,148,92891,2,0,P|370:182|318:191,1,107.999996704102,2|8,0:0|0:0,0:0:0:0:
488,313,93243,1,2,0:0:0:0:
488,313,93332,1,0,0:0:0:0:
488,313,93420,6,0,P|419:273|340:282,1,161.999995056153,2|0,0:0|0:0,0:0:0:0:
282,337,93773,2,0,L|133:325,1,107.999996704102,8|0,0:0|0:0,0:0:0:0:
175,328,94038,1,0,0:0:0:0:
175,328,94126,1,0,0:0:0:0:
35,319,94302,1,0,0:0:0:0:
237,253,94479,1,10,0:0:0:0:
78,131,94655,1,2,0:0:0:0:
216,162,94832,6,0,P|296:161|364:120,1,161.999995056153,2|0,0:0|0:0,0:0:0:0:
395,51,95185,2,0,L|511:42,1,107.999996704102,8|2,0:0|0:0,0:0:0:0:
502,42,95449,1,0,0:0:0:0:
502,42,95538,2,0,P|512:85|513:120,1,53.9999983520508,2|0,0:0|0:0,0:0:0:0:
455,153,95714,2,0,P|441:176|430:201,1,53.9999983520508,2|0,0:0|0:0,0:0:0:0:
489,257,95891,1,10,0:0:0:0:
345,198,96067,1,2,0:0:0:0:
471,347,96244,6,0,B|414:329|401:273|401:273|343:309|284:268,1,215.999993408203,4|8,0:0|0:0,0:0:0:0:
237,338,96773,1,0,0:0:0:0:
249,351,96861,1,0,0:0:0:0:
264,359,96949,1,2,0:0:0:0:
215,254,97126,1,2,0:0:0:0:
349,378,97302,1,10,0:0:0:0:
271,179,97479,1,2,0:0:0:0:
152,319,97655,6,0,P|77:291|0:312,1,161.999995056153,2|0,0:0|0:0,0:0:0:0:
12,228,98008,2,0,L|0:114,1,107.999996704102,8|0,0:0|0:0,0:0:0:0:
14,115,98273,1,0,0:0:0:0:
30,110,98361,1,0,0:0:0:0:
44,105,98449,1,0,0:0:0:0:
59,100,98537,1,2,0:0:0:0:
271,179,98714,1,10,0:0:0:0:
127,44,98891,1,2,0:0:0:0:
215,254,99067,6,0,P|184:199|232:90,1,161.999995056153,2|0,0:0|0:0,0:0:0:0:
206,30,99420,2,0,P|253:6|343:21,1,107.999996704102,10|0,0:0|0:0,0:0:0:0:
307,5,99685,1,0,0:0:0:0:
307,5,99773,1,0,0:0:0:0:
353,221,99949,2,0,P|369:170|443:117,1,107.999996704102,2|8,0:0|0:0,0:0:0:0:
403,45,100302,1,2,0:0:0:0:
403,45,100391,1,0,0:0:0:0:
403,45,100479,5,2,0:0:0:0:
407,132,100655,1,2,0:0:0:0:
327,97,100832,5,8,0:0:0:0:
488,224,101008,2,0,P|484:248|476:279,1,53.9999983520508,2|0,0:0|0:0,0:0:0:0:
399,314,101185,2,0,P|395:289|387:259,1,53.9999983520508,2|0,0:0|0:0,0:0:0:0:
303,240,101361,1,2,0:0:0:0:
481,88,101538,1,12,0:0:0:0:
481,88,101891,6,0,P|409:91|334:32,1,135,4|0,0:0|0:0,0:0:0:0:
298,110,102244,2,0,P|251:59|240:10,1,90,8|0,0:0|0:0,0:0:0:0:
100,170,102597,2,0,P|53:221|42:270,1,90
79,92,102949,2,0,L|206:78,1,90,8|0,0:0|0:0,0:0:0:0:
303,240,103302,6,0,L|168:254,1,135
104,302,103655,2,0,P|128:336|134:387,1,90,8|2,0:0|0:0,0:0:0:0:
134,383,103920,1,0,0:0:0:0:
134,383,104008,1,2,0:0:0:0:
44,370,104185,1,2,0:0:0:0:
222,327,104361,1,8,0:0:0:0:
95,195,104538,1,0,0:0:0:0:
168,254,104714,6,0,L|282:226,1,90,2|0,0:0|0:0,0:0:0:0:
261,45,105067,1,8,0:0:0:0:
181,157,105244,1,2,0:0:0:0:
182,142,105332,1,0,0:0:0:0:
183,126,105420,1,2,0:0:0:0:
184,110,105508,1,0,0:0:0:0:
185,95,105597,1,2,0:0:0:0:
327,104,105773,2,0,P|373:116|422:107,1,90,8|0,0:0|0:0,0:0:0:0:
130,28,106126,6,0,P|85:22|42:33,1,90,2|0,0:0|0:0,0:0:0:0:
98,200,106479,1,8,0:0:0:0:
0,122,106655,1,2,0:0:0:0:
15,121,106743,1,0,0:0:0:0:
31,120,106831,1,2,0:0:0:0:
47,119,106919,1,0,0:0:0:0:
62,118,107008,2,0,L|122:117,1,45,2|0,0:0|0:0,0:0:0:0:
181,169,107185,2,0,L|243:159,1,45,10|0,0:0|0:0,0:0:0:0:
300,98,107361,1,2,0:0:0:0:
485,211,107538,6,0,P|438:171|339:177,1,135,4|0,0:0|0:0,0:0:0:0:
379,88,107891,2,0,P|402:43|400:-2,1,90,8|0,0:0|0:0,0:0:0:0:
283,180,108244,2,0,P|306:225|304:270,1,90
320,16,108597,2,0,L|215:23,1,90,8|0,0:0|0:0,0:0:0:0:
3,44,108949,6,0,P|71:53|124:108,1,135
196,94,109302,2,0,P|210:145|195:211,1,90,8|0,0:0|0:0,0:0:0:0:
206,181,109567,1,0,0:0:0:0:
205,180,109655,1,2,0:0:0:0:
64,161,109832,1,2,0:0:0:0:
208,268,110008,1,8,0:0:0:0:
328,133,110185,1,0,0:0:0:0:
139,223,110361,5,2,0:0:0:0:
208,268,110538,1,2,0:0:0:0:
212,187,110714,1,8,0:0:0:0:
61,252,110891,1,2,0:0:0:0:
60,267,110979,1,0,0:0:0:0:
59,283,111067,1,2,0:0:0:0:
58,299,111155,1,0,0:0:0:0:
57,314,111244,1,2,0:0:0:0:
144,135,111420,2,0,P|138:71|102:28,1,90,8|0,0:0|0:0,0:0:0:0:
297,10,111773,5,2,0:0:0:0:
230,55,111949,1,2,0:0:0:0:
302,91,112126,1,8,0:0:0:0:
459,38,112302,1,2,0:0:0:0:
460,53,112390,1,0,0:0:0:0:
461,69,112478,1,2,0:0:0:0:
462,85,112566,1,0,0:0:0:0:
463,100,112655,2,0,L|464:160,1,45,2|0,0:0|0:0,0:0:0:0:
412,219,112832,2,0,L|422:281,1,45,10|0,0:0|0:0,0:0:0:0:
483,338,113008,1,2,0:0:0:0:
380,132,113185,6,0,P|341:171|278:182,1,90,4|0,0:0|0:0,0:0:0:0:
152,99,113538,1,8,0:0:0:0:
233,231,113714,2,0,L|221:133,1,90,2|0,0:0|0:0,0:0:0:0:
222,141,113979,1,0,0:0:0:0:
222,141,114067,1,0,0:0:0:0:
69,340,114244,1,8,0:0:0:0:
150,208,114420,1,2,0:0:0:0:
150,208,114508,1,0,0:0:0:0:
150,208,114597,6,0,L|138:306,1,90
0,162,114949,1,8,0:0:0:0:
171,70,115126,1,2,0:0:0:0:
97,103,115302,1,2,0:0:0:0:
106,22,115479,1,2,0:0:0:0:
276,112,115655,1,10,0:0:0:0:
285,193,115832,1,2,0:0:0:0:
452,99,116008,6,0,L|464:5,1,90,2|0,0:0|0:0,0:0:0:0:
463,9,116273,1,0,0:0:0:0:
463,9,116361,1,8,0:0:0:0:
376,148,116538,1,2,0:0:0:0:
376,148,116626,1,0,0:0:0:0:
376,148,116714,2,0,L|388:242,1,90
276,112,117067,1,8,0:0:0:0:
462,185,117244,1,0,0:0:0:0:
297,297,117420,5,2,0:0:0:0:
304,216,117597,1,2,0:0:0:0:
155,113,117773,1,10,0:0:0:0:
162,194,117950,1,2,0:0:0:0:
14,308,118126,2,0,P|15:289|17:264,1,45,2|0,0:0|0:0,0:0:0:0:
72,206,118302,2,0,P|68:184|64:161,1,45,2|0,0:0|0:0,0:0:0:0:
15,99,118479,2,0,P|45:85|101:42,1,90,8|0,0:0|0:0,0:0:0:0:
301,103,118832,6,0,P|265:75|225:55,1,90,4|0,0:0|0:0,0:0:0:0:
160,5,119185,1,8,0:0:0:0:
324,15,119361,1,0,0:0:0:0:
321,181,119538,1,2,0:0:0:0:
301,103,119714,1,2,0:0:0:0:
379,125,119891,1,8,0:0:0:0:
250,250,120067,1,0,0:0:0:0:
409,344,120244,6,0,P|476:333|511:322,1,90,2|0,0:0|0:0,0:0:0:0:
321,181,120597,2,0,P|388:192|423:203,1,90,10|2,0:0|0:0,0:0:0:0:
408,213,120861,1,0,0:0:0:0:
407,229,120949,1,2,0:0:0:0:
406,245,121037,1,0,0:0:0:0:
405,260,121126,1,2,0:0:0:0:
230,357,121302,1,8,0:0:0:0:
234,156,121479,1,0,0:0:0:0:
290,258,121655,6,0,B|181:294|207:215|90:263,1,180,4|8,0:0|0:0,0:0:0:0:
42,217,122185,1,2,0:0:0:0:
51,201,122273,1,0,0:0:0:0:
64,188,122361,1,2,0:0:0:0:
154,333,122538,1,2,0:0:0:0:
239,180,122714,1,8,0:0:0:0:
149,35,122891,1,0,0:0:0:0:
146,115,123067,6,0,L|268:93,1,90,2|0,0:0|0:0,0:0:0:0:
376,288,123420,2,0,L|464:272,1,90,10|0,0:0|0:0,0:0:0:0:
314,86,123773,1,2,0:0:0:0:
295,301,123949,1,2,0:0:0:0:
349,165,124126,1,8,0:0:0:0:
206,185,124302,1,2,0:0:0:0:
284,217,124479,5,4,0:0:0:0:
