osu file format v14

[General]
AudioFilename: audio.mp3
AudioLeadIn: 0
PreviewTime: 56557
Countdown: 0
SampleSet: Soft
StackLeniency: 0.5
Mode: 0
LetterboxInBreaks: 0
WidescreenStoryboard: 1

[Editor]
Bookmarks: 22798,45474,68239,90474,110415,113151,135739
DistanceSpacing: 1.3
BeatDivisor: 4
GridSize: 32
TimelineZoom: 1.8

[Metadata]
Title:Eli Eli (Maduk Remix)
TitleUnicode:Eli Eli (Maduk Remix)
Artist:Misun
ArtistUnicode:Misun
Creator:Milan-
Version:Hard
Source:
Tags:dnb drum and bass liquid
BeatmapID:2188458
BeatmapSetID:708908

[Difficulty]
HPDrainRate:5
CircleSize:3.5
OverallDifficulty:6
ApproachRate:7.5
SliderMultiplier:1.4
SliderTickRate:1

[Events]
//Background and Video events
0,0,"osu! Winter Fanart 2017 - Evaine.jpg",0,0
//Break Periods
2,34326,44539
//Storyboard Layer 0 (Background)
//Storyboard Layer 1 (Fail)
//Storyboard Layer 2 (Pass)
//Storyboard Layer 3 (Foreground)
//Storyboard Layer 4 (Overlay)
//Storyboard Sound Samples

[TimingPoints]
244,352.941176470588,4,2,1,50,1,0
22832,-125,4,2,1,50,0,0
28479,-125,4,2,1,30,0,0
28579,-125,4,2,1,50,0,0
34126,-125,4,2,1,40,0,0
45420,-100,4,2,1,50,0,0
56714,-100,4,2,1,70,0,0
79302,-83.3333333333333,4,2,1,75,0,1
101538,-83.3333333333333,4,2,1,75,0,0
101891,-100,4,2,1,70,0,0

[Colours]
Combo1 : 168,196,159
Combo2 : 187,198,208
Combo3 : 226,215,173
Combo4 : 208,187,198

[HitObjects]
31,313,22832,6,0,L|153:334,1,112,4|2,0:0|3:0,0:0:0:0:
279,190,23538,1,0,0:0:0:0:
190,177,23714,2,0,L|115:165,2,56,0|2|0,0:0|3:0|0:0,0:0:0:0:
279,190,24243,2,0,P|317:230|336:282,1,112,2|2,0:0|3:0,0:0:0:0:
413,120,24949,1,0,0:0:0:0:
336,73,25126,2,0,P|308:40|301:12,1,56,0|2,0:0|3:0,0:0:0:0:
214,21,25479,1,0,0:0:0:0:
214,21,25567,1,0,0:0:0:0:
214,21,25655,1,2,0:0:0:0:
60,115,26008,6,0,P|43:163|26:241,1,112,2|0,3:0|0:0,0:0:0:0:
88,290,26538,2,0,P|81:326|70:355,1,56,0|2,0:0|3:0,0:0:0:0:
157,378,26891,1,0,0:0:0:0:
242,350,27067,2,0,P|295:341|376:348,1,112,2|2,0:0|3:3,0:0:0:0:
420,177,27773,2,0,P|386:181|357:179,2,56,2|0|2,0:0|0:0|3:0,0:0:0:0:
479,109,28302,1,0,0:0:0:0:
479,109,28391,1,0,0:0:0:0:
479,109,28479,5,4,0:0:0:0:
320,25,28832,1,2,3:0:0:0:
283,200,29185,1,2,0:0:0:0:
441,284,29538,1,2,3:0:0:0:
479,109,29891,2,0,P|431:134|362:149,1,112,2|2,0:0|3:0,0:0:0:0:
205,89,30596,1,0,0:0:0:0:
173,173,30773,2,0,P|167:217|169:247,2,56,2|2|0,0:0|3:0|0:0,0:0:0:0:
116,103,31302,6,0,P|67:120|8:147,2,112,2|2|0,0:0|3:0|0:0,0:0:0:0:
205,89,32185,2,0,P|252:104|279:110,1,56,2|2,0:0|3:0,0:0:0:0:
347,94,32538,2,0,L|384:81,2,28,0|0|2,0:0|0:0|0:0,0:0:0:0:
445,243,33067,2,0,L|431:313,1,56,2|0,3:0|0:0,0:0:0:0:
344,302,33420,2,0,L|354:247,1,56,2|2,0:0|0:0,0:0:0:0:
275,206,33773,2,0,L|261:276,1,56,2|2,3:0|0:0,0:0:0:0:
241,357,34126,5,4,0:0:0:0:
68,81,45420,5,2,0:0:0:0:
68,81,46126,1,4,0:3:0:0:
68,81,46832,1,4,0:3:0:0:
68,81,47538,1,4,0:3:0:0:
269,136,48244,5,2,0:0:0:0:
269,136,48949,1,4,0:3:0:0:
269,136,49655,1,4,0:3:0:0:
269,136,50361,1,4,0:3:0:0:
150,181,51067,5,2,0:0:0:0:
150,181,51420,1,4,0:3:0:0:
150,181,51773,1,4,0:3:0:0:
150,181,52126,1,4,0:3:0:0:
256,336,52479,5,2,0:0:0:0:
417,241,52832,1,4,0:3:0:0:
312,86,53185,1,4,0:3:0:0:
150,181,53538,1,4,0:3:0:0:
310,245,53891,6,0,L|297:170,1,70,2|4,0:0|0:3,0:0:0:0:
217,98,54243,2,0,L|204:23,1,70,2|4,0:0|0:3,0:0:0:0:
95,54,54596,1,2,0:0:0:0:
95,54,54773,1,4,0:3:0:0:
113,147,54949,1,2,0:0:0:0:
113,147,55126,1,4,0:3:0:0:
177,211,55302,6,0,L|187:256,3,35,2|4|2|4,0:0|0:3|0:0|0:3,0:0:0:0:
224,268,55655,2,0,L|219:317,3,35,2|4|2|4,0:0|0:3|0:0|0:3,0:0:0:0:
248,338,56008,2,0,L|231:388,4,35,2|4|2|4|12,0:0|0:3|0:0|0:3|0:0,0:0:0:0:
488,114,56714,6,0,P|453:127|324:151,1,140,4|8,0:0|0:0,0:0:0:0:
265,123,57243,1,0,0:0:0:0:
174,109,57420,2,0,P|155:82|139:42,1,70,0|0,0:0|0:0,0:0:0:0:
71,144,57773,2,0,P|52:171|36:211,1,70,8|0,0:0|0:0,0:0:0:0:
79,313,58126,6,0,L|151:295,1,70,0|0,0:0|0:0,0:0:0:0:
200,221,58479,2,0,L|272:239,1,70,8|2,0:0|0:0,0:0:0:0:
344,306,58832,1,2,0:0:0:0:
344,306,58920,1,0,0:0:0:0:
344,306,59008,1,2,0:0:0:0:
417,251,59185,6,0,P|432:214|417:114,1,140,8|2,0:0|0:0,0:0:0:0:
336,78,59714,2,0,P|298:44|260:31,1,70,2|8,0:0|0:0,0:0:0:0:
190,50,60067,1,0,0:0:0:0:
245,122,60243,2,0,P|251:163|232:213,1,70,2|2,0:0|0:0,0:0:0:0:
174,249,60596,2,0,L|90:236,1,70,8|0,0:0|0:0,0:0:0:0:
26,150,60949,6,0,P|19:106|18:74,1,70,2|0,0:0|0:0,0:0:0:0:
137,11,61302,2,0,P|130:55|129:87,1,70,8|2,0:0|0:0,0:0:0:0:
128,80,61567,1,0,0:0:0:0:
128,80,61655,1,2,0:0:0:0:
228,105,61832,2,0,L|271:93,2,35,2|0|8,0:0|0:0|0:0,0:0:0:0:
431,19,62361,6,0,P|411:48|380:155,1,140,4|8,0:0|0:0,0:0:0:0:
452,203,62891,1,0,0:0:0:0:
407,281,63067,2,0,P|398:338|376:378,1,70,0|0,0:0|0:0,0:0:0:0:
314,258,63420,2,0,P|299:213|301:168,1,70,8|0,0:0|0:0,0:0:0:0:
219,268,63773,2,0,P|168:292|79:309,1,140,0|8,0:0|0:0,0:0:0:0:
4,198,64302,1,2,0:0:0:0:
4,198,64391,1,0,0:0:0:0:
4,198,64479,2,0,P|68:203|158:196,1,140,2|8,0:0|0:0,0:0:0:0:
203,129,65008,1,0,0:0:0:0:
293,116,65185,6,0,P|327:120|372:132,1,70,2|2,0:0|0:0,0:0:0:0:
449,50,65538,2,0,P|457:101|463:130,1,70,8|0,0:0|0:0,0:0:0:0:
489,224,65891,2,0,P|492:167|490:142,2,70,2|2|8,0:0|0:0|0:0,0:0:0:0:
316,353,66596,6,0,P|263:346|164:328,1,140,2|8,0:0|0:0,0:0:0:0:
98,285,67126,2,0,L|51:296,2,35,2|0|2,0:0|0:0|0:0,0:0:0:0:
163,221,67479,1,2,0:0:0:0:
93,163,67655,1,8,0:0:0:0:
211,25,68008,6,0,P|216:92|250:165,1,140,4|8,0:0|0:0,0:0:0:0:
321,209,68538,2,0,L|315:249,2,35,2|0|2,0:0|0:0|0:0,0:0:0:0:
381,140,68891,2,0,P|409:117|446:87,1,70,2|8,0:0|0:0,0:0:0:0:
478,272,69420,6,0,P|408:334|361:379,1,140,0|8,0:0|0:0,0:0:0:0:
283,358,69949,1,2,0:0:0:0:
192,342,70126,2,0,P|146:362|115:369,2,70,2|2|8,0:0|0:0|0:0,0:0:0:0:
46,201,70832,6,0,P|103:237|185:260,2,140,0|8|2,0:0|0:0|0:0,0:0:0:0:
42,191,71626,1,0,0:0:0:0:
40,181,71714,2,0,P|34:128|39:84,1,70,2|8,0:0|0:0,0:0:0:0:
238,17,72243,6,0,P|213:74|205:112,1,70,0|0,0:0|0:0,0:0:0:0:
269,168,72596,2,0,P|244:111|236:73,1,70,8|2,0:0|0:0,0:0:0:0:
347,52,72949,2,0,P|385:51|458:63,1,105,2|0,0:0|0:0,0:0:0:0:
458,70,73302,2,0,P|441:101|427:136,1,70,8|0,0:0|0:0,0:0:0:0:
491,234,73655,5,4,0:0:0:0:
491,234,74008,2,0,L|393:255,1,70,8|2,0:0|0:0,0:0:0:0:
350,304,74361,1,2,0:0:0:0:
268,344,74538,2,0,L|170:365,2,70,2|8|0,0:0|0:0|0:0,0:0:0:0:
268,252,75067,6,0,P|232:242|187:220,1,70,0|0,0:0|0:0,0:0:0:0:
91,214,75420,2,0,P|68:167|64:126,1,70,8|2,0:0|0:0,0:0:0:0:
108,63,75773,2,0,P|91:110|89:136,1,70,2|2,0:0|0:0,0:0:0:0:
192,118,76126,1,8,0:0:0:0:
263,62,76302,6,0,B|398:35|329:122|486:101,1,210,4|8,0:0|0:0,0:0:0:0:
386,157,77008,1,0,0:0:0:0:
352,241,77185,1,2,0:0:0:0:
376,328,77361,1,2,0:0:0:0:
456,371,77538,1,8,0:0:0:0:
330,239,77891,5,2,0:0:0:0:
330,239,78067,1,2,0:0:0:0:
330,239,78243,2,0,L|251:264,1,70,8|2,0:0|0:0,0:0:0:0:
164,179,78597,1,2,0:0:0:0:
250,152,78773,1,2,0:0:0:0:
164,179,78949,1,8,0:0:0:0:
81,290,79302,6,0,P|59:236|223:47,1,335.999989746094,4|2,0:0|0:0,0:0:0:0:
304,40,80185,1,2,0:0:0:0:
337,125,80361,1,10,0:0:0:0:
424,154,80538,1,2,0:0:0:0:
457,239,80714,2,0,P|404:304|163:266,1,335.999989746094,2|0,0:0|0:0,0:0:0:0:
81,272,81596,2,0,P|58:224|63:168,1,83.9999974365235,2|8,0:0|0:0,0:0:0:0:
105,114,81949,1,2,0:0:0:0:
105,114,82038,1,0,0:0:0:0:
105,114,82126,1,2,0:0:0:0:
280,56,82479,1,8,0:0:0:0:
331,328,83008,5,0,0:0:0:0:
412,283,83185,1,10,0:0:0:0:
395,192,83361,1,2,0:0:0:0:
478,152,83538,2,0,P|470:85|305:48,1,251.999992309571,2|2,0:0|0:0,0:0:0:0:
316,51,84155,1,0,0:0:0:0:
318,60,84243,2,0,L|285:101,2,41.9999987182618,2|0|2,0:0|0:0|0:0,0:0:0:0:
236,14,84597,1,10,0:0:0:0:
161,68,84773,1,2,0:0:0:0:
69,56,84949,6,0,P|181:117|231:334,1,335.999989746094,4|2,0:0|0:0,0:0:0:0:
153,346,85832,1,2,0:0:0:0:
63,322,86008,1,10,0:0:0:0:
49,230,86185,1,2,0:0:0:0:
109,160,86361,2,0,P|201:132|434:213,1,335.999989746094,2|0,0:0|0:0,0:0:0:0:
498,149,87243,2,0,P|475:97|484:39,1,83.9999974365235,2|10,0:0|0:0,0:0:0:0:
399,16,87596,1,2,0:0:0:0:
372,104,87773,6,0,P|324:176|238:210,2,167.999994873047,2|10|0,0:0|0:0|0:0,0:0:0:0:
303,41,88655,1,2,0:0:0:0:
213,65,88832,2,0,P|158:63|130:49,1,83.9999974365235,8|0,0:0|0:0,0:0:0:0:
40,102,89185,2,0,P|101:82|132:89,2,83.9999974365235,2|0|8,0:0|0:0|0:0,0:0:0:0:
104,184,89714,1,2,0:0:0:0:
104,184,89802,1,0,0:0:0:0:
104,184,89891,2,0,B|130:256|130:256|121:267|121:267|159:372,1,167.999994873047,2|10,0:0|0:0,0:0:0:0:
379,364,90596,6,0,P|445:319|373:117,1,335.999989746094,4|2,0:0|0:0,0:0:0:0:
307,183,91479,1,2,0:0:0:0:
216,198,91655,1,10,0:0:0:0:
141,143,91832,1,2,0:0:0:0:
131,51,92008,2,0,P|124:116|-15:359,1,335.999989746094,2|0,0:0|0:0,0:0:0:0:
86,325,92891,2,0,P|152:317|192:325,1,83.9999974365235,2|8,0:0|0:0,0:0:0:0:
264,359,93243,1,2,0:0:0:0:
264,359,93332,1,0,0:0:0:0:
264,359,93420,1,2,0:0:0:0:
424,237,93773,1,8,0:0:0:0:
264,359,94302,5,0,0:0:0:0:
314,281,94479,1,10,0:0:0:0:
273,198,94655,1,2,0:0:0:0:
188,161,94832,2,0,P|150:134|58:32,2,167.999994873047,2|8|2,0:0|0:0|0:0,0:0:0:0:
264,108,95714,2,0,L|281:49,2,41.9999987182618,2|0|10,0:0|0:0|0:0,0:0:0:0:
348,145,96067,1,2,0:0:0:0:
438,127,96243,6,0,P|474:199|301:351,1,335.999989746094,4|2,0:0|0:0,0:0:0:0:
256,288,97126,1,2,0:0:0:0:
167,313,97302,1,10,0:0:0:0:
74,308,97479,1,2,0:0:0:0:
11,239,97655,2,0,P|45:152|277:118,1,335.999989746094,2|0,0:0|0:0,0:0:0:0:
351,82,98538,2,0,P|385:108|408:142,1,83.9999974365235,2|10,0:0|0:0,0:0:0:0:
498,196,98891,1,2,0:0:0:0:
498,196,98979,1,0,0:0:0:0:
498,196,99067,6,0,L|450:370,2,167.999994873047,2|10|0,0:0|0:0|0:0,0:0:0:0:
394,232,99949,1,2,0:0:0:0:
394,232,100126,2,0,L|302:206,1,83.9999974365235,8|2,0:0|0:0,0:0:0:0:
240,294,100479,1,2,0:0:0:0:
239,293,100656,2,0,L|319:315,1,83.9999974365235,2|8,0:0|0:0,0:0:0:0:
403,354,101008,2,0,L|455:365,2,41.9999987182618,2|0|2,0:0|0:0|0:0,0:0:0:0:
319,315,101361,1,2,0:0:0:0:
234,384,101538,1,12,0:0:0:0:
39,226,101891,5,4,0:0:0:0:
39,226,102243,2,0,L|135:211,1,70,8|0,0:0|0:0,0:0:0:0:
166,145,102596,2,0,P|184:103|188:65,1,70,0|0,0:0|0:0,0:0:0:0:
268,8,102949,2,0,P|288:55|309:83,1,70,8|0,0:0|0:0,0:0:0:0:
378,113,103302,2,0,L|518:69,2,140,0|8|2,0:0|0:0|0:0,0:0:0:0:
327,189,104185,1,2,0:0:0:0:
344,278,104361,1,8,0:0:0:0:
427,338,104538,1,0,0:0:0:0:
427,338,104626,1,0,0:0:0:0:
427,338,104714,6,0,L|501:309,2,70,2|0|8,0:0|0:0|0:0,0:0:0:0:
348,291,105243,2,0,P|267:265|197:270,1,140,2|2,0:0|0:0,0:0:0:0:
135,316,105773,1,8,0:0:0:0:
32,165,106126,6,0,P|46:205|40:264,2,70,2|0|8,0:0|0:0|0:0,0:0:0:0:
76,85,106655,2,0,P|143:101|231:59,1,140,2|2,0:0|0:0,0:0:0:0:
216,72,107096,1,0,0:0:0:0:
222,61,107185,1,10,0:0:0:0:
312,54,107361,1,2,0:0:0:0:
402,46,107538,5,4,0:0:0:0:
460,218,107891,2,0,P|438:171|429:127,1,70,8|0,0:0|0:0,0:0:0:0:
333,140,108243,2,0,P|355:187|364:231,1,70,0|0,0:0|0:0,0:0:0:0:
296,279,108596,2,0,P|274:232|265:188,1,70,8|0,0:0|0:0,0:0:0:0:
196,159,108949,2,0,P|146:140|53:132,2,140,0|8|2,0:0|0:0|0:0,0:0:0:0:
248,83,109832,1,2,0:0:0:0:
335,58,110008,1,8,0:0:0:0:
425,73,110185,6,0,L|477:51,2,35,0|0|2,0:0|0:0|0:0,0:0:0:0:
375,149,110538,1,2,0:0:0:0:
434,217,110714,2,0,P|460:301|437:361,1,140,8|2,0:0|0:0,0:0:0:0:
358,375,111243,2,0,L|266:363,1,70,2|8,0:0|0:0,0:0:0:0:
129,276,111773,6,0,L|221:264,1,70,2|2,0:0|0:0,0:0:0:0:
272,213,112126,1,8,0:0:0:0:
186,183,112302,2,0,P|150:141|124:41,1,140,2|2,0:0|0:0,0:0:0:0:
40,23,112832,2,0,P|29:77|14:117,1,70,10|2,0:0|0:0,0:0:0:0:
39,190,113185,6,0,P|68:172|120:148,2,70,4|0|8,0:0|0:0|0:0,0:0:0:0:
12,277,113714,2,0,P|81:280|149:299,1,140,2|0,0:0|0:0,0:0:0:0:
231,338,114244,1,8,0:0:0:0:
316,308,114420,2,0,P|362:236|381:161,1,140,2|0,0:0|0:0,0:0:0:0:
336,102,114949,1,8,0:0:0:0:
407,45,115126,1,2,0:0:0:0:
501,200,115479,1,2,0:0:0:0:
437,264,115655,2,0,P|414:310|406:347,1,70,10|2,0:0|0:0,0:0:0:0:
294,367,116008,6,0,P|235:323|155:303,1,140,2|8,0:0|0:0,0:0:0:0:
80,294,116538,1,2,0:0:0:0:
80,294,116626,1,0,0:0:0:0:
80,294,116714,2,0,P|59:226|47:125,1,140,0|8,0:0|0:0,0:0:0:0:
103,85,117243,1,0,0:0:0:0:
188,116,117420,6,0,P|227:119|261:117,1,70,2|2,0:0|0:0,0:0:0:0:
322,182,117773,2,0,P|361:185|395:183,1,70,10|2,0:0|0:0,0:0:0:0:
470,137,118126,2,0,P|488:79|496:26,1,105,2|0,0:0|0:0,0:0:0:0:
489,30,118479,2,0,P|426:41|394:44,1,70,8|0,0:0|0:0,0:0:0:0:
332,18,118832,5,4,0:0:0:0:
158,72,119185,1,8,0:0:0:0:
227,129,119361,2,0,P|250:187|261:282,1,140,0|2,0:0|0:0,0:0:0:0:
183,312,119891,2,0,P|133:300|95:292,1,70,8|0,0:0|0:0,0:0:0:0:
246,380,120244,6,0,P|313:369|389:350,1,140,2|10,0:0|0:0,0:0:0:0:
427,272,120773,2,0,P|463:230|499:145,1,140,2|2,0:0|0:0,0:0:0:0:
460,69,121302,1,8,0:0:0:0:
369,84,121479,1,0,0:0:0:0:
369,84,121567,1,0,0:0:0:0:
369,84,121655,6,0,B|212:37|284:189|97:135,1,280,4|2,0:0|0:0,0:0:0:0:
42,80,122538,1,2,0:0:0:0:
120,157,122714,2,0,P|126:215|117:242,1,70,8|0,0:0|0:0,0:0:0:0:
183,320,123067,6,0,P|205:274|238:239,1,70,2|0,0:0|0:0,0:0:0:0:
336,230,123420,2,0,P|383:202|418:193,1,70,10|0,0:0|0:0,0:0:0:0:
474,115,123773,2,0,P|446:111|401:92,1,70,2|2,0:0|0:0,0:0:0:0:
326,33,124126,1,8,0:0:0:0:
216,259,124479,1,4,0:0:0:0:
