osu file format v14

[General]
AudioFilename: audio.mp3
AudioLeadIn: 0
PreviewTime: 48827
Countdown: 1
SampleSet: Normal
StackLeniency: 0.7
Mode: 1
LetterboxInBreaks: 0
WidescreenStoryboard: 1

[Editor]
DistanceSpacing: 1.7
BeatDivisor: 4
GridSize: 32
TimelineZoom: 1

[Metadata]
Title:Kuruu Kemono feat. Hatsune Miku
TitleUnicode:狂う獣 feat. 初音ミク
Artist:Misumi
ArtistUnicode:Misumi
Creator:KaEDe1106
Version:Muzukashii
Source:
Tags:
BeatmapID:2174438
BeatmapSetID:1033334

[Difficulty]
HPDrainRate:5
CircleSize:5
OverallDifficulty:5
ApproachRate:5
SliderMultiplier:1.4
SliderTickRate:1

[Events]
//Background and Video events
0,0,"768png.png",0,0
//Break Periods
//Storyboard Layer 0 (Background)
//Storyboard Layer 1 (Fail)
//Storyboard Layer 2 (Pass)
//Storyboard Layer 3 (Foreground)
//Storyboard Layer 4 (Overlay)
//Storyboard Sound Samples

[TimingPoints]
1577,375,4,1,0,70,1,0
49577,-100,4,1,0,70,0,1
73577,-100,4,1,0,70,0,0
85577,-100,4,1,0,65,0,0
121577,-100,4,1,0,70,0,1
144077,-100,4,1,0,70,0,0
144264,-100,4,1,0,60,0,0
144452,-100,4,1,0,50,0,0
144827,-100,4,1,0,40,0,0
145202,-100,4,1,0,50,0,0
145577,-142.857142857143,4,1,0,70,0,0
169577,-100,4,1,0,70,0,0
181577,-100,4,1,0,70,0,1
205577,-100,4,1,0,70,0,0

[HitObjects]
256,192,1577,5,4,0:0:0:0:
256,192,1764,1,8,0:0:0:0:
256,192,1952,1,0,0:0:0:0:
256,192,2139,1,0,0:0:0:0:
256,192,2327,1,8,0:0:0:0:
256,192,2702,1,0,0:0:0:0:
256,192,3077,1,8,0:0:0:0:
256,192,3170,1,8,0:0:0:0:
256,192,3264,1,0,0:0:0:0:
256,192,3452,1,8,0:0:0:0:
256,192,3827,1,0,0:0:0:0:
256,192,4014,1,8,0:0:0:0:
256,192,4389,1,8,0:0:0:0:
256,192,4764,1,8,0:0:0:0:
256,192,4952,1,0,0:0:0:0:
256,192,5139,1,0,0:0:0:0:
256,192,5327,1,8,0:0:0:0:
256,192,5702,1,0,0:0:0:0:
256,192,6077,1,8,0:0:0:0:
256,192,6170,1,8,0:0:0:0:
256,192,6264,1,0,0:0:0:0:
256,192,6452,1,8,0:0:0:0:
256,192,6827,1,0,0:0:0:0:
256,192,7014,1,8,0:0:0:0:
256,192,7389,1,8,0:0:0:0:
256,192,7577,1,4,0:0:0:0:
256,192,7764,1,8,0:0:0:0:
256,192,7952,1,0,0:0:0:0:
256,192,8139,1,0,0:0:0:0:
256,192,8327,1,8,0:0:0:0:
256,192,8702,1,0,0:0:0:0:
256,192,9077,1,8,0:0:0:0:
256,192,9170,1,8,0:0:0:0:
256,192,9264,1,0,0:0:0:0:
256,192,9452,1,8,0:0:0:0:
256,192,9827,1,0,0:0:0:0:
256,192,10014,1,8,0:0:0:0:
256,192,10389,1,8,0:0:0:0:
256,192,10764,1,8,0:0:0:0:
256,192,10952,1,0,0:0:0:0:
256,192,11139,1,8,0:0:0:0:
256,192,11327,1,0,0:0:0:0:
256,192,11702,1,8,0:0:0:0:
256,192,12077,1,12,0:0:0:0:
256,192,13202,1,12,0:0:0:0:
256,192,13577,1,0,0:0:0:0:
256,192,14327,1,8,0:0:0:0:
256,192,14421,1,0,0:0:0:0:
256,192,14515,1,0,0:0:0:0:
256,192,14702,1,0,0:0:0:0:
256,192,15077,1,8,0:0:0:0:
256,192,15171,1,8,0:0:0:0:
256,192,15264,1,8,0:0:0:0:
256,192,15452,1,0,0:0:0:0:
256,192,15827,1,8,0:0:0:0:
256,192,16577,1,0,0:0:0:0:
256,192,16764,1,0,0:0:0:0:
256,192,16858,1,0,0:0:0:0:
256,192,16952,1,0,0:0:0:0:
256,192,17327,1,8,0:0:0:0:
256,192,17514,1,0,0:0:0:0:
256,192,17608,1,0,0:0:0:0:
256,192,17702,1,0,0:0:0:0:
256,192,18077,1,8,0:0:0:0:
256,192,18171,1,8,0:0:0:0:
256,192,18264,1,8,0:0:0:0:
256,192,18452,1,0,0:0:0:0:
256,192,18639,1,8,0:0:0:0:
256,192,18827,1,8,0:0:0:0:
256,192,19577,1,0,0:0:0:0:
256,192,19702,1,0,0:0:0:0:
256,192,19827,1,0,0:0:0:0:
256,192,19952,1,0,0:0:0:0:
256,192,20327,1,8,0:0:0:0:
256,192,20452,1,0,0:0:0:0:
256,192,20577,1,0,0:0:0:0:
256,192,20702,1,0,0:0:0:0:
256,192,21077,1,0,0:0:0:0:
256,192,21171,1,0,0:0:0:0:
256,192,21264,1,0,0:0:0:0:
256,192,21452,1,0,0:0:0:0:
256,192,21639,1,0,0:0:0:0:
256,192,21827,1,8,0:0:0:0:
256,192,22389,1,8,0:0:0:0:
256,192,22577,1,0,0:0:0:0:
256,192,22952,1,8,0:0:0:0:
256,192,23139,1,0,0:0:0:0:
256,192,23514,1,8,0:0:0:0:
256,192,23702,1,0,0:0:0:0:
256,192,23889,1,0,0:0:0:0:
256,192,24077,1,8,0:0:0:0:
256,192,24264,1,0,0:0:0:0:
256,192,24640,1,8,0:0:0:0:
256,192,24827,1,8,0:0:0:0:
256,192,25202,1,12,0:0:0:0:
256,192,25577,1,0,0:0:0:0:
256,192,25764,1,0,0:0:0:0:
256,192,25858,1,0,0:0:0:0:
256,192,25952,1,0,0:0:0:0:
256,192,26327,1,8,0:0:0:0:
256,192,26421,1,0,0:0:0:0:
256,192,26514,1,0,0:0:0:0:
256,192,26702,1,0,0:0:0:0:
256,192,27077,1,8,0:0:0:0:
256,192,27171,1,8,0:0:0:0:
256,192,27264,1,8,0:0:0:0:
256,192,27452,1,0,0:0:0:0:
256,192,27639,1,0,0:0:0:0:
256,192,27827,1,8,0:0:0:0:
256,192,28577,1,0,0:0:0:0:
256,192,28671,1,0,0:0:0:0:
256,192,28858,1,0,0:0:0:0:
256,192,28952,1,0,0:0:0:0:
256,192,29139,1,0,0:0:0:0:
256,192,29327,1,8,0:0:0:0:
256,192,29514,1,8,0:0:0:0:
256,192,29608,1,8,0:0:0:0:
256,192,29702,1,8,0:0:0:0:
256,192,30077,1,0,0:0:0:0:
256,192,30171,1,0,0:0:0:0:
256,192,30264,1,0,0:0:0:0:
256,192,30452,1,0,0:0:0:0:
256,192,30639,1,0,0:0:0:0:
256,192,30827,1,8,0:0:0:0:
256,192,31577,1,0,0:0:0:0:
256,192,31702,1,0,0:0:0:0:
256,192,31827,1,0,0:0:0:0:
256,192,31952,1,0,0:0:0:0:
256,192,32327,1,8,0:0:0:0:
256,192,32452,1,0,0:0:0:0:
256,192,32577,1,0,0:0:0:0:
256,192,32702,1,0,0:0:0:0:
256,192,33077,1,0,0:0:0:0:
256,192,33171,1,0,0:0:0:0:
256,192,33264,1,0,0:0:0:0:
256,192,33452,1,0,0:0:0:0:
256,192,33639,1,8,0:0:0:0:
256,192,33827,1,8,0:0:0:0:
256,192,34389,1,8,0:0:0:0:
256,192,34577,1,0,0:0:0:0:
256,192,34952,1,8,0:0:0:0:
256,192,35139,1,0,0:0:0:0:
256,192,35514,1,8,0:0:0:0:
256,192,35702,1,0,0:0:0:0:
256,192,35889,1,0,0:0:0:0:
256,192,36077,1,8,0:0:0:0:
256,192,36264,1,0,0:0:0:0:
256,192,36640,1,8,0:0:0:0:
256,192,36827,1,8,0:0:0:0:
256,192,37202,1,12,0:0:0:0:
256,192,37577,1,4,0:0:0:0:
256,192,37764,1,8,0:0:0:0:
256,192,37952,1,0,0:0:0:0:
256,192,38139,1,8,0:0:0:0:
256,192,38327,1,0,0:0:0:0:
256,192,38702,1,8,0:0:0:0:
256,192,38796,1,8,0:0:0:0:
256,192,38889,1,0,0:0:0:0:
256,192,39077,1,0,0:0:0:0:
256,192,39452,1,0,0:0:0:0:
256,192,39827,1,0,0:0:0:0:
256,192,39921,1,0,0:0:0:0:
256,192,40014,1,0,0:0:0:0:
256,192,40202,1,8,0:0:0:0:
256,192,40389,1,0,0:0:0:0:
256,192,40764,1,8,0:0:0:0:
256,192,40952,1,0,0:0:0:0:
256,192,41139,1,8,0:0:0:0:
256,192,41327,1,0,0:0:0:0:
256,192,41702,1,8,0:0:0:0:
256,192,41796,1,8,0:0:0:0:
256,192,41889,1,0,0:0:0:0:
256,192,42077,1,0,0:0:0:0:
256,192,42452,1,0,0:0:0:0:
256,192,42827,1,0,0:0:0:0:
256,192,43014,1,0,0:0:0:0:
256,192,43108,1,0,0:0:0:0:
256,192,43202,1,0,0:0:0:0:
256,192,43389,1,0,0:0:0:0:
256,192,43577,1,4,0:0:0:0:
256,192,43764,1,8,0:0:0:0:
256,192,43952,1,0,0:0:0:0:
256,192,44139,1,8,0:0:0:0:
256,192,44327,1,0,0:0:0:0:
256,192,44702,1,8,0:0:0:0:
256,192,44796,1,8,0:0:0:0:
256,192,44889,1,0,0:0:0:0:
256,192,45077,1,0,0:0:0:0:
256,192,45452,1,0,0:0:0:0:
256,192,45827,1,0,0:0:0:0:
256,192,45952,1,0,0:0:0:0:
256,192,46077,1,0,0:0:0:0:
256,192,46202,1,0,0:0:0:0:
256,192,46327,1,0,0:0:0:0:
256,192,46452,1,0,0:0:0:0:
256,192,46577,1,0,0:0:0:0:
256,192,46952,1,4,0:0:0:0:
256,192,47327,1,4,0:0:0:0:
256,192,47702,1,12,0:0:0:0:
256,192,48077,1,4,0:0:0:0:
256,192,49202,1,12,0:0:0:0:
256,192,49577,1,4,0:0:0:0:
256,192,49764,1,0,0:0:0:0:
256,192,49952,1,8,0:0:0:0:
256,192,50139,1,0,0:0:0:0:
256,192,50327,1,8,0:0:0:0:
256,192,50514,1,8,0:0:0:0:
256,192,50889,1,0,0:0:0:0:
256,192,51077,1,0,0:0:0:0:
256,192,51264,1,0,0:0:0:0:
256,192,51452,1,8,0:0:0:0:
256,192,51639,2,8,L|448:192,1,140
256,192,52389,1,8,0:0:0:0:
256,192,52577,1,0,0:0:0:0:
256,192,52764,1,0,0:0:0:0:
256,192,52952,1,8,0:0:0:0:
256,192,53139,1,0,0:0:0:0:
256,192,53327,1,8,0:0:0:0:
256,192,53514,1,8,0:0:0:0:
256,192,53889,1,8,0:0:0:0:
256,192,54077,1,0,0:0:0:0:
256,192,54264,1,0,0:0:0:0:
256,192,54452,1,0,0:0:0:0:
256,192,54639,2,8,L|480:187,1,210
256,192,55577,1,0,0:0:0:0:
256,192,55764,1,0,0:0:0:0:
256,192,55952,1,8,0:0:0:0:
256,192,56139,1,0,0:0:0:0:
256,192,56327,1,8,0:0:0:0:
256,192,56514,1,8,0:0:0:0:
256,192,56889,1,0,0:0:0:0:
256,192,57077,1,0,0:0:0:0:
256,192,57264,1,0,0:0:0:0:
256,192,57452,1,8,0:0:0:0:
256,192,57639,1,8,0:0:0:0:
256,192,58202,1,8,0:0:0:0:
256,192,58389,1,8,0:0:0:0:
256,192,58577,1,0,0:0:0:0:
256,192,58952,1,8,0:0:0:0:
256,192,59139,1,0,0:0:0:0:
256,192,59327,1,8,0:0:0:0:
256,192,59702,1,8,0:0:0:0:
256,192,60077,1,0,0:0:0:0:
256,192,60264,1,0,0:0:0:0:
256,192,60452,1,0,0:0:0:0:
256,192,60639,2,0,L|416:224,1,140
256,192,61202,1,8,0:0:0:0:
256,192,61577,1,4,0:0:0:0:
256,192,61764,1,0,0:0:0:0:
256,192,61952,1,8,0:0:0:0:
256,192,62139,1,0,0:0:0:0:
256,192,62327,1,8,0:0:0:0:
256,192,62514,1,8,0:0:0:0:
256,192,62889,1,0,0:0:0:0:
256,192,63077,1,0,0:0:0:0:
256,192,63264,1,0,0:0:0:0:
256,192,63452,1,8,0:0:0:0:
256,192,63639,2,8,L|448:192,1,140
256,192,64202,1,8,0:0:0:0:
256,192,64389,1,8,0:0:0:0:
256,192,64577,1,0,0:0:0:0:
256,192,64764,1,0,0:0:0:0:
256,192,64952,1,8,0:0:0:0:
256,192,65139,1,8,0:0:0:0:
256,192,65702,1,0,0:0:0:0:
256,192,65889,1,0,0:0:0:0:
256,192,66077,1,8,0:0:0:0:
256,192,66264,1,0,0:0:0:0:
256,192,66452,1,8,0:0:0:0:
256,192,66639,1,8,0:0:0:0:
256,192,67202,1,8,0:0:0:0:
256,192,67577,1,4,0:0:0:0:
256,192,68139,1,12,0:0:0:0:
256,192,68702,1,4,0:0:0:0:
256,192,69077,1,12,0:0:0:0:
256,192,69452,1,12,0:0:0:0:
256,192,69827,1,12,0:0:0:0:
256,192,70202,2,0,L|544:224,1,280
256,192,71702,1,8,0:0:0:0:
256,192,71889,1,8,0:0:0:0:
256,192,72077,1,0,0:0:0:0:
256,192,72452,1,0,0:0:0:0:
256,192,72827,1,8,0:0:0:0:
256,192,73202,1,8,0:0:0:0:
256,192,73577,1,0,0:0:0:0:
256,192,73671,1,0,0:0:0:0:
256,192,73764,1,0,0:0:0:0:
256,192,73952,1,0,0:0:0:0:
256,192,74139,1,0,0:0:0:0:
256,192,74327,1,8,0:0:0:0:
256,192,74702,1,8,0:0:0:0:
256,192,75077,1,8,0:0:0:0:
256,192,75264,1,0,0:0:0:0:
256,192,75639,1,8,0:0:0:0:
256,192,75827,1,0,0:0:0:0:
256,192,76014,1,8,0:0:0:0:
256,192,76202,1,0,0:0:0:0:
256,192,76389,1,8,0:0:0:0:
256,192,76483,1,8,0:0:0:0:
256,192,76577,1,0,0:0:0:0:
256,192,76764,1,0,0:0:0:0:
256,192,76952,1,8,0:0:0:0:
256,192,77233,1,0,0:0:0:0:
256,192,77327,1,8,0:0:0:0:
256,192,77889,1,0,0:0:0:0:
256,192,78077,1,0,0:0:0:0:
256,192,78264,1,0,0:0:0:0:
256,192,78452,1,8,0:0:0:0:
256,192,78639,1,0,0:0:0:0:
256,192,78827,1,0,0:0:0:0:
256,192,79202,1,8,0:0:0:0:
256,192,79577,1,0,0:0:0:0:
256,192,79671,1,0,0:0:0:0:
256,192,79764,1,0,0:0:0:0:
256,192,79952,1,0,0:0:0:0:
256,192,80139,1,0,0:0:0:0:
256,192,80327,1,8,0:0:0:0:
256,192,80702,1,8,0:0:0:0:
256,192,81077,1,8,0:0:0:0:
256,192,81264,1,0,0:0:0:0:
256,192,81639,1,8,0:0:0:0:
256,192,81827,1,0,0:0:0:0:
256,192,82014,1,8,0:0:0:0:
256,192,82202,1,0,0:0:0:0:
256,192,82389,1,8,0:0:0:0:
256,192,82483,1,8,0:0:0:0:
256,192,82577,1,0,0:0:0:0:
256,192,82764,1,0,0:0:0:0:
256,192,82952,1,8,0:0:0:0:
256,192,83233,1,0,0:0:0:0:
256,192,83327,1,8,0:0:0:0:
256,192,84077,1,0,0:0:0:0:
256,192,85202,1,12,0:0:0:0:
256,192,85577,1,0,0:0:0:0:
256,192,85764,1,8,0:0:0:0:
256,192,86139,1,8,0:0:0:0:
256,192,86327,1,8,0:0:0:0:
256,192,86702,1,8,0:0:0:0:
256,192,87077,1,8,0:0:0:0:
256,192,87264,1,8,0:0:0:0:
256,192,87452,1,0,0:0:0:0:
256,192,87827,1,8,0:0:0:0:
256,192,88014,2,0,L|448:192,1,140
256,192,88577,1,0,0:0:0:0:
256,192,88764,1,8,0:0:0:0:
256,192,89139,1,8,0:0:0:0:
256,192,89327,1,8,0:0:0:0:
256,192,89702,1,8,0:0:0:0:
256,192,90077,1,8,0:0:0:0:
256,192,90264,1,0,0:0:0:0:
256,192,90452,1,0,0:0:0:0:
256,192,90639,1,8,0:0:0:0:
256,192,90827,1,8,0:0:0:0:
256,192,91577,1,0,0:0:0:0:
256,192,91702,1,0,0:0:0:0:
256,192,91827,1,0,0:0:0:0:
256,192,91952,1,0,0:0:0:0:
256,192,92327,1,0,0:0:0:0:
256,192,92577,1,8,0:0:0:0:
256,192,92889,1,0,0:0:0:0:
256,192,93077,1,0,0:0:0:0:
256,192,93452,1,0,0:0:0:0:
256,192,93827,1,8,0:0:0:0:
256,192,94202,1,8,0:0:0:0:
256,192,94577,1,0,0:0:0:0:
256,192,94952,1,8,0:0:0:0:
256,192,95327,1,8,0:0:0:0:
256,192,95702,1,8,0:0:0:0:
256,192,96077,1,8,0:0:0:0:
256,192,96264,1,0,0:0:0:0:
256,192,96452,1,0,0:0:0:0:
256,192,97202,1,12,0:0:0:0:
256,192,97577,1,0,0:0:0:0:
256,192,97764,1,8,0:0:0:0:
256,192,98139,1,8,0:0:0:0:
256,192,98327,1,8,0:0:0:0:
256,192,98702,1,8,0:0:0:0:
256,192,99077,1,8,0:0:0:0:
256,192,99264,1,8,0:0:0:0:
256,192,99452,1,0,0:0:0:0:
256,192,99827,1,8,0:0:0:0:
256,192,100014,2,0,L|448:192,1,140
256,192,100577,1,0,0:0:0:0:
256,192,100764,1,8,0:0:0:0:
256,192,101139,1,8,0:0:0:0:
256,192,101327,1,8,0:0:0:0:
256,192,101702,1,8,0:0:0:0:
256,192,102077,1,8,0:0:0:0:
256,192,102264,1,0,0:0:0:0:
256,192,102452,1,0,0:0:0:0:
256,192,102827,1,8,0:0:0:0:
256,192,103577,1,0,0:0:0:0:
256,192,103702,1,0,0:0:0:0:
256,192,103827,1,0,0:0:0:0:
256,192,103952,1,0,0:0:0:0:
256,192,104327,1,0,0:0:0:0:
256,192,104577,1,8,0:0:0:0:
256,192,104889,1,0,0:0:0:0:
256,192,105077,1,0,0:0:0:0:
256,192,105452,1,0,0:0:0:0:
256,192,105827,1,8,0:0:0:0:
256,192,106202,1,8,0:0:0:0:
256,192,106577,1,0,0:0:0:0:
256,192,106952,1,8,0:0:0:0:
256,192,107327,1,8,0:0:0:0:
256,192,107702,1,8,0:0:0:0:
256,192,108077,1,0,0:0:0:0:
256,192,109577,1,4,0:0:0:0:
256,192,109764,1,8,0:0:0:0:
256,192,109952,1,0,0:0:0:0:
256,192,110139,1,8,0:0:0:0:
256,192,110327,1,0,0:0:0:0:
256,192,110702,1,8,0:0:0:0:
256,192,110796,1,8,0:0:0:0:
256,192,110889,1,0,0:0:0:0:
256,192,111077,1,0,0:0:0:0:
256,192,111452,1,0,0:0:0:0:
256,192,111827,1,0,0:0:0:0:
256,192,111921,1,0,0:0:0:0:
256,192,112108,1,0,0:0:0:0:
256,192,112202,1,8,0:0:0:0:
256,192,112389,1,0,0:0:0:0:
256,192,112764,1,8,0:0:0:0:
256,192,112952,1,0,0:0:0:0:
256,192,113139,1,8,0:0:0:0:
256,192,113327,1,0,0:0:0:0:
256,192,113702,1,8,0:0:0:0:
256,192,113796,1,8,0:0:0:0:
256,192,113889,1,0,0:0:0:0:
256,192,114077,1,0,0:0:0:0:
256,192,114452,1,0,0:0:0:0:
256,192,114827,1,8,0:0:0:0:
256,192,115014,1,0,0:0:0:0:
256,192,115108,1,0,0:0:0:0:
256,192,115202,1,0,0:0:0:0:
256,192,115389,1,0,0:0:0:0:
256,192,115577,1,4,0:0:0:0:
256,192,115764,1,8,0:0:0:0:
256,192,115952,1,0,0:0:0:0:
256,192,116139,1,8,0:0:0:0:
256,192,116327,1,0,0:0:0:0:
256,192,116702,1,8,0:0:0:0:
256,192,116796,1,8,0:0:0:0:
256,192,116889,1,0,0:0:0:0:
256,192,117077,1,0,0:0:0:0:
256,192,117452,1,0,0:0:0:0:
256,192,117827,1,0,0:0:0:0:
256,192,117952,1,0,0:0:0:0:
256,192,118077,1,0,0:0:0:0:
256,192,118202,1,0,0:0:0:0:
256,192,118327,1,0,0:0:0:0:
256,192,118452,1,0,0:0:0:0:
256,192,118577,1,0,0:0:0:0:
256,192,118952,1,4,0:0:0:0:
256,192,119327,1,4,0:0:0:0:
256,192,119702,1,12,0:0:0:0:
256,192,120077,1,4,0:0:0:0:
256,192,121202,1,12,0:0:0:0:
256,192,121577,1,4,0:0:0:0:
256,192,121764,1,0,0:0:0:0:
256,192,121952,1,8,0:0:0:0:
256,192,122139,1,0,0:0:0:0:
256,192,122327,1,8,0:0:0:0:
256,192,122514,1,8,0:0:0:0:
256,192,122889,1,0,0:0:0:0:
256,192,123077,1,0,0:0:0:0:
256,192,123264,1,0,0:0:0:0:
256,192,123452,1,8,0:0:0:0:
256,192,123639,2,8,L|448:192,1,140
256,192,124389,1,8,0:0:0:0:
256,192,124577,1,0,0:0:0:0:
256,192,124764,1,0,0:0:0:0:
256,192,124952,1,8,0:0:0:0:
256,192,125139,1,0,0:0:0:0:
256,192,125327,1,8,0:0:0:0:
256,192,125514,1,8,0:0:0:0:
256,192,125889,1,8,0:0:0:0:
256,192,126077,1,0,0:0:0:0:
256,192,126264,1,0,0:0:0:0:
256,192,126452,1,8,0:0:0:0:
256,192,126639,2,8,L|480:187,1,210
256,192,127389,1,0,0:0:0:0:
256,192,127577,1,0,0:0:0:0:
256,192,127764,1,0,0:0:0:0:
256,192,127952,1,8,0:0:0:0:
256,192,128139,1,0,0:0:0:0:
256,192,128327,1,8,0:0:0:0:
256,192,128514,1,8,0:0:0:0:
256,192,128889,1,0,0:0:0:0:
256,192,129077,1,0,0:0:0:0:
256,192,129264,1,0,0:0:0:0:
256,192,129452,1,8,0:0:0:0:
256,192,129639,1,8,0:0:0:0:
256,192,130202,1,8,0:0:0:0:
256,192,130389,1,8,0:0:0:0:
256,192,130577,1,0,0:0:0:0:
256,192,130952,1,8,0:0:0:0:
256,192,131139,1,0,0:0:0:0:
256,192,131327,1,8,0:0:0:0:
256,192,131702,1,8,0:0:0:0:
256,192,132077,1,0,0:0:0:0:
256,192,132264,1,0,0:0:0:0:
256,192,132452,1,0,0:0:0:0:
256,192,132639,2,0,L|416:224,1,140
256,192,133202,1,8,0:0:0:0:
256,192,133577,1,4,0:0:0:0:
256,192,133764,1,0,0:0:0:0:
256,192,133952,1,8,0:0:0:0:
256,192,134139,1,0,0:0:0:0:
256,192,134327,1,8,0:0:0:0:
256,192,134514,1,8,0:0:0:0:
256,192,134889,1,0,0:0:0:0:
256,192,135077,1,0,0:0:0:0:
256,192,135264,1,0,0:0:0:0:
256,192,135452,1,8,0:0:0:0:
256,192,135639,2,8,L|416:192,1,140
256,192,136202,1,0,0:0:0:0:
256,192,136389,1,0,0:0:0:0:
256,192,136577,1,8,0:0:0:0:
256,192,136764,1,0,0:0:0:0:
256,192,136952,1,8,0:0:0:0:
256,192,137139,1,8,0:0:0:0:
256,192,137702,1,0,0:0:0:0:
256,192,137889,1,0,0:0:0:0:
256,192,138077,1,8,0:0:0:0:
256,192,138264,1,0,0:0:0:0:
256,192,138452,1,8,0:0:0:0:
256,192,138639,1,8,0:0:0:0:
256,192,139202,1,8,0:0:0:0:
256,192,139577,1,4,0:0:0:0:
256,192,140139,1,12,0:0:0:0:
256,192,140702,1,4,0:0:0:0:
256,192,141077,1,12,0:0:0:0:
256,192,141452,1,12,0:0:0:0:
256,192,141827,1,12,0:0:0:0:
256,192,142202,2,0,L|544:224,1,280
256,192,143702,1,8,0:0:0:0:
256,192,143889,1,8,0:0:0:0:
256,192,144077,1,0,0:0:0:0:
256,192,144327,1,0,0:0:0:0:
256,192,144577,1,0,0:0:0:0:
256,192,144827,1,0,0:0:0:0:
256,192,145202,1,12,0:0:0:0:
256,192,145577,12,0,148577,0:0:0:0:
256,192,148952,5,0,0:0:0:0:
256,192,149327,1,8,0:0:0:0:
256,192,149702,1,0,0:0:0:0:
256,192,150077,1,8,0:0:0:0:
256,192,150827,1,8,0:0:0:0:
256,192,151577,12,8,154577,0:0:0:0:
256,192,154952,5,0,0:0:0:0:
256,192,155327,1,8,0:0:0:0:
256,192,155702,1,0,0:0:0:0:
256,192,156077,1,8,0:0:0:0:
256,192,156827,1,8,0:0:0:0:
256,192,157577,1,0,0:0:0:0:
256,192,158327,1,0,0:0:0:0:
256,192,159077,1,0,0:0:0:0:
256,192,159827,1,0,0:0:0:0:
256,192,160202,1,0,0:0:0:0:
256,192,160577,1,0,0:0:0:0:
256,192,161327,1,8,0:0:0:0:
256,192,161514,1,8,0:0:0:0:
256,192,161702,1,8,0:0:0:0:
256,192,161889,1,8,0:0:0:0:
256,192,163577,1,0,0:0:0:0:
256,192,164327,1,0,0:0:0:0:
256,192,165077,1,0,0:0:0:0:
256,192,165827,1,0,0:0:0:0:
256,192,166202,1,0,0:0:0:0:
256,192,166577,1,0,0:0:0:0:
256,192,167327,1,8,0:0:0:0:
256,192,167514,1,8,0:0:0:0:
256,192,167702,1,8,0:0:0:0:
256,192,167889,1,8,0:0:0:0:
256,192,169577,1,4,0:0:0:0:
256,192,169764,1,8,0:0:0:0:
256,192,169952,1,0,0:0:0:0:
256,192,170139,1,8,0:0:0:0:
256,192,170327,1,0,0:0:0:0:
256,192,170702,1,8,0:0:0:0:
256,192,170796,1,8,0:0:0:0:
256,192,170889,1,0,0:0:0:0:
256,192,171077,1,0,0:0:0:0:
256,192,171452,1,0,0:0:0:0:
256,192,171827,1,0,0:0:0:0:
256,192,171921,1,0,0:0:0:0:
256,192,172014,1,0,0:0:0:0:
256,192,172202,1,8,0:0:0:0:
256,192,172389,1,0,0:0:0:0:
256,192,172764,1,8,0:0:0:0:
256,192,172952,1,0,0:0:0:0:
256,192,173139,1,8,0:0:0:0:
256,192,173327,1,0,0:0:0:0:
256,192,173702,1,8,0:0:0:0:
256,192,173796,1,8,0:0:0:0:
256,192,173889,1,0,0:0:0:0:
256,192,174077,1,0,0:0:0:0:
256,192,174452,1,0,0:0:0:0:
256,192,174827,1,0,0:0:0:0:
256,192,174921,1,0,0:0:0:0:
256,192,175108,1,0,0:0:0:0:
256,192,175202,1,0,0:0:0:0:
256,192,175389,1,0,0:0:0:0:
256,192,175577,1,4,0:0:0:0:
256,192,175764,1,8,0:0:0:0:
256,192,175952,1,0,0:0:0:0:
256,192,176139,1,8,0:0:0:0:
256,192,176327,1,0,0:0:0:0:
256,192,176702,1,8,0:0:0:0:
256,192,176796,1,8,0:0:0:0:
256,192,176889,1,0,0:0:0:0:
256,192,177077,1,0,0:0:0:0:
256,192,177452,1,0,0:0:0:0:
256,192,177827,1,0,0:0:0:0:
256,192,177952,1,0,0:0:0:0:
256,192,178077,1,0,0:0:0:0:
256,192,178202,1,0,0:0:0:0:
256,192,178327,1,0,0:0:0:0:
256,192,178452,1,0,0:0:0:0:
256,192,178577,1,0,0:0:0:0:
256,192,178952,1,4,0:0:0:0:
256,192,179327,1,4,0:0:0:0:
256,192,179702,1,12,0:0:0:0:
256,192,180077,1,4,0:0:0:0:
256,192,181202,1,12,0:0:0:0:
256,192,181577,1,4,0:0:0:0:
256,192,181764,1,0,0:0:0:0:
256,192,181952,1,8,0:0:0:0:
256,192,182139,1,0,0:0:0:0:
256,192,182327,1,8,0:0:0:0:
256,192,182514,1,8,0:0:0:0:
256,192,182889,1,0,0:0:0:0:
256,192,183077,1,0,0:0:0:0:
256,192,183264,1,0,0:0:0:0:
256,192,183452,1,8,0:0:0:0:
256,192,183639,2,8,L|448:192,1,140
256,192,184389,1,8,0:0:0:0:
256,192,184577,1,0,0:0:0:0:
256,192,184764,1,0,0:0:0:0:
256,192,184952,1,8,0:0:0:0:
256,192,185139,1,0,0:0:0:0:
256,192,185327,1,8,0:0:0:0:
256,192,185514,1,8,0:0:0:0:
256,192,185889,1,8,0:0:0:0:
256,192,186077,1,0,0:0:0:0:
256,192,186264,1,0,0:0:0:0:
256,192,186452,1,0,0:0:0:0:
256,192,186639,2,8,L|480:187,1,210
256,192,187577,1,0,0:0:0:0:
256,192,187764,1,0,0:0:0:0:
256,192,187952,1,8,0:0:0:0:
256,192,188139,1,0,0:0:0:0:
256,192,188327,1,8,0:0:0:0:
256,192,188514,1,8,0:0:0:0:
256,192,188889,1,0,0:0:0:0:
256,192,189077,1,0,0:0:0:0:
256,192,189264,1,0,0:0:0:0:
256,192,189452,1,8,0:0:0:0:
256,192,189639,1,8,0:0:0:0:
256,192,190202,1,8,0:0:0:0:
256,192,190389,1,8,0:0:0:0:
256,192,190577,1,0,0:0:0:0:
256,192,190952,1,8,0:0:0:0:
256,192,191139,1,0,0:0:0:0:
256,192,191327,1,8,0:0:0:0:
256,192,191702,1,8,0:0:0:0:
256,192,192077,1,0,0:0:0:0:
256,192,192264,1,0,0:0:0:0:
256,192,192452,1,0,0:0:0:0:
256,192,192639,2,0,L|416:224,1,140
256,192,193202,1,8,0:0:0:0:
256,192,193577,1,4,0:0:0:0:
256,192,193764,1,0,0:0:0:0:
256,192,193952,1,8,0:0:0:0:
256,192,194139,1,0,0:0:0:0:
256,192,194327,1,8,0:0:0:0:
256,192,194514,1,8,0:0:0:0:
256,192,194889,1,0,0:0:0:0:
256,192,195077,1,0,0:0:0:0:
256,192,195264,1,0,0:0:0:0:
256,192,195452,1,8,0:0:0:0:
256,192,195639,2,8,L|416:192,1,140
256,192,196202,1,0,0:0:0:0:
256,192,196389,1,0,0:0:0:0:
256,192,196577,1,8,0:0:0:0:
256,192,196764,1,0,0:0:0:0:
256,192,196952,1,8,0:0:0:0:
256,192,197139,1,8,0:0:0:0:
256,192,197702,1,0,0:0:0:0:
256,192,197889,1,0,0:0:0:0:
256,192,198077,1,8,0:0:0:0:
256,192,198264,1,0,0:0:0:0:
256,192,198452,1,8,0:0:0:0:
256,192,198639,1,8,0:0:0:0:
256,192,199202,1,8,0:0:0:0:
256,192,199577,1,4,0:0:0:0:
256,192,200139,1,12,0:0:0:0:
256,192,200702,1,4,0:0:0:0:
256,192,201077,1,12,0:0:0:0:
256,192,201452,1,12,0:0:0:0:
256,192,201827,1,12,0:0:0:0:
256,192,202202,2,0,L|544:224,1,280
256,192,203702,1,8,0:0:0:0:
256,192,203889,1,8,0:0:0:0:
256,192,204077,1,0,0:0:0:0:
256,192,204452,1,0,0:0:0:0:
256,192,204827,1,8,0:0:0:0:
256,192,205202,1,8,0:0:0:0:
256,192,205577,1,0,0:0:0:0:
256,192,205671,1,0,0:0:0:0:
256,192,205764,1,0,0:0:0:0:
256,192,205952,1,0,0:0:0:0:
256,192,206139,1,0,0:0:0:0:
256,192,206327,1,8,0:0:0:0:
256,192,206702,1,8,0:0:0:0:
256,192,207077,1,8,0:0:0:0:
256,192,207264,1,0,0:0:0:0:
256,192,207639,1,8,0:0:0:0:
256,192,207827,1,0,0:0:0:0:
256,192,208014,1,8,0:0:0:0:
256,192,208202,1,0,0:0:0:0:
256,192,208389,1,8,0:0:0:0:
256,192,208483,1,8,0:0:0:0:
256,192,208577,1,0,0:0:0:0:
256,192,208764,1,0,0:0:0:0:
256,192,208952,1,8,0:0:0:0:
256,192,209233,1,0,0:0:0:0:
256,192,209327,1,8,0:0:0:0:
256,192,209889,1,0,0:0:0:0:
256,192,210077,1,0,0:0:0:0:
256,192,210264,1,0,0:0:0:0:
256,192,210452,1,8,0:0:0:0:
256,192,210639,1,0,0:0:0:0:
256,192,210827,1,0,0:0:0:0:
256,192,211202,1,8,0:0:0:0:
256,192,211577,1,0,0:0:0:0:
256,192,211671,1,0,0:0:0:0:
256,192,211764,1,0,0:0:0:0:
256,192,211952,1,0,0:0:0:0:
256,192,212139,1,0,0:0:0:0:
256,192,212327,1,8,0:0:0:0:
256,192,212702,1,8,0:0:0:0:
256,192,213077,1,8,0:0:0:0:
256,192,213264,1,0,0:0:0:0:
256,192,213639,1,8,0:0:0:0:
256,192,213827,1,0,0:0:0:0:
256,192,214014,1,8,0:0:0:0:
256,192,214202,1,0,0:0:0:0:
256,192,214389,1,8,0:0:0:0:
256,192,214483,1,8,0:0:0:0:
256,192,214577,1,0,0:0:0:0:
256,192,214764,1,0,0:0:0:0:
256,192,214952,1,8,0:0:0:0:
256,192,215233,1,0,0:0:0:0:
256,192,215327,1,8,0:0:0:0:
256,192,215889,1,0,0:0:0:0:
256,192,216077,1,0,0:0:0:0:
256,192,216264,1,0,0:0:0:0:
256,192,216452,1,8,0:0:0:0:
256,192,216639,1,0,0:0:0:0:
256,192,216827,1,0,0:0:0:0:
256,192,217202,1,8,0:0:0:0:
256,192,217577,1,0,0:0:0:0:
256,192,217952,1,0,0:0:0:0:
256,192,218327,1,0,0:0:0:0:
256,192,218702,1,0,0:0:0:0:
256,192,219077,1,8,0:0:0:0:
256,192,219452,1,8,0:0:0:0:
256,192,219827,1,0,0:0:0:0:
256,192,220202,1,8,0:0:0:0:
256,192,220577,1,0,0:0:0:0:
256,192,220952,1,0,0:0:0:0:
256,192,221327,1,8,0:0:0:0:
256,192,222077,1,0,0:0:0:0:
256,192,222264,1,0,0:0:0:0:
256,192,222452,1,8,0:0:0:0:
256,192,222639,1,0,0:0:0:0:
256,192,222827,1,0,0:0:0:0:
256,192,223202,1,8,0:0:0:0:
256,192,223577,1,0,0:0:0:0:
256,192,223952,1,0,0:0:0:0:
256,192,224327,1,0,0:0:0:0:
256,192,224702,1,0,0:0:0:0:
256,192,225077,1,8,0:0:0:0:
256,192,225452,1,8,0:0:0:0:
256,192,225827,1,0,0:0:0:0:
256,192,226202,1,8,0:0:0:0:
256,192,226577,1,0,0:0:0:0:
256,192,226952,1,0,0:0:0:0:
256,192,227327,1,8,0:0:0:0:
256,192,227702,1,8,0:0:0:0:
256,192,229202,1,8,0:0:0:0:
256,192,229389,2,0,L|352:224,1,70
