osu file format v14

[General]
AudioFilename: audio.mp3
AudioLeadIn: 0
PreviewTime: 72442
Countdown: 0
SampleSet: Soft
StackLeniency: 0.7
Mode: 0
LetterboxInBreaks: 0
WidescreenStoryboard: 1

[Editor]
Bookmarks: 9131,19066,25300,29196,50235,76728,114131,128157,140624,165559
DistanceSpacing: 1
BeatDivisor: 4
GridSize: 4
TimelineZoom: 1.5

[Metadata]
Title:Aria feat. Hatsune Miku
TitleUnicode:アリア feat.初音ミク
Artist:Misumi
ArtistUnicode:ミスミ
Creator:[Hatsune Miku]
Version:Normal
Source:
Tags:vocaloid japanese jpop pop j-pop Ametrin Remapper _lai
BeatmapID:2323326
BeatmapSetID:1084182

[Difficulty]
HPDrainRate:2
CircleSize:3
OverallDifficulty:3
ApproachRate:5.5
SliderMultiplier:1
SliderTickRate:1

[Events]
//Background and Video events
0,0,"bg.jpg",0,0
//Break Periods
2,89396,99684
//Storyboard Layer 0 (Background)
//Storyboard Layer 1 (Fail)
//Storyboard Layer 2 (Pass)
//Storyboard Layer 3 (Foreground)
//Storyboard Layer 4 (Overlay)
//Storyboard Sound Samples

[TimingPoints]
365,389.61038961039,4,2,1,50,1,0
23741,-100,4,2,1,60,0,0
24520,-100,4,2,1,75,0,0
24910,-100,4,2,1,80,0,0
25300,-100,4,2,1,60,0,0
50235,-100,4,2,1,40,0,0
51793,-100,4,2,1,60,0,0
76728,-100,4,2,1,75,0,1
88806,-100,4,2,1,80,0,1
89196,-100,4,2,1,40,0,0
101663,-100,4,2,1,60,0,0
114131,-100,4,2,1,40,0,0
115689,-100,4,2,1,60,0,0
140624,-100,4,2,1,75,0,1
165170,-100,4,2,1,80,0,1
165559,-100,4,2,1,40,0,0

[Colours]
Combo1 : 100,205,255
Combo2 : 156,252,250
Combo3 : 255,158,100
Combo4 : 219,175,254

[HitObjects]
43,81,365,6,0,P|102:72|163:82,1,100,4|2,0:0|0:0,0:0:0:0:
201,156,1144,2,0,P|250:160|299:151,1,100,0|2,0:0|0:0,0:0:0:0:
388,105,1923,2,0,L|376:5,2,100,0|2|0,0:0|0:0|0:0,0:0:0:0:
398,153,2897,1,0,0:0:0:0:
406,202,3092,2,0,P|374:265|350:274,1,100,2|0,0:0|0:0,0:0:0:0:
263,223,3871,5,2,0:0:0:0:
213,310,4261,2,0,L|222:369,2,50,0|0|2,0:0|2:0|2:2,2:2:0:0:
116,335,5040,6,0,P|105:286|117:238,1,100,0|2,0:0|0:0,0:0:0:0:
68,150,5819,2,0,L|59:91,2,50,0|0|2,0:0|0:0|0:0,0:0:0:0:
168,152,6598,6,0,P|179:91|151:28,1,100,4|2,0:0|0:0,0:0:0:0:
264,26,7377,2,0,P|299:76|363:101,1,100,0|2,0:0|0:0,0:0:0:0:
413,152,8157,2,0,L|523:137,2,100,0|2|0,0:0|0:0|0:0,0:0:0:0:
371,180,9131,1,0,0:0:0:0:
351,226,9326,2,0,L|367:331,1,100,2|0,0:0|0:0,0:0:0:0:
457,283,10105,6,0,L|449:233,2,50,2|0|0,0:0|0:0|0:0,0:0:0:0:
448,382,10884,1,2,0:0:0:0:
366,324,11274,2,0,L|351:226,1,100,0|2,0:0|0:0,0:0:0:0:
301,234,11858,1,0,0:0:0:0:
252,243,12053,2,0,P|226:288|236:341,1,100,2|2,0:3|0:3,0:0:0:0:
139,373,12832,6,0,P|58:341|31:225,1,200,4|2,0:1|0:0,0:0:0:0:
87,48,14390,2,0,P|175:87|198:181,1,200,4|2,0:3|0:0,0:0:0:0:
398,178,15949,6,0,L|199:181,1,200,4|2,0:3|0:0,0:0:0:0:
58,37,17507,2,0,L|259:34,1,200,4|2,0:3|0:0,0:0:0:0:
341,105,18676,2,0,L|391:97,1,50,2|2,0:0|0:0,0:0:0:0:
438,90,19066,5,4,0:1:0:0:
489,283,19845,1,4,0:3:0:0:
305,363,20624,1,4,0:3:0:0:
175,211,21403,1,4,0:3:0:0:
341,104,22183,6,0,P|387:87|436:89,1,100,4|4,0:3|0:3,0:0:0:0:
451,188,22962,2,0,P|404:205|355:203,1,100,4|4,0:3|0:3,0:0:0:0:
261,168,23741,2,0,L|149:188,1,100,4|4,0:3|0:3,0:0:0:0:
113,195,24326,1,0,0:0:0:0:
64,204,24520,2,0,L|49:104,1,100,6|8,0:3|0:0,0:0:0:0:
35,4,25300,5,4,0:3:0:0:
129,37,25689,2,0,L|199:38,1,50,12|0,0:3|0:0,0:0:0:0:
229,39,26079,1,4,0:3:0:0:
300,108,26468,1,12,0:3:0:0:
349,110,26663,2,0,L|448:113,1,100,2|2,0:0|0:0,0:0:0:0:
489,143,27248,2,0,L|485:201,1,50,12|0,0:3|0:0,0:0:0:0:
450,228,27637,2,0,P|441:277|451:336,1,100,4|12,0:3|0:3,0:0:0:0:
359,378,28416,6,0,P|331:365|259:360,1,100,4|12,0:3|0:3,0:0:0:0:
219,384,29001,1,2,0:0:0:0:
119,384,29390,2,0,P|76:351|75:294,1,100,2|2,0:0|0:0,0:0:0:0:
86,260,29975,1,4,0:3:0:0:
115,164,30365,1,12,0:3:0:0:
18,139,30754,2,0,P|5:115|8:76,1,50,4|2,0:3|0:0,0:0:0:0:
12,43,31144,2,0,P|26:19|61:2,1,50,12|2,0:3|0:0,0:0:0:0:
94,8,31533,6,0,L|206:15,1,100,4|12,0:3|0:3,0:0:0:0:
293,23,32313,1,4,0:3:0:0:
237,105,32702,1,12,0:3:0:0:
336,113,33092,1,4,0:3:0:0:
278,195,33481,1,12,0:3:0:0:
305,237,33676,2,0,P|352:251|401:242,1,100,2|2,0:0|0:0,0:0:0:0:
428,199,34261,1,12,0:3:0:0:
418,99,34650,5,4,0:3:0:0:
316,90,35040,1,12,0:3:0:0:
300,137,35235,2,0,L|305:240,1,100,2|2,0:0|0:0,0:0:0:0:
402,215,36014,1,2,0:0:0:0:
415,263,36209,2,0,L|410:366,1,100,4|12,0:3|0:3,0:0:0:0:
311,346,36988,1,4,0:3:0:0:
220,304,37377,2,0,L|170:305,1,50,6|2,0:3|0:0,0:0:0:0:
119,301,37767,6,0,P|99:261|107:193,1,100,4|12,0:1|0:3,0:0:0:0:
152,125,38546,1,4,0:3:0:0:
120,29,38936,1,12,0:3:0:0:
169,34,39131,2,0,L|280:38,1,100,2|2,0:0|0:0,0:0:0:0:
318,40,39715,2,0,P|335:73|354:91,1,50,12|0,0:3|0:0,0:0:0:0:
390,100,40105,2,0,L|501:104,1,100,4|12,0:3|0:3,0:0:0:0:
451,197,40884,6,0,P|441:229|425:304,1,100,4|12,0:3|0:3,0:0:0:0:
429,343,41468,1,2,0:0:0:0:
320,384,41858,1,2,0:0:0:0:
282,350,42053,2,0,P|250:340|175:324,1,100,12|4,0:3|0:3,0:0:0:0:
85,332,42832,1,12,0:3:0:0:
121,238,43222,2,0,P|131:191|131:180,1,50,4|2,0:3|0:0,0:0:0:0:
127,139,43611,2,0,P|116:92|111:82,1,50,12|2,0:3|0:0,0:0:0:0:
85,50,44001,6,0,L|201:51,1,100,4|12,0:3|0:3,0:0:0:0:
261,115,44780,2,0,L|360:114,1,100,4|12,0:3|0:3,0:0:0:0:
461,110,45559,1,4,0:3:0:0:
416,199,45949,1,12,0:3:0:0:
406,248,46144,2,0,P|399:284|390:350,1,100,2|2,0:0|0:0,0:0:0:0:
307,290,46923,1,2,0:0:0:0:
258,280,47118,6,0,P|222:273|156:264,1,100,4|12,0:3|0:3,0:0:0:0:
109,264,47702,2,0,P|72:238|63:171,1,100,2|2,0:0|0:0,0:0:0:0:
72,138,48287,1,12,0:3:0:0:
131,57,48676,6,0,L|244:50,1,100,4|12,0:3|0:3,0:0:0:0:
290,131,49455,2,0,L|389:137,1,100,4|12,0:3|0:3,0:0:0:0:
426,171,50040,1,0,0:0:0:0:
461,205,50235,1,4,0:3:0:0:
103,49,51793,6,0,P|161:30|223:47,1,100,4|12,0:1|0:3,0:0:0:0:
259,115,52572,1,4,0:3:0:0:
352,78,52962,1,12,0:3:0:0:
385,115,53157,2,0,L|378:240,1,100,2|2,0:0|0:0,0:0:0:0:
376,264,53741,1,12,0:3:0:0:
449,332,54131,1,4,0:3:0:0:
352,357,54520,5,12,0:3:0:0:
302,347,54715,2,0,L|241:331,1,50,2|4,0:0|0:3,0:0:0:0:
165,381,55300,1,12,0:3:0:0:
136,338,55495,2,0,L|104:283,1,50,2|4,0:0|0:3,0:0:0:0:
17,258,56079,1,12,0:3:0:0:
1,209,56274,2,0,P|-2:160|14:113,1,100,2|2,0:0|0:0,0:0:0:0:
49,77,56858,1,12,0:3:0:0:
99,77,57053,2,0,L|244:81,1,100,2|2,0:0|0:0,0:0:0:0:
248,82,57637,1,12,0:3:0:0:
328,22,58027,6,4,P|346:67|342:117,1,100,4|12,0:3|0:3,0:0:0:0:
264,180,58806,2,0,P|259:230|278:276,1,100,4|12,0:3|0:3,0:0:0:0:
355,338,59585,1,4,0:3:0:0:
443,291,59975,1,12,0:3:0:0:
469,248,60170,2,0,P|474:198|455:152,1,100,2|2,0:0|0:0,0:0:0:0:
419,117,60754,1,12,0:3:0:0:
436,18,61144,6,0,L|315:24,1,100,4|12,0:3|0:3,0:0:0:0:
295,51,61728,2,0,L|195:46,1,100,2|2,0:0|0:0,0:0:0:0:
145,40,62313,1,12,0:3:0:0:
184,131,62702,1,4,0:3:0:0:
84,124,63092,1,12,0:3:0:0:
14,196,63481,1,4,0:3:0:0:
21,295,63871,2,0,L|32:350,1,50,12|0,0:3|0:0,0:0:0:0:
74,368,64261,6,0,P|113:359|183:351,1,100,4|12,0:1|0:3,0:0:0:0:
272,349,65040,1,4,0:3:0:0:
366,381,65429,1,12,0:3:0:0:
400,344,65624,2,0,P|405:295|399:233,1,100,2|2,0:0|0:0,0:0:0:0:
388,195,66209,1,12,0:3:0:0:
467,134,66598,1,4,0:3:0:0:
459,34,66988,5,12,0:3:0:0:
416,60,67183,2,0,L|372:87,1,50,2|4,0:0|0:3,0:0:0:0:
291,22,67767,1,12,0:3:0:0:
278,70,67962,2,0,L|265:120,1,50,2|4,0:0|0:3,0:0:0:0:
164,131,68547,1,12,0:3:0:0:
190,173,68741,2,0,P|198:221|184:269,1,100,2|2,0:0|0:0,0:0:0:0:
173,318,69326,1,12,0:3:0:0:
124,327,69520,2,0,P|75:336|27:322,1,100,2|2,0:0|0:0,0:0:0:0:
0,279,70105,1,12,0:3:0:0:
15,180,70494,6,0,P|29:130|31:72,1,100,4|12,0:3|0:3,0:0:0:0:
125,47,71274,2,0,P|127:96|141:144,1,100,4|12,0:3|0:3,0:0:0:0:
224,201,72053,1,4,0:3:0:0:
291,127,72442,1,12,0:3:0:0:
334,101,72637,2,0,P|365:82|429:60,1,100,2|2,0:0|0:0,0:0:0:0:
475,60,73222,1,12,0:3:0:0:
491,158,73611,6,0,L|483:271,1,100,4|12,0:3|0:3,0:0:0:0:
478,307,74196,2,0,P|434:295|364:291,1,100,2|2,0:0|0:0,0:0:0:0:
334,310,74780,1,12,0:3:0:0:
245,356,75170,2,0,L|145:362,2,100,4|12|4,0:3|0:3|0:3,0:0:0:0:
280,262,76339,2,0,L|281:206,1,50,4|0,0:3|0:0,0:0:0:0:
284,162,76728,6,0,L|383:168,1,100,4|12,0:1|0:3,0:0:0:0:
460,232,77507,2,0,L|472:302,2,50,4|2|12,0:3|0:0|0:3,0:0:0:0:
488,139,78287,1,4,0:3:0:0:
488,139,78676,1,12,0:3:0:0:
447,47,79066,2,0,L|348:41,1,100,4|12,0:3|0:3,0:0:0:0:
250,67,79845,5,4,0:3:0:0:
151,47,80235,2,0,L|139:-2,2,50,12|2|4,0:3|0:0|0:3,0:0:0:0:
109,137,81014,2,0,L|97:185,1,50,12|2,0:3|0:0,0:0:0:0:
82,232,81403,2,0,P|68:281|78:329,1,100,4|12,0:3|0:3,0:0:0:0:
168,284,82183,1,4,0:3:0:0:
216,371,82572,2,0,L|274:364,1,50,12|2,0:3|0:0,0:0:0:0:
315,356,82962,6,0,P|327:291|311:246,1,100,4|12,0:1|0:3,0:0:0:0:
245,190,83741,2,0,L|198:150,2,50,4|2|12,0:3|0:0|0:3,0:0:0:0:
345,166,84520,1,4,0:3:0:0:
345,166,84910,1,12,0:3:0:0:
423,227,85300,2,0,P|444:181|438:131,1,100,4|12,0:3|0:3,0:0:0:0:
366,64,86079,5,4,0:3:0:0:
266,55,86468,2,0,L|261:5,2,50,12|2|4,0:3|0:0|0:3,0:0:0:0:
310,145,87248,2,0,L|305:194,1,50,12|2,0:3|0:0,0:0:0:0:
301,244,87637,2,0,L|289:357,1,100,6|14,0:3|0:3,0:0:0:0:
246,368,88222,1,2,0:3:0:0:
196,375,88416,2,0,P|135:380|99:363,1,100,6|8,0:3|0:0,0:0:0:0:
158,282,89196,5,4,0:0:0:0:
85,122,100884,6,0,P|138:126|194:100,1,100,2|2,0:0|0:0,0:0:0:0:
222,81,101468,1,2,0:0:0:0:
255,43,101663,6,0,L|256:147,1,100,4|12,0:1|0:3,0:0:0:0:
256,243,102442,1,4,0:3:0:0:
341,191,102832,1,12,0:3:0:0:
387,172,103027,2,0,P|429:173|486:191,1,100,2|2,0:0|0:0,0:0:0:0:
508,287,103806,1,2,0:0:0:0:
475,325,104001,2,0,P|433:324|376:306,1,100,4|12,0:3|0:3,0:0:0:0:
336,278,104585,1,0,0:0:0:0:
293,251,104780,6,0,L|189:259,1,100,4|12,0:3|0:3,0:0:0:0:
143,261,105365,1,2,0:0:0:0:
49,227,105754,1,2,0:0:0:0:
74,184,105949,2,0,P|80:153|79:121,1,50,12|0,0:3|0:0,0:0:0:0:
63,87,106339,2,0,L|191:81,1,100,4|12,0:3|0:3,0:0:0:0:
254,121,107118,2,0,P|262:154|265:180,1,50,4|2,0:3|0:0,0:0:0:0:
293,210,107507,2,0,P|277:238|259:259,1,50,12|2,0:3|0:0,0:0:0:0:
227,284,107897,6,0,P|213:334|224:383,1,100,4|12,0:3|0:3,0:0:0:0:
313,337,108676,2,0,P|348:328|414:322,1,100,4|12,0:3|0:3,0:0:0:0:
510,364,109455,1,4,0:3:0:0:
493,265,109845,1,12,0:3:0:0:
465,223,110040,2,0,P|454:180|457:115,1,100,2|2,0:0|0:0,0:0:0:0:
445,25,110819,1,2,0:0:0:0:
401,1,111014,6,0,L|291:8,1,100,4|12,0:3|0:3,0:0:0:0:
271,47,111598,2,0,L|161:54,1,100,2|2,0:0|0:0,0:0:0:0:
121,58,112183,1,12,0:3:0:0:
39,0,112572,6,0,P|20:56|38:115,1,100,4|12,0:3|0:3,0:0:0:0:
107,156,113352,2,0,P|113:205|95:251,1,100,4|12,0:3|0:3,0:0:0:0:
55,281,113936,1,0,0:0:0:0:
14,310,114131,1,4,0:3:0:0:
279,337,115689,6,0,P|328:350|390:331,1,100,4|12,0:1|0:3,0:0:0:0:
473,319,116468,1,4,0:3:0:0:
420,233,116858,1,12,0:3:0:0:
401,186,117053,2,0,L|410:68,1,100,2|2,0:0|0:0,0:0:0:0:
414,36,117637,1,12,0:3:0:0:
318,65,118027,1,4,0:3:0:0:
225,29,118416,5,12,0:3:0:0:
186,61,118611,2,0,L|176:125,1,50,2|4,0:0|0:3,0:0:0:0:
79,127,119196,1,12,0:3:0:0:
87,177,119391,2,0,L|137:217,1,50,2|4,0:0|0:3,0:0:0:0:
81,298,119975,1,12,0:3:0:0:
129,316,120170,2,0,P|160:300|228:282,1,100,2|2,0:0|0:0,0:0:0:0:
268,302,120754,1,12,0:3:0:0:
309,329,120949,2,0,P|340:313|408:295,1,100,2|2,0:0|0:0,0:0:0:0:
448,316,121533,1,12,0:3:0:0:
502,231,121923,6,0,L|513:128,1,100,4|12,0:3|0:3,0:0:0:0:
446,56,122702,2,0,L|346:45,1,100,4|12,0:3|0:3,0:0:0:0:
261,97,123481,1,4,0:3:0:0:
183,33,123871,1,12,0:3:0:0:
140,6,124066,2,0,P|90:0|43:18,1,100,2|2,0:0|0:0,0:0:0:0:
17,59,124650,1,12,0:3:0:0:
97,118,125040,5,4,0:3:0:0:
6,160,125429,1,12,0:3:0:0:
9,209,125624,2,0,L|12:320,1,100,2|2,0:0|0:0,0:0:0:0:
17,358,126209,1,12,0:3:0:0:
119,340,126598,5,4,0:3:0:0:
198,279,126988,1,12,0:3:0:0:
273,344,127377,1,4,0:3:0:0:
355,287,127767,2,0,L|394:330,1,50,14|0,0:3|0:0,0:0:0:0:
429,351,128157,6,0,P|452:302|447:253,1,100,4|12,0:1|0:3,0:0:0:0:
409,165,128936,1,4,0:3:0:0:
468,84,129326,1,12,0:3:0:0:
441,41,129520,2,0,P|388:20|327:40,1,100,2|2,0:0|0:0,0:0:0:0:
304,56,130105,1,12,0:3:0:0:
354,151,130494,1,4,0:3:0:0:
322,246,130884,5,12,0:3:0:0:
294,287,131079,2,0,P|252:288|231:277,1,50,2|4,0:0|0:3,0:0:0:0:
205,377,131663,1,12,0:3:0:0:
155,373,131858,2,0,P|133:337|132:313,1,50,2|4,0:0|0:3,0:0:0:0:
32,342,132442,1,12,0:3:0:0:
11,296,132637,6,0,P|31:259|77:218,1,100,2|2,0:0|0:0,0:0:0:0:
121,206,133222,1,12,0:3:0:0:
169,194,133416,2,0,L|173:95,1,100,2|2,0:0|0:0,0:0:0:0:
175,46,134001,1,12,0:3:0:0:
267,84,134390,6,0,P|320:63|383:85,1,100,4|12,0:3|0:3,0:0:0:0:
442,12,135170,2,0,P|486:47|499:112,1,100,4|12,0:3|0:3,0:0:0:0:
430,158,135949,2,0,L|421:270,1,100,4|12,0:3|0:3,0:0:0:0:
416,307,136533,1,2,0:0:0:0:
322,341,136923,1,2,0:0:0:0:
278,316,137118,2,0,L|168:307,1,100,12|4,0:3|0:3,0:0:0:0:
101,371,137897,5,12,0:3:0:0:
63,336,138092,2,0,P|59:274|84:231,1,100,2|2,0:0|0:0,0:0:0:0:
113,210,138676,1,12,0:3:0:0:
144,115,139066,2,0,L|251:129,2,100,4|12|4,0:3|0:3|0:3,0:0:0:0:
113,210,140235,2,0,L|122:272,1,50,14|2,0:3|0:0,0:0:0:0:
166,277,140624,6,0,L|265:289,1,100,4|12,0:1|0:3,0:0:0:0:
344,228,141403,2,0,L|351:178,2,50,4|2|12,0:3|0:0|0:3,0:0:0:0:
360,331,142183,1,4,0:3:0:0:
360,331,142572,1,12,0:3:0:0:
445,382,142962,2,0,P|460:336|450:285,1,100,4|12,0:3|0:3,0:0:0:0:
409,194,143741,5,4,0:3:0:0:
327,136,144131,2,0,L|259:127,2,50,12|2|4,0:3|0:0|0:3,0:0:0:0:
394,62,144910,2,0,L|443:55,1,50,12|2,0:3|0:0,0:0:0:0:
494,49,145300,2,0,L|491:152,1,100,4|12,0:3|0:3,0:0:0:0:
485,248,146079,1,4,0:3:0:0:
400,194,146468,2,0,L|337:195,1,50,12|2,0:3|0:0,0:0:0:0:
299,195,146858,6,0,L|301:294,1,100,4|12,0:1|0:3,0:0:0:0:
357,377,147637,2,0,L|420:383,2,50,4|2|12,0:3|0:0|0:3,0:0:0:0:
257,383,148416,1,4,0:3:0:0:
257,383,148806,1,12,0:3:0:0:
201,299,149196,2,0,L|98:301,1,100,4|12,0:3|0:3,0:0:0:0:
0,300,149975,5,4,0:3:0:0:
51,213,150365,2,0,L|82:159,2,50,12|2|4,0:3|0:0|0:3,0:0:0:0:
101,300,151144,2,0,L|125:343,1,50,12|2,0:3|0:0,0:0:0:0:
156,383,151533,2,0,L|255:381,1,100,4|12,0:3|0:3,0:0:0:0:
356,378,152313,1,4,0:3:0:0:
303,293,152702,2,0,L|307:235,1,50,12|2,0:3|0:0,0:0:0:0:
310,193,153092,6,0,L|316:82,1,100,4|12,0:1|0:3,0:0:0:0:
389,25,153871,2,0,L|453:43,2,50,4|2|12,0:3|0:0|0:3,0:0:0:0:
291,1,154650,1,4,0:3:0:0:
291,1,155040,1,12,0:3:0:0:
218,70,155429,2,0,P|169:82|111:71,1,100,4|12,0:3|0:3,0:0:0:0:
36,19,156209,5,4,0:3:0:0:
32,118,156598,2,0,L|29:181,2,50,12|2|4,0:3|0:0|0:3,0:0:0:0:
117,169,157377,2,0,L|119:218,1,50,12|2,0:3|0:0,0:0:0:0:
125,268,157767,2,0,L|233:271,1,100,4|12,0:3|0:3,0:0:0:0:
324,274,158546,1,4,0:3:0:0:
280,183,158936,2,0,L|282:134,1,50,12|2,0:3|0:0,0:0:0:0:
284,82,159326,6,0,L|383:79,1,100,4|12,0:1|0:3,0:0:0:0:
479,48,160105,2,0,L|505:5,2,50,4|2|12,0:3|0:0|0:3,0:0:0:0:
460,143,160884,1,4,0:3:0:0:
460,143,161274,1,12,0:3:0:0:
368,182,161663,2,0,P|359:241|374:282,1,100,4|12,0:3|0:3,0:0:0:0:
458,227,162442,5,4,0:3:0:0:
460,327,162832,2,0,L|486:369,2,50,12|2|4,0:3|0:0|0:3,0:0:0:0:
371,278,163611,2,0,L|328:304,1,50,12|2,0:3|0:0,0:0:0:0:
284,327,164001,2,0,P|236:340|187:329,1,100,6|14,0:3|0:3,0:0:0:0:
147,300,164585,1,2,0:3:0:0:
117,259,164780,2,0,L|117:145,1,100,6|8,0:3|0:0,0:0:0:0:
117,58,165559,5,4,0:0:0:0:
