osu file format v14

[General]
AudioFilename: audio.mp3
AudioLeadIn: 0
PreviewTime: 19706
Countdown: 0
SampleSet: Soft
StackLeniency: 0.4
Mode: 0
LetterboxInBreaks: 0
WidescreenStoryboard: 1

[Editor]
Bookmarks: 20115,41797,59388,98661,120342,137933,148024,177206,242661
DistanceSpacing: 0.7
BeatDivisor: 4
GridSize: 32
TimelineZoom: 2.599999

[Metadata]
Title:So What?
TitleUnicode:So What?
Artist:MisteryCircle
ArtistUnicode:MisteryCircle
Creator:Nozhomi
Version:diuS' Extra
Source:東方風神録 ~ Mountain of Faith.
Tags:YOUKI SPADE SOMALLY 少女が見た日本の原風景 English Rock TH ZUN Touhou Reitaisai 10 Kanako Yasaka 八坂神奈子 Video Game 東方Project Team Shanghai Alice The Primal Scene of Japan the Girl Saw Sanae Kochiya 東風谷早苗 MoF Fuujinroku DTM9 Nowa DTM9_Nowa MaridiuS
BeatmapID:2349407
BeatmapSetID:918900

[Difficulty]
HPDrainRate:5.6
CircleSize:4
OverallDifficulty:8.8
ApproachRate:9.5
SliderMultiplier:1.88
SliderTickRate:1

[Events]
//Background and Video events
0,0,"MaridiuS.jpg",0,0
//Break Periods
2,138542,139590
2,140724,141772
//Storyboard Layer 0 (Background)
//Storyboard Layer 1 (Fail)
//Storyboard Layer 2 (Pass)
//Storyboard Layer 3 (Foreground)
//Storyboard Layer 4 (Overlay)
//Storyboard Sound Samples

[TimingPoints]
2661,272.727272727273,4,2,1,80,1,0
19842,-133.333333333333,4,2,1,80,0,0
20047,-133.333333333333,4,2,1,5,0,0
20115,-100,4,2,1,80,0,0
39751,-133.333333333333,4,2,1,80,0,0
40774,-133.333333333333,4,2,1,5,0,0
40842,-133.333333333333,4,2,1,80,0,0
41797,-90.9090909090909,4,2,1,80,0,0
81206,-76.9230769230769,4,2,1,80,0,0
81411,-76.9230769230769,4,2,1,5,0,0
81479,-76.9230769230769,4,2,1,80,0,0
81683,-76.9230769230769,4,2,1,5,0,0
81751,-76.9230769230769,4,2,1,80,0,0
81820,-76.9230769230769,4,2,1,5,0,0
81888,-76.9230769230769,4,2,1,80,0,0
82229,-76.9230769230769,4,2,1,5,0,0
82297,-76.9230769230769,4,2,1,80,0,0
83592,-76.9230769230769,4,2,1,5,0,0
83660,-76.9230769230769,4,2,1,80,0,0
83865,-76.9230769230769,4,2,1,5,0,0
83933,-76.9230769230769,4,2,1,80,0,0
84001,-76.9230769230769,4,2,1,5,0,0
84069,-76.9230769230769,4,2,1,80,0,0
84138,-76.9230769230769,4,2,1,5,0,0
84206,-76.9230769230769,4,2,1,80,0,0
84274,-76.9230769230769,4,2,1,5,0,0
84342,-76.9230769230769,4,2,1,80,0,0
84411,-76.9230769230769,4,2,1,5,0,0
84479,-76.9230769230769,4,2,1,80,0,0
85570,-90.9090909090909,4,2,1,80,0,0
89933,-76.9230769230769,4,2,1,80,0,0
90138,-76.9230769230769,4,2,1,5,0,0
90206,-76.9230769230769,4,2,1,80,0,0
90411,-76.9230769230769,4,2,1,5,0,0
90479,-76.9230769230769,4,2,1,80,0,0
90547,-76.9230769230769,4,2,1,5,0,0
90615,-76.9230769230769,4,2,1,80,0,0
90956,-76.9230769230769,4,2,1,5,0,0
91024,-76.9230769230769,4,2,1,80,0,0
92320,-76.9230769230769,4,2,1,5,0,0
92388,-76.9230769230769,4,2,1,80,0,0
92592,-76.9230769230769,4,2,1,5,0,0
92660,-76.9230769230769,4,2,1,80,0,0
92729,-76.9230769230769,4,2,1,5,0,0
92797,-76.9230769230769,4,2,1,80,0,0
92865,-76.9230769230769,4,2,1,5,0,0
92933,-76.9230769230769,4,2,1,80,0,0
93001,-76.9230769230769,4,2,1,5,0,0
93069,-76.9230769230769,4,2,1,80,0,0
93138,-76.9230769230769,4,2,1,5,0,0
93206,-76.9230769230769,4,2,1,80,0,0
94501,-76.9230769230769,4,2,1,5,0,0
94569,-76.9230769230769,4,2,1,80,0,0
94774,-76.9230769230769,4,2,1,5,0,0
94842,-76.9230769230769,4,2,1,80,0,0
94911,-76.9230769230769,4,2,1,5,0,0
94979,-76.9230769230769,4,2,1,80,0,0
95047,-76.9230769230769,4,2,1,5,0,0
95115,-76.9230769230769,4,2,1,80,0,0
95183,-76.9230769230769,4,2,1,5,0,0
95251,-76.9230769230769,4,2,1,80,0,0
95320,-76.9230769230769,4,2,1,5,0,0
95388,-76.9230769230769,4,2,1,80,0,0
98661,-100,4,2,1,80,0,0
120342,-90.9090909090909,4,2,1,80,0,0
159956,-90.9090909090909,4,2,1,5,0,0
160024,-90.9090909090909,4,2,1,80,0,0
160229,-90.9090909090909,4,2,1,5,0,0
160297,-90.9090909090909,4,2,1,80,0,0
160365,-90.9090909090909,4,2,1,5,0,0
160433,-90.9090909090909,4,2,1,80,0,0
160774,-90.9090909090909,4,2,1,5,0,0
160842,-90.9090909090909,4,2,1,80,0,0
162138,-90.9090909090909,4,2,1,5,0,0
162206,-90.9090909090909,4,2,1,80,0,0
162411,-90.9090909090909,4,2,1,5,0,0
162479,-90.9090909090909,4,2,1,80,0,0
162547,-90.9090909090909,4,2,1,5,0,0
162615,-90.9090909090909,4,2,1,80,0,0
162683,-90.9090909090909,4,2,1,5,0,0
162751,-90.9090909090909,4,2,1,80,0,0
162820,-90.9090909090909,4,2,1,5,0,0
162888,-90.9090909090909,4,2,1,80,0,0
162956,-90.9090909090909,4,2,1,5,0,0
163024,-90.9090909090909,4,2,1,80,0,0
168683,-90.9090909090909,4,2,1,5,0,0
168751,-90.9090909090909,4,2,1,80,0,0
168956,-90.9090909090909,4,2,1,5,0,0
169024,-90.9090909090909,4,2,1,80,0,0
169092,-90.9090909090909,4,2,1,5,0,0
169160,-90.9090909090909,4,2,1,80,0,0
169501,-90.9090909090909,4,2,1,5,0,0
169569,-90.9090909090909,4,2,1,80,0,0
170865,-90.9090909090909,4,2,1,5,0,0
170933,-90.9090909090909,4,2,1,80,0,0
171138,-90.9090909090909,4,2,1,5,0,0
171206,-90.9090909090909,4,2,1,80,0,0
171274,-90.9090909090909,4,2,1,5,0,0
171342,-90.9090909090909,4,2,1,80,0,0
171411,-90.9090909090909,4,2,1,5,0,0
171479,-90.9090909090909,4,2,1,80,0,0
171547,-90.9090909090909,4,2,1,5,0,0
171615,-90.9090909090909,4,2,1,80,0,0
171683,-90.9090909090909,4,2,1,5,0,0
171751,-90.9090909090909,4,2,1,80,0,0
172842,-76.9230769230769,4,2,1,80,0,0
173047,-76.9230769230769,4,2,1,5,0,0
173115,-76.9230769230769,4,2,1,80,0,0
173320,-76.9230769230769,4,2,1,5,0,0
173388,-76.9230769230769,4,2,1,80,0,0
173456,-76.9230769230769,4,2,1,5,0,0
173524,-76.9230769230769,4,2,1,80,0,0
173592,-76.9230769230769,4,2,1,5,0,0
173660,-76.9230769230769,4,2,1,80,0,0
173865,-76.9230769230769,4,2,1,5,0,0
173933,-76.9230769230769,4,2,1,80,0,0
177206,-100,4,2,1,80,0,0
198888,-83.3333333333333,4,2,1,80,0,1
220842,-100,4,2,1,80,0,0
242524,-90.9090909090909,4,2,1,80,0,0
260933,-90.9090909090909,4,2,1,90,0,0

[Colours]
Combo1 : 133,223,250
Combo2 : 128,128,255
Combo3 : 0,0,255

[HitObjects]
318,330,19570,5,0,0:0:0:0:
318,330,19706,1,0,3:0:0:0:
306,173,19842,2,0,L|298:63,1,105.750004034043,0|0,1:0|0:0,0:0:0:0:
299,46,20115,6,0,P|348:35|421:46,1,94,4|0,3:2|0:0,0:0:0:0:
174,224,20388,1,0,1:0:0:0:
152,94,20524,2,0,L|135:-5,1,94,2|0,3:2|3:0,0:0:0:0:
37,224,20797,2,0,L|31:323,1,94,2|0,3:2|1:0,0:0:0:0:
252,166,21070,1,0,0:0:0:0:
414,303,21206,6,0,B|392:243|392:243|409:129,1,141,4|0,3:2|0:0,0:0:0:0:
413,133,21479,1,0,1:0:0:0:
303,278,21615,2,0,L|186:288,1,94,2|0,3:2|0:0,0:0:0:0:
358,381,21888,1,0,3:0:0:0:
267,179,22024,2,0,L|277:62,1,94,2|0,1:2|0:0,0:0:0:0:
0,119,22297,6,0,B|52:86|87:119|118:149|196:106,1,188,4|0,3:2|1:0,0:0:0:0:
127,37,22706,1,2,3:2:0:0:
165,210,22842,1,0,3:0:0:0:
283,48,22979,1,0,3:0:0:0:
330,229,23115,2,0,P|335:273|321:346,1,94,0|0,1:0|0:0,0:0:0:0:
416,107,23388,6,0,B|369:139|369:139|247:115,1,141,6|0,3:2|0:0,0:0:0:0:
249,113,23661,1,0,1:0:0:0:
435,211,23797,1,0,3:0:0:0:
342,47,23933,1,0,3:0:0:0:
250,213,24070,1,0,3:0:0:0:
185,61,24206,1,0,1:0:0:0:
176,24,24274,1,0,1:0:0:0:
145,0,24343,1,0,1:0:0:0:
107,0,24411,1,0,1:0:0:0:
76,21,24479,6,0,L|57:229,1,188,4|0,3:2|1:0,0:0:0:0:
239,288,24888,1,2,0:0:0:0:
300,180,25024,1,0,3:0:0:0:
176,210,25161,1,0,3:0:0:0:
57,245,25297,1,0,1:0:0:0:
105,122,25433,1,0,3:2:0:0:
118,384,25570,6,0,L|128:259,1,94,6|0,3:2|3:0,0:0:0:0:
125,290,25774,1,0,3:0:0:0:
125,290,25842,1,0,1:0:0:0:
318,339,25979,2,0,B|336:279|336:279|296:124,1,188,2|0,3:2|3:0,0:0:0:0:
264,47,26388,1,0,1:0:0:0:
449,225,26661,5,2,3:2:0:0:
443,262,26729,1,0,3:0:0:0:
437,299,26797,1,0,3:0:0:0:
370,161,26933,1,2,3:2:0:0:
376,124,27001,1,0,3:0:0:0:
382,87,27069,1,0,3:0:0:0:
276,199,27206,1,2,3:2:0:0:
270,236,27274,1,0,3:0:0:0:
264,273,27342,1,0,3:0:0:0:
258,310,27411,1,0,3:0:0:0:
253,347,27479,5,2,3:2:0:0:
208,361,27547,1,0,3:0:0:0:
162,351,27615,1,0,3:0:0:0:
132,314,27683,1,0,3:0:0:0:
129,267,27751,6,0,B|123:191|194:174|231:97|159:0,1,282,0|0,1:0|3:0,0:0:0:0:
164,8,28229,1,0,3:0:0:0:
164,8,28297,1,0,1:0:0:0:
293,174,28433,1,0,3:0:0:0:
438,3,28570,2,0,P|411:68|485:130,1,141,0|0,1:0|0:0,0:0:0:0:
505,230,28842,6,0,L|375:217,1,94,6|0,3:2|0:0,0:0:0:0:
229,272,29115,1,0,1:0:0:0:
155,123,29251,2,0,L|120:24,1,94,2|0,3:2|3:0,0:0:0:0:
97,272,29524,2,0,L|-8:268,1,94,2|0,3:2|1:0,0:0:0:0:
341,318,29797,5,0,3:0:0:0:
341,318,29865,1,0,3:0:0:0:
341,318,29933,2,0,B|315:248|315:248|330:124,1,188,4|0,3:2|1:0,0:0:0:0:
435,10,30342,2,0,B|451:59|451:59|431:123,1,94,2|0,3:2|0:0,0:0:0:0:
126,25,30615,1,0,3:0:0:0:
241,42,30751,2,0,L|350:56,1,94,2|0,1:2|0:0,0:0:0:0:
143,307,31024,6,0,B|167:244|167:244|136:198|136:198|168:104,1,188,6|0,3:2|1:0,0:0:0:0:
293,282,31433,2,0,L|288:164,1,94,2|0,3:2|3:0,0:0:0:0:
349,3,31706,1,0,3:0:0:0:
231,87,31842,1,0,1:0:0:0:
436,201,31979,6,0,L|443:266,1,47,8|0,3:0|0:0,0:0:0:0:
415,315,32115,2,0,L|439:94,1,188,6|0,3:2|1:0,0:0:0:0:
265,140,32524,1,0,3:0:0:0:
74,152,32661,1,0,3:0:0:0:
201,320,32797,1,0,3:0:0:0:
201,320,32865,1,0,3:0:0:0:
201,320,32933,1,0,1:0:0:0:
215,281,33001,1,0,1:0:0:0:
206,228,33070,1,0,1:0:0:0:
174,180,33138,1,0,1:0:0:0:
176,126,33206,6,0,P|198:62|319:62,1,188,6|0,3:2|1:0,0:0:0:0:
381,283,33615,2,0,P|375:231|386:177,1,94,2|0,0:2|3:0,0:0:0:0:
456,76,33888,1,0,3:0:0:0:
294,133,34024,1,2,1:2:0:0:
470,226,34161,1,0,3:0:0:0:
167,259,34297,6,0,L|281:283,1,94,6|0,3:2|0:0,0:0:0:0:
70,378,34570,1,0,1:2:0:0:
52,206,34706,2,0,L|41:97,1,94,2|0,3:2|0:0,0:0:0:0:
31,14,34979,1,0,3:0:0:0:
31,14,35047,1,0,3:0:0:0:
31,14,35115,1,0,1:0:0:0:
135,133,35251,1,2,0:0:0:0:
281,0,35388,5,2,3:2:0:0:
279,37,35456,1,0,3:0:0:0:
277,74,35524,1,0,3:0:0:0:
423,137,35661,1,2,3:2:0:0:
425,174,35729,1,0,3:0:0:0:
427,211,35797,1,0,3:0:0:0:
264,338,35933,1,2,3:2:0:0:
263,300,36001,1,0,3:0:0:0:
262,261,36070,1,0,3:0:0:0:
261,223,36138,1,0,3:0:0:0:
260,185,36206,5,2,3:2:0:0:
292,218,36274,1,0,3:0:0:0:
273,261,36342,1,0,3:0:0:0:
225,263,36411,1,0,3:0:0:0:
191,230,36479,2,0,B|115:171|211:124|173:5|64:-1,1,282,0|0,1:0|3:0,0:0:0:0:
11,73,36956,5,0,3:0:0:0:
11,73,37024,1,4,1:0:0:0:
270,30,37161,1,2,3:2:0:0:
79,137,37297,5,0,1:0:0:0:
359,97,37433,1,2,3:2:0:0:
280,289,37570,5,0,3:0:0:0:
271,251,37638,1,0,3:0:0:0:
262,214,37706,1,0,1:0:0:0:
255,177,37774,1,0,3:0:0:0:
248,140,37842,1,0,3:0:0:0:
385,214,37979,2,0,L|329:210,1,47,0|0,1:0|3:0,0:0:0:0:
173,217,38115,1,0,3:0:0:0:
343,98,38251,1,0,1:0:0:0:
379,85,38320,1,0,3:0:0:0:
416,85,38388,1,0,3:0:0:0:
454,95,38456,1,0,3:0:0:0:
485,114,38524,1,0,1:0:0:0:
468,277,38661,5,0,3:0:0:0:
468,277,38729,1,0,3:0:0:0:
468,277,38797,1,0,1:0:0:0:
356,191,38933,1,0,3:0:0:0:
280,380,39070,2,0,L|273:305,1,47,0|0,1:0|3:0,0:0:0:0:
267,248,39206,1,0,3:0:0:0:
89,186,39342,6,0,L|37:165,1,47,0|0,1:0|3:0,0:0:0:0:
159,148,39479,2,0,L|203:114,1,47,0|0,3:0|3:0,0:0:0:0:
155,226,39615,2,0,L|162:281,1,47,0|0,1:0|3:0,0:0:0:0:
95,97,39751,5,4,1:2:0:0:
365,348,40297,1,2,0:0:0:0:
461,16,40842,5,4,3:2:0:0:
486,71,40933,1,2,0:0:0:0:
489,132,41024,1,2,0:0:0:0:
445,174,41115,1,0,0:0:0:0:
387,152,41206,1,2,0:0:0:0:
340,111,41297,1,2,0:0:0:0:
280,123,41388,1,4,3:2:0:0:
235,164,41479,1,2,0:0:0:0:
235,225,41570,1,2,0:0:0:0:
188,264,41661,1,0,0:0:0:0:
127,259,41751,1,2,0:0:0:0:
127,265,41797,6,0,B|97:198|97:198|118:35,1,206.800006311035,6|0,3:2|3:0,0:0:0:0:
318,0,42206,2,0,P|268:-12|209:5,1,103.400003155518,2|0,1:2|0:0,0:0:0:0:
210,174,42479,1,0,3:0:0:0:
376,89,42615,1,2,3:2:0:0:
222,73,42751,1,0,1:0:0:0:
375,198,42888,6,0,L|487:225,1,103.400003155518,2|0,3:2|0:0,0:0:0:0:
282,273,43161,2,0,L|140:269,1,103.400003155518,2|0,3:2|1:0,0:0:0:0:
383,354,43433,2,0,L|496:329,1,103.400003155518,2|0,3:2|0:0,0:0:0:0:
274,187,43706,1,0,3:2:0:0:
262,358,43842,1,0,1:0:0:0:
72,138,43979,6,0,P|132:79|153:162,1,206.800006311035,6|0,3:2|3:0,0:0:0:0:
89,234,44388,1,0,1:0:0:0:
419,159,44661,1,0,3:0:0:0:
252,240,44797,1,0,3:0:0:0:
240,339,44933,1,0,1:0:0:0:
335,108,45070,6,0,P|271:51|255:135,1,206.800006311035,6|0,3:2|0:0,0:0:0:0:
333,196,45479,2,0,L|323:308,1,103.400003155518,0|0,1:0|3:0,0:0:0:0:
163,372,45751,1,0,3:0:0:0:
323,328,45888,1,0,3:0:0:0:
129,195,46024,6,0,L|106:129,1,51.7000015777588,8|0,3:0|0:0,0:0:0:0:
24,86,46161,2,0,B|87:121|87:121|258:84,1,206.800006311035,6|0,3:2|3:0,0:0:0:0:
342,0,46570,2,0,L|332:143,1,103.400003155518,2|0,1:2|0:0,0:0:0:0:
296,310,46842,5,0,3:0:0:0:
337,216,46979,2,0,P|385:199|459:227,1,103.400003155518,2|0,3:2|1:0,0:0:0:0:
199,326,47251,1,0,3:0:0:0:
158,232,47388,2,0,P|110:215|36:243,1,103.400003155518,2|0,3:2|0:0,0:0:0:0:
301,325,47660,1,0,1:0:0:0:
342,231,47797,2,0,P|390:214|464:242,1,103.400003155518,2|0,3:2|0:0,0:0:0:0:
196,345,48070,1,0,3:0:0:0:
244,167,48206,1,2,1:2:0:0:
310,343,48342,1,2,0:2:0:0:
325,112,48479,6,0,P|362:42|456:1,1,155.100004733277,6|0,3:2|3:0,0:0:0:0:
328,128,48751,2,0,P|270:75|193:59,1,155.100004733277,2|0,1:2|0:0,0:0:0:0:
54,85,49024,2,0,L|129:99,1,51.7000015777588,2|0,1:2|0:0,0:0:0:0:
190,259,49161,2,0,L|176:156,1,103.400003155518,2|0,3:2|1:0,0:0:0:0:
111,315,49433,2,0,L|100:383,1,51.7000015777588,0|0,3:0|3:0,0:0:0:0:
282,317,49570,6,0,P|320:312|390:325,2,68.9333354370118,0|0|0,3:0|3:0|3:0,0:0:0:0:
324,220,49842,2,0,P|362:215|432:228,2,68.9333354370118,0|0|0,3:0|3:0|3:0,0:0:0:0:
334,117,50115,1,0,3:0:0:0:
393,106,50206,1,0,3:2:0:0:
449,125,50297,1,0,3:2:0:0:
512,74,50388,5,0,3:0:0:0:
512,74,50456,1,0,3:0:0:0:
512,74,50524,2,0,L|453:303,1,206.800006311035,6|0,3:2|3:0,0:0:0:0:
177,224,50933,1,0,1:2:0:0:
355,268,51070,1,0,0:0:0:0:
315,68,51206,5,2,3:2:0:0:
251,188,51342,2,0,L|314:61,1,103.400003155518,2|0,3:2|1:0,0:0:0:0:
153,139,51615,2,0,L|136:30,1,103.400003155518,2|0,3:2|0:0,0:0:0:0:
178,253,51888,2,0,L|195:363,1,103.400003155518,2|0,3:2|1:0,0:0:0:0:
79,228,52161,2,0,L|63:330,1,103.400003155518,2|0,3:2|0:0,0:0:0:0:
173,163,52433,2,0,L|256:161,1,51.7000015777588,8|0,3:3|0:0,0:0:0:0:
315,200,52570,1,0,1:0:0:0:
319,0,52706,6,0,B|363:58|363:58|341:224,1,206.800006311035,6|0,3:2|3:0,0:0:0:0:
132,45,53115,2,0,L|28:48,1,103.400003155518,2|0,1:2|0:0,0:0:0:0:
234,134,53388,1,0,3:0:0:0:
240,290,53524,1,0,3:0:0:0:
145,341,53661,1,0,1:0:0:0:
376,361,53797,6,0,B|332:303|332:303|354:137,1,206.800006311035,6|0,3:2|0:0,0:0:0:0:
456,92,54206,2,0,L|471:207,1,103.400003155518,2|0,1:2|3:0,0:0:0:0:
292,54,54479,1,0,3:0:0:0:
434,87,54615,1,0,3:0:0:0:
493,6,54751,1,0,1:0:0:0:
227,133,54888,6,0,P|115:173|60:91,1,206.800006311035,6|0,3:2|3:0,0:0:0:0:
180,272,55297,2,0,L|167:400,1,103.400003155518,2|0,1:2|0:0,0:0:0:0:
341,172,55570,1,0,3:0:0:0:
288,313,55706,1,2,3:2:0:0:
443,275,55842,1,0,1:0:0:0:
443,275,55979,1,0,3:0:0:0:
442,73,56115,5,2,3:2:0:0:
473,167,56251,2,0,P|481:110|459:40,1,103.400003155518,2|0,3:2|1:0,0:0:0:0:
320,43,56524,1,2,0:2:0:0:
371,192,56661,1,0,3:0:0:0:
371,192,56797,1,0,3:0:0:0:
217,152,56933,1,2,1:2:0:0:
401,101,57070,1,2,3:2:0:0:
189,50,57206,6,0,P|89:47|15:99,1,155.100004733277,6|0,3:2|3:0,0:0:0:0:
178,64,57479,2,0,P|124:108|88:206,1,155.100004733277,2|0,1:2|0:0,0:0:0:0:
138,274,57751,2,0,L|131:328,1,51.7000015777588,8|0,3:0|0:0,0:0:0:0:
179,195,57888,2,0,L|315:176,1,103.400003155518,2|0,3:2|1:0,0:0:0:0:
391,178,58161,2,0,L|463:188,1,51.7000015777588,0|0,3:0|3:0,0:0:0:0:
334,93,58297,6,0,P|325:46|325:-1,2,68.9333354370118,0|0|0,3:0|3:0|3:0,0:0:0:0:
334,253,58570,2,0,P|323:296|323:344,2,68.9333354370118,0|0|0,3:0|3:0|3:0,0:0:0:0:
291,173,58842,1,0,3:0:0:0:
244,143,58933,1,0,3:0:0:0:
190,156,59024,1,0,3:0:0:0:
150,223,59115,2,0,L|154:296,1,51.7000015777588,0|0,1:0|0:0,0:0:0:0:
159,378,59251,5,0,1:0:0:0:
159,378,59320,1,0,1:0:0:0:
159,378,59388,1,0,3:0:0:0:
47,263,59524,1,0,3:0:0:0:
250,297,59661,2,0,L|381:317,1,103.400003155518,0|0,1:0|0:0,0:0:0:0:
469,81,59933,1,2,3:2:0:0:
458,226,60070,2,0,L|447:343,1,103.400003155518,2|0,3:2|1:0,0:0:0:0:
351,204,60342,2,0,L|341:113,1,51.7000015777588,8|0,3:3|0:0,0:0:0:0:
339,52,60479,5,0,3:0:0:0:
264,189,60615,1,2,0:0:0:0:
188,21,60751,2,0,L|166:153,1,103.400003155518,0|0,1:0|0:0,0:0:0:0:
41,37,61024,1,2,3:2:0:0:
86,199,61161,2,0,L|108:331,1,103.400003155518,2|0,3:2|1:0,0:0:0:0:
102,300,61433,1,0,0:0:0:0:
246,99,61570,6,0,P|331:59|444:131,1,206.800006311035,0|0,3:0|1:0,0:0:0:0:
438,227,61979,1,0,0:0:0:0:
224,211,62115,5,2,3:2:0:0:
404,224,62251,1,2,3:2:0:0:
271,293,62388,2,0,L|261:364,1,51.7000015777588,8|0,1:3|0:0,0:0:0:0:
318,199,62524,2,0,L|301:131,1,51.7000015777588,8|0,3:0|0:0,0:0:0:0:
136,188,62661,5,0,3:0:0:0:
189,24,62797,1,2,0:0:0:0:
45,103,62933,2,0,L|185:90,1,103.400003155518,2|0,1:2|0:0,0:0:0:0:
455,33,63206,1,0,3:0:0:0:
428,187,63342,2,0,L|407:309,1,103.400003155518,0|0,3:0|1:0,0:0:0:0:
410,288,63615,1,0,0:0:0:0:
267,105,63751,5,0,3:0:0:0:
192,274,63888,1,2,0:0:0:0:
287,210,64024,1,0,1:0:0:0:
156,162,64161,1,2,0:0:0:0:
43,240,64297,5,2,3:2:0:0:
43,240,64433,2,0,L|49:136,1,103.400003155518,2|0,3:2|1:0,0:0:0:0:
60,24,64706,1,0,0:0:0:0:
233,171,64842,5,0,3:0:0:0:
308,2,64979,1,2,0:0:0:0:
213,66,65115,1,0,1:0:0:0:
344,114,65252,1,2,0:0:0:0:
457,36,65388,5,2,3:2:0:0:
457,36,65524,2,0,L|450:139,1,103.400003155518,2|0,0:2|1:0,0:0:0:0:
442,249,65797,1,0,0:0:0:0:
157,331,65933,6,0,P|109:250|168:112,1,206.800006311035,2|0,3:2|1:0,0:0:0:0:
243,244,66342,1,0,0:0:0:0:
317,5,66479,2,0,P|364:86|306:224,1,206.800006311035,2|0,3:2|1:0,0:0:0:0:
242,63,66888,1,0,0:0:0:0:
337,297,67024,5,0,3:0:0:0:
337,297,67092,1,0,3:0:0:0:
337,297,67161,1,0,1:0:0:0:
377,305,67229,1,0,1:0:0:0:
417,313,67297,1,0,1:0:0:0:
410,272,67365,1,0,1:0:0:0:
403,231,67433,2,0,L|383:141,1,51.7000015777588,0|0,3:0|3:0,0:0:0:0:
366,87,67570,1,0,3:0:0:0:
366,87,67842,5,8,3:0:0:0:
346,43,67911,1,8,3:0:0:0:
301,29,67979,1,4,3:0:0:0:
257,45,68047,1,4,3:0:0:0:
235,86,68115,2,0,L|257:225,1,103.400003155518,4|0,1:2|0:0,0:0:0:0:
276,298,68388,1,2,1:2:0:0:
276,298,68661,5,2,3:2:0:0:
129,267,68797,2,0,L|13:241,1,103.400003155518,2|0,3:2|1:0,0:0:0:0:
123,147,69070,1,0,0:0:0:0:
186,353,69206,5,0,3:0:0:0:
271,157,69342,1,2,0:0:0:0:
379,159,69479,2,0,L|493:165,1,103.400003155518,2|0,1:2|0:0,0:0:0:0:
312,47,69751,1,2,3:2:0:0:
334,251,69888,2,0,L|348:368,1,103.400003155518,2|0,3:2|1:0,0:0:0:0:
187,208,70161,2,0,P|188:174|192:147,1,51.7000015777588,8|0,3:0|0:0,0:0:0:0:
55,34,70297,6,0,P|95:126|28:240,1,206.800006311035,0|0,3:0|1:0,0:0:0:0:
6,131,70706,1,0,0:0:0:0:
172,288,70842,5,2,3:2:0:0:
201,146,70979,2,0,L|177:279,1,103.400003155518,2|0,3:2|1:0,0:0:0:0:
351,124,71251,1,0,0:0:0:0:
442,310,71388,1,0,3:0:0:0:
343,275,71524,1,2,0:2:0:0:
458,146,71661,2,0,L|430:25,1,103.400003155518,2|0,1:2|0:0,0:0:0:0:
100,179,71933,1,2,3:2:0:0:
282,108,72070,1,2,3:2:0:0:
241,290,72206,1,0,1:0:0:0:
125,59,72342,5,0,3:0:0:0:
125,59,72479,2,0,L|220:255,1,206.800006311035,8|0,3:0|1:0,0:0:0:0:
215,245,73024,1,0,3:0:0:0:
269,130,73161,1,2,3:2:0:0:
436,204,73297,1,0,1:0:0:0:
339,294,73433,1,2,0:2:0:0:
339,294,73570,2,0,L|355:42,1,206.800006311035,8|0,3:0|1:0,0:0:0:0:
352,87,74115,5,0,3:0:0:0:
234,174,74251,1,2,3:2:0:0:
437,290,74388,1,0,1:0:0:0:
471,168,74524,2,0,L|492:93,1,51.7000015777588,2|0,3:2|0:0,0:0:0:0:
218,288,74661,6,0,P|138:217|156:111,1,206.800006311035,0|0,3:0|1:0,0:0:0:0:
222,11,75070,1,0,0:0:0:0:
316,235,75206,2,0,L|326:110,2,103.400003155518,0|0|0,3:0|3:0|1:0,0:0:0:0:
300,349,75615,1,0,0:0:0:0:
40,316,75751,6,0,L|121:305,1,51.7000015777588,0|0,3:0|3:0,0:0:0:0:
196,186,75888,1,0,1:0:0:0:
188,226,75956,1,0,1:0:0:0:
180,266,76024,1,0,1:0:0:0:
174,306,76092,1,0,1:0:0:0:
165,346,76161,1,0,3:0:0:0:
161,330,76229,1,0,3:0:0:0:
158,314,76297,1,0,3:0:0:0:
155,298,76365,1,0,3:0:0:0:
152,282,76433,2,0,L|141:222,3,51.7000015777588,8|8|8|8,3:0|3:0|3:0|3:0,0:0:0:0:
331,320,76706,5,0,3:0:0:0:
331,320,76774,1,0,3:0:0:0:
331,320,76842,2,0,P|401:338|536:293,1,206.800006311035,0|0,3:0|1:0,0:0:0:0:
461,62,77251,1,0,0:0:0:0:
401,235,77388,2,0,P|391:196|395:110,1,103.400003155518,0|0,3:0|3:0,0:0:0:0:
236,20,77661,2,0,P|229:62|230:147,1,103.400003155518,0|0,1:0|0:0,0:0:0:0:
56,298,77933,6,0,P|151:261|261:267,1,206.800006311035,2|0,3:2|1:0,0:0:0:0:
71,85,78342,2,0,P|172:97|312:146,1,206.800006311035,2|0,0:2|3:0,0:0:0:0:
442,313,78751,1,0,1:0:0:0:
431,182,78888,1,0,0:0:0:0:
285,381,79024,6,0,P|331:291|263:182,1,206.800006311035,4|0,3:2|1:0,0:0:0:0:
291,200,79570,1,0,3:0:0:0:
225,289,79706,1,0,3:0:0:0:
212,129,79842,2,0,L|201:-8,1,103.400003155518,0|0,1:0|0:0,0:0:0:0:
0,65,80115,6,0,P|54:79|114:61,1,103.400003155518,0|0,3:0|0:0,0:0:0:0:
313,20,80388,1,0,1:0:0:0:
297,186,80524,1,0,0:0:0:0:
395,265,80661,1,0,3:0:0:0:
395,265,80797,1,0,3:0:0:0:
182,242,80933,2,0,L|67:332,1,103.400003155518,0|0,1:0|0:0,0:0:0:0:
330,105,81206,6,0,L|556:124,1,183.299991609192,2|0,3:0|0:0,0:0:0:0:
327,81,81479,2,0,L|338:317,1,183.299991609192,2|0,1:2|0:0,0:0:0:0:
460,353,81751,2,0,L|455:267,1,61.0999972030641,2|0,3:2|0:0,0:0:0:0:
245,189,81888,2,0,L|77:177,1,122.199994406128,2|0,3:2|1:0,0:0:0:0:
4,325,82161,2,0,L|-1:239,1,61.0999972030641,2|0,3:2|0:0,0:0:0:0:
2,30,82297,6,2,B|61:84|61:84|283:65,1,244.399988812256,2|0,3:1|1:0,0:0:0:0:
462,276,82706,2,2,B|403:222|403:222|181:241,1,244.399988812256,2|0,0:1|3:1,0:0:0:0:
5,383,83115,2,0,L|-1:236,1,122.199994406128,2|0,1:0|0:0,0:0:0:0:
283,32,83388,6,0,L|276:248,1,183.299991609192,2|0,3:0|0:0,0:0:0:0:
297,353,83661,2,0,L|304:129,1,183.299991609192,2|0,1:2|0:0,0:0:0:0:
437,101,83933,2,0,L|327:115,1,61.0999972030641,2|0,3:0|0:0,0:0:0:0:
162,173,84070,2,0,L|270:203,1,61.0999972030641,0|0,3:2|0:0,0:0:0:0:
443,257,84206,2,0,L|363:276,1,61.0999972030641,2|0,1:3|0:0,0:0:0:0:
135,306,84342,2,0,L|243:336,1,61.0999972030641,2|0,3:0|0:0,0:0:0:0:
292,259,84479,1,2,3:1:0:0:
57,204,84615,5,0,1:0:0:0:
22,178,84683,1,0,1:0:0:0:
18,135,84751,1,0,1:0:0:0:
32,94,84820,1,0,1:0:0:0:
69,72,84888,2,0,L|168:85,5,61.0999972030641,0|0|0|0|0|0,3:0|3:0|3:0|0:0|0:0|0:0,0:0:0:0:
272,145,85297,5,8,3:0:0:0:
284,143,85366,1,8,3:0:0:0:
295,141,85434,1,4,3:0:0:0:
306,139,85502,1,4,3:0:0:0:
317,137,85570,2,0,L|301:357,1,206.800006311035,0|0,3:0|1:0,0:0:0:0:
301,343,86115,1,0,3:0:0:0:
402,238,86251,1,0,3:0:0:0:
228,256,86388,2,0,L|116:266,1,103.400003155518,0|0,1:0|0:0,0:0:0:0:
60,82,86661,6,0,P|31:177|61:325,1,206.800006311035,2|0,3:2|1:0,0:0:0:0:
337,155,87070,2,0,P|239:171|123:153,1,206.800006311035,2|0,0:2|3:0,0:0:0:0:
439,222,87479,2,0,P|433:174|453:103,1,103.400003155518,2|0,1:2|0:0,0:0:0:0:
340,348,87751,6,0,P|240:292|178:352,1,206.800006311035,4|0,3:2|1:0,0:0:0:0:
181,342,88297,1,0,3:0:0:0:
252,203,88433,1,0,3:0:0:0:
131,236,88570,2,0,L|-15:270,1,103.400003155518,0|0,1:0|0:0,0:0:0:0:
429,162,88842,6,2,B|445:178|489:197|489:197|433:185|384:188|347:235,1,206.800006311035,2|0,3:1|1:0,0:0:0:0:
346,100,89251,1,2,0:0:0:0:
360,220,89388,1,0,3:0:0:0:
461,73,89524,1,0,3:0:0:0:
482,282,89661,2,0,L|494:384,1,103.400003155518,0|0,1:0|0:0,0:0:0:0:
402,373,89865,5,0,3:0:0:0:
361,368,89933,2,0,L|129:344,1,183.299991609192,2|0,3:0|0:0,0:0:0:0:
0,244,90206,2,0,L|226:223,1,183.299991609192,2|0,1:2|0:0,0:0:0:0:
290,239,90479,2,0,L|295:178,1,61.0999972030641,2|0,3:2|0:0,0:0:0:0:
380,41,90615,2,0,L|395:192,1,122.199994406128,2|0,3:2|1:0,0:0:0:0:
156,368,90888,6,0,L|155:287,1,61.0999972030641,2|0,0:0|0:0,0:0:0:0:
140,109,91024,2,2,B|192:190|192:190|194:377,1,244.399988812256,2|0,3:1|1:0,0:0:0:0:
380,41,91433,2,2,B|328:122|328:122|326:309,1,244.399988812256,2|0,0:1|3:0,0:0:0:0:
464,384,91842,2,0,L|457:251,1,122.199994406128,2|0,1:1|0:0,0:0:0:0:
248,95,92115,6,0,B|302:79|302:79|478:125,1,183.299991609192,2|0,3:0|0:0,0:0:0:0:
239,106,92388,2,0,B|184:90|184:90|9:136,1,183.299991609192,2|0,1:2|0:0,0:0:0:0:
127,245,92661,2,0,L|137:164,1,61.0999972030641,2|0,3:0|0:0,0:0:0:0:
185,324,92797,2,0,L|191:416,1,61.0999972030641,0|0,3:0|0:0,0:0:0:0:
91,325,92933,2,0,L|24:333,1,61.0999972030641,0|0,1:3|0:0,0:0:0:0:
216,238,93070,2,0,L|283:230,1,61.0999972030641,2|0,3:0|0:0,0:0:0:0:
436,298,93206,5,2,3:0:0:0:
436,298,93274,1,0,3:0:0:0:
436,298,93342,1,0,1:0:0:0:
419,244,93411,1,0,1:0:0:0:
403,191,93479,1,0,1:0:0:0:
386,138,93547,1,0,1:0:0:0:
368,86,93615,5,2,3:0:0:0:
393,103,93683,1,0,3:0:0:0:
399,132,93751,1,0,3:0:0:0:
382,158,93820,1,0,3:0:0:0:
354,170,93888,1,0,3:0:0:0:
323,171,93956,1,0,3:0:0:0:
299,151,94024,2,0,P|266:138|192:131,1,61.0999972030641,8|8,3:0|3:0,0:0:0:0:
159,203,94161,2,0,P|126:215|52:223,1,61.0999972030641,4|4,3:0|3:0,0:0:0:0:
0,76,94297,6,0,B|-19:151|-19:151|22:305,1,183.299991609192,2|0,3:0|0:0,0:0:0:0:
18,55,94570,2,0,B|93:36|93:36|247:77,1,183.299991609192,2|0,1:2|0:0,0:0:0:0:
341,189,94842,2,0,L|401:195,1,61.0999972030641,2|0,3:0|0:0,0:0:0:0:
185,169,94979,2,0,L|124:159,1,61.0999972030641,0|0,3:0|0:0,0:0:0:0:
330,211,95115,2,0,L|390:217,1,61.0999972030641,2|0,1:3|0:0,0:0:0:0:
174,191,95252,2,0,L|113:181,1,61.0999972030641,0|0,3:0|0:0,0:0:0:0:
275,333,95388,6,2,B|253:272|253:272|267:47,1,244.399988812256,2|0,1:1|1:0,0:0:0:0:
437,373,95797,2,2,B|459:312|459:312|445:87,1,244.399988812256,2|0,0:1|3:0,0:0:0:0:
109,11,96206,2,0,L|118:159,1,122.199994406128,2|0,1:0|0:0,0:0:0:0:
42,336,96479,5,0,1:0:0:0:
58,296,96547,1,0,3:0:0:0:
97,281,96615,1,0,3:0:0:0:
136,296,96683,1,0,3:0:0:0:
158,332,96751,1,0,1:0:0:0:
180,368,96820,1,0,3:0:0:0:
219,383,96888,1,0,3:0:0:0:
258,368,96956,1,0,3:0:0:0:
274,328,97024,2,8,L|261:189,2,81.4666629374188,8|8|8,3:0|3:0|3:0,0:0:0:0:
373,376,97297,1,8,3:0:0:0:
384,285,97389,2,0,L|394:205,1,81.4666629374188,8|0,3:0|3:0,0:0:0:0:
512,381,97570,5,4,1:2:0:0:
512,381,98251,1,0,3:0:0:0:
498,234,98388,2,0,B|489:168|489:168|515:124|515:124|503:13,1,183.299991609192,0|0,1:0|0:0,0:0:0:0:
497,32,98661,6,0,P|446:21|381:39,1,94,4|0,3:2|0:0,0:0:0:0:
267,204,98933,1,0,1:0:0:0:
188,18,99070,2,0,L|183:134,1,94,2|0,3:2|3:0,0:0:0:0:
120,319,99342,2,0,L|125:203,1,94,2|0,3:2|1:0,0:0:0:0:
63,91,99615,1,0,0:0:0:0:
392,214,99751,6,0,B|329:235|265:153|187:193,1,188,4|0,3:2|1:0,0:0:0:0:
193,315,100161,1,2,3:2:0:0:
297,166,100297,2,0,L|291:44,1,94,0|0,0:0|3:0,0:0:0:0:
408,291,100570,2,0,L|401:408,1,94,2|0,1:2|0:0,0:0:0:0:
465,54,100842,6,0,B|499:101|499:101|489:262,1,188,4|0,3:2|1:0,0:0:0:0:
288,144,101251,2,0,L|381:137,1,94,2|0,3:2|3:0,0:0:0:0:
133,29,101524,1,0,3:0:0:0:
188,233,101661,1,0,1:0:0:0:
212,92,101797,1,0,0:0:0:0:
73,316,101933,6,0,B|47:264|47:264|56:172,1,141,6|0,3:2|0:0,0:0:0:0:
61,148,102206,1,0,1:0:0:0:
284,206,102342,1,0,3:0:0:0:
225,308,102479,1,0,3:0:0:0:
264,92,102615,1,0,3:0:0:0:
354,301,102751,1,0,1:0:0:0:
386,321,102820,1,0,1:0:0:0:
423,326,102888,1,0,1:0:0:0:
457,312,102956,1,0,1:0:0:0:
481,283,103024,6,0,L|463:65,1,188,4|0,3:2|1:0,0:0:0:0:
368,203,103433,1,2,0:0:0:0:
275,66,103570,1,0,3:0:0:0:
275,66,103706,1,0,3:0:0:0:
240,231,103842,2,0,P|194:241|147:237,1,94,0|0,1:0|3:2,0:0:0:0:
36,12,104115,6,0,L|46:146,1,94,6|0,3:2|3:0,0:0:0:0:
167,0,104388,1,0,1:0:0:0:
143,144,104524,1,2,3:2:0:0:
343,124,104661,1,0,0:0:0:0:
343,124,104797,1,0,3:0:0:0:
326,286,104933,2,0,L|315:385,1,94,2|0,1:2|0:0,0:0:0:0:
459,159,105206,5,2,3:2:0:0:
456,121,105274,1,0,3:0:0:0:
453,83,105342,1,0,3:0:0:0:
320,210,105479,1,2,3:2:0:0:
323,248,105547,1,0,3:0:0:0:
326,286,105615,1,0,3:0:0:0:
194,155,105751,1,2,3:2:0:0:
191,117,105819,1,0,3:0:0:0:
188,79,105887,1,0,3:0:0:0:
184,41,105956,1,0,3:0:0:0:
181,3,106024,5,2,3:2:0:0:
197,47,106092,1,0,3:0:0:0:
182,92,106161,1,0,3:0:0:0:
139,112,106229,1,0,3:0:0:0:
94,127,106297,2,0,B|19:182|45:257|105:311|10:375,1,282,0|0,1:0|3:0,0:0:0:0:
10,374,106774,5,0,3:0:0:0:
10,374,106842,1,0,1:0:0:0:
263,334,106979,1,0,3:0:0:0:
148,205,107115,2,0,L|312:217,1,141,0|0,1:0|0:0,0:0:0:0:
381,259,107388,6,0,L|372:124,1,94,6|0,3:2|0:0,0:0:0:0:
386,351,107661,1,0,1:0:0:0:
492,150,107797,2,0,P|498:104|501:37,1,94,2|0,3:2|3:0,0:0:0:0:
257,122,108070,2,0,P|243:76|233:31,1,94,2|0,3:2|1:0,0:0:0:0:
54,169,108342,1,0,3:0:0:0:
104,61,108479,6,0,B|134:118|97:150|55:197|91:270,1,188,4|0,3:2|1:0,0:0:0:0:
266,365,108888,2,0,P|257:318|254:250,1,94,2|0,3:2|0:0,0:0:0:0:
150,352,109161,1,0,3:0:0:0:
150,352,109229,1,0,3:0:0:0:
150,352,109297,1,2,1:2:0:0:
188,191,109433,1,0,0:0:0:0:
485,293,109570,6,0,P|491:244|377:154,1,188,6|0,3:2|1:0,0:0:0:0:
315,347,109979,2,0,L|321:235,1,94,2|0,3:2|3:0,0:0:0:0:
404,298,110251,1,0,3:0:0:0:
226,215,110388,1,0,1:0:0:0:
399,153,110524,1,8,3:0:0:0:
181,71,110661,6,0,L|70:49,1,94,6|0,3:2|0:0,0:0:0:0:
1,99,110933,1,0,1:0:0:0:
232,147,111070,1,0,3:0:0:0:
145,188,111206,1,0,3:0:0:0:
399,153,111342,1,0,3:0:0:0:
244,335,111479,1,0,1:0:0:0:
241,288,111547,1,0,1:0:0:0:
238,241,111615,1,0,1:0:0:0:
235,194,111683,1,0,1:0:0:0:
232,147,111751,6,0,L|196:344,1,188,6|0,3:2|1:0,0:0:0:0:
331,251,112161,1,2,0:2:0:0:
111,267,112297,1,0,3:0:0:0:
111,267,112433,1,0,3:0:0:0:
95,112,112570,2,0,L|85:-2,1,94,2|0,1:2|3:0,0:0:0:0:
355,32,112842,6,0,P|273:74|182:7,1,188,6|0,3:2|1:2,0:0:0:0:
385,184,113251,2,0,P|398:232|386:295,1,94,2|0,3:2|0:0,0:0:0:0:
264,186,113524,1,0,3:0:0:0:
476,113,113661,1,0,1:0:0:0:
88,371,113933,5,2,3:2:0:0:
71,337,114001,1,0,3:0:0:0:
76,299,114070,1,0,3:0:0:0:
191,164,114206,1,2,3:2:0:0:
208,198,114274,1,0,3:0:0:0:
203,236,114343,1,0,3:0:0:0:
41,139,114479,1,2,3:2:0:0:
23,105,114547,1,0,3:0:0:0:
18,67,114615,1,0,3:0:0:0:
29,31,114683,1,0,3:0:0:0:
71,1,114751,5,2,3:2:0:0:
118,0,114820,1,0,3:0:0:0:
156,26,114888,1,0,3:0:0:0:
202,30,114956,1,0,3:0:0:0:
239,2,115024,2,0,B|277:-2|301:39|324:98|298:141|237:175|311:279,1,282,0|0,1:0|3:0,0:0:0:0:
378,293,115501,5,0,3:0:0:0:
378,293,115570,1,4,1:0:0:0:
138,207,115706,1,2,3:2:0:0:
290,352,115842,5,0,1:0:0:0:
53,257,115979,1,2,3:2:0:0:
254,219,116115,5,0,3:0:0:0:
256,181,116183,1,0,3:0:0:0:
258,143,116251,1,0,1:0:0:0:
219,303,116388,2,0,L|230:391,1,47,0|0,3:0|0:0,0:0:0:0:
359,196,116524,1,0,1:0:0:0:
390,175,116592,1,0,3:0:0:0:
427,167,116661,1,0,3:0:0:0:
462,179,116729,1,0,3:0:0:0:
494,197,116797,1,0,1:0:0:0:
379,284,116933,6,0,P|355:285|332:284,1,47,0|0,3:0|3:0,0:0:0:0:
222,177,117070,2,0,P|198:175|175:176,1,47,0|0,1:0|0:0,0:0:0:0:
59,259,117206,1,0,3:0:0:0:
34,86,117342,5,0,1:0:0:0:
56,43,117411,1,0,3:0:0:0:
98,22,117479,1,0,3:0:0:0:
143,32,117547,1,0,3:0:0:0:
174,66,117615,1,0,1:0:0:0:
121,163,117751,1,0,3:0:0:0:
267,104,117888,6,0,L|333:107,1,47,0|0,1:0|3:0,0:0:0:0:
421,29,118024,2,0,L|387:62,1,47,0|0,3:0|3:0,0:0:0:0:
412,197,118161,2,0,L|391:155,1,47,0|0,1:0|3:0,0:0:0:0:
512,111,118297,5,4,1:2:0:0:
227,365,118842,1,2,0:0:0:0:
42,17,119388,5,4,3:2:0:0:
21,76,119479,1,2,0:0:0:0:
60,124,119570,1,2,0:0:0:0:
122,125,119661,1,0,0:0:0:0:
166,81,119751,1,2,0:0:0:0:
228,85,119842,1,2,0:0:0:0:
273,127,119933,1,4,3:2:0:0:
321,167,120024,1,2,0:0:0:0:
383,167,120115,1,2,0:0:0:0:
427,122,120206,1,0,0:0:0:0:
424,59,120297,1,2,0:0:0:0:
420,55,120342,6,0,B|398:142|398:142|424:265,1,206.800006311035,6|0,3:2|3:0,0:0:0:0:
457,359,120751,1,2,1:2:0:0:
510,215,120888,1,0,0:0:0:0:
203,254,121024,5,0,3:0:0:0:
334,243,121161,2,0,L|230:250,1,103.400003155518,2|0,3:2|1:0,0:0:0:0:
166,160,121433,2,0,L|76:84,1,103.400003155518,2|0,3:2|0:0,0:0:0:0:
111,254,121706,2,0,L|120:373,1,103.400003155518,2|0,3:2|1:0,0:0:0:0:
256,164,121979,2,0,L|247:45,1,103.400003155518,2|0,3:2|0:0,0:0:0:0:
419,261,122251,5,0,3:2:0:0:
456,46,122388,1,0,1:0:0:0:
376,158,122524,6,0,P|376:116|515:141,1,206.800006311035,6|0,3:2|3:0,0:0:0:0:
471,189,122933,1,0,1:0:0:0:
72,252,123206,1,0,3:0:0:0:
251,160,123342,1,0,3:0:0:0:
260,26,123479,1,0,1:0:0:0:
299,228,123615,6,0,P|298:186|159:211,1,206.800006311035,6|0,3:2|0:0,0:0:0:0:
204,285,124024,2,0,P|146:296|82:268,1,103.400003155518,0|0,1:0|3:0,0:0:0:0:
50,187,124297,1,0,3:0:0:0:
50,187,124433,1,0,3:0:0:0:
83,384,124570,1,8,3:0:0:0:
168,173,124706,6,0,B|200:20|200:20|264:85,1,206.800006311035,6|0,3:2|3:0,0:0:0:0:
465,123,125115,2,0,L|441:-6,1,103.400003155518,2|0,1:2|0:0,0:0:0:0:
322,334,125388,5,0,3:0:0:0:
335,158,125524,1,2,3:2:0:0:
406,243,125661,1,0,1:0:0:0:
406,243,125797,1,0,3:0:0:0:
194,145,125933,5,2,3:2:0:0:
226,258,126070,2,0,P|231:215|214:128,1,103.400003155518,0|0,0:0|1:0,0:0:0:0:
106,3,126342,2,0,P|95:53|100:104,1,103.400003155518,2|0,3:2|0:0,0:0:0:0:
122,200,126615,1,0,3:0:0:0:
197,59,126751,1,2,1:2:0:0:
5,120,126888,1,2,0:2:0:0:
302,145,127024,6,0,P|362:158|489:130,1,155.100004733277,6|0,3:2|3:0,0:0:0:0:
287,129,127297,2,0,P|273:189|302:316,1,155.100004733277,2|0,1:2|0:0,0:0:0:0:
422,320,127570,2,0,L|347:312,1,51.7000015777588,2|0,1:2|0:0,0:0:0:0:
192,298,127706,2,0,L|23:320,1,155.100004733277,2|0,3:2|0:0,0:0:0:0:
69,220,127979,5,0,3:0:0:0:
69,220,128047,1,0,3:0:0:0:
69,220,128115,2,0,P|62:169|62:135,2,68.9333354370118,0|0|0,3:0|3:0|3:0,0:0:0:0:
161,179,128388,2,0,P|162:143|172:102,2,68.9333354370118,0|0|0,3:0|3:0|3:0,0:0:0:0:
253,140,128661,1,0,3:0:0:0:
280,92,128751,1,0,3:2:0:0:
274,37,128842,1,0,3:2:0:0:
372,84,128933,6,0,L|450:97,1,51.7000015777588,0|0,3:0|3:0,0:0:0:0:
510,76,129070,2,0,B|299:162,1,206.800006311035,6|0,1:2|3:0,0:0:0:0:
403,216,129479,1,0,1:2:0:0:
426,20,129615,1,0,0:0:0:0:
466,312,129751,5,2,3:2:0:0:
504,177,129888,2,0,L|472:299,1,103.400003155518,2|0,3:2|1:0,0:0:0:0:
347,266,130161,2,0,L|373:391,1,103.400003155518,2|0,3:2|0:0,0:0:0:0:
411,168,130433,2,0,L|423:49,1,103.400003155518,2|0,3:2|1:0,0:0:0:0:
265,203,130706,2,0,L|233:81,1,103.400003155518,2|0,3:2|0:0,0:0:0:0:
201,14,130979,5,8,3:3:0:0:
168,244,131115,1,0,1:0:0:0:
45,53,131251,6,0,B|93:129|93:129|220:110,1,206.800006311035,6|0,3:2|3:0,0:0:0:0:
357,90,131661,1,2,1:2:0:0:
357,90,131933,1,0,3:0:0:0:
291,188,132070,1,0,3:0:0:0:
307,2,132206,1,0,1:0:0:0:
415,198,132342,6,0,B|491:149|491:149|473:34,1,206.800006311035,6|0,3:2|0:0,0:0:0:0:
282,82,132751,2,0,L|389:103,1,103.400003155518,2|0,1:2|3:0,0:0:0:0:
150,107,133024,1,0,3:0:0:0:
94,0,133161,1,0,3:0:0:0:
76,188,133297,1,0,1:0:0:0:
284,259,133433,6,0,P|236:171|281:81,1,206.800006311035,6|0,3:2|3:0,0:0:0:0:
419,240,133842,2,0,P|431:293|418:359,1,103.400003155518,2|0,1:2|0:0,0:0:0:0:
63,305,134115,5,0,3:0:0:0:
229,347,134251,1,2,3:2:0:0:
167,279,134388,2,0,P|155:226|168:160,1,103.400003155518,0|0,1:0|3:0,0:0:0:0:
330,36,134661,2,0,P|342:89|329:155,1,103.400003155518,2|0,3:2|0:0,0:0:0:0:
271,216,134933,1,0,1:0:0:0:
348,28,135070,2,0,P|401:16|467:29,1,103.400003155518,2|0,3:2|3:0,0:0:0:0:
512,108,135342,1,0,3:0:0:0:
235,89,135479,5,2,1:2:0:0:
473,106,135615,1,2,3:2:0:0:
365,285,135751,6,0,P|347:212|355:117,1,155.100004733277,6|0,3:2|3:0,0:0:0:0:
377,304,136024,2,0,P|316:280|191:297,1,155.100004733277,2|0,1:2|0:0,0:0:0:0:
133,363,136297,2,0,L|146:283,1,51.7000015777588,8|0,3:0|0:0,0:0:0:0:
143,94,136433,2,0,L|161:225,1,103.400003155518,2|0,3:2|1:0,0:0:0:0:
357,91,136706,5,0,3:0:0:0:
357,91,136774,1,0,3:0:0:0:
357,91,136842,2,0,P|398:89|428:92,2,68.9333354370118,0|0|0,3:0|3:0|3:0,0:0:0:0:
283,178,137115,2,0,P|241:176|212:179,2,68.9333354370118,0|0|0,3:0|3:0|3:0,0:0:0:0:
336,273,137388,1,0,3:0:0:0:
385,297,137479,1,0,3:0:0:0:
435,272,137570,1,0,3:0:0:0:
460,204,137661,5,0,1:0:0:0:
460,198,137729,1,0,1:0:0:0:
460,192,137797,1,0,1:0:0:0:
460,186,137865,1,0,1:0:0:0:
460,180,137933,1,0,3:0:0:0:
45,257,138342,1,4,1:3:0:0:
251,33,140115,5,4,1:3:0:0:
226,372,140524,1,4,1:3:0:0:
226,372,142297,5,4,1:3:0:0:
201,33,142706,1,4,1:3:0:0:
447,197,143388,5,0,3:0:0:0:
419,227,143456,1,0,3:0:0:0:
381,244,143524,1,0,1:0:0:0:
339,239,143592,1,0,1:0:0:0:
306,212,143661,5,0,3:0:0:0:
307,222,143729,1,0,3:0:0:0:
308,232,143797,1,0,3:0:0:0:
309,242,143865,1,0,3:0:0:0:
309,252,143933,1,0,3:0:0:0:
309,262,144001,1,0,3:0:0:0:
309,272,144070,1,0,3:0:0:0:
309,282,144138,1,0,3:0:0:0:
309,292,144206,1,0,3:0:0:0:
310,302,144274,1,0,3:0:0:0:
311,312,144342,5,0,1:0:0:0:
265,301,144411,1,0,1:0:0:0:
219,290,144479,2,0,L|0:243,1,206.800006311035,4|0,1:2|3:0,0:0:0:0:
235,162,144888,1,0,1:0:0:0:
91,87,145024,1,0,0:0:0:0:
91,87,145161,1,0,3:0:0:0:
296,55,145297,1,0,1:0:0:0:
296,55,145570,5,0,3:0:0:0:
340,69,145638,1,0,3:0:0:0:
364,108,145706,1,0,1:0:0:0:
362,154,145774,1,0,1:0:0:0:
336,192,145842,1,0,3:0:0:0:
337,165,145911,1,0,3:0:0:0:
338,139,145979,1,0,3:0:0:0:
339,113,146047,1,0,3:0:0:0:
341,87,146115,2,0,L|343:-21,1,103.400003155518,0|0,3:0|0:0,0:0:0:0:
198,168,146388,5,8,3:0:0:0:
197,195,146457,1,8,3:0:0:0:
196,221,146525,1,4,3:0:0:0:
195,247,146593,1,4,3:0:0:0:
193,273,146661,2,0,L|188:381,1,103.400003155518,4|0,1:2|0:0,0:0:0:0:
398,292,146933,2,0,P|350:274|274:300,1,103.400003155518,2|0,1:2|0:0,0:0:0:0:
88,241,147206,5,2,3:2:0:0:
78,118,147342,2,0,L|68:2,1,103.400003155518,2|0,3:2|1:0,0:0:0:0:
269,165,147615,5,0,0:0:0:0:
338,12,147751,1,0,3:0:0:0:
338,12,147888,1,0,0:0:0:0:
361,178,148024,2,0,L|371:294,1,103.400003155518,2|0,1:2|0:0,0:0:0:0:
186,98,148297,1,2,3:2:0:0:
209,264,148433,2,0,L|219:380,1,103.400003155518,2|0,3:2|1:0,0:0:0:0:
20,153,148706,5,8,3:0:0:0:
20,153,148842,1,0,3:0:0:0:
67,260,148979,1,0,0:0:0:0:
169,166,149115,2,0,P|219:158|268:173,1,103.400003155518,0|0,1:0|0:0,0:0:0:0:
458,353,149388,1,2,3:2:0:0:
443,195,149524,2,0,L|433:75,1,103.400003155518,2|0,3:2|1:0,0:0:0:0:
236,25,149797,6,0,L|259:104,1,51.7000015777588,8|0,3:0|0:0,0:0:0:0:
285,158,149933,1,0,3:0:0:0:
339,79,150070,1,2,0:2:0:0:
338,243,150206,1,2,1:2:0:0:
188,156,150342,1,0,0:0:0:0:
46,329,150479,1,2,3:2:0:0:
61,171,150615,1,2,3:2:0:0:
224,323,150751,1,0,1:0:0:0:
132,248,150888,5,0,3:0:0:0:
132,248,151024,2,0,L|360:297,1,206.800006311035,0|0,3:0|1:0,0:0:0:0:
334,291,151570,1,0,3:0:0:0:
305,167,151706,1,2,3:2:0:0:
211,361,151842,1,0,1:0:0:0:
163,155,151979,1,2,0:2:0:0:
407,312,152115,6,0,L|169:246,1,206.800006311035,0|0,3:0|1:0,0:0:0:0:
207,256,152661,1,0,3:0:0:0:
456,222,152797,1,2,3:2:0:0:
346,168,152933,1,0,1:0:0:0:
421,374,153070,2,0,L|400:304,1,51.7000015777588,2|0,3:2|0:0,0:0:0:0:
357,80,153206,6,0,P|313:158|367:297,1,206.800006311035,2|0,3:2|1:0,0:0:0:0:
434,147,153615,1,0,0:0:0:0:
206,195,153751,2,0,P|108:221|18:175,1,206.800006311035,2|0,3:2|1:0,0:0:0:0:
173,90,154161,1,0,0:0:0:0:
182,336,154297,1,0,3:0:0:0:
182,336,154365,1,0,3:0:0:0:
182,336,154433,5,0,1:0:0:0:
217,356,154501,1,0,1:0:0:0:
258,357,154570,1,0,1:0:0:0:
282,323,154638,1,0,1:0:0:0:
279,281,154706,1,0,3:0:0:0:
255,247,154774,1,0,3:0:0:0:
259,206,154842,2,0,P|259:174|266:146,1,51.7000015777588,0|0,3:0|3:0,0:0:0:0:
238,62,154979,2,0,P|238:28|232:-3,1,51.7000015777588,8|8,3:0|3:0,0:0:0:0:
157,140,155115,5,8,3:0:0:0:
124,114,155183,1,8,3:0:0:0:
84,103,155252,1,8,3:0:0:0:
45,118,155320,1,8,3:0:0:0:
14,142,155388,2,0,L|251:112,1,206.800006311035,0|0,3:0|1:0,0:0:0:0:
423,90,155797,1,0,0:0:0:0:
331,263,155933,1,0,3:0:0:0:
331,263,156070,1,0,3:0:0:0:
320,102,156206,2,0,L|312:-21,1,103.400003155518,2|0,1:2|0:0,0:0:0:0:
430,211,156479,6,0,P|326:179|216:232,1,206.800006311035,2|0,3:2|1:0,0:0:0:0:
174,369,156888,1,2,0:2:0:0:
86,198,157024,1,0,3:0:0:0:
86,198,157161,1,0,3:0:0:0:
0,331,157297,2,0,L|129:301,1,103.400003155518,0|0,1:0|0:0,0:0:0:0:
408,283,157570,6,0,L|174:266,1,206.800006311035,6|0,3:2|1:0,0:0:0:0:
317,0,157979,2,0,P|276:91|329:223,1,206.800006311035,2|0,0:0|3:0,0:0:0:0:
432,165,158388,1,0,1:0:0:0:
154,159,158524,6,0,L|58:173,1,51.7000015777588,4|0,3:0|0:0,0:0:0:0:
55,89,158661,2,0,L|208:257,1,206.800006311035,2|0,3:2|1:0,0:0:0:0:
297,247,159070,1,0,3:0:0:0:
297,247,159138,1,0,3:0:0:0:
297,247,159206,1,0,3:0:0:0:
163,336,159342,1,0,3:0:0:0:
376,361,159479,2,0,P|434:366|502:317,1,103.400003155518,0|0,1:0|0:0,0:0:0:0:
390,61,159751,6,0,L|379:234,1,155.100004733277,2|0,3:0|0:0,0:0:0:0:
407,85,160024,2,0,L|234:74,1,155.100004733277,2|0,1:2|0:0,0:0:0:0:
160,30,160297,2,0,L|163:126,1,51.7000015777588,2|0,3:2|0:0,0:0:0:0:
107,288,160433,2,0,L|117:184,1,103.400003155518,2|0,3:2|1:0,0:0:0:0:
0,3,160706,2,0,L|3:99,1,51.7000015777588,2|0,3:2|0:0,0:0:0:0:
1,271,160842,6,0,B|74:315|74:315|236:285,1,206.800006311035,2|0,3:1|1:0,0:0:0:0:
501,165,161251,2,0,B|428:121|428:121|266:151,1,206.800006311035,2|0,0:1|3:0,0:0:0:0:
93,27,161661,2,0,L|101:162,1,103.400003155518,2|0,1:0|0:0,0:0:0:0:
265,357,161933,6,0,L|248:167,1,155.100004733277,2|0,3:0|0:0,0:0:0:0:
201,102,162206,2,0,L|218:292,1,155.100004733277,2|0,1:2|0:0,0:0:0:0:
135,369,162479,2,0,L|191:333,1,51.7000015777588,0|0,3:0|0:0,0:0:0:0:
393,364,162615,2,0,L|337:328,1,51.7000015777588,0|0,3:2|0:0,0:0:0:0:
251,188,162751,2,0,L|256:267,1,51.7000015777588,0|0,1:0|0:0,0:0:0:0:
275,378,162888,2,0,L|271:314,1,51.7000015777588,0|0,3:2|0:0,0:0:0:0:
279,100,163024,1,2,3:1:0:0:
277,80,163092,1,0,3:0:0:0:
275,61,163161,5,0,1:0:0:0:
312,34,163229,1,0,1:0:0:0:
358,33,163297,1,0,1:0:0:0:
399,53,163365,1,0,1:0:0:0:
418,95,163433,2,0,L|445:305,1,206.800006311035,2|0,3:1|0:0,0:0:0:0:
127,155,163842,5,8,3:0:0:0:
126,134,163911,1,8,3:0:0:0:
125,113,163979,1,4,3:0:0:0:
124,92,164047,1,4,3:0:0:0:
123,71,164115,2,0,P|162:170|104:267,1,206.800006311035,2|0,3:2|1:0,0:0:0:0:
280,99,164524,2,0,P|379:60|476:118,1,206.800006311035,2|0,0:2|3:0,0:0:0:0:
409,314,164933,2,0,L|416:188,1,103.400003155518,2|0,1:2|0:0,0:0:0:0:
265,384,165206,6,0,L|243:152,1,206.800006311035,2|0,3:2|1:0,0:0:0:0:
245,178,165751,1,0,3:0:0:0:
169,24,165888,1,0,3:0:0:0:
58,143,166024,1,0,1:2:0:0:
293,95,166161,6,0,L|368:103,1,51.7000015777588,2|0,0:0|0:0,0:0:0:0:
427,18,166297,2,0,L|418:234,1,206.800006311035,6|0,3:2|1:0,0:0:0:0:
195,360,166706,2,0,L|186:144,1,206.800006311035,2|0,0:0|3:0,0:0:0:0:
340,283,167115,1,0,1:0:0:0:
312,25,167251,5,0,3:0:0:0:
312,25,167320,1,0,3:0:0:0:
312,25,167388,2,0,L|78:50,1,206.800006311035,2|0,3:2|1:0,0:0:0:0:
80,195,167797,1,0,3:0:0:0:
79,174,167865,1,0,3:0:0:0:
79,153,167933,1,0,3:0:0:0:
51,288,168070,1,0,3:0:0:0:
140,84,168206,1,0,1:0:0:0:
210,340,168342,5,0,3:0:0:0:
210,340,168411,1,0,3:0:0:0:
210,340,168479,2,0,L|411:357,1,155.100004733277,2|0,3:0|0:0,0:0:0:0:
187,335,168751,2,0,L|-14:352,1,155.100004733277,2|0,1:2|0:0,0:0:0:0:
44,247,169024,2,0,L|58:173,1,51.7000015777588,2|0,3:2|0:0,0:0:0:0:
143,127,169161,2,0,L|157:249,1,103.400003155518,2|0,3:2|0:0,0:0:0:0:
356,181,169433,6,0,L|428:153,1,51.7000015777588,2|0,0:0|0:0,0:0:0:0:
501,25,169570,2,0,B|475:100|475:100|525:264,1,206.800006311035,2|0,3:1|1:0,0:0:0:0:
248,0,169979,2,0,B|274:75|274:75|224:239,1,206.800006311035,2|0,0:1|0:0,0:0:0:0:
31,86,170388,2,0,L|158:80,1,103.400003155518,2|0,1:1|0:0,0:0:0:0:
334,309,170661,6,0,L|325:132,1,155.100004733277,2|0,3:0|0:0,0:0:0:0:
341,328,170933,2,0,L|350:151,1,155.100004733277,2|0,1:2|0:0,0:0:0:0:
250,0,171206,2,0,L|245:67,1,51.7000015777588,0|0,3:0|0:0,0:0:0:0:
221,211,171342,2,0,L|228:144,1,51.7000015777588,0|0,3:0|0:0,0:0:0:0:
227,6,171479,2,0,L|222:73,1,51.7000015777588,0|0,1:0|0:0,0:0:0:0:
198,217,171615,2,0,L|205:150,1,51.7000015777588,0|0,0:0|0:0,0:0:0:0:
115,51,171751,1,2,3:0:0:0:
108,40,171820,1,0,3:0:0:0:
102,30,171888,5,0,1:0:0:0:
50,33,171956,1,0,1:0:0:0:
9,64,172024,1,0,1:0:0:0:
9,115,172092,1,0,1:0:0:0:
37,159,172161,2,0,L|112:182,5,51.7000015777588,2|0|0|0|0|0,3:0|3:0|3:0|3:0|3:0|3:0,0:0:0:0:
233,163,172570,5,8,3:0:0:0:
258,137,172638,1,8,3:0:0:0:
292,126,172706,1,4,3:0:0:0:
326,135,172774,1,0,3:0:0:0:
350,161,172842,6,0,L|383:356,1,183.299991609192,2|0,3:0|0:0,0:0:0:0:
425,161,173115,2,0,L|230:194,1,183.299991609192,2|0,1:2|0:0,0:0:0:0:
51,138,173388,2,0,L|134:150,1,61.0999972030641,2|0,3:0|0:0,0:0:0:0:
163,320,173524,2,0,L|154:234,1,61.0999972030641,2|0,3:0|0:0,0:0:0:0:
226,68,173661,1,0,1:0:0:0:
292,319,173797,2,0,L|299:223,1,61.0999972030641,2|0,3:0|0:0,0:0:0:0:
403,105,173933,6,0,B|340:157|340:157|179:181,1,244.399988812256,2|0,1:1|1:0,0:0:0:0:
0,384,174342,2,0,B|62:332|62:332|223:307,1,244.399988812256,2|0,0:1|3:0,0:0:0:0:
479,358,174751,2,0,L|459:211,1,122.199994406128,2|0,1:0|0:0,0:0:0:0:
157,30,175024,5,0,1:0:0:0:
196,14,175092,1,0,3:0:0:0:
232,36,175161,1,0,3:0:0:0:
235,78,175229,1,0,3:0:0:0:
200,107,175297,1,0,1:0:0:0:
165,136,175365,1,0,3:0:0:0:
168,178,175433,1,0,3:0:0:0:
204,200,175502,1,0,3:0:0:0:
243,184,175570,2,0,P|280:175|340:179,2,81.4666629374188,8|8|8,3:0|3:0|3:0,0:0:0:0:
156,283,175842,1,8,3:0:0:0:
244,308,175933,2,0,P|285:319|336:313,1,81.4666629374188,8|0,3:0|3:0,0:0:0:0:
96,372,176115,5,4,1:2:0:0:
96,372,176797,1,0,3:0:0:0:
66,243,176933,2,0,B|46:187|46:187|80:125|80:125|66:57,1,183.299991609192,0|0,1:0|0:0,0:0:0:0:
62,27,177206,6,0,L|177:35,1,94,4|0,3:2|0:0,0:0:0:0:
248,187,177479,1,0,1:0:0:0:
319,42,177615,2,0,P|328:95|323:146,1,94,2|0,3:2|3:0,0:0:0:0:
193,342,177888,2,0,P|184:289|189:238,1,94,2|0,3:2|1:0,0:0:0:0:
385,215,178161,6,0,L|459:202,1,47,12|0,3:3|0:0,0:0:0:0:
476,127,178297,2,0,B|486:177|486:177|419:326,1,188,4|0,3:2|1:0,0:0:0:0:
283,104,178706,2,0,L|295:234,1,94,2|0,3:2|0:0,0:0:0:0:
271,336,178979,1,0,3:0:0:0:
138,141,179115,2,0,L|174:266,1,94,2|0,1:2|0:0,0:0:0:0:
58,26,179388,6,0,P|139:60|252:8,1,188,4|0,3:2|1:0,0:0:0:0:
38,161,179797,1,2,3:2:0:0:
259,188,179933,1,0,3:0:0:0:
259,188,180070,1,0,3:0:0:0:
63,290,180206,1,0,1:0:0:0:
63,290,180479,5,6,3:2:0:0:
318,268,180615,1,0,3:0:0:0:
470,345,180751,1,0,1:0:0:0:
470,345,180888,1,0,3:0:0:0:
366,165,181024,1,0,3:0:0:0:
428,38,181161,1,0,3:0:0:0:
469,250,181297,1,0,1:0:0:0:
497,224,181366,1,0,1:0:0:0:
507,188,181434,1,0,1:0:0:0:
501,151,181502,1,0,1:0:0:0:
482,119,181570,6,0,L|282:145,1,188,4|0,3:2|1:0,0:0:0:0:
104,155,181979,1,2,0:0:0:0:
182,307,182115,1,0,3:0:0:0:
182,307,182251,1,0,3:0:0:0:
193,121,182388,2,0,L|203:20,1,94,0|0,1:0|3:2,0:0:0:0:
370,346,182661,6,0,B|428:337|428:337|484:251,1,141,6|0,3:2|3:0,0:0:0:0:
486,236,182933,1,0,1:0:0:0:
178,226,183070,2,0,L|365:247,1,188,2|0,3:2|3:0,0:0:0:0:
477,26,183479,1,0,1:0:0:0:
156,55,183751,5,2,3:2:0:0:
190,53,183819,1,0,3:0:0:0:
225,53,183888,1,0,3:0:0:0:
138,151,184024,1,2,3:2:0:0:
104,152,184092,1,0,3:0:0:0:
69,153,184161,1,0,3:0:0:0:
176,242,184297,1,2,3:2:0:0:
210,240,184365,1,0,3:0:0:0:
245,240,184434,1,0,3:0:0:0:
286,236,184501,1,0,3:0:0:0:
329,232,184570,5,2,3:2:0:0:
295,194,184638,1,0,3:0:0:0:
287,143,184706,1,0,3:0:0:0:
297,93,184774,1,0,3:0:0:0:
329,53,184842,2,0,B|404:70|450:125|364:202|503:255,1,282,0|0,1:0|3:0,0:0:0:0:
512,156,185320,5,0,3:0:0:0:
512,156,185388,1,0,1:0:0:0:
356,313,185524,1,0,3:0:0:0:
193,141,185661,2,0,P|153:89|135:11,1,141,0|0,1:0|0:0,0:0:0:0:
67,101,185933,6,0,L|55:236,1,94,6|0,3:2|0:0,0:0:0:0:
29,384,186206,1,0,1:0:0:0:
266,251,186342,2,0,L|371:240,1,94,2|0,3:2|3:0,0:0:0:0:
123,301,186615,2,0,L|28:293,1,94,2|0,3:2|1:0,0:0:0:0:
338,368,186888,1,0,3:0:0:0:
419,129,187024,6,0,P|399:77|281:120,1,188,4|0,3:2|1:0,0:0:0:0:
117,167,187433,2,0,P|174:174|226:161,1,94,2|0,3:2|0:0,0:0:0:0:
191,36,187706,1,0,3:0:0:0:
265,236,187842,1,2,1:2:0:0:
24,197,187979,1,0,0:0:0:0:
319,140,188115,6,0,B|355:188|355:188|323:335,1,188,6|0,3:2|1:0,0:0:0:0:
145,337,188524,2,0,L|247:333,1,94,2|0,3:2|3:0,0:0:0:0:
431,312,188797,1,0,3:0:0:0:
417,43,188933,1,0,1:0:0:0:
417,43,189206,6,0,B|355:30|355:30|241:48,1,141,6|0,3:2|0:0,0:0:0:0:
231,48,189479,1,0,1:0:0:0:
311,222,189615,1,0,3:0:0:0:
338,122,189751,1,0,3:0:0:0:
376,357,189888,1,0,3:0:0:0:
382,339,189956,1,0,3:0:0:0:
376,319,190024,1,0,1:0:0:0:
335,296,190092,1,0,1:0:0:0:
288,307,190161,1,0,1:0:0:0:
245,328,190229,1,0,1:0:0:0:
200,314,190297,6,0,B|161:267|252:182|188:112,1,188,6|0,3:2|1:0,0:0:0:0:
80,136,190706,1,2,0:2:0:0:
316,87,190842,1,0,3:0:0:0:
316,87,190979,1,0,3:0:0:0:
165,31,191115,1,2,1:2:0:0:
165,31,191388,6,0,P|195:111|167:222,1,188,6|0,3:2|1:2,0:0:0:0:
111,365,191797,2,0,P|105:311|116:259,1,94,2|0,3:2|0:0,0:0:0:0:
267,215,192070,1,0,3:0:0:0:
267,215,192138,1,0,3:0:0:0:
267,215,192206,1,0,1:0:0:0:
351,326,192342,1,2,0:0:0:0:
437,110,192479,5,2,3:2:0:0:
454,76,192547,1,0,3:0:0:0:
438,42,192615,1,0,3:0:0:0:
283,116,192751,1,2,3:2:0:0:
249,133,192819,1,0,3:0:0:0:
215,117,192887,1,0,3:0:0:0:
37,41,193024,1,2,3:2:0:0:
21,75,193092,1,0,3:0:0:0:
38,109,193160,1,0,3:0:0:0:
72,124,193229,1,0,3:0:0:0:
107,112,193297,5,2,3:2:0:0:
149,91,193365,1,0,3:0:0:0:
186,118,193433,1,0,3:0:0:0:
190,164,193501,1,0,3:0:0:0:
157,199,193570,2,0,B|187:260|265:276|308:194|384:203|415:259,1,282,0|0,1:0|3:0,0:0:0:0:
348,300,194047,5,0,3:0:0:0:
348,300,194115,1,4,1:0:0:0:
380,60,194251,1,2,3:2:0:0:
467,312,194388,5,0,1:0:0:0:
499,72,194524,1,2,3:2:0:0:
269,155,194661,5,0,3:0:0:0:
304,166,194729,1,0,3:0:0:0:
339,177,194797,1,0,1:0:0:0:
374,188,194865,1,0,3:0:0:0:
409,200,194933,1,0,3:0:0:0:
256,238,195070,2,0,L|171:244,1,47,0|0,1:0|3:0,0:0:0:0:
111,249,195206,1,0,3:0:0:0:
57,76,195342,6,0,L|76:141,1,47,0|0,1:0|3:0,0:0:0:0:
149,51,195479,2,0,L|154:-23,1,47,0|0,3:0|3:0,0:0:0:0:
221,109,195615,1,0,1:0:0:0:
221,109,195683,1,0,3:0:0:0:
221,109,195751,1,0,3:0:0:0:
334,109,195888,1,0,1:0:0:0:
343,145,195956,1,0,3:0:0:0:
352,181,196024,1,0,3:0:0:0:
362,216,196092,1,0,3:0:0:0:
370,253,196161,2,0,L|386:308,1,47,0|0,1:0|3:0,0:0:0:0:
406,384,196297,1,0,3:0:0:0:
262,289,196433,6,0,L|215:243,1,47,0|0,1:0|3:0,0:0:0:0:
123,171,196570,2,0,L|180:182,1,47,0|0,3:0|3:0,0:0:0:0:
278,180,196706,1,0,1:0:0:0:
324,174,196774,1,0,3:0:0:0:
370,166,196842,5,4,1:2:0:0:
144,32,197388,1,2,0:0:0:0:
15,360,197933,5,4,3:2:0:0:
18,297,198024,1,2,0:0:0:0:
59,249,198115,1,2,0:0:0:0:
121,240,198206,1,0,0:0:0:0:
171,277,198297,1,2,0:0:0:0:
195,334,198388,1,2,0:0:0:0:
251,361,198479,1,4,3:2:0:0:
313,363,198570,1,2,0:0:0:0:
371,339,198661,1,2,0:0:0:0:
395,281,198751,1,0,0:0:0:0:
384,219,198842,1,2,0:0:0:0:
383,213,198888,6,0,B|352:232|352:232|481:381,1,225.599993115235,6|0,1:0|0:0,0:0:0:0:
474,158,199297,1,2,1:2:0:0:
184,77,199433,2,0,P|135:52|38:52,1,112.799996557617,2|0,0:0|3:0,0:0:0:0:
385,58,199706,2,0,P|433:33|531:33,1,112.799996557617,2|0,3:2|1:0,0:0:0:0:
222,200,199979,6,0,L|183:262,1,56.3999982788086,4|0,3:0|0:0,0:0:0:0:
86,263,200115,2,0,L|346:246,1,225.599993115235,2|0,3:1|1:0,0:0:0:0:
425,242,200524,1,0,3:0:0:0:
405,332,200661,1,2,0:0:0:0:
500,299,200797,1,0,3:0:0:0:
376,175,200933,1,2,1:2:0:0:
500,57,201070,1,2,0:2:0:0:
278,109,201206,6,0,P|212:135|85:109,1,169.199994836426,2|0,3:1|0:0,0:0:0:0:
59,72,201479,1,0,1:0:0:0:
187,227,201615,2,0,L|196:300,1,56.3999982788086,2|0,0:0|0:0,0:0:0:0:
212,374,201751,1,0,3:0:0:0:
212,374,201888,1,0,3:0:0:0:
94,269,202024,1,0,1:0:0:0:
325,206,202161,6,0,P|354:201|394:210,1,56.3999982788086,2|0,0:0|0:0,0:0:0:0:
438,278,202297,2,0,P|410:194|440:86,1,169.199994836426,2|0,3:1|0:0,0:0:0:0:
497,27,202570,1,2,1:2:0:0:
295,102,202706,2,0,P|237:120|156:82,1,112.799996557617,2|0,3:0|0:0,0:0:0:0:
38,15,202979,1,0,3:0:0:0:
97,210,203115,1,0,1:0:0:0:
101,165,203183,1,0,1:0:0:0:
108,120,203251,1,0,1:0:0:0:
115,75,203320,1,0,1:0:0:0:
122,30,203388,1,0,3:0:0:0:
223,164,203524,5,0,0:0:0:0:
384,70,203661,1,2,1:2:0:0:
386,180,203797,1,2,0:2:0:0:
244,25,203933,1,0,3:0:0:0:
244,25,204070,1,2,3:2:0:0:
266,249,204206,1,0,1:0:0:0:
248,284,204274,1,2,0:0:0:0:
211,297,204342,1,0,0:0:0:0:
171,289,204411,1,2,0:0:0:0:
150,255,204479,6,0,P|149:213|157:170,2,75.1999977050782,0|2|2,3:2|0:2|0:2,0:0:0:0:
62,127,204751,2,0,P|63:85|55:42,2,75.1999977050782,0|2|2,1:2|0:0|0:0,0:0:0:0:
157,91,205024,1,0,3:0:0:0:
206,56,205115,1,2,0:0:0:0:
265,47,205206,1,2,0:0:0:0:
318,73,205297,1,0,1:2:0:0:
356,119,205388,1,2,0:0:0:0:
409,147,205479,1,2,0:0:0:0:
466,130,205570,5,2,1:0:0:0:
466,113,205638,1,8,3:0:0:0:
466,96,205706,1,8,3:0:0:0:
466,79,205774,1,8,3:0:0:0:
467,62,205842,2,0,L|467:0,3,56.3999982788086,2|0|0|0,1:0|3:0|3:0|3:0,0:0:0:0:
366,219,206115,5,2,1:0:0:0:
366,236,206183,1,0,3:0:0:0:
366,253,206251,1,0,3:0:0:0:
366,270,206319,1,0,3:0:0:0:
365,287,206387,2,0,L|365:349,3,56.3999982788086,2|0|0|0,1:0|3:0|3:0|3:0,0:0:0:0:
309,131,206661,5,0,1:0:0:0:
113,320,206797,1,2,0:0:0:0:
105,333,206865,1,2,0:0:0:0:
115,346,206933,2,0,L|106:203,1,112.799996557617,2|0,0:0|3:0,0:0:0:0:
98,138,207138,5,0,3:0:0:0:
98,138,207206,1,0,1:0:0:0:
260,327,207342,1,0,3:0:0:0:
319,84,207479,2,0,L|492:66,1,169.199994836426,2|0,1:0|0:0,0:0:0:0:
487,157,207751,6,0,L|451:227,3,56.3999982788086,2|0|0|0,3:2|0:0|0:0|0:0,0:0:0:0:
362,200,208024,2,0,L|326:270,3,56.3999982788086,2|0|0|0,1:2|0:0|0:0|0:0,0:0:0:0:
227,250,208297,2,0,L|118:273,1,56.3999982788086,0|0,3:0|0:0,0:0:0:0:
5,313,208433,2,0,L|82:330,1,56.3999982788086,0|0,3:0|0:0,0:0:0:0:
51,195,208570,2,0,L|42:121,3,56.3999982788086,2|0|0|0,1:2|0:0|0:0|0:0,0:0:0:0:
70,17,208842,5,0,3:0:0:0:
96,39,208911,1,0,3:0:0:0:
126,52,208979,1,0,3:0:0:0:
159,54,209047,1,0,3:0:0:0:
191,45,209115,1,0,1:0:0:0:
220,28,209183,1,0,3:0:0:0:
253,23,209251,1,0,3:0:0:0:
286,29,209320,1,0,3:0:0:0:
315,45,209388,2,0,L|331:106,1,56.3999982788086,2|0,3:2|0:0,0:0:0:0:
404,227,209524,2,0,L|420:166,1,56.3999982788086,0|0,3:0|0:0,0:0:0:0:
464,15,209661,2,0,L|461:88,3,56.3999982788086,2|0|0|0,1:2|0:0|0:0|0:0,0:0:0:0:
282,172,209933,5,0,3:0:0:0:
249,161,210001,1,0,3:0:0:0:
214,159,210070,1,0,3:0:0:0:
182,170,210138,1,0,3:0:0:0:
157,193,210206,1,0,1:0:0:0:
145,224,210274,1,0,3:0:0:0:
117,242,210342,1,0,3:0:0:0:
83,234,210411,1,0,3:0:0:0:
60,208,210479,1,0,3:0:0:0:
58,174,210547,1,0,3:0:0:0:
82,150,210615,1,0,3:0:0:0:
96,119,210683,1,0,3:0:0:0:
83,87,210751,2,0,L|91:15,3,56.3999982788086,0|0|0|0,1:0|0:0|0:0|0:0,0:0:0:0:
194,78,211024,6,0,P|222:85|266:77,1,56.3999982788086,2|0,3:2|0:0,0:0:0:0:
341,37,211161,1,0,3:0:0:0:
341,37,211229,1,0,3:0:0:0:
341,37,211297,2,0,P|347:70|344:101,1,56.3999982788086,2|0,1:2|0:0,0:0:0:0:
264,226,211433,1,0,3:0:0:0:
264,226,211501,1,0,3:0:0:0:
264,226,211569,2,0,P|257:192|261:162,1,56.3999982788086,2|0,3:2|0:0,0:0:0:0:
407,170,211706,2,0,P|373:176|343:173,1,56.3999982788086,2|0,3:2|0:0,0:0:0:0:
177,156,211842,1,2,1:2:0:0:
133,128,211911,1,2,0:2:0:0:
82,123,211979,1,2,1:2:0:0:
34,139,212047,1,2,1:2:0:0:
1,177,212115,6,0,L|13:252,3,56.3999982788086,6|0|0|0,3:2|0:0|0:0|0:0,0:0:0:0:
222,297,212388,2,0,L|210:222,3,56.3999982788086,2|0|0|0,1:2|0:0|0:0|0:0,0:0:0:0:
78,294,212661,2,0,L|133:282,1,56.3999982788086,0|0,3:0|0:0,0:0:0:0:
355,259,212797,2,0,L|299:247,1,56.3999982788086,0|0,3:0|0:0,0:0:0:0:
116,122,212933,2,0,L|112:188,3,56.3999982788086,2|0|0|0,1:2|0:0|0:0|0:0,0:0:0:0:
217,112,213206,5,0,3:0:0:0:
253,126,213274,1,0,3:0:0:0:
291,134,213342,1,0,3:0:0:0:
330,132,213411,1,0,3:0:0:0:
366,118,213479,2,0,L|370:55,3,56.3999982788086,2|0|0|0,1:2|0:0|3:0|0:0,0:0:0:0:
460,151,213751,1,0,3:0:0:0:
446,187,213819,1,0,3:0:0:0:
438,225,213887,1,0,3:0:0:0:
440,264,213956,1,0,3:0:0:0:
454,300,214024,2,0,L|517:304,3,56.3999982788086,2|0|0|0,1:2|0:0|0:0|0:0,0:0:0:0:
369,327,214297,5,0,1:0:0:0:
342,347,214365,1,0,1:0:0:0:
310,358,214433,1,0,1:0:0:0:
276,359,214501,1,0,3:0:0:0:
244,345,214570,1,4,3:0:0:0:
223,318,214638,1,4,3:0:0:0:
191,306,214706,1,4,3:0:0:0:
157,306,214774,1,4,3:0:0:0:
125,318,214842,1,4,3:0:0:0:
96,337,214911,1,4,3:0:0:0:
65,351,214979,1,4,3:0:0:0:
31,353,215047,1,4,3:0:0:0:
4,332,215115,1,4,3:0:0:0:
4,298,215183,1,4,3:0:0:0:
22,269,215251,1,4,3:0:0:0:
53,254,215320,1,4,3:0:0:0:
88,244,215388,6,0,L|12:223,3,56.3999982788086,2|0|0|0,3:0|0:0|0:0|0:0,0:0:0:0:
113,169,215661,2,0,L|37:148,3,56.3999982788086,2|0|0|0,0:0|0:0|3:0|3:0,0:0:0:0:
228,154,215933,2,0,L|300:139,1,56.3999982788086,2|0,1:2|0:0,0:0:0:0:
144,96,216070,2,0,L|80:72,1,56.3999982788086,2|0,3:2|0:0,0:0:0:0:
228,72,216206,2,0,L|300:57,3,56.3999982788086,2|0|0|0,1:2|0:0|0:0|0:0,0:0:0:0:
448,26,216479,5,4,1:0:0:0:
427,58,216547,1,4,3:0:0:0:
419,95,216615,1,4,3:0:0:0:
436,128,216683,1,4,3:0:0:0:
459,158,216751,1,4,1:0:0:0:
457,195,216820,1,4,3:0:0:0:
433,224,216888,1,4,3:0:0:0:
419,259,216956,1,4,3:0:0:0:
424,296,217024,2,0,P|430:322|448:353,1,56.3999982788086,4|0,1:0|3:0,0:0:0:0:
330,239,217161,1,4,3:0:0:0:
330,239,217229,1,4,3:0:0:0:
330,239,217297,2,0,P|296:233|258:241,3,56.3999982788086,4|0|0|0,1:0|3:0|3:0|3:0,0:0:0:0:
148,273,217570,5,4,1:0:0:0:
116,254,217638,1,4,3:0:0:0:
109,217,217706,1,4,3:0:0:0:
135,191,217774,1,4,3:0:0:0:
171,199,217842,1,4,1:0:0:0:
190,230,217911,1,4,3:0:0:0:
184,267,217979,1,4,3:0:0:0:
161,296,218047,1,4,3:0:0:0:
125,307,218115,1,4,1:0:0:0:
87,303,218183,1,4,3:0:0:0:
57,280,218251,1,4,3:0:0:0:
43,245,218320,1,4,3:0:0:0:
47,200,218388,2,0,P|60:174|72:130,1,56.3999982788086,4|0,1:0|3:0,0:0:0:0:
46,12,218524,2,0,P|54:39|77:79,1,56.3999982788086,4|0,3:0|3:0,0:0:0:0:
153,143,218661,6,0,L|157:87,3,56.3999982788086,4|0|0|0,1:0|3:0|3:0|3:0,0:0:0:0:
236,146,218933,1,4,1:0:0:0:
275,167,219001,1,4,3:0:0:0:
319,177,219070,1,4,3:0:0:0:
362,167,219138,1,4,3:0:0:0:
398,140,219206,1,4,1:0:0:0:
383,176,219274,1,4,3:0:0:0:
383,215,219342,1,4,3:0:0:0:
402,249,219411,1,4,3:0:0:0:
431,274,219479,1,4,3:0:0:0:
446,297,219547,1,4,3:0:0:0:
449,324,219615,1,4,3:0:0:0:
443,351,219683,1,4,3:0:0:0:
430,370,219751,5,4,1:0:0:0:
260,51,220297,1,0,0:0:0:0:
15,352,220842,6,0,P|66:363|131:345,1,94,4|0,3:2|0:0,0:0:0:0:
245,180,221115,1,0,1:0:0:0:
324,366,221251,2,0,L|330:253,1,94,2|0,3:2|3:0,0:0:0:0:
149,123,221524,2,0,L|142:232,1,94,2|0,3:2|1:0,0:0:0:0:
246,48,221797,1,0,0:0:0:0:
512,149,221933,6,0,B|449:128|385:210|307:170,1,188,4|0,3:2|1:0,0:0:0:0:
384,74,222342,1,2,3:2:0:0:
432,201,222479,2,0,L|438:323,1,94,0|0,0:0|3:0,0:0:0:0:
282,120,222751,2,0,L|289:3,1,94,2|0,1:2|0:0,0:0:0:0:
14,120,223024,6,0,B|61:86|61:86|222:96,1,188,4|0,3:2|1:0,0:0:0:0:
105,280,223433,2,0,L|92:169,1,94,2|0,3:2|3:0,0:0:0:0:
94,374,223706,1,0,3:0:0:0:
184,194,223842,1,0,1:0:0:0:
0,225,223979,1,0,0:0:0:0:
307,339,224115,6,0,B|281:287|281:287|290:194,1,141,6|0,3:2|0:0,0:0:0:0:
293,171,224388,1,0,1:0:0:0:
458,103,224524,1,0,3:0:0:0:
512,218,224661,1,0,3:0:0:0:
345,81,224797,1,0,3:0:0:0:
196,112,224932,1,0,1:0:0:0:
163,130,225001,1,0,1:0:0:0:
126,140,225070,1,0,1:0:0:0:
90,128,225138,1,0,1:0:0:0:
59,106,225206,6,0,L|77:320,1,188,4|0,3:2|1:0,0:0:0:0:
222,215,225615,1,2,0:0:0:0:
209,345,225751,1,0,3:0:0:0:
209,345,225888,1,0,3:0:0:0:
299,142,226024,2,0,P|345:132|392:136,1,94,0|0,1:0|3:2,0:0:0:0:
476,372,226297,6,0,L|466:238,1,94,6|0,3:2|3:0,0:0:0:0:
345,384,226570,1,0,1:0:0:0:
369,240,226706,1,2,3:2:0:0:
169,260,226842,1,0,0:0:0:0:
169,260,226979,1,0,3:0:0:0:
186,98,227115,2,0,L|197:-1,1,94,0|0,1:0|0:0,0:0:0:0:
53,225,227388,5,2,3:2:0:0:
56,263,227456,1,0,3:0:0:0:
59,301,227524,1,0,3:0:0:0:
192,174,227661,1,2,3:2:0:0:
189,136,227729,1,0,3:0:0:0:
186,98,227797,1,0,3:0:0:0:
318,229,227933,1,2,3:2:0:0:
321,267,228001,1,0,3:0:0:0:
324,305,228070,1,0,3:0:0:0:
328,343,228138,1,0,3:0:0:0:
331,381,228206,5,2,3:2:0:0:
315,337,228274,1,0,3:0:0:0:
330,292,228342,1,0,3:0:0:0:
373,272,228411,1,0,3:0:0:0:
418,257,228479,2,0,B|493:202|467:127|407:73|502:9,1,282,0|0,1:0|3:0,0:0:0:0:
502,10,228956,5,0,3:0:0:0:
502,10,229024,1,0,1:0:0:0:
249,50,229161,1,0,3:0:0:0:
364,179,229297,2,0,L|200:167,1,141,0|0,1:0|0:0,0:0:0:0:
131,125,229570,6,0,L|140:260,1,94,6|0,3:2|0:0,0:0:0:0:
126,33,229842,1,0,1:0:0:0:
36,189,229979,2,0,P|42:143|45:76,1,94,2|0,3:2|3:0,0:0:0:0:
225,248,230251,2,0,P|239:294|249:339,1,94,2|0,3:2|1:0,0:0:0:0:
458,215,230524,1,0,3:0:0:0:
408,323,230661,6,0,B|378:266|415:234|457:187|421:114,1,188,4|0,3:2|1:0,0:0:0:0:
246,19,231070,2,0,P|255:66|258:134,1,94,2|0,3:2|0:0,0:0:0:0:
301,229,231342,1,0,3:0:0:0:
301,229,231411,1,2,3:2:0:0:
301,229,231479,1,2,1:2:0:0:
350,59,231615,1,0,0:0:0:0:
46,207,231751,6,0,P|100:154|191:225,1,188,6|0,3:2|1:0,0:0:0:0:
131,20,232161,2,0,L|125:132,1,94,2|0,3:2|3:0,0:0:0:0:
113,260,232433,1,0,3:0:0:0:
222,108,232570,1,0,1:0:0:0:
21,96,232706,1,8,3:0:0:0:
258,224,232842,6,0,L|369:246,1,94,6|0,3:2|0:0,0:0:0:0:
436,327,233115,1,0,1:0:0:0:
366,145,233251,1,0,3:0:0:0:
284,311,233388,1,0,3:0:0:0:
468,208,233524,1,0,3:0:0:0:
259,161,233661,1,0,1:0:0:0:
261,203,233729,1,0,1:0:0:0:
264,245,233797,1,0,1:0:0:0:
266,287,233865,1,0,1:0:0:0:
269,329,233933,6,0,L|304:133,1,188,6|0,3:2|1:0,0:0:0:0:
146,196,234342,1,2,0:2:0:0:
16,56,234479,1,0,3:0:0:0:
16,56,234615,1,0,3:0:0:0:
8,180,234751,2,0,L|-2:294,1,94,2|0,1:2|3:0,0:0:0:0:
211,70,235024,6,0,P|293:28|384:95,1,188,6|0,3:2|1:2,0:0:0:0:
328,265,235433,2,0,P|315:217|326:157,1,94,2|0,3:2|0:0,0:0:0:0:
430,132,235706,1,0,3:0:0:0:
211,174,235842,1,0,1:0:0:0:
478,0,236115,5,2,3:2:0:0:
495,34,236183,1,0,3:0:0:0:
490,72,236251,1,0,3:0:0:0:
312,198,236388,1,2,3:2:0:0:
295,164,236456,1,0,3:0:0:0:
300,126,236524,1,0,3:0:0:0:
471,245,236661,1,2,3:2:0:0:
489,279,236729,1,0,3:0:0:0:
494,317,236797,1,0,3:0:0:0:
483,353,236865,1,0,3:0:0:0:
441,383,236933,5,2,3:2:0:0:
394,384,237001,1,0,3:0:0:0:
356,358,237070,1,0,3:0:0:0:
310,354,237138,1,0,3:0:0:0:
273,382,237206,2,0,B|235:386|211:345|188:286|214:243|275:209|201:105,1,282,0|0,1:0|3:0,0:0:0:0:
134,91,237683,5,0,3:0:0:0:
134,91,237751,1,4,1:0:0:0:
349,167,237888,1,2,3:2:0:0:
107,185,238024,5,0,1:0:0:0:
319,270,238161,1,2,3:2:0:0:
185,306,238297,1,0,3:0:0:0:
192,273,238365,1,0,3:0:0:0:
200,241,238433,1,0,1:0:0:0:
207,209,238501,1,0,3:0:0:0:
215,176,238570,1,0,3:0:0:0:
287,37,238706,6,0,L|294:99,1,47,0|0,1:0|3:0,0:0:0:0:
304,170,238842,1,0,3:0:0:0:
417,43,238979,2,0,L|424:105,1,47,0|0,1:0|3:0,0:0:0:0:
434,177,239115,1,0,3:0:0:0:
438,209,239183,1,0,3:0:0:0:
443,241,239251,1,0,1:0:0:0:
448,273,239320,1,0,3:0:0:0:
451,305,239388,1,0,3:0:0:0:
283,332,239524,6,0,L|288:268,1,47,0|0,1:0|0:0,0:0:0:0:
215,176,239661,1,0,3:0:0:0:
215,176,239729,1,0,3:0:0:0:
215,176,239797,2,0,L|220:256,1,47,0|0,1:0|3:0,0:0:0:0:
190,330,239933,1,0,3:0:0:0:
71,199,240070,6,0,L|47:133,1,47,0|0,1:0|3:0,0:0:0:0:
50,58,240206,2,0,L|106:59,1,47,0|0,3:0|3:0,0:0:0:0:
205,86,240342,2,0,L|241:37,1,47,0|0,1:0|3:0,0:0:0:0:
360,0,240479,5,4,1:2:0:0:
0,234,241024,1,2,0:0:0:0:
470,367,241570,5,4,3:2:0:0:
491,308,241661,1,2,0:0:0:0:
452,260,241751,1,2,0:0:0:0:
390,259,241842,1,0,0:0:0:0:
346,303,241933,1,2,0:0:0:0:
284,299,242024,1,2,0:0:0:0:
239,257,242115,1,4,3:2:0:0:
191,217,242206,1,2,0:0:0:0:
129,217,242297,1,2,0:0:0:0:
85,262,242388,1,0,0:0:0:0:
88,325,242479,1,2,0:0:0:0:
91,333,242524,6,0,B|113:281|113:281|86:123,1,206.800006311035,6|0,3:2|3:0,0:0:0:0:
7,39,242933,2,0,L|-2:157,1,103.400003155518,2|0,1:2|0:0,0:0:0:0:
4,232,243206,1,0,3:0:0:0:
116,58,243342,1,2,3:2:0:0:
191,188,243479,1,0,1:0:0:0:
339,12,243615,6,0,L|452:-2,1,103.400003155518,2|0,3:2|0:0,0:0:0:0:
281,132,243888,2,0,L|246:12,1,103.400003155518,2|0,3:2|1:0,0:0:0:0:
368,183,244161,2,0,L|397:65,1,103.400003155518,2|0,3:2|0:0,0:0:0:0:
471,290,244433,5,0,3:2:0:0:
245,283,244570,1,0,1:0:0:0:
351,381,244706,6,0,B|403:322|312:247|373:178,1,206.800006311035,6|0,3:2|3:0,0:0:0:0:
423,109,245115,1,0,1:0:0:0:
423,109,245388,1,0,3:0:0:0:
201,43,245524,1,0,3:0:0:0:
283,33,245661,1,0,1:0:0:0:
84,132,245797,6,0,B|30:196|121:271|62:332,1,206.800006311035,6|0,3:2|0:0,0:0:0:0:
159,371,246206,2,0,P|206:382|285:359,1,103.400003155518,0|0,1:0|3:0,0:0:0:0:
325,282,246479,1,0,3:0:0:0:
386,363,246615,1,0,3:0:0:0:
336,109,246751,5,8,3:0:0:0:
392,214,246888,2,0,B|352:148|352:148|361:9,1,206.800006311035,6|0,3:2|3:0,0:0:0:0:
245,158,247297,2,0,L|256:274,1,103.400003155518,2|0,1:2|0:0,0:0:0:0:
31,250,247570,5,0,3:0:0:0:
124,158,247706,2,0,P|151:112|156:54,1,103.400003155518,2|0,3:2|1:0,0:0:0:0:
376,306,247979,5,0,3:0:0:0:
288,204,248115,2,0,P|260:158|256:98,1,103.400003155518,2|0,3:2|0:0,0:0:0:0:
61,361,248388,5,0,1:0:0:0:
149,259,248524,2,0,P|176:213|181:152,1,103.400003155518,2|0,3:2|0:0,0:0:0:0:
355,384,248797,5,0,3:0:0:0:
265,274,248933,1,2,1:2:0:0:
261,130,249070,1,2,0:2:0:0:
500,212,249206,6,0,P|410:224|319:191,1,155.100004733277,6|0,3:2|3:0,0:0:0:0:
486,195,249479,2,0,P|399:167|336:112,1,155.100004733277,2|0,1:2|0:0,0:0:0:0:
319,36,249751,2,0,L|315:-16,1,51.7000015777588,2|0,1:2|0:0,0:0:0:0:
261,130,249888,2,0,L|223:258,1,103.400003155518,2|0,3:2|1:0,0:0:0:0:
165,369,250161,1,0,3:0:0:0:
165,369,250229,1,0,3:0:0:0:
165,369,250297,6,0,P|166:332|162:294,2,68.9333354370118,0|0|0,3:0|3:0|3:0,0:0:0:0:
71,342,250570,2,0,P|70:305|74:267,2,68.9333354370118,0|0|0,3:0|3:0|3:0,0:0:0:0:
131,198,250842,1,0,3:0:0:0:
148,145,250933,1,0,3:2:0:0:
130,92,251024,1,0,3:2:0:0:
145,13,251115,5,0,1:0:0:0:
145,13,251183,1,0,1:0:0:0:
145,13,251251,2,0,B|217:48|217:48|389:22,1,206.800006311035,6|0,3:2|0:0,0:0:0:0:
292,156,251661,1,0,1:2:0:0:
442,62,251797,1,0,0:0:0:0:
411,286,251933,5,2,3:2:0:0:
407,167,252070,2,0,L|417:277,1,103.400003155518,2|0,3:2|1:0,0:0:0:0:
237,266,252342,2,0,L|226:156,1,103.400003155518,2|0,3:2|0:0,0:0:0:0:
327,281,252615,2,0,L|339:389,1,103.400003155518,2|0,3:2|1:0,0:0:0:0:
211,271,252888,2,0,L|201:140,1,103.400003155518,2|0,3:2|0:0,0:0:0:0:
134,354,253161,5,8,3:3:0:0:
306,174,253297,1,0,1:0:0:0:
68,115,253433,6,0,P|7:177|88:208,1,206.800006311035,6|0,3:2|3:0,0:0:0:0:
156,136,253842,1,2,1:2:0:0:
156,136,254115,1,0,3:0:0:0:
350,144,254251,1,0,3:0:0:0:
446,32,254388,1,0,1:0:0:0:
494,246,254524,6,0,P|431:306|400:225,1,206.800006311035,6|0,3:2|0:0,0:0:0:0:
281,68,254933,2,0,P|310:111|360:150,1,103.400003155518,2|0,1:2|3:0,0:0:0:0:
470,153,255206,1,0,3:0:0:0:
470,153,255342,1,0,3:0:0:0:
244,266,255479,6,0,L|163:283,1,51.7000015777588,8|0,1:3|0:0,0:0:0:0:
167,373,255615,2,0,L|195:124,1,206.800006311035,6|0,3:2|3:0,0:0:0:0:
99,234,256024,2,0,P|49:249|-11:234,1,103.400003155518,2|0,1:2|0:0,0:0:0:0:
104,130,256297,1,0,3:0:0:0:
296,217,256433,1,2,3:2:0:0:
296,217,256570,1,0,1:0:0:0:
238,41,256706,5,0,3:0:0:0:
204,227,256842,2,0,P|189:177|204:117,1,103.400003155518,2|2,3:2|3:2,0:0:0:0:
326,69,257115,1,0,1:0:0:0:
142,47,257251,1,2,3:2:0:0:
286,148,257388,1,0,3:0:0:0:
286,148,257524,1,0,3:0:0:0:
420,27,257661,5,2,1:2:0:0:
387,223,257797,1,2,3:2:0:0:
512,150,257933,6,0,B|452:128|452:128|348:147,1,155.100004733277,6|0,3:2|3:0,0:0:0:0:
474,214,258206,2,0,B|496:154|496:154|477:50,1,155.100004733277,2|0,1:2|0:0,0:0:0:0:
345,8,258479,2,0,L|331:80,1,51.7000015777588,8|0,3:0|0:0,0:0:0:0:
315,222,258615,2,0,L|345:337,1,103.400003155518,2|0,3:2|1:0,0:0:0:0:
143,133,258888,6,0,L|63:138,1,51.7000015777588,0|0,3:0|3:0,0:0:0:0:
6,224,259024,2,0,P|0:189|9:145,2,68.9333354370118,0|0|0,3:0|3:0|3:0,0:0:0:0:
47,288,259297,1,0,3:0:0:0:
95,314,259388,1,0,3:0:0:0:
149,322,259479,1,0,3:0:0:0:
202,309,259570,1,0,3:0:0:0:
253,289,259661,1,0,3:0:0:0:
306,299,259751,1,0,3:0:0:0:
397,315,259842,5,0,3:0:0:0:
397,315,259911,1,0,3:0:0:0:
397,315,259979,1,0,3:0:0:0:
397,315,260047,1,0,3:0:0:0:
397,315,260115,2,0,L|363:62,1,206.800006311035,2|0,1:2|3:0,0:0:0:0:
279,47,260456,1,0,3:0:0:0:
281,56,260524,2,0,L|271:268,1,206.800006311035,0|0,1:0|3:0,0:0:0:0:
196,316,260865,1,0,3:0:0:0:
193,306,260933,5,4,3:0:0:0:
512,263,261070,1,4,3:0:0:0:
