osu file format v14

[General]
AudioFilename: audio.mp3
AudioLeadIn: 0
PreviewTime: 19706
Countdown: 0
SampleSet: Soft
StackLeniency: 0.7
Mode: 0
LetterboxInBreaks: 0
WidescreenStoryboard: 0

[Editor]
Bookmarks: 20115,41797,59388,98661,120342,137933,146933,177206,187024,242661
DistanceSpacing: 1.4
BeatDivisor: 4
GridSize: 4
TimelineZoom: 2

[Metadata]
Title:So What?
TitleUnicode:So What?
Artist:MisteryCircle
ArtistUnicode:MisteryCircle
Creator:Nozhomi
Version:Hard
Source:東方風神録 ~ Mountain of Faith.
Tags:YOUKI SPADE SOMALLY 少女が見た日本の原風景 English Rock TH ZUN Touhou Reitaisai 10 Kanako Yasaka 八坂神奈子 Video Game 東方Project Team Shanghai Alice The Primal Scene of Japan the Girl Saw Sanae Kochiya 東風谷早苗 MoF Fuujinroku DTM9 Nowa DTM9_Nowa MaridiuS
BeatmapID:2019244
BeatmapSetID:918900

[Difficulty]
HPDrainRate:4.5
CircleSize:3.5
OverallDifficulty:6
ApproachRate:8
SliderMultiplier:1.3
SliderTickRate:1

[Events]
//Background and Video events
0,0,"bg.jpg",0,0
//Break Periods
2,138133,142638
//Storyboard Layer 0 (Background)
//Storyboard Layer 1 (Fail)
//Storyboard Layer 2 (Pass)
//Storyboard Layer 3 (Foreground)
//Storyboard Layer 4 (Overlay)
//Storyboard Sound Samples

[TimingPoints]
2661,272.727272727273,4,2,1,80,1,0
59388,-100,4,2,1,70,0,0
98661,-100,4,2,1,80,0,0
137933,-100,4,2,1,60,0,0
143388,-100,4,2,1,70,0,0
177206,-100,4,2,1,80,0,0
199024,-100,4,2,1,80,0,1
207751,-100,4,2,2,80,0,1
215456,-100,4,2,2,60,0,1
215797,-100,4,2,2,70,0,1
216342,-100,4,2,2,80,0,1
219751,-100,4,2,1,80,0,0

[Colours]
Combo1 : 177,37,40
Combo2 : 198,154,23
Combo3 : 230,96,15

[HitObjects]
431,312,20115,6,0,L|280:308,1,130,4|0,3:2|1:0,0:0:0:0:
236,253,20524,1,2,0:0:0:0:
169,304,20661,2,0,P|140:319|106:320,1,65,0|0,3:0|3:0,0:0:0:0:
35,277,20933,2,0,P|20:247|19:214,1,65,0|2,1:0|0:0,0:0:0:0:
50,136,21206,2,0,P|102:96|80:38,1,130,0|0,3:0|1:0,0:0:0:0:
143,103,21615,2,0,L|291:99,1,130,2|0,3:2|3:0,0:0:0:0:
333,39,22024,1,0,1:0:0:0:
333,39,22297,6,0,P|326:117|375:170,1,130,0|0,3:0|1:0,0:0:0:0:
402,226,22706,2,0,P|409:304|360:357,1,130,2|0,0:0|3:0,0:0:0:0:
300,371,23115,1,0,1:0:0:0:
300,371,23388,2,0,L|146:363,1,130,0|0,3:0|1:0,0:0:0:0:
112,302,23797,1,2,3:2:0:0:
172,243,23933,2,0,P|196:195|197:171,1,65,0|0,0:0|3:0,0:0:0:0:
281,186,24206,2,0,P|264:135|247:117,1,65,0|0,1:0|1:0,0:0:0:0:
321,71,24479,6,0,L|165:67,1,130,0|0,3:0|1:0,0:0:0:0:
130,126,24888,2,0,L|0:129,1,130,2|0,0:0|3:0,0:0:0:0:
0,129,25297,1,0,1:0:0:0:
96,267,25570,2,0,L|252:263,1,130,0|0,3:0|1:0,0:0:0:0:
287,322,25979,2,0,L|416:325,1,130,2|0,3:2|3:0,0:0:0:0:
417,325,26388,1,0,1:0:0:0:
508,182,26661,6,0,P|471:138|439:134,1,65,2|0,3:2|3:0,0:0:0:0:
432,213,26933,2,0,P|374:208|349:227,1,65,2|0,3:2|3:0,0:0:0:0:
305,265,27206,2,0,P|273:271|242:262,1,65,2|0,3:2|3:0,0:0:0:0:
209,339,27478,2,0,P|181:321|167:293,1,65,0|0,3:0|3:0,0:0:0:0:
93,336,27751,2,0,L|86:116,1,195,4|0,1:2|3:0,0:0:0:0:
37,71,28297,1,0,1:0:0:0:
173,130,28570,1,0,1:0:0:0:
7,231,28842,6,0,L|10:360,1,130,4|0,3:2|1:0,0:0:0:0:
93,336,29251,2,0,L|89:206,1,130,2|0,0:2|3:0,0:0:0:0:
171,183,29661,2,0,L|172:247,1,65,0|2,1:0|0:0,0:0:0:0:
232,307,29933,2,0,P|280:325|371:293,1,130,0|0,3:0|1:0,0:0:0:0:
419,252,30342,2,0,P|436:204|405:113,1,130,2|0,3:2|3:0,0:0:0:0:
353,75,30751,1,0,1:0:0:0:
187,112,31024,6,0,P|237:172|309:174,1,130,0|0,3:0|1:0,0:0:0:0:
367,197,31433,2,0,P|337:252|269:265,1,130,2|0,0:0|3:0,0:0:0:0:
285,180,31842,1,0,1:0:0:0:
428,268,32115,2,0,P|387:317|328:343,1,130,0|0,3:0|1:0,0:0:0:0:
244,335,32524,1,2,3:2:0:0:
192,268,32660,2,0,L|183:183,1,65,0|0,0:0|3:0,0:0:0:0:
100,204,32933,2,0,L|106:139,1,65,0|0,1:0|1:0,0:0:0:0:
40,84,33206,6,0,P|93:55|159:72,1,130,0|0,3:0|1:0,0:0:0:0:
231,114,33615,2,0,P|292:130|348:101,1,130,2|0,0:0|3:0,0:0:0:0:
395,30,34024,1,0,1:0:0:0:
360,195,34297,2,0,L|367:342,1,130,0|0,3:0|1:0,0:0:0:0:
446,297,34706,2,0,L|439:167,1,130,2|0,3:2|3:0,0:0:0:0:
377,109,35115,1,0,1:0:0:0:
248,219,35388,6,0,P|219:231|187:233,1,65,2|0,3:2|3:0,0:0:0:0:
155,311,35661,2,0,P|127:296|110:269,1,65,2|0,3:2|3:0,0:0:0:0:
85,189,35933,2,0,P|96:158|118:134,1,65,2|0,3:2|3:0,0:0:0:0:
86,59,36206,2,0,P|116:49|148:56,1,65,0|0,3:0|3:0,0:0:0:0:
222,109,36478,2,0,B|368:100|368:100|324:65,1,195,4|0,1:2|3:0,0:0:0:0:
260,21,37024,1,0,1:0:0:0:
278,189,37297,1,0,1:0:0:0:
446,117,37570,6,0,P|463:176|411:248,1,130,0|0,3:0|3:0,0:0:0:0:
449,317,37979,2,0,L|307:304,1,130,0|0,1:0|1:0,0:0:0:0:
240,335,38388,2,0,L|175:340,1,65,0|0,3:0|1:0,0:0:0:0:
104,294,38661,2,0,P|87:235|139:163,1,130,0|0,3:0|3:0,0:0:0:0:
101,94,39070,2,0,L|243:107,1,130,0|0,1:0|1:0,0:0:0:0:
310,76,39479,2,0,L|374:70,1,65,0|0,3:0|1:0,0:0:0:0:
443,119,39751,5,4,1:2:0:0:
443,119,40297,1,2,0:0:0:0:
443,118,40842,6,0,P|431:182|448:244,1,130,0|2,3:0|0:0,0:0:0:0:
332,368,41388,2,0,P|343:304|326:242,1,130,2|2,1:2|0:0,0:0:0:0:
258,192,41797,6,0,B|198:207|198:207|131:191,1,130,4|0,3:2|3:0,0:0:0:0:
92,115,42206,2,0,B|152:100|152:100|218:115,1,130,0|0,1:0|3:0,0:0:0:0:
258,192,42615,2,0,L|261:265,1,65,0|0,3:0|1:0,0:0:0:0:
341,229,42888,2,0,L|344:302,1,65,2|0,3:2|0:0,0:0:0:0:
422,261,43161,2,0,L|425:334,1,65,2|0,0:0|1:0,0:0:0:0:
505,351,43433,2,0,L|500:221,1,130,2|2,3:2|3:2,0:0:0:0:
464,54,43979,6,0,P|415:88|316:91,1,130,2|0,0:0|3:0,0:0:0:0:
264,75,44388,1,0,1:0:0:0:
264,75,44661,2,0,L|188:71,1,65,0|0,3:0|0:0,0:0:0:0:
114,66,44933,1,0,1:0:0:0:
29,57,45070,2,0,P|41:113|111:151,1,130,0|0,3:0|0:0,0:0:0:0:
183,161,45479,1,0,1:0:0:0:
183,161,45751,2,0,L|182:84,1,65,0|0,0:0|3:0,0:0:0:0:
247,41,46024,1,0,1:0:0:0:
341,69,46161,6,0,P|372:109|359:194,1,130,2|0,0:0|3:0,0:0:0:0:
305,244,46570,1,0,1:0:0:0:
305,244,46842,1,0,3:0:0:0:
361,307,46979,2,0,L|451:302,2,65,2|0|0,3:2|1:0|3:0,0:0:0:0:
282,339,47388,2,0,L|192:334,2,65,2|0|0,0:0|0:0|1:0,0:0:0:0:
356,297,47797,2,0,L|420:293,2,65,2|0|0,3:2|0:0|3:0,0:0:0:0:
277,328,48206,2,0,L|187:323,1,65,2|0,1:2|0:0,0:0:0:0:
133,291,48479,6,0,P|99:343|37:339,2,130,4|0|0,3:2|1:0|0:0,0:0:0:0:
87,219,49161,2,0,L|92:150,1,65,0|0,3:0|1:0,0:0:0:0:
127,78,49433,1,0,3:0:0:0:
127,78,49501,1,0,3:0:0:0:
127,78,49570,2,0,L|125:18,4,43.3333333333333,0|0|0|0|0,3:0|3:0|3:0|3:0|3:0,0:0:0:0:
198,163,50115,2,0,P|259:153|280:95,1,130,0|0,3:0|3:0,0:0:0:0:
260,6,50524,6,0,P|286:61|373:59,1,130,4|0,1:2|0:0,0:0:0:0:
427,39,50933,2,0,P|461:66|470:91,1,65,0|0,1:0|0:0,0:0:0:0:
433,162,51206,1,0,3:0:0:0:
358,200,51342,2,0,L|281:194,1,65,0|0,3:0|1:0,0:0:0:0:
244,264,51615,2,0,L|167:258,1,65,2|0,3:2|0:0,0:0:0:0:
136,332,51888,2,0,L|71:326,1,65,2|0,0:0|1:0,0:0:0:0:
15,263,52161,2,0,P|34:203|105:189,1,130,2|2,3:2|3:2,0:0:0:0:
244,264,52706,6,0,P|199:228|202:145,1,130,2|0,0:0|3:0,0:0:0:0:
233,84,53115,1,0,1:0:0:0:
233,84,53388,2,0,L|298:80,1,65,0|0,3:0|3:0,0:0:0:0:
362,25,53660,1,0,1:0:0:0:
430,74,53797,2,0,P|450:122|415:202,1,130,0|0,3:0|0:0,0:0:0:0:
377,262,54206,1,0,1:0:0:0:
377,262,54478,2,0,P|400:278|447:281,1,65,0|0,0:0|3:0,0:0:0:0:
501,228,54751,1,0,1:0:0:0:
425,192,54888,6,0,L|283:198,1,130,4|0,0:0|3:0,0:0:0:0:
249,268,55297,1,0,1:0:0:0:
249,268,55569,1,0,3:0:0:0:
185,209,55706,2,0,P|176:179|179:147,2,65,2|0|0,3:2|1:0|3:0,0:0:0:0:
261,170,56116,2,0,P|275:141|300:121,2,65,2|0|0,0:0|0:0|1:0,0:0:0:0:
341,196,56525,2,0,P|371:186|403:189,2,65,2|0|0,0:2|3:0|3:0,0:0:0:0:
379,271,56934,2,0,P|407:285|427:310,1,65,2|0,1:2|0:0,0:0:0:0:
355,353,57206,6,0,L|216:357,2,130,4|0|0,3:2|1:0|0:0,0:0:0:0:
301,279,57888,2,0,L|229:281,1,65,0|0,3:0|1:0,0:0:0:0:
155,304,58161,1,0,3:0:0:0:
155,304,58229,1,0,3:0:0:0:
155,304,58297,2,0,L|97:306,4,43.3333333333333,0|0|0|0|0,3:0|3:0|3:0|3:0|3:0,0:0:0:0:
175,211,58842,2,0,B|144:122|216:101|170:15,1,195,0|0,3:0|1:0,0:0:0:0:
71,69,59388,6,0,P|110:119|172:133,1,130,2|0,3:2|1:0,0:0:0:0:
257,130,59797,2,0,P|322:117|362:64,1,130,2|0,0:0|3:0,0:0:0:0:
276,44,60206,1,0,1:0:0:0:
370,184,60479,2,0,L|370:330,1,130,2|0,3:2|1:0,0:0:0:0:
452,332,60888,2,0,L|452:202,1,130,2|0,0:0|3:0,0:0:0:0:
427,120,61297,1,0,1:0:0:0:
278,38,61570,6,0,P|251:103|269:168,1,130,2|0,3:2|1:0,0:0:0:0:
307,231,61979,2,0,P|334:296|316:361,1,130,2|0,0:0|3:0,0:0:0:0:
239,373,62388,2,0,L|171:370,1,65,0|2,1:0|0:0,0:0:0:0:
107,316,62661,2,0,L|42:318,2,65,0|0|0,3:0|0:0|1:0,0:0:0:0:
175,265,63070,1,0,0:0:0:0:
213,190,63206,2,0,P|231:128|211:68,1,130,0|0,3:0|1:0,0:0:0:0:
126,71,63615,6,0,P|107:132|128:192,1,130,2|2,0:0|0:0,0:0:0:0:
175,265,64024,2,0,L|304:264,1,130,0|2,1:0|3:2,0:0:0:0:
371,211,64433,2,0,L|435:210,1,65,0|0,3:0|1:0,0:0:0:0:
462,129,64706,2,0,P|400:113|339:132,1,130,0|2,0:0|0:0,0:0:0:0:
288,202,65115,2,0,P|289:234|304:263,1,65,0|0,1:0|0:0,0:0:0:0:
305,348,65388,2,0,P|276:333|244:331,1,65,2|0,3:2|3:0,0:0:0:0:
161,350,65661,1,0,1:0:0:0:
19,256,65933,6,0,P|40:196|36:131,1,130,2|0,3:2|1:0,0:0:0:0:
110,234,66479,2,0,P|127:260|129:292,2,65,0|0|0,3:0|3:0|1:0,0:0:0:0:
233,218,67024,2,0,P|203:205|184:179,1,65,0|0,3:0|1:0,0:0:0:0:
164,97,67297,2,0,P|176:67|202:48,1,65,0|0,1:0|3:0,0:0:0:0:
281,79,67570,2,0,P|344:86|353:22,1,130,0|8,3:0|3:0,0:0:0:0:
445,176,68115,6,0,L|441:30,1,130,2|0,3:2|1:0,0:0:0:0:
358,32,68524,2,0,L|361:161,1,130,2|0,0:0|3:0,0:0:0:0:
279,141,68933,1,0,1:0:0:0:
124,72,69206,2,0,P|84:128|14:144,1,130,2|0,3:2|1:0,0:0:0:0:
26,229,69615,2,0,P|86:249|122:302,1,130,2|0,0:0|3:0,0:0:0:0:
79,375,70024,1,0,1:0:0:0:
123,211,70297,6,0,P|200:187|266:211,1,130,2|0,3:2|1:0,0:0:0:0:
307,257,70706,2,0,P|370:268|430:244,1,130,2|0,0:0|3:0,0:0:0:0:
469,169,71115,2,0,L|464:97,1,65,0|2,1:0|0:0,0:0:0:0:
385,73,71388,2,0,L|380:8,2,65,0|0|0,3:0|0:0|1:0,0:0:0:0:
329,137,71797,1,0,0:0:0:0:
262,85,71933,2,0,P|245:144|279:206,1,130,0|0,3:0|1:0,0:0:0:0:
313,278,72342,6,0,P|270:233|199:232,1,130,0|0,3:0|0:0,0:0:0:0:
128,266,72751,1,0,1:0:0:0:
272,354,73024,2,0,L|339:352,1,65,0|0,3:0|3:0,0:0:0:0:
421,346,73297,2,0,L|417:216,1,130,0|0,1:0|3:0,0:0:0:0:
413,46,73842,1,0,1:0:0:0:
266,130,74115,1,0,3:0:0:0:
351,138,74252,2,0,L|415:132,1,65,0|0,3:0|1:0,0:0:0:0:
275,225,74660,6,0,L|127:213,1,130,2|0,3:2|1:0,0:0:0:0:
36,83,75206,2,0,P|47:54|72:32,2,65,0|0|0,3:0|3:0|1:0,0:0:0:0:
145,214,75751,2,0,P|152:245|143:276,1,65,0|0,3:0|1:0,0:0:0:0:
175,354,76024,2,0,P|203:338|221:311,1,65,0|0,1:0|3:0,0:0:0:0:
292,265,76297,2,0,P|334:305|426:298,1,130,0|8,3:0|3:0,0:0:0:0:
463,151,76842,6,0,P|421:111|329:118,1,130,0|0,3:0|1:0,0:0:0:0:
193,169,77388,2,0,L|188:96,2,65,0|0|0,3:0|3:0|1:0,0:0:0:0:
232,350,77933,6,0,P|287:333|327:250,1,130,2|0,3:2|1:0,0:0:0:0:
352,107,78479,2,0,L|420:125,2,65,0|0|0,3:0|3:0|1:0,0:0:0:0:
176,52,79024,6,0,P|162:108|214:184,1,130,2|0,3:2|1:0,0:0:0:0:
326,276,79570,2,0,L|401:273,2,65,0|0|0,3:0|3:0|1:0,0:0:0:0:
175,352,80115,6,0,P|112:360|57:306,1,130,2|0,3:2|1:0,0:0:0:0:
160,166,80661,2,0,P|153:197|135:224,1,65,0|0,3:0|3:0,0:0:0:0:
72,162,80933,2,0,P|45:180|13:185,1,65,0|0,1:0|0:0,0:0:0:0:
8,89,81206,6,0,L|165:83,1,130,2|0,3:2|1:0,0:0:0:0:
296,143,81751,1,0,3:0:0:0:
296,143,81888,2,0,L|231:145,1,65,0|0,3:0|1:0,0:0:0:0:
151,175,82161,1,0,0:0:0:0:
151,175,82297,2,0,P|150:268|245:310,2,195,2|2|0,3:2|0:0|1:0,0:0:0:0:
297,91,83388,6,0,L|294:233,1,130,2|0,3:2|1:0,0:0:0:0:
433,288,83933,1,0,3:0:0:0:
429,284,84070,2,0,P|379:282|349:259,1,65,0|0,3:0|1:0,0:0:0:0:
298,225,84343,1,0,0:0:0:0:
298,225,84479,2,0,P|226:285|125:260,2,195,2|0|8,3:2|3:0|3:0,0:0:0:0:
252,154,85433,1,4,3:0:0:0:
335,140,85570,6,0,P|375:98|368:6,1,130,0|0,3:0|1:0,0:0:0:0:
252,154,86116,2,0,L|256:218,2,65,0|0|0,3:0|3:0|1:0,0:0:0:0:
91,101,86661,6,0,P|51:143|58:235,1,130,2|0,3:2|1:0,0:0:0:0:
174,87,87207,2,0,L|169:22,2,65,0|0|0,3:0|3:0|1:0,0:0:0:0:
268,226,87751,6,0,P|308:184|301:92,1,130,2|0,3:2|1:0,0:0:0:0:
185,240,88297,2,0,L|189:304,2,65,0|0|0,3:0|3:0|1:0,0:0:0:0:
43,145,88842,6,0,P|1:192|0:256,1,130,2|0,3:2|1:0,0:0:0:0:
153,360,89388,2,0,P|146:329|128:302,1,65,0|0,3:0|3:0,0:0:0:0:
185,240,89660,2,0,P|158:222|126:217,1,65,0|0,1:0|0:0,0:0:0:0:
44,145,89933,6,0,L|188:140,1,130,2|0,3:2|1:0,0:0:0:0:
324,54,90479,1,0,3:0:0:0:
324,54,90616,2,0,L|259:55,1,65,0|0,3:0|1:0,0:0:0:0:
257,140,90889,1,0,0:0:0:0:
257,140,91024,6,0,L|475:132,2,195,2|2|0,3:2|0:0|1:0,0:0:0:0:
318,328,92116,6,0,P|351:271|326:204,1,130,2|0,3:2|1:0,0:0:0:0:
198,120,92661,1,0,3:0:0:0:
198,120,92797,2,0,P|224:137|256:140,1,65,0|0,3:0|1:0,0:0:0:0:
353,113,93071,1,0,0:0:0:0:
353,112,93206,2,0,P|429:62|503:116,2,195,2|0|0,3:2|3:0|3:0,0:0:0:0:
320,190,94161,1,4,3:0:0:0:
281,265,94297,6,0,L|120:266,1,130,2|0,3:2|1:0,0:0:0:0:
13,166,94843,1,0,3:0:0:0:
13,166,94980,2,0,L|104:165,1,65,0|0,3:0|1:0,0:0:0:0:
169,162,95251,1,0,0:0:0:0:
169,162,95389,2,0,P|196:93|311:94,2,195,2|2|0,3:2|0:0|1:0,0:0:0:0:
336,180,96479,6,0,P|365:167|385:142,1,65,0|0,1:0|3:0,0:0:0:0:
460,181,96751,2,0,P|470:151|467:119,1,65,0|0,1:0|3:0,0:0:0:0:
431,39,97024,2,0,P|382:78|385:141,1,130,0|0,3:0|3:0,0:0:0:0:
490,274,97570,5,4,1:2:0:0:
36,47,98388,1,0,1:0:0:0:
187,123,98661,6,0,L|189:253,1,130,4|0,3:2|1:0,0:0:0:0:
144,324,99070,1,2,0:0:0:0:
223,354,99207,2,0,P|255:352|283:337,1,65,0|0,3:0|0:0,0:0:0:0:
351,287,99479,2,0,P|383:288|411:303,1,65,0|2,1:0|0:0,0:0:0:0:
474,360,99752,2,0,P|459:302|472:231,1,130,0|0,3:0|1:0,0:0:0:0:
404,180,100161,2,0,P|348:212|273:180,1,130,2|0,3:2|3:0,0:0:0:0:
216,150,100570,1,0,1:0:0:0:
318,17,100843,6,0,P|349:72|338:134,1,130,0|0,3:0|1:0,0:0:0:0:
288,195,101252,2,0,P|319:250|308:312,1,130,2|0,0:0|3:0,0:0:0:0:
243,367,101661,1,0,1:0:0:0:
81,316,101934,2,0,P|129:265|196:266,1,130,0|0,3:0|1:0,0:0:0:0:
265,291,102342,1,2,3:2:0:0:
311,220,102479,2,0,L|319:147,1,65,0|0,0:0|3:0,0:0:0:0:
233,158,102751,2,0,L|225:85,1,65,0|0,1:0|1:0,0:0:0:0:
142,55,103025,6,0,P|77:52|25:89,1,130,0|0,3:0|1:0,0:0:0:0:
28,173,103433,2,0,P|85:200|147:186,1,130,2|0,0:0|3:0,0:0:0:0:
233,158,103843,1,0,1:0:0:0:
379,243,104116,2,0,L|373:96,1,130,0|0,3:0|1:0,0:0:0:0:
454,87,104524,2,0,L|459:216,1,130,2|0,3:2|3:0,0:0:0:0:
442,300,104934,1,0,1:0:0:0:
279,345,105206,6,0,B|246:357|246:357|188:347,3,65,2|0|2|0,3:2|3:0|3:2|3:0,0:0:0:0:
147,304,105751,2,0,B|114:316|114:316|56:306,3,65,2|0|0|0,3:2|3:0|3:0|3:0,0:0:0:0:
33,243,106297,2,0,P|35:145|30:48,1,195,4|0,1:2|3:0,0:0:0:0:
112,78,106843,1,0,1:0:0:0:
33,243,107116,1,0,1:0:0:0:
222,192,107388,6,0,P|281:183|373:185,1,130,4|0,3:2|1:0,0:0:0:0:
360,267,107797,2,0,P|295:266|230:276,1,130,2|0,0:0|3:0,0:0:0:0:
155,316,108207,2,0,P|122:318|90:315,1,65,0|2,1:0|0:0,0:0:0:0:
34,252,108479,2,0,P|51:201|139:172,1,130,0|0,3:0|1:0,0:0:0:0:
197,193,108888,2,0,P|255:168|279:109,1,130,2|0,0:0|3:0,0:0:0:0:
242,33,109297,1,0,1:0:0:0:
303,190,109570,6,0,P|359:227|438:206,1,130,0|0,3:0|1:0,0:0:0:0:
474,155,109979,2,0,P|466:88|399:40,1,130,2|0,0:0|3:0,0:0:0:0:
337,45,110388,1,0,1:0:0:0:
273,216,110661,2,0,L|281:358,1,130,0|0,3:0|1:0,0:0:0:0:
361,370,111070,1,2,3:2:0:0:
384,289,111206,2,0,P|394:265|422:238,1,65,0|0,0:0|3:0,0:0:0:0:
350,193,111479,2,0,P|340:169|311:142,1,65,0|0,1:0|1:0,0:0:0:0:
217,116,111752,6,0,P|255:164|311:142,1,130,0|0,3:0|1:0,0:0:0:0:
361,73,112161,2,0,P|417:50|454:98,1,130,2|0,0:0|3:0,0:0:0:0:
457,183,112570,1,0,1:0:0:0:
348,312,112843,2,0,L|206:305,1,130,0|0,3:0|1:0,0:0:0:0:
192,225,113251,2,0,L|62:218,1,130,2|0,3:2|3:0,0:0:0:0:
21,293,113661,1,0,1:0:0:0:
138,141,113933,6,0,P|123:112|96:95,3,65,2|0|2|0,3:2|3:0|3:2|3:0,0:0:0:0:
29,41,114479,2,0,P|12:68|11:101,3,65,2|0|0|0,3:2|3:0|3:0|3:0,0:0:0:0:
62,179,115024,2,0,B|84:255|56:323|56:323|79:307|100:305,1,195,4|0,1:2|3:0,0:0:0:0:
172,349,115570,1,0,1:0:0:0:
62,179,115843,1,0,1:0:0:0:
214,278,116116,6,0,P|151:268|99:304,1,130,0|0,3:0|3:0,0:0:0:0:
54,375,116524,2,0,P|19:328|29:259,1,130,0|0,1:0|1:0,0:0:0:0:
81,193,116934,2,0,L|78:126,1,65,0|0,3:0|1:0,0:0:0:0:
48,48,117207,2,0,P|94:91|157:95,1,130,0|0,3:0|3:0,0:0:0:0:
228,49,117615,2,0,P|291:52|337:96,1,130,0|0,1:0|1:0,0:0:0:0:
370,174,118025,2,0,B|364:206|364:206|371:237,1,65,0|0,3:0|1:0,0:0:0:0:
447,202,118297,5,4,1:2:0:0:
155,17,118843,1,2,0:0:0:0:
269,369,119388,6,0,P|285:306|258:244,1,130,2|2,0:0|0:0,0:0:0:0:
362,53,119933,2,0,P|345:114|370:174,1,130,2|2,1:2|0:0,0:0:0:0:
269,148,120342,6,0,P|210:129|142:149,1,130,4|0,1:2|3:0,0:0:0:0:
84,205,120751,2,0,P|65:264|85:332,1,130,0|0,1:0|3:0,0:0:0:0:
164,349,121160,2,0,P|187:328|200:298,1,65,0|0,3:0|1:0,0:0:0:0:
283,316,121433,2,0,P|284:284|272:254,1,65,2|0,3:2|0:0,0:0:0:0:
343,208,121706,2,0,P|321:184|291:171,1,65,2|0,0:0|1:0,0:0:0:0:
353,114,121978,2,0,L|205:117,1,130,2|2,3:2|3:2,0:0:0:0:
43,41,122524,6,0,L|172:43,1,130,2|0,0:0|3:0,0:0:0:0:
227,120,122933,1,0,1:0:0:0:
227,120,123206,2,0,L|291:119,1,65,0|0,3:0|3:0,0:0:0:0:
366,80,123478,1,0,1:0:0:0:
422,143,123615,2,0,P|438:204|405:258,1,130,0|0,3:0|0:0,0:0:0:0:
334,304,124024,1,0,1:0:0:0:
334,304,124296,2,0,L|256:300,1,65,0|0,3:0|3:0,0:0:0:0:
212,237,124569,1,0,1:0:0:0:
162,306,124706,6,0,P|99:303|55:257,1,130,2|0,0:0|3:0,0:0:0:0:
139,228,125115,1,0,1:0:0:0:
139,228,125387,1,0,3:0:0:0:
162,306,125524,2,0,B|170:337|170:337|161:368,2,65,2|0|0,3:2|1:0|3:0,0:0:0:0:
222,246,125933,2,0,B|249:262|249:262|266:290,2,65,2|0|0,0:2|3:0|1:0,0:0:0:0:
235,162,126342,2,0,B|265:154|265:154|297:162,2,65,2|0|0,3:2|3:0|3:0,0:0:0:0:
148,192,126751,2,0,B|116:198|116:198|83:191,1,65,2|0,1:2|0:0,0:0:0:0:
14,143,127024,6,0,L|9:13,2,130,4|0|0,3:2|1:0|0:0,0:0:0:0:
84,191,127706,2,0,L|81:266,1,65,0|0,3:0|1:0,0:0:0:0:
41,330,127979,1,0,3:0:0:0:
41,330,128047,1,0,3:0:0:0:
41,330,128115,6,0,L|-17:342,4,43.3333333333333,0|0|0|0|0,3:0|3:0|3:0|3:0|3:0,0:0:0:0:
142,359,128660,2,0,L|297:368,1,130,0|0,3:0|3:0,0:0:0:0:
345,323,129069,6,0,P|283:312|255:256,1,130,4|0,1:2|3:0,0:0:0:0:
297,182,129478,2,0,L|294:114,1,65,0|0,1:0|0:0,0:0:0:0:
294,32,129751,1,0,3:0:0:0:
370,68,129887,2,0,L|440:64,1,65,0|0,3:0|1:0,0:0:0:0:
407,145,130161,2,0,L|477:141,1,65,2|0,3:2|0:0,0:0:0:0:
476,225,130433,2,0,L|411:228,1,65,2|0,0:2|1:0,0:0:0:0:
448,304,130706,2,0,L|312:312,1,130,2|2,3:2|3:2,0:0:0:0:
133,239,131251,6,0,L|269:247,1,130,2|0,0:0|3:0,0:0:0:0:
318,311,131660,1,0,1:0:0:0:
231,165,131933,2,0,L|166:161,1,65,0|0,3:0|3:0,0:0:0:0:
133,239,132205,1,0,1:0:0:0:
54,205,132342,2,0,P|29:146|49:86,1,130,0|0,3:0|0:0,0:0:0:0:
112,28,132751,1,0,1:0:0:0:
231,165,133024,2,0,L|230:243,1,65,0|0,0:0|3:0,0:0:0:0:
181,298,133296,1,0,1:0:0:0:
252,343,133433,6,0,P|314:358|376:340,1,130,2|0,0:0|3:0,0:0:0:0:
443,288,133842,1,0,1:0:0:0:
443,288,134114,1,0,3:0:0:0:
403,213,134251,2,0,L|404:131,2,65,2|0|0,3:2|1:0|3:0,0:0:0:0:
325,176,134661,2,0,L|267:117,2,65,2|0|0,0:2|0:0|1:0,0:0:0:0:
247,210,135070,2,0,L|164:209,2,65,2|0|0,3:2|3:0|3:0,0:0:0:0:
268,292,135479,2,0,L|185:291,1,65,2|0,1:2|0:0,0:0:0:0:
118,296,135751,6,0,P|85:349|22:357,2,130,4|0|0,3:2|1:0|0:0,0:0:0:0:
88,216,136433,2,0,P|75:186|75:153,1,65,0|0,3:0|1:0,0:0:0:0:
62,70,136706,1,0,3:0:0:0:
62,70,136774,1,0,3:0:0:0:
62,70,136842,2,0,P|40:66|21:57,4,43.3333333333333,0|0|0|0|0,3:0|3:0|3:0|3:0|3:0,0:0:0:0:
172,94,137387,6,0,B|256:69|316:90|316:90|337:77|361:75,1,195,0|0,3:0|3:0,0:0:0:0:
370,175,137933,5,4,1:3:0:0:
47,326,143388,6,0,B|149:347|209:273|209:273|232:350|312:351|312:351|347:264|268:224,1,455,0|0,3:0|1:0,0:0:0:0:
207,193,144479,1,4,1:2:0:0:
207,193,144751,5,0,3:0:0:0:
277,145,144888,2,0,P|292:103|241:39,1,130,0|0,1:0|3:0,0:0:0:0:
160,31,145297,1,0,1:0:0:0:
160,31,145570,6,0,B|257:76|338:29|338:29|351:65|410:98,1,260,0|0,3:0|3:0,0:0:0:0:
502,207,146388,1,8,3:0:0:0:
502,207,146524,1,4,3:0:0:0:
502,207,146661,6,0,P|440:193|343:197,1,130,2|0,3:2|1:0,0:0:0:0:
301,248,147070,2,0,P|242:235|153:243,1,130,2|0,0:0|3:0,0:0:0:0:
100,294,147479,1,0,1:0:0:0:
14,133,147752,2,0,L|17:283,1,130,2|0,3:2|1:0,0:0:0:0:
100,294,148161,2,0,L|97:164,1,130,2|0,0:0|0:0,0:0:0:0:
96,72,148570,1,0,1:0:0:0:
266,135,148843,6,0,P|327:157|409:135,1,130,2|0,3:2|1:0,0:0:0:0:
398,55,149251,2,0,P|337:33|255:55,1,130,2|0,0:0|3:0,0:0:0:0:
192,85,149661,2,0,L|193:150,1,65,0|2,1:0|0:0,0:0:0:0:
227,233,149933,2,0,L|228:298,2,65,0|0|0,3:0|0:0|1:0,0:0:0:0:
303,181,150343,1,0,0:0:0:0:
370,241,150479,2,0,P|431:257|487:228,1,130,0|0,3:0|1:0,0:0:0:0:
490,136,150888,6,0,P|433:106|372:123,1,130,0|0,3:0|0:0,0:0:0:0:
303,181,151297,1,0,1:0:0:0:
151,282,151570,2,0,P|183:273|218:280,1,65,0|0,3:0|3:0,0:0:0:0:
186,370,151843,2,0,L|39:362,1,130,0|0,1:0|3:0,0:0:0:0:
131,196,152388,1,0,1:0:0:0:
186,370,152661,1,0,3:0:0:0:
268,330,152798,2,0,P|285:304|289:272,1,65,0|0,3:0|1:0,0:0:0:0:
198,114,153206,6,0,L|44:108,1,130,2|0,3:2|1:0,0:0:0:0:
232,188,153752,2,0,L|296:185,2,65,0|0|0,3:0|3:0|1:0,0:0:0:0:
369,307,154297,2,0,P|395:290|411:261,1,65,0|0,3:0|1:0,0:0:0:0:
445,176,154570,2,0,P|452:144|443:114,1,65,0|0,1:0|3:0,0:0:0:0:
369,60,154842,2,0,L|215:54,1,130,0|8,3:0|3:0,0:0:0:0:
75,136,155388,6,0,L|229:130,1,130,2|0,3:2|1:0,0:0:0:0:
93,275,155934,2,0,L|28:277,2,65,0|0|0,3:0|3:0|1:0,0:0:0:0:
264,213,156479,6,0,L|134:207,1,130,2|0,3:2|1:0,0:0:0:0:
246,352,157025,2,0,L|310:354,2,65,0|0|0,3:0|3:0|1:0,0:0:0:0:
400,255,157570,6,0,B|426:194|426:194|406:110,1,130,2|0,3:2|1:0,0:0:0:0:
246,51,158116,2,0,P|213:47|186:30,2,65,0|0|0,3:0|3:0|1:0,0:0:0:0:
427,54,158661,6,0,P|365:63|334:118,1,130,2|0,3:2|1:0,0:0:0:0:
368,297,159207,2,0,P|361:266|343:239,1,65,0|0,3:0|3:0,0:0:0:0:
277,301,159479,2,0,P|250:283|218:278,1,65,0|0,1:0|0:0,0:0:0:0:
154,363,159752,6,0,P|221:322|210:265,1,130,0|0,3:0|1:0,0:0:0:0:
128,119,160297,1,0,3:0:0:0:
128,119,160434,2,0,L|130:197,1,65,0|0,3:0|1:0,0:0:0:0:
38,189,160707,1,0,0:0:0:0:
38,189,160843,2,0,L|43:383,2,195,0|2|0,3:0|0:0|1:0,0:0:0:0:
218,278,161934,6,0,P|262:282|311:206,1,130,0|0,3:0|1:0,0:0:0:0:
184,68,162479,1,0,3:0:0:0:
184,68,162616,2,0,P|197:97|232:115,1,65,0|0,3:0|1:0,0:0:0:0:
314,130,162889,1,0,0:0:0:0:
314,130,163025,2,0,L|508:125,2,195,0|0|0,3:0|3:0|3:0,0:0:0:0:
256,200,163979,1,0,3:0:0:0:
189,261,164115,6,0,L|59:263,1,130,2|0,3:2|1:0,0:0:0:0:
146,103,164661,2,0,L|144:18,2,65,0|0|0,3:0|3:0|1:0,0:0:0:0:
268,283,165206,6,0,L|397:280,1,130,2|0,3:2|1:0,0:0:0:0:
355,122,165752,2,0,L|353:37,2,65,0|0|0,3:0|3:0|1:0,0:0:0:0:
189,261,166297,6,0,L|59:263,1,130,2|0,3:2|1:0,0:0:0:0:
52,81,166843,2,0,P|28:101|14:131,2,65,0|0|0,3:0|3:0|1:0,0:0:0:0:
206,178,167388,6,0,P|263:206|326:195,1,130,2|0,3:2|1:0,0:0:0:0:
434,48,167933,2,0,L|441:130,1,65,0|0,3:0|3:0,0:0:0:0:
493,186,168206,2,0,L|486:268,1,65,0|0,1:0|0:0,0:0:0:0:
413,315,168478,6,0,L|403:185,1,130,0|0,3:0|1:0,0:0:0:0:
277,52,169024,1,0,3:0:0:0:
277,52,169161,2,0,P|244:67|211:69,1,65,0|0,3:0|1:0,0:0:0:0:
125,51,169434,1,0,0:0:0:0:
125,51,169569,6,0,P|29:73|86:127,2,195,0|2|0,3:0|0:0|1:0,0:0:0:0:
129,233,170661,6,0,L|0:232,1,130,0|0,3:0|1:0,0:0:0:0:
144,342,171206,1,0,3:0:0:0:
144,342,171343,2,0,P|174:335|199:315,1,65,0|0,3:0|1:0,0:0:0:0:
231,228,171616,1,0,0:0:0:0:
231,227,171751,2,0,B|191:123|265:116|231:37,2,195,0|0|0,3:0|3:0|3:0,0:0:0:0:
303,172,172706,1,0,3:0:0:0:
376,224,172842,6,0,P|437:239|497:216,1,130,2|0,3:2|1:0,0:0:0:0:
305,257,173388,1,0,3:0:0:0:
305,257,173525,2,0,L|308:323,1,65,0|0,3:0|1:0,0:0:0:0:
228,364,173796,1,0,0:0:0:0:
227,364,173933,2,0,P|149:319|176:233,2,195,2|2|0,3:2|0:0|1:0,0:0:0:0:
240,182,175024,6,0,P|215:161|161:153,1,65,0|0,1:0|3:0,0:0:0:0:
189,60,175297,2,0,P|156:62|112:95,1,65,0|0,1:0|3:0,0:0:0:0:
50,31,175569,2,0,L|56:169,1,130,0|0,3:0|3:0,0:0:0:0:
139,323,176115,5,4,1:2:0:0:
139,323,176933,1,0,1:0:0:0:
307,253,177206,6,0,P|338:197|327:134,1,130,4|0,3:2|1:0,0:0:0:0:
267,65,177615,1,2,0:0:0:0:
357,50,177752,2,0,L|430:43,1,65,0|0,3:0|3:0,0:0:0:0:
391,128,178024,2,0,L|326:134,1,65,0|2,1:0|0:0,0:0:0:0:
246,178,178297,2,0,L|116:165,1,130,0|0,3:0|1:0,0:0:0:0:
68,242,178706,2,0,L|197:254,1,130,2|0,3:2|3:0,0:0:0:0:
246,178,179115,1,0,1:0:0:0:
366,314,179388,6,0,P|373:236|324:183,1,130,0|0,3:0|1:0,0:0:0:0:
246,178,179797,2,0,P|185:228|183:300,1,130,2|0,0:0|3:0,0:0:0:0:
228,352,180206,1,0,1:0:0:0:
345,196,180479,2,0,L|339:64,1,130,0|0,3:0|1:0,0:0:0:0:
413,13,180888,1,2,3:2:0:0:
482,70,181024,2,0,P|449:97|417:100,1,65,0|0,0:0|3:0,0:0:0:0:
339,66,181297,2,0,P|306:39|274:36,1,65,0|0,1:0|1:0,0:0:0:0:
205,80,181570,6,0,P|138:93|56:87,1,130,0|0,3:0|1:0,0:0:0:0:
15,159,181979,2,0,P|84:176|166:168,1,130,2|0,0:0|0:0,0:0:0:0:
232,160,182388,1,0,1:0:0:0:
392,74,182661,2,0,P|368:108|374:205,1,130,0|0,3:0|1:0,0:0:0:0:
456,215,183070,2,0,P|486:159|479:96,1,130,2|0,3:2|3:0,0:0:0:0:
454,8,183479,1,0,1:0:0:0:
368,193,183752,6,0,L|386:273,1,65,2|0,3:2|3:0,0:0:0:0:
292,245,184024,2,0,L|248:314,1,65,2|0,3:2|3:0,0:0:0:0:
201,227,184297,2,0,L|120:244,1,65,2|0,3:2|3:0,0:0:0:0:
149,150,184570,2,0,L|79:106,1,65,0|0,3:0|3:0,0:0:0:0:
43,39,184842,2,0,P|58:134|39:229,1,195,4|0,1:2|3:0,0:0:0:0:
8,315,185388,1,0,1:0:0:0:
151,202,185661,1,0,1:0:0:0:
43,39,185933,6,0,L|192:29,1,130,4|0,3:2|1:0,0:0:0:0:
239,92,186342,2,0,L|368:100,1,130,2|0,0:0|3:0,0:0:0:0:
446,150,186752,2,0,P|451:181|446:214,1,65,0|2,1:0|0:0,0:0:0:0:
363,251,187024,2,0,P|362:302|423:376,1,130,0|0,3:0|1:0,0:0:0:0:
488,329,187433,2,0,P|484:265|446:213,1,130,2|0,3:2|3:0,0:0:0:0:
372,160,187842,1,0,1:0:0:0:
203,229,188115,6,0,P|140:268|78:260,1,130,0|0,3:0|1:0,0:0:0:0:
22,196,188524,2,0,P|17:133|51:78,1,130,2|0,0:0|3:0,0:0:0:0:
136,45,188933,1,0,1:0:0:0:
203,229,189206,2,0,L|203:365,1,130,0|0,3:0|1:0,0:0:0:0:
114,335,189615,1,2,3:2:0:0:
114,244,189751,2,0,L|114:160,1,65,0|0,0:0|3:0,0:0:0:0:
22,177,190024,2,0,L|22:93,1,65,0|0,1:0|1:0,0:0:0:0:
1,22,190297,6,0,P|53:59|117:68,1,130,0|0,3:0|1:0,0:0:0:0:
188,125,190706,2,0,P|251:114|302:75,1,130,2|0,0:0|3:0,0:0:0:0:
366,9,191115,1,0,1:0:0:0:
362,191,191388,2,0,L|369:338,1,130,0|0,3:0|1:0,0:0:0:0:
290,368,191797,2,0,L|283:238,1,130,2|0,3:2|3:0,0:0:0:0:
287,146,192206,1,0,1:0:0:0:
431,277,192479,6,0,L|346:274,1,65,2|0,3:2|3:0,0:0:0:0:
283,238,192751,2,0,L|218:240,1,65,2|0,3:2|3:0,0:0:0:0:
139,287,193024,2,0,L|74:285,1,65,2|0,3:2|3:0,0:0:0:0:
8,220,193297,2,0,P|28:194|38:163,1,65,0|0,3:0|3:0,0:0:0:0:
21,55,193569,2,0,P|38:131|148:137,1,195,4|0,1:2|3:0,0:0:0:0:
112,55,194115,1,0,1:0:0:0:
170,227,194388,1,0,1:0:0:0:
311,74,194661,6,0,B|465:71,1,130,0|0,3:0|3:0,0:0:0:0:
487,149,195070,2,0,B|357:151,1,130,0|0,1:0|1:0,0:0:0:0:
270,183,195479,2,0,P|249:206|246:238,1,65,0|0,3:0|1:0,0:0:0:0:
332,270,195752,2,0,P|362:214|356:150,1,130,0|0,3:0|3:0,0:0:0:0:
300,78,196161,2,0,P|243:47|179:53,1,130,0|0,1:0|1:0,0:0:0:0:
115,118,196570,2,0,P|119:150|117:182,1,65,0|0,3:0|1:0,0:0:0:0:
73,261,196842,5,4,3:2:0:0:
73,261,197388,1,2,0:0:0:0:
73,261,197933,6,0,L|218:254,1,130,2|2,0:0|0:0,0:0:0:0:
385,328,198479,2,0,L|255:321,1,130,2|2,1:2|3:2,0:0:0:0:
203,255,198888,1,0,1:0:0:0:
203,255,199024,6,0,P|196:170|237:125,1,130,4|0,3:2|1:0,0:0:0:0:
311,131,199433,2,0,P|341:186|328:249,1,130,0|0,0:0|3:0,0:0:0:0:
385,328,199842,2,0,P|416:293|426:258,1,65,0|0,1:0|0:0,0:0:0:0:
491,212,200115,6,0,P|482:272|422:276,1,130,0|0,3:0|1:0,0:0:0:0:
328,249,200524,2,0,L|263:251,1,65,0|0,3:0|0:0,0:0:0:0:
194,191,200797,1,0,3:0:0:0:
194,191,200933,2,0,L|129:193,1,65,0|0,1:0|0:0,0:0:0:0:
74,267,201206,6,0,P|87:204|56:148,1,130,0|0,3:0|1:0,0:0:0:0:
25,62,201615,2,0,P|72:105|135:107,1,130,0|0,0:0|3:0,0:0:0:0:
199,42,202024,2,0,L|264:42,1,65,0|0,1:0|0:0,0:0:0:0:
328,107,202297,6,0,P|391:105|438:62,1,130,0|0,3:0|1:0,0:0:0:0:
407,148,202706,2,0,P|404:180|409:212,1,65,0|0,3:0|0:0,0:0:0:0:
451,293,202979,2,0,P|481:304|507:323,2,65,0|0|0,3:0|1:0|1:0,0:0:0:0:
359,290,203388,6,0,P|334:310|304:323,1,65,0|0,3:0|0:0,0:0:0:0:
221,284,203661,2,0,B|204:222|243:222|221:155,1,130,0|0,1:0|3:0,0:0:0:0:
175,77,204070,1,0,3:0:0:0:
264,60,204206,2,0,L|339:55,1,65,0|0,1:0|0:0,0:0:0:0:
413,91,204479,6,0,L|499:97,2,86.6666666666667,2|2|0,3:2|0:0|0:0,0:0:0:0:
308,150,205024,2,0,L|222:156,2,86.6666666666667,2|2|0,0:0|0:0|0:0,0:0:0:0:
410,216,205570,6,0,P|418:253|409:296,1,65,0|0,1:0|3:0,0:0:0:0:
327,255,205842,2,0,P|306:286|269:310,1,65,0|0,1:0|3:0,0:0:0:0:
241,223,206115,2,0,P|204:231|161:222,1,65,0|0,1:0|3:0,0:0:0:0:
203,139,206388,2,0,P|171:118|147:81,1,65,0|0,1:0|3:0,0:0:0:0:
114,15,206661,5,0,1:0:0:0:
63,90,206797,2,0,L|62:158,1,65,0|0,0:0|0:0,0:0:0:0:
59,337,207206,2,0,P|83:312|120:298,1,65,0|0,1:0|3:0,0:0:0:0:
199,280,207479,2,0,P|233:279|269:295,1,65,0|2,1:0|0:0,0:0:0:0:
343,328,207751,6,0,L|415:326,3,65,0|0|0|0,3:0|0:0|1:0|0:0,0:0:0:0:
426,244,208297,2,0,L|362:246,3,65,0|0|0|2,3:0|3:0|1:0|0:0,0:0:0:0:
284,199,208842,6,0,L|212:197,3,65,0|0|0|0,3:0|0:0|1:0|3:0,0:0:0:0:
200,115,209388,2,0,L|264:116,3,65,0|0|0|2,0:0|3:0|1:0|0:0,0:0:0:0:
351,88,209933,6,0,B|384:93|384:93|429:121,1,65,0|0,3:0|0:0,0:0:0:0:
446,193,210206,2,0,B|441:226|441:226|413:271,1,65,0|0,1:0|0:0,0:0:0:0:
354,312,210479,1,0,3:0:0:0:
300,238,210615,1,0,3:0:0:0:
246,311,210751,1,0,1:0:0:0:
198,232,210888,1,2,0:0:0:0:
147,307,211024,6,0,L|82:306,1,65,0|0,3:0|0:0,0:0:0:0:
42,223,211297,2,0,L|107:222,1,65,0|0,1:0|3:0,0:0:0:0:
198,232,211570,1,0,0:0:0:0:
168,146,211706,1,0,3:0:0:0:
258,152,211842,1,0,1:0:0:0:
305,73,211979,1,0,1:0:0:0:
365,140,212115,6,0,P|393:145|429:136,3,65,0|0|0|0,3:0|0:0|1:0|0:0,0:0:0:0:
468,219,212661,2,0,P|494:199|510:172,3,65,0|0|0|2,3:0|3:0|1:0|0:0,0:0:0:0:
500,81,213206,2,0,P|483:53|457:34,3,65,0|0|0|0,3:0|0:0|1:0|3:0,0:0:0:0:
416,115,213751,2,0,P|384:107|352:111,3,65,0|0|0|2,0:0|3:0|1:0|0:0,0:0:0:0:
294,182,214297,2,0,B|238:232|226:340|226:340|233:231|180:140|180:140|126:229|9:198,1,520,0|0,1:0|3:0,0:0:0:0:
156,45,215661,1,0,0:0:0:0:
294,182,215933,2,0,P|318:217|355:239,1,65,0|0,1:0|3:0,0:0:0:0:
297,313,216206,2,0,P|338:320|380:310,1,65,0|2,1:0|0:0,0:0:0:0:
449,368,216479,6,0,L|442:186,1,130,0|0,1:0|1:0,0:0:0:0:
444,142,216888,1,0,3:0:0:0:
444,142,216956,1,0,3:0:0:0:
444,142,217024,2,0,L|355:153,1,65,0|0,1:0|3:0,0:0:0:0:
294,182,217297,2,0,L|229:174,1,65,0|0,1:0|3:0,0:0:0:0:
160,113,217570,6,0,L|4:132,1,130,0|0,1:0|1:0,0:0:0:0:
34,227,217979,1,0,3:0:0:0:
34,227,218047,1,0,3:0:0:0:
34,227,218115,2,0,L|98:219,1,65,0|0,1:0|3:0,0:0:0:0:
173,271,218388,1,0,1:0:0:0:
263,278,218524,1,0,3:0:0:0:
340,229,218661,6,0,P|328:200|329:167,1,65,0|0,1:0|3:0,0:0:0:0:
243,146,218933,2,0,P|255:116|278:93,1,65,0|0,1:0|3:0,0:0:0:0:
220,23,219206,2,0,P|191:37|159:39,1,65,0|0,1:0|3:0,0:0:0:0:
145,127,219478,2,0,P|114:117|90:95,1,65,0|0,3:0|3:0,0:0:0:0:
56,10,219751,5,0,1:0:0:0:
56,10,220842,6,0,L|59:155,1,130,4|0,3:2|1:0,0:0:0:0:
61,224,221251,1,2,0:0:0:0:
105,296,221388,2,0,P|132:313|164:312,1,65,0|0,3:0|3:0,0:0:0:0:
237,269,221661,2,0,P|264:251|296:252,1,65,0|2,1:0|0:0,0:0:0:0:
361,305,221933,2,0,L|495:304,1,130,0|0,3:0|1:0,0:0:0:0:
506,220,222342,2,0,L|376:220,1,130,2|0,3:2|3:0,0:0:0:0:
300,256,222751,1,0,1:0:0:0:
300,256,223024,6,0,P|230:227|193:175,1,130,0|0,3:0|1:0,0:0:0:0:
201,96,223433,2,0,P|159:144|98:166,1,130,2|0,0:0|3:0,0:0:0:0:
23,127,223842,1,0,1:0:0:0:
23,127,224115,2,0,L|26:273,1,130,0|0,3:0|1:0,0:0:0:0:
66,331,224524,1,2,3:2:0:0:
134,280,224660,2,0,P|151:253|159:222,1,65,0|0,0:0|3:0,0:0:0:0:
245,221,224933,2,0,P|228:170|211:152,1,65,0|0,1:0|1:0,0:0:0:0:
288,109,225206,6,0,L|132:105,1,130,0|0,3:0|1:0,0:0:0:0:
133,24,225615,2,0,L|262:27,1,130,2|0,0:0|3:0,0:0:0:0:
288,109,226024,1,0,1:0:0:0:
444,44,226297,2,0,P|464:109|445:171,1,130,0|0,3:0|1:0,0:0:0:0:
383,222,226706,2,0,P|356:284|382:349,1,130,2|0,3:2|3:0,0:0:0:0:
439,286,227115,1,0,1:0:0:0:
290,205,227388,6,0,L|209:207,1,65,2|0,3:2|3:0,0:0:0:0:
192,285,227661,2,0,L|111:287,1,65,2|0,3:2|3:0,0:0:0:0:
94,364,227933,2,0,L|29:365,1,65,2|0,3:2|3:0,0:0:0:0:
25,280,228206,2,0,L|23:215,1,65,0|0,3:0|3:0,0:0:0:0:
16,131,228478,2,0,P|52:169|66:73,1,195,4|0,1:2|3:0,0:0:0:0:
8,48,229024,1,0,1:0:0:0:
139,223,229297,1,0,1:0:0:0:
239,26,229569,6,0,P|270:75|360:79,1,130,4|0,3:2|1:0,0:0:0:0:
417,116,229979,2,0,P|359:118|310:194,1,130,2|0,0:0|3:0,0:0:0:0:
301,253,230388,2,0,P|309:283|333:305,1,65,0|2,1:0|0:0,0:0:0:0:
273,364,230660,2,0,L|410:363,1,130,0|0,3:0|1:0,0:0:0:0:
477,320,231070,2,0,L|476:190,1,130,2|0,3:2|3:0,0:0:0:0:
431,118,231478,1,0,1:0:0:0:
284,34,231751,6,0,P|221:22|166:55,1,130,0|0,3:0|1:0,0:0:0:0:
187,138,232161,2,0,P|249:149|304:116,1,130,2|0,0:0|3:0,0:0:0:0:
364,57,232569,1,0,1:0:0:0:
350,225,232842,2,0,L|357:372,1,130,0|0,3:0|1:0,0:0:0:0:
278,321,233251,1,2,3:2:0:0:
202,283,233387,2,0,L|124:289,1,65,0|0,0:0|3:0,0:0:0:0:
86,356,233661,2,0,L|8:350,1,65,0|0,1:0|1:0,0:0:0:0:
0,263,233933,6,0,P|29:205|85:175,1,130,0|0,3:0|1:0,0:0:0:0:
169,168,234342,2,0,P|225:198|254:255,1,130,2|0,0:0|3:0,0:0:0:0:
258,340,234751,1,0,1:0:0:0:
91,304,235024,2,0,L|84:174,1,130,0|0,3:0|1:0,0:0:0:0:
169,168,235433,2,0,L|175:38,1,130,2|0,3:2|3:0,0:0:0:0:
259,34,235842,1,0,1:0:0:0:
242,202,236115,6,0,L|244:266,1,65,2|0,3:2|3:0,0:0:0:0:
314,315,236388,2,0,L|368:279,1,65,2|0,3:2|3:0,0:0:0:0:
376,195,236661,2,0,L|318:165,1,65,2|0,3:2|3:0,0:0:0:0:
254,110,236933,2,0,L|311:80,1,65,0|0,3:0|3:0,0:0:0:0:
247,25,237206,2,0,B|118:6|118:6|153:59,1,195,4|0,1:2|3:0,0:0:0:0:
117,136,237751,1,0,1:0:0:0:
311,79,238024,1,0,1:0:0:0:
232,229,238297,6,0,P|215:288|267:360,1,130,0|0,3:0|3:0,0:0:0:0:
329,349,238706,2,0,P|358:292|341:231,1,130,0|0,1:0|1:0,0:0:0:0:
289,164,239115,2,0,L|291:87,1,65,0|0,3:0|1:0,0:0:0:0:
349,38,239388,6,0,P|406:10|466:30,1,130,0|0,3:0|3:0,0:0:0:0:
487,112,239797,2,0,P|430:141|369:124,1,130,0|0,1:0|1:0,0:0:0:0:
290,99,240206,2,0,L|220:102,1,65,0|0,3:0|1:0,0:0:0:0:
157,51,240478,5,4,1:2:0:0:
157,51,241024,1,2,0:0:0:0:
157,51,241569,6,0,P|145:115|162:177,1,130,2|2,3:2|0:0,0:0:0:0:
216,364,242115,2,0,P|227:300|210:238,1,130,2|2,1:2|0:0,0:0:0:0:
109,236,242524,6,0,B|160:278|160:278|231:222,1,130,4|0,1:2|3:0,0:0:0:0:
273,181,242933,2,0,B|323:141|323:141|374:183,1,130,0|0,1:0|3:0,0:0:0:0:
453,213,243342,2,0,P|458:185|450:148,1,65,0|0,3:0|1:0,0:0:0:0:
407,76,243615,2,0,P|390:52|359:31,1,65,2|0,3:2|0:0,0:0:0:0:
277,10,243888,2,0,P|246:6|214:13,1,65,2|0,0:2|1:0,0:0:0:0:
143,60,244160,2,0,L|144:198,1,130,2|2,3:2|3:2,0:0:0:0:
255,317,244706,6,0,L|254:187,1,130,2|0,0:0|3:0,0:0:0:0:
253,102,245115,1,0,1:0:0:0:
253,102,245388,2,0,P|287:116|316:117,1,65,0|0,3:0|3:0,0:0:0:0:
394,89,245660,1,0,1:0:0:0:
430,165,245797,2,0,P|436:228|395:276,1,130,0|0,3:0|0:0,0:0:0:0:
317,309,246206,1,0,1:0:0:0:
317,309,246478,2,0,L|248:307,1,65,0|0,0:0|3:0,0:0:0:0:
179,263,246751,1,0,1:0:0:0:
109,310,246888,6,0,P|51:286|38:225,1,130,2|0,0:0|3:0,0:0:0:0:
75,149,247297,1,0,1:0:0:0:
75,149,247569,1,0,3:0:0:0:
157,170,247706,2,0,L|247:165,2,65,2|0|0,3:2|1:0|3:0,0:0:0:0:
183,250,248115,2,0,L|273:245,2,65,2|0|0,0:2|0:0|1:0,0:0:0:0:
214,328,248524,2,0,L|278:324,2,65,2|0|0,3:2|3:0|3:0,0:0:0:0:
129,317,248933,2,0,L|65:313,1,65,2|0,1:2|0:0,0:0:0:0:
21,239,249206,6,0,P|40:179|6:92,2,130,4|0|0,3:2|1:0|0:0,0:0:0:0:
65,313,249888,2,0,L|129:317,1,65,0|0,3:0|1:0,0:0:0:0:
191,259,250161,1,0,3:0:0:0:
191,259,250229,1,0,3:0:0:0:
191,259,250297,2,0,L|191:215,4,43.3333333333333,0|0|0|0|0,3:0|3:0|3:0|3:0|3:0,0:0:0:0:
256,340,250842,2,0,P|318:330|346:274,1,130,0|0,3:0|3:0,0:0:0:0:
409,331,251251,6,0,L|403:196,1,130,4|0,1:2|3:0,0:0:0:0:
411,116,251660,2,0,P|370:131|344:127,1,65,0|0,1:0|0:0,0:0:0:0:
292,66,251933,1,0,3:0:0:0:
243,135,252069,2,0,L|248:225,1,65,0|0,3:0|1:0,0:0:0:0:
251,284,252342,2,0,L|161:289,1,65,2|0,3:2|0:0,0:0:0:0:
101,289,252615,2,0,L|96:199,1,65,2|0,0:2|1:0,0:0:0:0:
15,201,252888,2,0,L|22:330,1,130,2|2,3:2|3:2,0:0:0:0:
186,287,253433,6,0,L|178:157,1,130,2|0,0:0|3:0,0:0:0:0:
171,72,253842,1,0,1:0:0:0:
171,72,254115,2,0,P|196:41|237:27,1,65,0|0,3:0|3:0,0:0:0:0:
302,25,254387,1,0,1:0:0:0:
345,98,254524,2,0,P|344:149|272:192,1,130,0|0,3:0|0:0,0:0:0:0:
199,187,254933,1,0,1:0:0:0:
199,187,255205,2,0,P|216:223|217:256,1,65,0|0,0:0|3:0,0:0:0:0:
168,316,255478,1,0,1:0:0:0:
252,326,255615,6,0,L|381:319,1,130,2|0,0:0|3:0,0:0:0:0:
455,276,256024,1,0,1:0:0:0:
455,276,256296,1,0,3:0:0:0:
405,206,256433,2,0,P|396:176|399:144,2,65,2|0|0,3:2|1:0|3:0,0:0:0:0:
319,213,256843,2,0,P|290:199|270:174,2,65,2|0|0,0:2|0:0|1:0,0:0:0:0:
272,283,257251,2,0,P|241:293|209:290,2,65,2|0|0,3:2|3:0|3:0,0:0:0:0:
357,284,257661,2,0,P|385:298|405:323,1,65,2|0,1:2|0:0,0:0:0:0:
457,382,257933,6,0,L|453:243,2,130,4|0|0,3:2|1:0|0:0,0:0:0:0:
359,349,258615,2,0,L|357:283,1,65,0|0,3:0|1:0,0:0:0:0:
319,213,258888,1,0,3:0:0:0:
319,213,258956,1,0,3:0:0:0:
319,213,259024,2,0,L|318:160,4,43.3333333333333,0|0|0|0|0,3:0|3:0|3:0|3:0|3:0,0:0:0:0:
235,288,259569,6,0,B|194:269|150:292|150:292|202:265|197:186,1,195,0|0,3:0|3:0,0:0:0:0:
159,110,260115,5,0,1:0:0:0:
198,360,260524,1,0,1:0:0:0:
113,213,260797,5,0,3:0:0:0:
101,210,260865,1,0,3:0:0:0:
89,208,260933,1,0,1:0:0:0:
5,259,261070,1,4,1:2:0:0:
