osu file format v14

[General]
AudioFilename: audio.mp3
AudioLeadIn: 0
PreviewTime: 19706
Countdown: 0
SampleSet: Soft
StackLeniency: 0.4
Mode: 0
LetterboxInBreaks: 0
WidescreenStoryboard: 0

[Editor]
Bookmarks: 20115,41797,59388,98661,120342,137933,177206,242661
DistanceSpacing: 0.9
BeatDivisor: 8
GridSize: 4
TimelineZoom: 2.1

[Metadata]
Title:So What?
TitleUnicode:So What?
Artist:MisteryCircle
ArtistUnicode:MisteryCircle
Creator:Nozhomi
Version:Extra Stage
Source:東方風神録 ~ Mountain of Faith.
Tags:YOUKI SPADE SOMALLY 少女が見た日本の原風景 English Rock TH ZUN Touhou Reitaisai 10 Kanako Yasaka 八坂神奈子 Video Game 東方Project Team Shanghai Alice The Primal Scene of Japan the Girl Saw Sanae Kochiya 東風谷早苗 MoF Fuujinroku DTM9 Nowa DTM9_Nowa MaridiuS
BeatmapID:1918734
BeatmapSetID:918900

[Difficulty]
HPDrainRate:6
CircleSize:4.3
OverallDifficulty:9
ApproachRate:9.6
SliderMultiplier:1.8
SliderTickRate:1

[Events]
//Background and Video events
0,0,"bg.jpg",0,0
//Break Periods
2,138542,139561
2,140724,141751
//Storyboard Layer 0 (Background)
//Storyboard Layer 1 (Fail)
//Storyboard Layer 2 (Pass)
//Storyboard Layer 3 (Foreground)
//Storyboard Layer 4 (Overlay)
//Storyboard Sound Samples

[TimingPoints]
2661,272.727272727273,4,2,1,80,1,0
59388,-100,4,2,1,70,0,0
98661,-100,4,2,1,80,0,0
137933,-100,4,2,1,60,0,0
143388,-100,4,2,1,70,0,0
177206,-100,4,2,1,80,0,0
199024,-80,4,2,1,80,0,1
207751,-80,4,2,2,80,0,1
215456,-80,4,2,2,60,0,1
215797,-80,4,2,2,70,0,1
216342,-80,4,2,2,80,0,1
219751,-133.333333333333,4,2,1,80,0,0
220842,-100,4,2,1,80,0,0

[Colours]
Combo1 : 177,37,40
Combo2 : 198,154,23
Combo3 : 230,96,15

[HitObjects]
46,238,19706,5,0,3:0:0:0:
117,293,19842,2,0,P|177:267|241:300,1,135,0|0,1:0|0:0,0:0:0:0:
176,348,20115,5,4,3:2:0:0:
94,126,20388,2,0,L|97:22,1,90,0|2,1:0|0:0,0:0:0:0:
175,110,20661,1,0,3:0:0:0:
175,110,20797,1,0,3:0:0:0:
19,152,20933,1,0,1:0:0:0:
99,17,21070,1,2,0:0:0:0:
140,218,21206,6,0,P|191:256|313:232,1,180,0|0,3:0|1:0,0:0:0:0:
352,78,21615,2,0,P|352:123|356:167,1,90,2|0,3:2|0:0,0:0:0:0:
423,253,21888,1,0,3:0:0:0:
275,166,22024,2,0,P|232:152|187:152,1,90,0|0,1:0|0:0,0:0:0:0:
15,270,22297,6,0,P|55:287|118:178,1,180,0|0,3:0|1:0,0:0:0:0:
16,150,22706,1,2,0:0:0:0:
159,325,22842,1,0,3:0:0:0:
159,325,22979,1,0,3:0:0:0:
92,131,23115,2,0,L|95:42,1,90,0|0,1:0|0:0,0:0:0:0:
312,106,23388,6,0,P|275:130|231:126,1,90,0|0,3:0|0:0,0:0:0:0:
384,42,23661,1,0,1:0:0:0:
374,253,23797,2,0,L|378:144,1,90,2|0,3:2|0:0,0:0:0:0:
484,280,24070,1,0,3:0:0:0:
291,194,24206,1,0,1:0:0:0:
250,175,24274,1,0,1:0:0:0:
205,180,24342,1,0,1:0:0:0:
172,212,24411,1,0,1:0:0:0:
176,256,24479,6,0,P|169:143|95:130,1,180,0|0,3:0|1:0,0:0:0:0:
45,245,24888,1,2,0:0:0:0:
200,325,25024,2,0,L|320:320,1,90,0|0,3:0|3:0,0:0:0:0:
255,209,25296,1,0,1:0:0:0:
139,370,25433,1,0,0:0:0:0:
149,151,25570,6,0,P|146:193|156:249,1,90,0|0,3:0|0:0,0:0:0:0:
261,284,25842,1,0,1:0:0:0:
73,309,25979,2,0,P|100:340|146:373,1,90,2|0,3:2|0:0,0:0:0:0:
220,218,26251,1,0,3:0:0:0:
4,265,26388,2,0,L|2:354,1,90,0|0,1:0|0:0,0:0:0:0:
81,215,26661,5,2,3:2:0:0:
81,215,26729,1,0,3:0:0:0:
81,215,26797,1,0,3:0:0:0:
214,353,26933,5,2,3:2:0:0:
214,353,27001,1,0,3:0:0:0:
214,353,27069,1,0,3:0:0:0:
278,132,27206,5,2,3:2:0:0:
306,97,27274,1,0,3:0:0:0:
350,90,27342,1,0,3:0:0:0:
381,122,27411,1,0,3:0:0:0:
394,164,27479,1,0,3:0:0:0:
425,195,27547,1,0,3:0:0:0:
469,196,27615,1,0,3:0:0:0:
497,161,27683,1,0,3:0:0:0:
469,125,27751,6,0,P|451:227|496:297,1,180,4|0,1:2|0:0,0:0:0:0:
324,221,28161,1,0,3:0:0:0:
324,221,28229,1,0,3:0:0:0:
324,221,28297,2,0,P|282:203|237:202,1,90,0|0,1:0|3:0,0:0:0:0:
73,309,28570,2,0,P|108:281|132:243,1,90,0|0,1:0|0:0,0:0:0:0:
166,26,28842,5,4,3:2:0:0:
166,26,29115,2,0,L|170:115,1,90,0|2,1:0|0:0,0:0:0:0:
304,69,29388,1,0,3:0:0:0:
304,69,29524,1,0,3:0:0:0:
107,162,29660,1,0,1:0:0:0:
166,26,29797,1,2,0:0:0:0:
231,212,29933,6,0,B|244:258|221:300|221:300|257:264|302:273,1,180,0|0,3:0|1:0,0:0:0:0:
460,340,30342,2,0,P|399:335|355:302,1,90,2|0,3:2|0:0,0:0:0:0:
363,130,30615,1,0,3:0:0:0:
295,358,30751,2,0,P|287:314|301:272,1,90,0|0,1:0|0:0,0:0:0:0:
495,204,31024,6,0,B|425:163|388:240|323:199,1,180,0|0,3:0|1:0,0:0:0:0:
255,86,31433,1,2,0:0:0:0:
196,217,31569,1,0,3:0:0:0:
196,217,31706,1,0,3:0:0:0:
363,130,31842,2,0,L|359:32,1,90,0|0,1:0|0:0,0:0:0:0:
171,60,32115,6,0,P|210:82|254:86,1,90,0|0,3:0|0:0,0:0:0:0:
100,12,32388,1,0,1:0:0:0:
98,156,32524,2,0,L|96:271,1,90,2|0,3:2|0:0,0:0:0:0:
11,89,32797,1,0,3:0:0:0:
191,194,32933,1,0,1:0:0:0:
233,209,33001,1,0,1:0:0:0:
276,196,33069,1,0,1:0:0:0:
307,162,33138,1,0,1:0:0:0:
314,117,33206,6,0,L|321:296,1,180,0|0,3:0|1:0,0:0:0:0:
415,198,33615,1,2,0:0:0:0:
230,119,33751,2,0,L|233:209,1,90,0|0,3:0|3:0,0:0:0:0:
416,310,34023,1,0,1:0:0:0:
307,162,34160,1,0,0:0:0:0:
150,321,34297,6,0,P|188:297|232:292,1,90,0|0,3:0|0:0,0:0:0:0:
91,365,34569,1,0,1:0:0:0:
69,186,34706,2,0,P|93:225|97:269,1,90,2|0,3:2|0:0,0:0:0:0:
14,144,34978,1,0,3:0:0:0:
6,381,35115,2,0,P|9:337|33:300,1,90,0|0,1:0|0:0,0:0:0:0:
195,202,35388,5,2,3:2:0:0:
195,202,35456,1,0,3:0:0:0:
195,202,35524,1,0,3:0:0:0:
219,376,35660,5,2,3:2:0:0:
219,376,35728,1,0,3:0:0:0:
219,376,35796,1,0,3:0:0:0:
13,232,35933,5,2,3:2:0:0:
50,256,36001,1,0,3:0:0:0:
93,265,36070,1,0,3:0:0:0:
137,253,36139,1,0,3:0:0:0:
174,227,36207,1,0,3:0:0:0:
217,216,36275,1,0,3:0:0:0:
259,229,36343,1,0,3:0:0:0:
287,263,36411,1,0,3:0:0:0:
277,307,36479,6,0,P|184:299|174:226,1,180,4|0,1:2|0:0,0:0:0:0:
356,302,36888,1,0,3:0:0:0:
350,337,36956,1,0,3:0:0:0:
345,372,37024,1,0,1:0:0:0:
258,158,37297,1,0,1:0:0:0:
510,294,37570,5,0,3:0:0:0:
474,267,37638,1,0,3:0:0:0:
430,258,37706,1,0,1:0:0:0:
386,269,37774,1,0,3:0:0:0:
356,302,37842,1,0,3:0:0:0:
314,320,37911,1,0,3:0:0:0:
269,313,37979,1,0,1:0:0:0:
238,280,38047,1,0,3:0:0:0:
230,235,38115,1,0,3:0:0:0:
249,194,38183,1,0,3:0:0:0:
267,153,38251,1,0,1:0:0:0:
284,112,38320,1,0,3:0:0:0:
267,70,38388,1,0,3:0:0:0:
225,53,38456,1,0,3:0:0:0:
184,70,38524,1,0,1:0:0:0:
167,112,38592,1,0,3:0:0:0:
184,153,38661,5,0,3:0:0:0:
225,170,38729,1,0,3:0:0:0:
267,153,38797,1,0,1:0:0:0:
311,144,38865,1,0,3:0:0:0:
355,149,38933,1,0,3:0:0:0:
389,177,39001,1,0,3:0:0:0:
399,221,39070,1,0,1:0:0:0:
382,262,39138,1,0,3:0:0:0:
343,285,39206,1,0,3:0:0:0:
299,272,39274,1,0,3:0:0:0:
258,251,39342,1,0,1:0:0:0:
241,293,39411,1,0,3:0:0:0:
204,318,39479,1,0,3:0:0:0:
159,314,39547,1,0,3:0:0:0:
120,291,39615,1,0,1:0:0:0:
97,251,39683,1,0,3:0:0:0:
103,206,39751,5,4,1:2:0:0:
107,202,40297,5,2,0:0:0:0:
111,198,40842,6,0,L|206:204,2,60,0|2|0,3:0|0:0|0:0,0:0:0:0:
59,124,41115,2,0,L|-36:130,2,60,2|2|0,0:0|0:0|0:0,0:0:0:0:
134,74,41388,2,0,L|229:80,2,60,2|2|0,1:2|0:0|0:0,0:0:0:0:
52,34,41661,1,2,0:0:0:0:
163,210,41797,6,0,P|183:266|90:363,1,180,4|0,3:2|3:0,0:0:0:0:
0,198,42206,2,0,L|110:202,1,90,0|0,1:0|0:0,0:0:0:0:
194,78,42479,1,0,3:0:0:0:
244,204,42615,1,0,3:0:0:0:
346,55,42751,1,0,1:0:0:0:
428,172,42888,2,0,P|388:192|343:194,1,90,2|0,3:2|0:0,0:0:0:0:
384,307,43161,2,0,P|341:293|308:263,1,90,2|0,0:0|1:0,0:0:0:0:
252,103,43433,2,0,P|266:145|261:189,1,90,2|0,3:2|0:0,0:0:0:0:
116,146,43706,2,0,P|156:165|183:200,1,90,2|0,3:2|1:0,0:0:0:0:
57,353,43979,6,0,L|49:173,1,180,2|0,0:0|3:0,0:0:0:0:
179,349,44388,2,0,P|231:339|278:296,1,90,0|0,1:0|0:0,0:0:0:0:
428,309,44661,2,0,P|375:299|328:256,1,90,0|0,3:0|0:0,0:0:0:0:
297,127,44933,1,0,1:0:0:0:
306,377,45070,2,0,L|299:164,1,180,0|0,3:0|0:0,0:0:0:0:
428,309,45479,1,0,1:0:0:0:
236,170,45615,1,0,3:0:0:0:
393,80,45751,1,0,0:0:0:0:
393,80,45888,1,0,3:0:0:0:
345,279,46024,1,0,1:0:0:0:
284,92,46161,6,0,P|199:81|148:150,1,180,2|0,0:0|3:0,0:0:0:0:
255,282,46570,2,0,L|345:279,1,90,0|0,1:0|0:0,0:0:0:0:
236,170,46842,1,0,3:0:0:0:
172,354,46979,1,2,3:2:0:0:
318,216,47115,1,0,1:0:0:0:
318,216,47251,1,0,3:0:0:0:
96,248,47388,1,2,0:0:0:0:
285,329,47524,1,0,0:0:0:0:
285,329,47661,1,0,1:0:0:0:
143,163,47797,1,2,3:2:0:0:
64,361,47933,1,0,0:0:0:0:
64,361,48070,1,0,3:0:0:0:
236,170,48206,1,2,1:2:0:0:
178,369,48342,1,0,0:0:0:0:
62,158,48479,6,0,L|61:24,1,135,4|0,3:2|3:0,0:0:0:0:
109,88,48751,2,0,P|148:108|205:96,1,90,0|0,1:0|3:0,0:0:0:0:
287,20,49024,1,0,0:0:0:0:
362,145,49161,2,0,P|375:187|370:231,1,90,0|0,3:0|1:0,0:0:0:0:
263,324,49433,1,0,3:0:0:0:
263,324,49501,1,0,3:0:0:0:
262,323,49570,6,0,P|233:329|211:349,2,60,0|0|0,3:0|3:0|3:0,3:0:0:0:
368,346,49842,2,0,P|388:367|416:376,2,60,0|0|0,3:0|3:0|3:0,3:0:0:0:
339,227,50115,2,0,L|339:154,2,60,0|0|0,3:0|3:0|3:0,3:0:0:0:
464,261,50388,5,0,3:0:0:0:
464,261,50456,1,0,3:0:0:0:
464,261,50524,6,0,P|487:179|419:118,1,180,4|0,1:2|0:0,0:0:0:0:
269,181,50933,2,0,P|295:216|338:226,1,90,0|0,1:0|0:0,0:0:0:0:
341,90,51206,1,0,3:0:0:0:
269,257,51342,1,0,3:0:0:0:
410,201,51478,1,0,1:0:0:0:
253,93,51615,2,0,L|157:88,1,90,2|0,3:2|0:0,0:0:0:0:
87,233,51888,2,0,L|176:228,1,90,2|0,0:0|1:0,0:0:0:0:
267,78,52161,2,0,L|171:73,1,90,2|0,3:2|0:0,0:0:0:0:
101,218,52434,2,0,L|190:213,1,90,2|0,3:2|1:0,0:0:0:0:
107,26,52706,6,0,P|33:69|43:153,1,180,2|0,0:0|3:0,0:0:0:0:
102,307,53115,2,0,L|101:218,1,90,0|0,1:0|0:0,0:0:0:0:
245,172,53388,2,0,P|222:205|165:227,1,90,0|0,3:0|3:0,0:0:0:0:
44,154,53660,1,0,1:0:0:0:
175,296,53797,2,0,B|329:293|329:293|304:323,1,180,0|0,3:0|0:0,0:0:0:0:
176,153,54206,1,0,1:0:0:0:
248,294,54342,1,0,3:0:0:0:
302,121,54478,1,0,0:0:0:0:
302,121,54615,1,0,3:0:0:0:
140,234,54751,1,0,1:0:0:0:
391,284,54888,6,0,P|328:221|234:211,1,180,4|0,0:0|3:0,0:0:0:0:
209,370,55297,2,0,L|204:280,1,90,0|0,1:0|0:0,0:0:0:0:
97,164,55570,1,0,3:0:0:0:
50,302,55706,1,2,3:2:0:0:
181,174,55843,1,0,1:0:0:0:
181,174,55979,1,0,3:0:0:0:
132,328,56116,1,2,0:0:0:0:
21,151,56252,1,0,0:0:0:0:
21,151,56389,1,0,1:0:0:0:
224,274,56525,1,2,0:2:0:0:
3,228,56661,1,0,3:0:0:0:
3,228,56797,1,0,3:0:0:0:
157,98,56934,1,2,1:2:0:0:
132,328,57070,1,0,0:0:0:0:
256,157,57206,6,0,L|399:163,1,135,4|0,3:2|3:0,0:0:0:0:
479,238,57479,2,0,L|380:242,1,90,0|0,1:0|3:0,0:0:0:0:
319,333,57752,1,0,0:0:0:0:
199,199,57889,2,0,P|185:155|199:112,1,90,0|0,3:0|1:0,0:0:0:0:
310,29,58161,1,0,3:0:0:0:
310,29,58229,1,0,3:0:0:0:
310,29,58298,6,0,L|393:35,2,60,0|0|0,3:0|3:0|3:0,3:0:0:0:
212,82,58570,2,0,L|129:88,2,60,0|0|0,3:0|3:0|3:0,3:0:0:0:
316,122,58842,2,0,L|399:128,2,60,0|0|0,3:0|3:0|3:0,3:0:0:0:
207,188,59115,5,0,1:0:0:0:
182,225,59183,1,0,1:0:0:0:
178,269,59251,1,0,1:0:0:0:
195,311,59320,1,0,1:0:0:0:
232,335,59388,6,0,P|186:265|76:264,1,180,2|0,3:2|1:0,0:0:0:0:
133,365,59797,1,2,0:0:0:0:
270,246,59933,1,0,3:0:0:0:
270,246,60070,1,0,3:0:0:0:
83,169,60206,2,0,P|80:221|118:275,1,90,0|0,1:0|0:0,0:0:0:0:
143,99,60479,2,0,P|146:47|108:-7,1,90,2|0,3:2|0:0,0:0:0:0:
9,77,60751,1,0,1:0:0:0:
162,177,60888,2,0,L|262:173,1,90,2|0,0:0|3:0,0:0:0:0:
392,226,61161,1,0,3:0:0:0:
186,256,61297,2,0,L|96:253,1,90,0|0,1:0|0:0,0:0:0:0:
242,329,61570,6,0,P|271:296|271:252,1,90,2|0,3:2|0:0,0:0:0:0:
143,99,61842,1,0,1:0:0:0:
345,240,61979,2,0,P|319:195|250:182,1,90,2|0,0:0|3:0,0:0:0:0:
104,171,62251,2,0,P|146:183|188:170,1,90,0|0,3:0|1:0,0:0:0:0:
261,27,62524,1,2,0:0:0:0:
285,179,62661,1,0,3:0:0:0:
76,76,62797,2,0,L|165:82,1,90,0|0,0:0|1:0,0:0:0:0:
285,179,63070,1,0,0:0:0:0:
393,38,63206,2,0,P|406:80|395:123,1,90,0|0,3:0|3:0,0:0:0:0:
206,157,63479,1,0,1:0:0:0:
327,16,63615,1,2,0:0:0:0:
381,231,63751,5,0,3:0:0:0:
249,104,63888,2,0,L|137:109,1,90,2|0,0:0|1:0,0:0:0:0:
289,182,64161,1,0,0:0:0:0:
129,186,64297,2,0,L|39:190,1,90,2|0,3:2|3:0,0:0:0:0:
159,108,64570,2,0,L|249:104,1,90,0|0,1:0|0:0,0:0:0:0:
209,262,64842,1,0,3:0:0:0:
83,114,64979,2,0,P|66:72|69:27,1,90,2|0,0:0|1:0,0:0:0:0:
202,52,65252,1,0,0:0:0:0:
138,204,65389,2,0,P|97:222|26:209,1,90,2|0,3:2|3:0,0:0:0:0:
209,262,65661,2,0,P|250:280|321:267,1,90,0|0,1:0|0:0,0:0:0:0:
480,177,65933,6,0,P|395:169|358:246,1,180,2|0,3:2|1:0,0:0:0:0:
362,248,66479,1,0,3:0:0:0:
362,248,66615,1,0,3:0:0:0:
223,137,66751,2,0,P|180:123|135:136,1,90,0|0,1:0|0:0,0:0:0:0:
76,305,67024,5,0,3:0:0:0:
92,277,67092,1,0,3:0:0:0:
95,245,67161,1,0,1:0:0:0:
87,214,67229,1,0,1:0:0:0:
67,190,67297,1,0,1:0:0:0:
53,162,67365,1,0,1:0:0:0:
53,130,67433,1,0,3:0:0:0:
64,100,67501,1,0,3:0:0:0:
90,81,67570,1,0,3:0:0:0:
105,95,67842,5,8,3:0:0:0:
105,95,67911,1,8,3:0:0:0:
105,95,67979,1,4,3:0:0:0:
105,95,68047,1,4,3:0:0:0:
105,95,68115,6,0,P|192:113|266:24,1,180,2|0,3:2|1:0,0:0:0:0:
183,195,68524,1,2,0:0:0:0:
167,15,68660,1,0,3:0:0:0:
305,129,68797,1,0,3:0:0:0:
105,95,68933,2,0,L|11:97,1,90,0|0,1:0|0:0,0:0:0:0:
183,195,69206,2,0,L|277:197,1,90,2|0,3:2|0:0,0:0:0:0:
105,95,69478,1,0,1:0:0:0:
40,264,69615,2,0,P|59:304|95:329,1,90,2|0,0:0|3:0,0:0:0:0:
183,195,69888,1,0,3:0:0:0:
239,383,70024,2,0,P|261:344|261:300,1,90,0|0,1:0|0:0,0:0:0:0:
182,105,70297,6,0,L|183:195,1,90,2|0,3:2|0:0,0:0:0:0:
258,49,70569,1,0,1:0:0:0:
260,210,70706,2,0,L|262:322,1,90,2|0,0:0|3:0,0:0:0:0:
183,195,70979,2,0,L|181:105,1,90,0|0,3:0|1:0,0:0:0:0:
320,165,71251,1,2,0:0:0:0:
173,285,71388,1,0,3:0:0:0:
349,240,71524,2,0,L|469:245,1,90,0|0,0:0|1:0,0:0:0:0:
352,364,71797,1,0,0:0:0:0:
259,209,71933,2,0,P|244:168|256:125,1,90,0|0,3:0|3:0,0:0:0:0:
365,43,72206,1,0,1:0:0:0:
411,163,72342,1,0,3:0:0:0:
269,55,72479,6,0,L|82:58,1,180,0|0,3:0|1:0,0:0:0:0:
93,61,73024,1,0,3:0:0:0:
93,61,73161,1,0,3:0:0:0:
170,211,73297,2,0,L|260:210,1,90,0|0,1:0|0:0,0:0:0:0:
394,152,73570,2,0,P|309:140|260:211,1,180,0|0,3:0|1:0,0:0:0:0:
373,285,73979,1,0,0:0:0:0:
471,175,74115,1,0,3:0:0:0:
292,114,74251,2,0,P|280:71|303:33,1,90,0|0,3:0|1:0,0:0:0:0:
417,222,74524,1,0,0:0:0:0:
228,148,74661,6,0,P|133:134|76:205,1,180,2|0,3:2|1:0,0:0:0:0:
84,193,75206,1,0,3:0:0:0:
84,193,75343,1,0,3:0:0:0:
235,318,75479,2,0,P|273:271|276:228,1,90,0|0,1:0|0:0,0:0:0:0:
199,114,75751,5,0,3:0:0:0:
228,148,75819,1,0,3:0:0:0:
273,151,75888,1,0,1:0:0:0:
315,137,75956,1,0,1:0:0:0:
341,101,76024,1,0,1:0:0:0:
376,75,76092,1,0,1:0:0:0:
420,68,76160,1,0,3:0:0:0:
462,83,76228,1,0,3:0:0:0:
480,125,76297,1,0,3:0:0:0:
480,125,76569,5,8,3:0:0:0:
477,131,76638,1,8,3:0:0:0:
473,135,76706,1,4,3:0:0:0:
469,139,76774,1,4,3:0:0:0:
465,143,76842,6,0,L|372:137,1,90,2|0,3:2|0:0,0:0:0:0:
214,212,77115,2,0,L|307:206,1,90,0|2,1:0|0:0,0:0:0:0:
158,138,77388,1,0,3:0:0:0:
158,138,77525,1,0,3:0:0:0:
264,287,77661,2,0,L|357:281,1,90,0|0,1:0|0:0,0:0:0:0:
512,188,77933,6,0,L|303:174,1,180,2|0,3:2|1:0,0:0:0:0:
429,281,78342,1,2,0:0:0:0:
359,102,78479,1,0,3:0:0:0:
359,102,78616,1,0,3:0:0:0:
182,219,78752,2,0,L|271:212,1,90,0|0,1:0|0:0,0:0:0:0:
499,286,79024,6,0,L|290:272,1,180,2|0,3:2|1:0,0:0:0:0:
226,142,79433,1,2,0:0:0:0:
145,285,79570,1,0,3:0:0:0:
145,285,79707,1,0,3:0:0:0:
44,144,79842,2,0,P|24:103|26:59,1,90,0|0,1:0|0:0,0:0:0:0:
199,45,80115,6,0,B|110:77|110:77|1:54,1,180,2|0,3:2|1:0,0:0:0:0:
114,163,80524,1,2,0:0:0:0:
203,48,80660,1,0,3:0:0:0:
203,48,80797,1,0,3:0:0:0:
255,196,80934,2,0,P|219:154|213:100,1,90,0|0,1:0|0:0,0:0:0:0:
175,251,81206,6,0,P|162:293|131:325,1,90,2|0,3:2|0:0,0:0:0:0:
249,278,81479,1,0,1:0:0:0:
249,278,81751,1,0,3:0:0:0:
348,150,81888,1,0,3:0:0:0:
441,270,82024,2,0,L|453:383,1,90,0|0,1:0|0:0,0:0:0:0:
249,278,82297,2,0,P|229:228|314:153,1,180,2|0,3:2|1:0,0:0:0:0:
365,260,82706,2,0,L|377:373,2,90,2|0|0,0:0|3:0|3:0,0:0:0:0:
434,112,83115,2,0,L|446:-1,1,90,0|0,1:0|0:0,0:0:0:0:
298,79,83388,6,0,P|247:106|193:102,1,90,2|0,3:2|0:0,0:0:0:0:
69,63,83661,1,0,1:0:0:0:
69,63,83933,1,0,3:0:0:0:
172,167,84070,1,0,3:0:0:0:
46,255,84206,2,0,L|51:367,1,90,0|0,1:0|0:0,0:0:0:0:
113,123,84479,5,0,3:0:0:0:
145,92,84547,1,0,3:0:0:0:
190,87,84616,1,0,1:0:0:0:
229,107,84684,1,0,1:0:0:0:
247,147,84752,1,0,1:0:0:0:
277,179,84820,1,0,1:0:0:0:
320,188,84888,1,0,3:0:0:0:
362,173,84956,1,0,3:0:0:0:
384,134,85024,2,0,P|392:101|370:43,1,90,0|0,3:0|0:0,0:0:0:0:
363,246,85297,1,8,3:0:0:0:
385,243,85366,1,8,3:0:0:0:
407,239,85434,1,4,3:0:0:0:
429,235,85502,1,4,3:0:0:0:
451,232,85570,6,0,P|443:199|465:141,1,90,0|0,3:0|0:0,0:0:0:0:
410,315,85842,2,0,L|311:312,1,90,0|0,1:0|0:0,0:0:0:0:
222,202,86114,1,0,3:0:0:0:
222,202,86251,1,0,3:0:0:0:
95,334,86388,2,0,P|129:313|147:259,1,90,0|0,1:0|0:0,0:0:0:0:
227,381,86661,6,0,L|222:202,1,180,2|0,3:2|1:0,0:0:0:0:
282,48,87070,1,2,0:0:0:0:
400,160,87206,1,0,3:0:0:0:
400,160,87343,1,0,3:0:0:0:
222,202,87479,2,0,P|170:202|91:194,1,90,0|0,1:0|0:0,0:0:0:0:
299,266,87751,6,0,P|391:261|507:269,1,180,2|0,3:2|1:0,0:0:0:0:
396,362,88161,1,2,0:0:0:0:
316,186,88297,1,0,3:0:0:0:
316,186,88434,1,0,3:0:0:0:
478,265,88570,2,0,P|446:230|433:160,1,90,0|0,1:0|0:0,0:0:0:0:
488,6,88842,6,0,P|468:89|384:107,1,180,2|0,3:2|1:0,0:0:0:0:
274,15,89251,1,2,0:0:0:0:
240,167,89388,1,0,3:0:0:0:
384,107,89525,1,0,3:0:0:0:
188,72,89661,2,0,L|64:76,1,90,0|0,1:0|0:0,0:0:0:0:
150,260,89933,6,0,B|166:217|166:217|153:174,1,90,2|0,3:2|0:0,0:0:0:0:
29,80,90206,1,0,1:0:0:0:
29,80,90479,1,0,3:0:0:0:
213,139,90615,1,0,3:0:0:0:
72,248,90751,2,0,P|75:292|103:326,1,90,0|0,1:0|0:0,0:0:0:0:
284,294,91024,2,0,P|259:247|146:264,1,180,2|0,3:2|1:0,0:0:0:0:
289,177,91433,2,0,P|298:134|284:92,2,90,2|0|0,0:0|3:0|3:0,0:0:0:0:
221,355,91842,2,0,P|207:312|216:269,1,90,0|0,1:0|0:0,0:0:0:0:
378,171,92115,6,0,L|289:177,1,90,2|0,3:2|0:0,0:0:0:0:
345,313,92388,1,0,1:0:0:0:
345,313,92660,1,0,3:0:0:0:
456,222,92797,1,0,3:0:0:0:
344,104,92933,2,0,P|349:50|377:22,1,90,0|0,1:0|0:0,0:0:0:0:
379,172,93206,5,0,3:0:0:0:
338,191,93274,1,0,3:0:0:0:
293,181,93343,1,0,1:0:0:0:
264,146,93411,1,0,1:0:0:0:
230,115,93479,1,0,1:0:0:0:
186,104,93547,1,0,1:0:0:0:
142,114,93615,1,0,3:0:0:0:
106,140,93683,1,0,3:0:0:0:
84,179,93751,2,0,L|88:279,1,90,0|0,3:0|0:0,0:0:0:0:
184,362,94024,1,8,3:0:0:0:
186,316,94093,1,8,3:0:0:0:
188,271,94161,1,4,3:0:0:0:
189,227,94229,1,4,3:0:0:0:
190,182,94297,6,0,P|222:212|265:222,1,90,2|0,3:2|0:0,0:0:0:0:
379,172,94570,1,0,1:0:0:0:
379,172,94843,1,0,3:0:0:0:
474,280,94979,1,0,3:0:0:0:
323,345,95115,2,0,L|233:341,1,90,0|0,1:0|0:0,0:0:0:0:
39,303,95388,6,0,P|104:247|188:271,1,180,2|0,3:2|1:0,0:0:0:0:
106,177,95797,2,0,B|97:136|97:136|109:89,2,90,2|0|0,0:0|3:0|3:0,0:0:0:0:
185,359,96206,2,0,B|197:312|197:312|188:271,1,90,0|0,1:0|0:0,0:0:0:0:
39,153,96479,5,0,1:0:0:0:
59,193,96547,1,0,3:0:0:0:
101,207,96615,1,0,3:0:0:0:
145,202,96683,1,0,3:0:0:0:
168,163,96751,1,0,1:0:0:0:
159,118,96820,1,0,3:0:0:0:
121,93,96888,1,0,3:0:0:0:
79,108,96956,1,0,3:0:0:0:
59,148,97024,6,0,L|60:218,2,60,0|0|0,3:0|3:0|3:0,3:0:0:0:
121,93,97297,2,0,L|121:33,2,60,0|0|0,3:0|3:0|3:0,3:0:0:0:
168,163,97570,5,4,1:2:0:0:
168,163,98251,5,0,3:0:0:0:
414,48,98388,1,0,1:0:0:0:
60,215,98661,5,4,3:2:0:0:
261,367,98933,2,0,L|258:277,1,90,0|2,1:0|0:0,0:0:0:0:
364,166,99206,1,0,3:0:0:0:
364,166,99342,1,0,3:0:0:0:
360,320,99479,1,0,1:0:0:0:
256,170,99616,1,2,0:0:0:0:
87,309,99752,6,0,P|157:275|278:283,1,180,0|0,3:0|1:0,0:0:0:0:
183,162,100161,2,0,P|200:117|266:97,1,90,2|0,3:2|0:0,0:0:0:0:
315,221,100434,1,0,3:0:0:0:
160,233,100570,2,0,L|65:228,1,90,0|0,1:0|0:0,0:0:0:0:
31,48,100843,6,0,P|109:77|101:161,1,180,0|0,3:0|1:0,0:0:0:0:
17,301,101252,1,2,0:0:0:0:
48,116,101388,1,0,3:0:0:0:
165,229,101525,1,0,3:0:0:0:
0,233,101661,2,0,L|118:230,1,90,0|0,1:0|0:0,0:0:0:0:
247,317,101933,6,0,L|129:314,1,90,0|0,3:0|0:0,0:0:0:0:
0,233,102207,1,0,1:0:0:0:
162,158,102342,2,0,P|202:111|207:55,1,90,2|0,3:2|0:0,0:0:0:0:
84,57,102616,1,0,3:0:0:0:
134,233,102751,1,0,1:0:0:0:
174,229,102819,1,0,1:0:0:0:
214,226,102887,1,0,1:0:0:0:
254,222,102956,1,0,1:0:0:0:
293,217,103024,6,0,P|291:111|375:85,1,180,0|0,3:0|1:0,0:0:0:0:
453,181,103433,1,2,0:0:0:0:
363,315,103570,2,0,L|361:216,1,90,0|0,3:0|3:0,0:0:0:0:
422,85,103841,1,0,1:0:0:0:
281,193,103978,1,0,0:0:0:0:
454,270,104116,6,0,L|453:181,1,90,0|0,3:0|0:0,0:0:0:0:
358,52,104388,1,0,1:0:0:0:
361,225,104524,2,0,L|359:135,1,90,2|0,3:2|0:0,0:0:0:0:
267,11,104797,1,0,3:0:0:0:
160,135,104933,2,0,P|121:156|76:162,1,90,0|0,1:0|0:0,0:0:0:0:
173,39,105206,5,2,3:2:0:0:
173,39,105274,1,0,3:0:0:0:
173,39,105342,1,0,3:0:0:0:
264,205,105478,5,2,3:2:0:0:
264,205,105546,1,0,3:0:0:0:
264,205,105614,1,0,3:0:0:0:
76,162,105751,5,2,3:2:0:0:
112,136,105819,1,0,3:0:0:0:
160,135,105887,1,0,3:0:0:0:
201,153,105956,1,0,3:0:0:0:
237,178,106024,1,0,3:0:0:0:
281,182,106092,1,0,3:0:0:0:
323,166,106160,1,0,3:0:0:0:
341,125,106228,1,0,3:0:0:0:
327,81,106297,6,0,P|314:206|342:266,1,180,4|0,1:2|0:0,0:0:0:0:
470,360,106706,1,0,3:0:0:0:
470,360,106774,1,0,3:0:0:0:
470,360,106842,2,0,P|434:332|391:321,1,90,0|0,1:0|0:0,0:0:0:0:
175,303,107115,1,0,1:0:0:0:
482,140,107388,5,4,3:2:0:0:
250,346,107661,2,0,L|246:257,1,90,0|2,1:0|0:0,0:0:0:0:
200,138,107933,1,0,3:0:0:0:
200,138,108070,1,0,3:0:0:0:
331,217,108206,1,0,1:0:0:0:
161,236,108343,1,2,0:0:0:0:
308,103,108479,6,0,B|446:99|446:99|407:65,1,180,0|0,3:0|1:0,0:0:0:0:
331,217,108888,2,0,P|320:260|325:304,1,90,2|0,3:2|0:0,0:0:0:0:
453,271,109161,1,0,3:0:0:0:
356,145,109297,2,0,P|297:149|263:188,1,90,0|0,1:0|0:0,0:0:0:0:
422,63,109570,6,0,L|207:71,1,180,0|0,3:0|1:0,0:0:0:0:
187,183,109979,1,2,0:0:0:0:
261,274,110115,1,0,3:0:0:0:
261,274,110252,1,0,3:0:0:0:
91,248,110388,2,0,L|1:252,1,90,0|0,1:0|0:0,0:0:0:0:
171,269,110661,6,0,L|261:274,1,90,0|0,3:0|0:0,0:0:0:0:
107,338,110934,1,0,1:0:0:0:
150,192,111070,2,0,P|158:148|150:104,1,90,2|0,3:2|0:0,0:0:0:0:
47,29,111343,1,0,3:0:0:0:
226,86,111479,1,0,1:0:0:0:
264,98,111547,1,0,1:0:0:0:
304,93,111615,1,0,1:0:0:0:
334,65,111684,1,0,1:0:0:0:
351,29,111751,6,0,B|320:105|386:142|350:204,1,180,0|0,3:0|1:0,0:0:0:0:
241,283,112160,1,2,0:0:0:0:
402,254,112296,2,0,B|447:245|447:245|490:254,1,90,0|0,3:0|3:0,0:0:0:0:
449,92,112570,1,0,1:0:0:0:
350,204,112705,1,0,0:0:0:0:
264,98,112842,6,0,P|254:54|264:10,1,90,0|0,3:0|0:0,0:0:0:0:
287,168,113114,1,0,1:0:0:0:
151,159,113251,2,0,P|113:134|89:96,1,90,2|0,3:2|0:0,0:0:0:0:
217,192,113523,1,0,3:0:0:0:
105,285,113661,2,0,L|-14:282,1,90,0|0,1:0|0:0,0:0:0:0:
97,104,113933,5,2,3:2:0:0:
97,104,114002,1,0,3:0:0:0:
97,104,114070,1,0,3:0:0:0:
205,285,114206,5,2,3:2:0:0:
205,285,114274,1,0,3:0:0:0:
205,285,114342,1,0,3:0:0:0:
301,80,114479,5,2,3:2:0:0:
340,59,114547,1,0,3:0:0:0:
384,60,114615,1,0,3:0:0:0:
411,96,114684,1,0,3:0:0:0:
411,140,114752,1,0,3:0:0:0:
388,178,114820,1,0,3:0:0:0:
371,219,114888,1,0,3:0:0:0:
378,263,114956,1,0,3:0:0:0:
414,289,115024,6,0,P|480:255|457:134,1,180,4|0,1:2|0:0,0:0:0:0:
347,66,115434,1,0,3:0:0:0:
347,66,115502,1,0,3:0:0:0:
347,66,115570,1,0,1:0:0:0:
256,192,115706,1,0,3:0:0:0:
482,158,115843,1,0,1:0:0:0:
133,66,116115,5,0,3:0:0:0:
91,49,116183,1,0,3:0:0:0:
49,66,116251,1,0,1:0:0:0:
32,108,116320,1,0,3:0:0:0:
49,150,116388,1,0,3:0:0:0:
91,167,116456,1,0,3:0:0:0:
133,150,116524,1,0,1:0:0:0:
150,108,116592,1,0,3:0:0:0:
179,74,116660,1,0,3:0:0:0:
221,58,116728,1,0,3:0:0:0:
264,67,116796,1,0,1:0:0:0:
294,100,116865,1,0,3:0:0:0:
336,115,116933,1,0,3:0:0:0:
380,111,117001,1,0,3:0:0:0:
411,79,117069,1,0,1:0:0:0:
398,35,117137,1,0,3:0:0:0:
355,19,117206,5,0,3:0:0:0:
346,63,117274,1,0,3:0:0:0:
355,106,117342,1,0,1:0:0:0:
382,141,117410,1,0,3:0:0:0:
395,183,117478,1,0,3:0:0:0:
394,227,117546,1,0,3:0:0:0:
378,269,117615,1,0,1:0:0:0:
339,292,117683,1,0,3:0:0:0:
294,298,117751,1,0,3:0:0:0:
253,279,117819,1,0,3:0:0:0:
214,255,117887,1,0,1:0:0:0:
168,253,117956,1,0,3:0:0:0:
128,273,118024,1,0,3:0:0:0:
114,315,118092,1,0,3:0:0:0:
134,355,118161,1,0,1:0:0:0:
176,370,118228,1,0,3:0:0:0:
217,351,118296,5,4,1:2:0:0:
221,347,118842,5,2,0:0:0:0:
225,343,119388,5,2,0:0:0:0:
249,278,119479,1,2,0:0:0:0:
233,210,119570,1,0,0:0:0:0:
186,162,119661,1,2,0:0:0:0:
203,97,119751,1,2,0:0:0:0:
268,79,119842,1,0,0:0:0:0:
316,127,119933,2,0,L|377:123,2,60,2|2|0,1:2|0:0|0:0,0:0:0:0:
299,192,120206,1,2,0:0:0:0:
496,246,120342,6,0,B|484:85|484:85|506:95,1,180,4|0,1:2|3:0,0:0:0:0:
329,150,120751,2,0,B|283:159|283:159|239:146,1,90,0|0,1:0|0:0,0:0:0:0:
340,54,121024,1,0,3:0:0:0:
282,228,121160,1,0,3:0:0:0:
430,160,121296,1,0,1:0:0:0:
248,61,121433,2,0,L|145:65,1,90,2|0,3:2|0:0,0:0:0:0:
31,193,121706,2,0,L|120:196,1,90,2|0,0:0|1:0,0:0:0:0:
252,57,121979,2,0,L|149:61,1,90,2|0,3:2|0:0,0:0:0:0:
35,189,122252,2,0,L|124:192,1,90,2|0,3:2|1:0,0:0:0:0:
340,134,122524,6,0,P|253:127|199:195,1,180,2|0,0:0|3:0,0:0:0:0:
329,336,122933,2,0,L|420:330,1,90,0|0,1:0|0:0,0:0:0:0:
263,279,123206,2,0,L|172:273,1,90,0|0,3:0|3:0,3:0:0:0:
347,231,123478,1,0,1:0:0:0:
214,355,123615,2,0,L|34:366,1,180,0|0,3:0|0:0,0:0:0:0:
121,192,124024,1,0,1:0:0:0:
263,279,124160,1,0,0:0:0:0:
269,121,124296,1,0,3:0:0:0:
269,121,124433,1,0,3:0:0:0:
173,273,124569,1,0,1:0:0:0:
356,161,124706,6,0,B|502:163|502:163|470:193,1,180,2|0,0:0|3:0,0:0:0:0:
421,349,125115,2,0,B|409:306|409:306|422:262,1,90,0|0,1:0|0:0,0:0:0:0:
502,163,125387,1,0,3:0:0:0:
345,238,125524,1,2,3:2:0:0:
406,82,125660,1,0,1:0:0:0:
406,82,125796,1,0,3:0:0:0:
422,262,125933,1,2,0:0:0:0:
317,98,126069,1,0,3:0:0:0:
317,98,126206,1,0,1:0:0:0:
496,240,126342,1,2,3:2:0:0:
252,154,126478,1,0,3:0:0:0:
252,154,126615,1,0,3:0:0:0:
367,307,126751,1,2,1:2:0:0:
406,82,126887,1,0,0:0:0:0:
253,268,127024,6,0,P|198:308|118:314,1,135,4|0,3:2|3:0,0:0:0:0:
62,283,127296,2,0,P|105:282|132:316,1,90,0|0,1:0|3:0,0:0:0:0:
6,364,127569,1,0,0:0:0:0:
95,208,127706,2,0,P|100:163|91:119,1,90,0|0,3:0|1:0,0:0:0:0:
226,182,127978,1,0,3:0:0:0:
226,182,128046,1,0,3:0:0:0:
226,182,128115,6,0,L|311:177,2,60,0|0|0,3:0|3:0|3:0,3:0:0:0:
95,208,128388,2,0,L|10:203,2,60,0|0|0,3:0|3:0|3:0,3:0:0:0:
208,279,128661,2,0,L|293:274,2,60,0|0|0,3:0|3:0|3:0,3:0:0:0:
156,154,128933,1,0,3:0:0:0:
156,154,129001,1,0,3:0:0:0:
156,154,129069,6,0,P|163:82|263:52,1,180,4|0,1:2|3:0,0:0:0:0:
348,203,129478,2,0,L|347:315,1,90,0|0,1:0|0:0,0:0:0:0:
472,240,129751,1,0,3:0:0:0:
333,132,129887,1,0,3:0:0:0:
426,302,130023,1,0,1:0:0:0:
445,115,130160,2,0,P|451:72|418:14,1,90,2|0,3:2|0:0,0:0:0:0:
348,203,130433,2,0,P|342:246|375:304,1,90,2|0,0:2|1:0,0:0:0:0:
333,132,130706,2,0,L|237:127,1,90,2|0,3:2|0:0,0:0:0:0:
421,189,130979,2,0,L|517:184,1,90,2|0,3:2|1:0,0:0:0:0:
425,341,131251,6,0,P|355:290|348:203,1,180,2|0,0:0|3:0,0:0:0:0:
219,312,131660,2,0,B|174:320|174:320|112:306,1,90,0|0,1:0|0:0,0:0:0:0:
259,201,131933,2,0,B|304:193|304:193|366:207,1,90,0|0,3:0|3:0,0:0:0:0:
299,351,132205,1,0,1:0:0:0:
166,229,132342,2,0,B|168:85|168:85|195:128,1,180,0|0,3:0|0:0,0:0:0:0:
53,195,132751,1,0,1:0:0:0:
168,86,132887,1,0,3:0:0:0:
230,269,133024,1,0,0:0:0:0:
230,269,133160,1,0,3:0:0:0:
94,122,133296,1,0,1:0:0:0:
284,204,133433,6,0,P|365:215|464:204,1,180,2|0,0:0|3:0,0:0:0:0:
418,41,133842,2,0,P|373:35|328:38,1,90,0|0,1:0|0:0,0:0:0:0:
284,204,134115,1,0,3:0:0:0:
426,123,134252,1,2,3:2:0:0:
379,300,134388,1,0,1:0:0:0:
379,300,134524,1,0,3:0:0:0:
316,125,134661,1,2,0:2:0:0:
247,312,134797,1,0,0:0:0:0:
247,312,134934,1,0,1:0:0:0:
394,188,135070,1,2,3:2:0:0:
186,116,135206,1,0,3:0:0:0:
186,116,135343,1,0,3:0:0:0:
313,306,135479,1,2,1:2:0:0:
387,110,135615,1,0,0:0:0:0:
178,261,135752,6,0,L|9:255,1,135,4|0,3:2|3:0,0:0:0:0:
62,327,136024,2,0,L|151:330,1,90,0|0,1:0|3:0,0:0:0:0:
223,195,136297,1,0,0:0:0:0:
350,366,136434,2,0,P|380:329|362:258,1,90,0|0,3:0|1:0,0:0:0:0:
288,122,136706,1,0,3:0:0:0:
288,122,136774,1,0,3:0:0:0:
288,122,136842,5,0,3:0:0:0:
288,122,136933,2,0,P|283:92|291:63,1,60,0|0,3:0|3:0,3:0:0:0:
375,99,137115,1,0,3:0:0:0:
375,99,137206,2,0,P|391:74|420:60,1,60,0|0,3:0|3:0,3:0:0:0:
453,144,137388,1,0,3:0:0:0:
453,144,137479,2,0,P|482:138|511:148,1,60,0|0,3:0|3:0,3:0:0:0:
350,245,137660,1,0,3:0:0:0:
384,273,137728,1,0,3:0:0:0:
428,267,137796,1,0,3:0:0:0:
437,222,137865,1,0,3:0:0:0:
402,192,137933,5,4,1:3:0:0:
54,339,138342,1,4,1:3:0:0:
54,339,140115,5,4,1:3:0:0:
402,192,140524,1,4,1:3:0:0:
402,192,142297,5,4,1:3:0:0:
61,28,142706,1,4,1:3:0:0:
61,28,143388,5,0,3:0:0:0:
46,70,143456,1,0,3:0:0:0:
62,111,143524,1,0,1:0:0:0:
103,129,143592,1,0,3:0:0:0:
147,121,143661,1,0,3:0:0:0:
186,99,143729,1,0,3:0:0:0:
230,99,143797,1,0,3:0:0:0:
272,112,143865,1,0,3:0:0:0:
296,149,143933,1,0,3:0:0:0:
295,193,144001,1,0,3:0:0:0:
268,230,144070,1,0,3:0:0:0:
226,247,144138,1,0,3:0:0:0:
184,228,144206,1,0,3:0:0:0:
115,63,144342,1,0,1:0:0:0:
115,63,144411,1,0,1:0:0:0:
115,63,144479,5,4,1:2:0:0:
339,256,144751,1,0,3:0:0:0:
357,94,144888,1,0,1:0:0:0:
226,172,145024,2,0,L|124:171,1,90,0|0,0:0|3:0,0:0:0:0:
339,256,145297,2,0,L|441:255,1,90,0|0,1:0|0:0,0:0:0:0:
232,350,145570,5,0,3:0:0:0:
200,318,145638,1,0,3:0:0:0:
198,272,145707,1,0,1:0:0:0:
216,231,145775,1,0,1:0:0:0:
250,202,145843,1,0,1:0:0:0:
282,171,145911,1,0,1:0:0:0:
292,127,145979,1,0,3:0:0:0:
278,84,146047,1,0,3:0:0:0:
244,54,146115,2,0,L|154:56,1,90,0|0,3:0|0:0,0:0:0:0:
349,165,146388,1,8,3:0:0:0:
381,161,146457,1,8,3:0:0:0:
413,157,146525,1,4,3:0:0:0:
445,153,146593,1,4,3:0:0:0:
477,149,146661,6,0,L|474:330,1,180,2|0,3:2|1:0,0:0:0:0:
319,229,147070,1,2,0:0:0:0:
387,94,147206,1,0,3:0:0:0:
387,94,147343,1,0,3:0:0:0:
221,130,147479,2,0,L|97:126,1,90,0|0,1:0|0:0,0:0:0:0:
15,25,147752,2,0,P|54:44|74:84,1,90,2|0,3:2|0:0,0:0:0:0:
19,240,148024,1,0,1:0:0:0:
158,197,148161,2,0,L|266:194,1,90,2|0,0:0|3:0,0:0:0:0:
131,127,148434,1,0,0:0:0:0:
187,274,148570,2,0,L|305:271,1,90,0|0,1:0|0:0,0:0:0:0:
493,228,148842,6,0,L|375:225,1,90,2|0,3:2|0:0,0:0:0:0:
280,132,149115,1,0,1:0:0:0:
355,288,149252,2,0,P|361:332|350:378,1,90,2|0,0:0|3:0,0:0:0:0:
275,219,149524,2,0,P|269:175|280:132,1,90,0|0,3:0|1:0,0:0:0:0:
434,30,149797,1,2,0:0:0:0:
411,163,149934,1,0,3:0:0:0:
283,38,150070,2,0,L|193:43,1,90,0|0,0:0|1:0,0:0:0:0:
78,147,150343,1,0,0:0:0:0:
280,132,150479,2,0,L|190:137,1,90,0|0,3:0|3:0,3:0:0:0:
74,252,150752,1,0,1:0:0:0:
132,82,150888,1,0,3:0:0:0:
222,259,151025,6,0,P|307:278|412:265,1,180,0|0,3:0|1:0,0:0:0:0:
402,273,151570,1,0,3:0:0:0:
402,273,151707,1,0,3:0:0:0:
255,345,151843,2,0,P|195:331|145:298,1,90,0|0,1:0|0:0,0:0:0:0:
211,172,152116,2,0,P|231:256|170:317,1,180,0|0,3:0|1:0,0:0:0:0:
87,209,152525,1,0,0:0:0:0:
227,102,152661,1,0,3:0:0:0:
53,67,152797,2,0,P|98:103|158:107,1,90,0|0,3:0|1:0,0:0:0:0:
256,20,153070,1,0,0:0:0:0:
309,193,153207,6,0,B|302:330|302:330|342:293,1,180,2|0,3:2|1:0,0:0:0:0:
337,304,153752,1,0,3:0:0:0:
337,304,153889,1,0,3:0:0:0:
499,264,154025,2,0,P|457:248|414:257,1,90,0|0,1:0|0:0,0:0:0:0:
481,120,154297,5,0,3:0:0:0:
491,76,154365,1,0,3:0:0:0:
464,39,154434,1,0,1:0:0:0:
420,27,154502,1,0,1:0:0:0:
377,42,154570,1,0,1:0:0:0:
353,80,154638,1,0,1:0:0:0:
316,105,154706,1,0,3:0:0:0:
271,106,154774,1,0,3:0:0:0:
231,84,154842,2,0,L|117:81,1,90,0|0,3:0|0:0,0:0:0:0:
2,16,155115,1,8,3:0:0:0:
19,37,155184,1,8,3:0:0:0:
30,61,155252,1,4,3:0:0:0:
34,87,155320,1,4,3:0:0:0:
30,113,155388,6,0,P|22:156|35:199,1,90,2|0,3:2|0:0,0:0:0:0:
206,301,155661,2,0,P|172:271|129:261,1,90,0|2,1:0|0:0,0:0:0:0:
11,366,155934,1,0,3:0:0:0:
11,366,156071,1,0,3:0:0:0:
106,194,156207,2,0,L|106:92,1,90,0|0,1:0|0:0,0:0:0:0:
234,3,156479,6,0,P|189:79|105:103,1,180,2|0,3:2|1:0,0:0:0:0:
270,128,156888,1,2,0:0:0:0:
135,8,157024,1,0,3:0:0:0:
135,8,157162,1,0,3:0:0:0:
321,59,157298,2,0,L|414:54,1,90,0|0,1:0|0:0,0:0:0:0:
512,193,157570,6,0,L|315:184,1,180,2|0,3:2|1:0,0:0:0:0:
411,54,157979,1,2,0:0:0:0:
512,193,158116,1,0,3:0:0:0:
512,193,158251,1,0,3:0:0:0:
354,104,158389,2,0,L|225:110,1,90,0|0,1:0|0:0,0:0:0:0:
155,279,158661,6,0,B|156:225|185:196|185:196|139:158|155:89,1,180,2|0,3:2|1:0,0:0:0:0:
277,198,159070,1,2,0:0:0:0:
91,198,159207,1,0,3:0:0:0:
91,198,159342,1,0,3:0:0:0:
218,335,159479,2,0,L|307:330,1,90,0|0,1:0|0:0,0:0:0:0:
461,244,159751,6,0,P|404:235|348:257,1,90,0|0,3:0|0:0,0:0:0:0:
189,196,160024,2,0,P|233:206|277:198,1,90,0|0,1:0|0:0,0:0:0:0:
360,45,160297,1,0,3:0:0:0:
360,45,160433,2,0,L|359:137,1,90,0|0,3:0|1:0,0:0:0:0:
356,314,160705,1,0,0:0:0:0:
356,314,160842,2,0,L|358:134,1,180,0|0,3:0|1:0,0:0:0:0:
504,103,161251,2,0,L|505:13,2,90,2|0|0,0:0|3:0|3:0,0:0:0:0:
499,272,161660,2,0,L|500:182,1,90,0|0,1:0|0:0,0:0:0:0:
369,46,161933,6,0,P|317:53|288:78,1,90,0|0,3:0|0:0,0:0:0:0:
256,254,162206,1,0,1:0:0:0:
256,254,162478,1,0,3:0:0:0:
386,178,162615,1,0,3:0:0:0:
224,103,162751,2,0,L|116:108,1,90,0|0,1:0|0:0,0:0:0:0:
23,235,163024,5,0,3:0:0:0:
54,267,163092,1,0,3:0:0:0:
98,273,163161,1,0,1:0:0:0:
140,258,163229,1,0,1:0:0:0:
173,228,163297,1,0,3:0:0:0:
208,201,163365,1,0,3:0:0:0:
252,194,163433,1,0,3:0:0:0:
295,205,163501,1,0,3:0:0:0:
315,245,163570,1,0,3:0:0:0:
310,289,163638,1,0,3:0:0:0:
274,316,163706,1,0,3:0:0:0:
230,306,163774,1,0,3:0:0:0:
207,267,163842,1,0,3:0:0:0:
217,222,163911,1,0,3:0:0:0:
252,194,163979,1,0,3:0:0:0:
254,149,164047,1,0,3:0:0:0:
232,109,164115,6,0,P|168:93|122:181,1,180,2|0,3:2|1:0,0:0:0:0:
315,245,164524,1,2,0:0:0:0:
395,153,164661,1,0,3:0:0:0:
395,153,164797,1,0,3:0:0:0:
504,260,164933,2,0,L|373:255,1,90,0|0,1:0|0:0,0:0:0:0:
215,160,165206,6,0,L|395:153,1,180,2|0,3:2|1:0,0:0:0:0:
315,281,165615,1,2,0:0:0:0:
219,164,165751,1,0,3:0:0:0:
219,164,165888,1,0,3:0:0:0:
127,301,166024,2,0,L|-4:296,1,90,0|0,1:0|0:0,0:0:0:0:
219,164,166297,6,0,L|39:156,1,180,2|0,3:2|1:0,0:0:0:0:
183,247,166706,1,2,0:0:0:0:
134,88,166842,1,0,3:0:0:0:
134,88,166979,1,0,3:0:0:0:
44,250,167115,2,0,P|37:292|52:367,1,90,0|0,1:0|0:0,0:0:0:0:
207,374,167388,6,0,P|157:339|10:356,1,180,2|0,3:2|1:0,0:0:0:0:
183,247,167796,1,2,0:0:0:0:
283,375,167933,1,0,3:0:0:0:
283,375,168070,1,0,3:0:0:0:
350,195,168206,2,0,L|345:105,1,90,0|0,1:0|0:0,0:0:0:0:
180,37,168479,6,0,P|210:69|253:80,1,90,0|0,3:0|0:0,0:0:0:0:
417,19,168751,1,0,1:0:0:0:
417,19,169024,1,0,3:0:0:0:
456,168,169161,2,0,L|451:258,1,90,0|0,3:0|1:0,0:0:0:0:
319,358,169432,1,0,0:0:0:0:
198,238,169569,2,0,P|264:180|350:194,1,180,0|0,3:0|1:0,0:0:0:0:
396,335,169978,2,0,P|440:354|487:348,2,90,2|0|0,0:0|3:0|3:0,0:0:0:0:
255,303,170388,2,0,P|211:322|164:316,1,90,0|0,1:0|0:0,0:0:0:0:
8,216,170661,6,0,P|29:258|69:284,1,90,0|0,3:0|0:0,0:0:0:0:
175,147,170933,1,0,1:0:0:0:
175,147,171205,1,0,3:0:0:0:
170,318,171342,1,0,3:0:0:0:
8,216,171478,2,0,L|12:123,1,90,0|0,1:0|0:0,0:0:0:0:
129,16,171751,5,0,3:0:0:0:
158,49,171819,1,0,3:0:0:0:
200,65,171888,1,0,1:0:0:0:
244,60,171956,1,0,1:0:0:0:
285,43,172024,1,0,1:0:0:0:
329,42,172092,1,0,3:0:0:0:
369,61,172160,1,0,3:0:0:0:
391,99,172228,1,0,3:0:0:0:
376,142,172297,1,0,3:0:0:0:
357,182,172365,1,0,3:0:0:0:
359,226,172433,1,0,3:0:0:0:
389,258,172501,1,0,3:0:0:0:
395,213,172569,1,0,3:0:0:0:
357,182,172638,1,0,3:0:0:0:
312,185,172706,1,0,3:0:0:0:
271,205,172774,1,0,3:0:0:0:
253,246,172842,6,0,L|255:347,1,90,2|0,3:2|0:0,0:0:0:0:
395,213,173115,1,0,1:0:0:0:
395,213,173388,1,0,3:0:0:0:
346,352,173524,1,0,3:0:0:0:
312,185,173660,2,0,P|281:162|205:182,1,90,0|0,1:0|0:0,0:0:0:0:
73,249,173933,6,0,L|253:246,1,180,2|0,3:2|1:0,0:0:0:0:
395,288,174342,2,0,P|422:322|424:366,2,90,2|0|0,0:0|3:0|3:0,0:0:0:0:
263,337,174751,2,0,P|302:358|346:352,1,90,0|0,1:0|0:0,0:0:0:0:
446,233,175024,1,0,1:0:0:0:
321,280,175161,1,0,3:0:0:0:
321,280,175229,1,0,3:0:0:0:
321,280,175297,1,0,1:0:0:0:
352,133,175433,1,0,3:0:0:0:
352,133,175501,1,0,3:0:0:0:
352,133,175570,5,0,3:0:0:0:
352,133,175661,2,0,L|347:45,1,60,0|0,3:0|3:0,3:0:0:0:
253,107,175842,1,0,3:0:0:0:
253,107,175933,2,0,L|248:19,1,60,0|0,3:0|3:0,3:0:0:0:
153,81,176115,5,4,1:2:0:0:
352,133,176797,5,0,3:0:0:0:
153,81,176934,1,0,1:0:0:0:
224,332,177206,5,4,3:2:0:0:
248,17,177479,2,0,L|253:107,1,90,0|2,1:0|0:0,0:0:0:0:
345,225,177752,1,0,3:0:0:0:
345,225,177888,1,0,3:0:0:0:
165,148,178024,1,0,1:0:0:0:
223,288,178161,1,2,0:0:0:0:
341,121,178297,6,0,B|478:131|478:131|431:66,1,180,0|0,3:0|1:0,0:0:0:0:
345,225,178706,2,0,B|339:264|339:264|352:314,1,90,2|0,3:2|0:0,0:0:0:0:
476,258,178979,1,0,3:0:0:0:
281,314,179115,2,0,B|268:265|268:265|274:226,1,90,0|0,1:0|0:0,0:0:0:0:
339,37,179388,6,0,P|291:109|204:116,1,180,0|0,3:0|1:0,0:0:0:0:
105,23,179797,1,2,0:0:0:0:
149,194,179933,1,0,3:0:0:0:
149,194,180070,1,0,3:0:0:0:
10,114,180206,2,0,P|67:102|120:117,1,90,0|0,1:0|0:0,0:0:0:0:
198,266,180479,6,0,P|159:222|145:169,1,90,0|0,3:0|0:0,0:0:0:0:
283,100,180752,1,0,1:0:0:0:
272,256,180888,2,0,P|267:300|236:333,1,90,2|0,3:2|0:0,0:0:0:0:
81,254,181161,1,0,3:0:0:0:
244,180,181297,1,0,1:0:0:0:
288,184,181365,1,0,1:0:0:0:
332,188,181433,1,0,1:0:0:0:
376,192,181502,1,0,1:0:0:0:
419,192,181570,6,0,P|420:106|344:67,1,180,0|0,3:0|1:0,0:0:0:0:
244,180,181979,1,2,0:0:0:0:
376,272,182115,2,0,L|496:267,1,90,0|0,3:0|3:0,0:0:0:0:
352,145,182387,1,0,1:0:0:0:
297,276,182524,1,0,0:0:0:0:
171,147,182661,6,0,L|170:41,1,90,0|0,3:0|0:0,0:0:0:0:
93,209,182933,1,0,1:0:0:0:
244,180,183070,2,0,L|243:74,1,90,2|0,3:2|0:0,0:0:0:0:
166,242,183342,1,0,3:0:0:0:
316,123,183479,2,0,L|317:213,1,90,0|0,1:0|0:0,0:0:0:0:
171,147,183751,5,2,3:2:0:0:
171,147,183820,1,0,3:0:0:0:
171,147,183888,1,0,3:0:0:0:
306,53,184024,5,2,3:2:0:0:
306,53,184092,1,0,3:0:0:0:
306,53,184160,1,0,3:0:0:0:
238,238,184297,5,2,3:2:0:0:
256,279,184365,1,0,3:0:0:0:
296,299,184433,1,0,3:0:0:0:
341,297,184502,1,0,3:0:0:0:
377,271,184570,1,0,3:0:0:0:
397,231,184638,1,0,3:0:0:0:
392,186,184706,1,0,3:0:0:0:
376,143,184774,1,0,3:0:0:0:
344,111,184842,6,0,P|414:155|499:96,1,180,4|0,1:2|0:0,0:0:0:0:
356,28,185252,1,0,3:0:0:0:
356,28,185320,1,0,3:0:0:0:
356,27,185388,2,0,P|336:67|343:111,1,90,0|0,1:0|3:0,0:0:0:0:
493,213,185661,1,0,1:0:0:0:
206,316,185933,5,4,3:2:0:0:
206,316,186206,2,0,L|203:215,1,90,0|2,1:0|0:0,0:0:0:0:
316,335,186479,1,0,3:0:0:0:
316,335,186615,1,0,3:0:0:0:
136,270,186751,1,0,1:0:0:0:
275,179,186888,1,2,0:0:0:0:
207,359,187024,6,0,L|201:168,1,180,0|0,3:0|1:0,0:0:0:0:
88,52,187433,2,0,P|103:100|148:128,1,90,2|0,3:2|0:0,0:0:0:0:
213,13,187706,1,0,3:0:0:0:
64,118,187842,2,0,L|69:212,1,90,0|0,1:0|0:0,0:0:0:0:
67,364,188115,6,0,B|45:322|62:279|62:279|8:270|-2:209,1,180,0|0,3:0|1:0,0:0:0:0:
136,317,188524,1,2,0:0:0:0:
73,211,188660,1,0,3:0:0:0:
73,211,188797,1,0,3:0:0:0:
246,210,188933,2,0,P|205:228|160:232,1,90,0|0,1:0|0:0,0:0:0:0:
297,116,189206,6,0,P|337:134|382:138,1,90,0|0,3:0|0:0,0:0:0:0:
221,35,189479,1,0,1:0:0:0:
246,210,189615,2,0,B|250:299,1,90,2|0,3:2|0:0,0:0:0:0:
375,246,189888,1,0,3:0:0:0:
216,132,190025,1,0,1:0:0:0:
180,140,190093,1,0,1:0:0:0:
144,148,190161,1,0,1:0:0:0:
108,140,190230,1,0,1:0:0:0:
72,132,190297,6,0,B|96:224|96:224|73:305,1,180,0|0,3:0|1:0,0:0:0:0:
182,225,190706,1,2,0:0:0:0:
13,176,190842,2,0,P|0:134|11:91,1,90,0|0,3:0|3:0,0:0:0:0:
180,140,191114,1,0,1:0:0:0:
116,9,191251,1,0,0:0:0:0:
322,47,191388,6,0,L|426:41,1,90,0|0,3:0|0:0,0:0:0:0:
251,30,191660,1,0,1:0:0:0:
341,122,191797,2,0,L|445:116,1,90,2|0,3:2|0:0,0:0:0:0:
270,105,192069,1,0,3:0:0:0:
383,220,192205,2,0,P|390:264|380:307,1,90,0|0,1:0|0:0,0:0:0:0:
237,253,192480,5,2,3:2:0:0:
237,253,192548,1,0,3:0:0:0:
237,253,192616,1,0,3:0:0:0:
348,129,192752,5,2,3:2:0:0:
348,129,192820,1,0,3:0:0:0:
348,129,192888,1,0,3:0:0:0:
298,314,193024,5,2,3:2:0:0:
262,342,193093,1,0,3:0:0:0:
217,341,193161,1,0,3:0:0:0:
176,320,193230,1,0,3:0:0:0:
153,280,193298,1,0,3:0:0:0:
146,235,193366,1,0,3:0:0:0:
101,238,193434,1,0,3:0:0:0:
61,216,193502,1,0,3:0:0:0:
48,172,193570,6,0,P|72:119|182:117,1,180,4|0,1:2|0:0,0:0:0:0:
160,287,193980,1,0,3:0:0:0:
160,287,194048,1,0,3:0:0:0:
160,287,194115,2,0,L|58:285,1,90,0|0,1:0|3:0,0:0:0:0:
225,204,194389,1,0,1:0:0:0:
313,374,194661,5,0,3:0:0:0:
283,339,194729,1,0,3:0:0:0:
275,294,194797,1,0,1:0:0:0:
290,251,194865,1,0,3:0:0:0:
319,217,194933,1,0,3:0:0:0:
362,202,195001,1,0,3:0:0:0:
396,173,195070,1,0,1:0:0:0:
410,130,195138,1,0,3:0:0:0:
404,85,195206,1,0,3:0:0:0:
372,53,195274,1,0,3:0:0:0:
327,58,195342,1,0,1:0:0:0:
303,96,195411,1,0,3:0:0:0:
264,72,195479,1,0,3:0:0:0:
220,60,195547,1,0,3:0:0:0:
180,80,195615,1,0,1:0:0:0:
161,121,195683,1,0,3:0:0:0:
173,164,195752,5,0,3:0:0:0:
193,203,195820,1,0,3:0:0:0:
190,247,195888,1,0,1:0:0:0:
162,282,195956,1,0,3:0:0:0:
117,283,196024,1,0,3:0:0:0:
81,254,196092,1,0,3:0:0:0:
69,209,196161,1,0,1:0:0:0:
88,168,196229,1,0,3:0:0:0:
130,152,196297,1,0,3:0:0:0:
173,164,196365,1,0,3:0:0:0:
214,179,196433,1,0,1:0:0:0:
258,171,196502,1,0,3:0:0:0:
294,144,196570,1,0,3:0:0:0:
310,102,196638,1,0,3:0:0:0:
296,59,196706,1,0,1:0:0:0:
261,30,196774,1,0,3:0:0:0:
216,30,196842,5,4,3:2:0:0:
212,34,197388,5,2,0:0:0:0:
212,34,197933,5,2,0:0:0:0:
253,89,198024,1,2,0:0:0:0:
245,157,198115,1,0,0:0:0:0:
196,206,198206,1,2,0:0:0:0:
149,256,198297,1,2,0:0:0:0:
156,324,198388,1,0,0:0:0:0:
208,368,198479,1,2,1:2:0:0:
276,359,198570,1,2,0:0:0:0:
302,295,198661,1,0,0:0:0:0:
282,228,198752,2,0,L|396:220,1,90,0|0,3:2|1:0,0:0:0:0:
506,128,199024,6,0,P|402:122|371:222,1,225,4|0,3:2|1:0,0:0:0:0:
491,368,199433,2,0,P|462:321|411:298,1,112.5,2|0,0:0|3:0,0:0:0:0:
228,332,199706,2,0,P|283:330|325:295,1,112.5,0|0,3:0|1:0,0:0:0:0:
305,125,199979,1,2,0:0:0:0:
192,195,200115,2,0,B|199:374|199:374|140:342,1,225,0|0,3:0|1:0,0:0:0:0:
0,302,200524,2,0,L|112:294,1,112.5,2|0,3:2|0:0,0:0:0:0:
136,159,200797,1,0,3:0:0:0:
159,352,200933,1,0,1:0:0:0:
51,221,201070,1,2,0:0:0:0:
233,189,201206,6,0,B|279:126|245:32|245:32|288:56|303:53,1,225,0|0,3:0|1:0,0:0:0:0:
486,21,201615,2,0,P|443:51|364:60,1,112.5,2|0,0:0|3:0,0:0:0:0:
425,207,201888,2,0,P|373:197|308:153,1,112.5,0|0,3:0|1:0,0:0:0:0:
236,38,202161,1,2,0:0:0:0:
242,262,202297,2,0,L|236:38,1,225,0|0,3:0|1:0,0:0:0:0:
134,128,202706,1,2,3:2:0:0:
323,167,202842,2,0,L|320:45,2,112.5,0|0|0,0:0|3:0|1:0,0:0:0:0:
184,300,203251,1,2,1:2:0:0:
184,300,203320,1,0,1:0:0:0:
184,300,203388,5,0,3:0:0:0:
134,128,203524,1,0,0:0:0:0:
61,242,203661,1,0,1:0:0:0:
220,212,203797,1,2,0:0:0:0:
53,151,203933,1,0,3:0:0:0:
95,325,204070,1,0,3:2:0:0:
223,117,204206,1,0,1:0:0:0:
0,199,204342,1,2,0:0:0:0:
184,300,204479,6,0,L|271:306,2,75,2|2|0,3:2|0:0|0:0,0:0:0:0:
220,212,204751,2,0,L|306:207,2,75,2|2|0,1:2|0:0|0:0,0:0:0:0:
331,309,205024,2,0,L|416:314,2,75,2|2|0,0:0|0:0|0:0,0:0:0:0:
365,202,205297,2,0,L|450:197,2,75,2|2|0,1:2|0:0|0:0,0:0:0:0:
207,85,205570,5,0,1:0:0:0:
207,85,205638,1,0,3:0:0:0:
207,85,205706,2,0,P|201:58|217:22,1,56.25,0|0,3:0|3:0,3:0:0:0:
227,219,205842,5,0,1:0:0:0:
227,219,205910,1,0,3:0:0:0:
227,219,205979,2,0,P|231:245|223:281,1,56.25,0|0,3:0|3:0,3:0:0:0:
149,154,206115,5,0,1:0:0:0:
149,154,206183,1,0,3:0:0:0:
149,154,206251,2,0,L|85:148,1,56.25,0|0,3:0|3:0,3:0:0:0:
270,148,206388,5,0,1:0:0:0:
270,148,206456,1,0,3:0:0:0:
270,148,206524,2,0,L|334:142,1,56.25,0|0,3:0|3:0,3:0:0:0:
426,232,206661,2,0,P|389:272|335:271,1,112.5,0|0,1:0|0:0,0:0:0:0:
270,148,206933,1,0,0:0:0:0:
159,270,207070,1,0,3:0:0:0:
159,270,207138,1,0,3:0:0:0:
159,270,207206,2,0,L|163:382,1,112.5,0|0,1:0|3:0,0:0:0:0:
0,245,207479,1,0,1:0:0:0:
17,204,207547,1,0,0:0:0:0:
57,186,207615,1,2,0:0:0:0:
101,190,207683,1,0,0:0:0:0:
144,193,207751,6,0,P|167:191|190:167,7,56.25,2|0|0|0|0|0|0|0,3:2|0:0|0:0|0:0|1:0|0:0|0:0|0:0,0:0:0:0:
275,245,208297,2,0,P|288:227|290:191,3,56.25,0|0|0|0,3:0|0:0|3:0|0:0,0:0:0:0:
401,177,208570,2,0,P|397:155|376:128,3,56.25,0|0|2|0,1:0|0:0|0:0|0:0,0:0:0:0:
189,168,208842,2,0,P|168:158|146:124,7,56.25,2|0|0|0|0|0|0|0,3:2|0:0|0:0|0:0|1:0|0:0|3:0|0:0,0:0:0:0:
243,85,209388,2,0,P|234:63|241:33,3,56.25,0|0|0|0,0:0|0:0|3:0|0:0,0:0:0:0:
349,70,209661,2,0,P|358:49|387:33,3,56.25,0|0|2|0,1:0|0:0|0:0|0:0,0:0:0:0:
424,137,209933,5,2,3:2:0:0:
447,175,210001,1,0,0:0:0:0:
439,219,210070,1,0,0:0:0:0:
399,239,210138,1,0,0:0:0:0:
356,225,210206,1,0,1:0:0:0:
317,201,210274,1,0,0:0:0:0:
277,181,210342,1,0,0:0:0:0:
233,189,210411,1,0,0:0:0:0:
201,221,210479,1,0,3:0:0:0:
194,266,210547,1,0,0:0:0:0:
216,306,210615,1,0,3:0:0:0:
257,325,210683,1,0,0:0:0:0:
301,317,210751,1,0,1:0:0:0:
332,286,210820,1,0,0:0:0:0:
338,241,210888,1,2,0:0:0:0:
317,201,210956,1,0,0:0:0:0:
313,156,211024,5,2,3:2:0:0:
326,113,211092,1,0,0:0:0:0:
362,85,211161,1,0,0:0:0:0:
373,128,211229,1,0,0:0:0:0:
336,154,211297,1,0,1:0:0:0:
291,155,211365,1,0,0:0:0:0:
249,136,211433,1,0,3:0:0:0:
222,99,211501,1,0,0:0:0:0:
190,66,211570,1,0,0:0:0:0:
148,49,211638,1,0,0:0:0:0:
103,51,211706,1,0,3:0:0:0:
66,76,211774,1,0,0:0:0:0:
47,116,211842,1,0,1:0:0:0:
58,160,211911,1,0,0:0:0:0:
88,192,211979,1,2,1:2:0:0:
132,200,212047,1,0,1:0:0:0:
174,185,212115,6,0,L|169:125,7,56.25,2|0|0|0|0|0|0|0,3:2|0:0|0:0|0:0|1:0|0:0|0:0|0:0,0:0:0:0:
66,76,212661,2,0,P|45:85|25:112,3,56.25,0|0|0|0,3:0|0:0|3:0|0:0,0:0:0:0:
27,223,212933,2,0,P|36:243|67:257,3,56.25,0|0|2|0,1:0|0:0|0:0|0:0,0:0:0:0:
174,185,213206,6,0,L|169:128,7,56.25,2|0|0|0|0|0|0|0,3:2|0:0|0:0|0:0|1:0|0:0|3:0|0:0,0:0:0:0:
278,170,213751,2,0,L|273:113,3,56.25,0|0|0|0,0:0|0:0|3:0|0:0,0:0:0:0:
385,153,214024,2,0,L|380:96,3,56.25,0|0|2|0,1:0|0:0|0:0|0:0,0:0:0:0:
432,32,214297,5,0,1:0:0:0:
469,65,214365,1,0,1:0:0:0:
486,112,214433,1,0,1:0:0:0:
491,156,214501,1,0,3:0:0:0:
480,199,214569,1,0,3:0:0:0:
445,228,214637,1,0,3:0:0:0:
406,238,214706,1,0,3:0:0:0:
368,227,214774,1,0,3:0:0:0:
329,218,214842,1,0,3:0:0:0:
291,229,214910,1,0,3:0:0:0:
269,262,214978,1,0,3:0:0:0:
268,296,215047,1,0,3:0:0:0:
288,322,215115,1,0,3:0:0:0:
318,336,215183,1,0,3:0:0:0:
350,328,215251,1,0,3:0:0:0:
368,299,215319,1,0,3:0:0:0:
360,265,215388,5,0,3:0:0:0:
344,271,215456,1,2,0:0:0:0:
329,279,215524,1,2,0:0:0:0:
314,288,215592,1,2,0:0:0:0:
299,296,215660,1,2,0:0:0:0:
285,305,215728,1,2,0:0:0:0:
252,315,215797,5,0,3:0:0:0:
218,316,215865,1,0,3:0:0:0:
179,308,215933,1,0,1:0:0:0:
143,291,216001,1,0,0:0:0:0:
108,261,216069,1,0,3:0:0:0:
82,222,216137,1,0,0:0:0:0:
66,171,216206,1,0,1:0:0:0:
68,120,216274,1,0,0:0:0:0:
85,70,216342,2,0,L|142:68,1,56.25,2|0,0:0|0:0,0:0:0:0:
264,124,216479,5,0,1:0:0:0:
317,121,216547,1,0,3:0:0:0:
350,79,216615,1,0,3:0:0:0:
335,27,216683,1,0,3:0:0:0:
285,5,216751,1,0,1:0:0:0:
236,30,216820,1,0,3:0:0:0:
228,85,216888,1,0,3:0:0:0:
264,124,216956,1,0,3:0:0:0:
289,171,217024,1,0,1:0:0:0:
293,224,217092,1,0,3:0:0:0:
270,273,217161,1,0,3:0:0:0:
230,309,217229,1,0,3:0:0:0:
176,315,217297,1,0,1:0:0:0:
126,293,217365,1,0,3:0:0:0:
93,250,217433,1,0,3:0:0:0:
90,196,217501,1,0,3:0:0:0:
103,143,217570,5,0,1:0:0:0:
142,106,217638,1,0,3:0:0:0:
194,95,217706,1,0,3:0:0:0:
245,109,217774,1,0,3:0:0:0:
279,150,217842,1,0,1:0:0:0:
323,181,217911,1,0,3:0:0:0:
375,193,217979,1,0,3:0:0:0:
427,181,218047,1,0,3:0:0:0:
462,140,218115,1,0,1:0:0:0:
466,86,218183,1,0,3:0:0:0:
424,51,218251,1,0,3:0:0:0:
385,90,218320,1,0,3:0:0:0:
389,143,218388,1,0,1:0:0:0:
427,181,218456,1,0,3:0:0:0:
456,225,218524,1,0,3:0:0:0:
472,276,218592,1,0,3:0:0:0:
457,328,218661,5,0,1:0:0:0:
407,348,218729,1,0,3:0:0:0:
355,332,218797,1,0,3:0:0:0:
334,282,218865,1,0,3:0:0:0:
289,312,218933,1,0,1:0:0:0:
235,320,219001,1,0,3:0:0:0:
183,302,219070,1,0,3:0:0:0:
163,251,219138,1,0,3:0:0:0:
171,197,219206,1,0,1:0:0:0:
211,161,219274,1,0,3:0:0:0:
240,115,219342,1,0,3:0:0:0:
226,61,219411,1,0,3:0:0:0:
181,31,219479,1,0,3:0:0:0:
127,38,219547,1,0,3:0:0:0:
92,79,219615,1,0,3:0:0:0:
92,132,219683,1,0,3:0:0:0:
125,172,219751,6,0,B|199:177|240:115|240:115|285:176|357:168,1,270.000010299683,0|0,1:0|0:0,0:0:0:0:
244,289,220570,1,2,0:0:0:0:
244,289,220638,1,2,0:0:0:0:
244,289,220706,1,2,0:0:0:0:
244,289,220774,1,2,0:0:0:0:
244,289,220842,6,0,B|203:202|277:199|241:116,1,180,4|0,3:2|1:0,0:0:0:0:
138,158,221251,1,2,0:0:0:0:
316,242,221388,1,0,3:0:0:0:
316,242,221524,1,0,3:0:0:0:
147,342,221660,1,0,1:0:0:0:
242,199,221797,1,2,0:0:0:0:
80,253,221933,6,0,P|168:243|244:289,1,180,0|0,3:0|1:0,0:0:0:0:
311,152,222342,2,0,L|316:242,1,90,2|0,3:2|0:0,0:0:0:0:
408,341,222615,1,0,3:0:0:0:
419,180,222751,2,0,L|414:90,1,90,0|0,1:0|0:0,0:0:0:0:
289,12,223024,6,0,B|269:37|265:62|265:62|211:24|146:41,1,180,0|0,3:0|1:0,0:0:0:0:
79,159,223433,1,2,0:0:0:0:
35,7,223569,1,0,3:0:0:0:
35,7,223706,1,0,3:0:0:0:
189,117,223842,2,0,P|198:160|189:204,1,90,0|0,1:0|0:0,0:0:0:0:
133,357,224115,6,0,P|123:313|132:269,1,90,0|0,3:0|0:0,0:0:0:0:
291,201,224388,1,0,1:0:0:0:
116,195,224524,2,0,L|13:199,1,90,2|0,3:2|0:0,0:0:0:0:
70,70,224797,1,0,3:0:0:0:
237,152,224933,5,0,1:0:0:0:
277,132,225001,1,0,1:0:0:0:
296,91,225069,1,0,1:0:0:0:
293,45,225138,1,0,1:0:0:0:
273,4,225206,6,0,P|329:101|423:113,1,180,0|0,3:0|1:0,0:0:0:0:
508,28,225615,1,2,0:0:0:0:
452,165,225751,2,0,L|461:269,1,90,0|0,3:0|3:0,0:0:0:0:
312,360,226023,1,0,1:0:0:0:
362,222,226160,1,0,0:0:0:0:
441,371,226297,6,0,P|419:333|384:305,1,90,0|0,3:0|0:0,0:0:0:0:
228,322,226569,1,0,1:0:0:0:
300,181,226706,2,0,P|332:154|379:151,1,90,2|0,3:2|0:0,0:0:0:0:
459,254,226978,1,0,3:0:0:0:
246,227,227115,2,0,L|245:134,1,90,0|0,1:0|0:0,0:0:0:0:
113,28,227388,5,2,3:2:0:0:
113,28,227456,1,0,3:0:0:0:
113,28,227524,1,0,3:0:0:0:
300,81,227660,5,2,3:2:0:0:
300,81,227728,1,0,3:0:0:0:
300,81,227796,1,0,3:0:0:0:
108,141,227933,5,2,3:2:0:0:
73,169,228001,1,0,3:0:0:0:
71,213,228069,1,0,3:0:0:0:
101,246,228138,1,0,3:0:0:0:
142,263,228206,1,0,3:0:0:0:
163,302,228274,1,0,3:0:0:0:
162,346,228342,1,0,3:0:0:0:
133,380,228410,1,0,3:0:0:0:
101,347,228479,6,0,P|91:292|160:182,1,180,4|0,1:2|0:0,0:0:0:0:
337,297,228888,1,0,3:0:0:0:
337,297,228956,1,0,3:0:0:0:
337,297,229024,2,0,B|292:309|292:309|232:295,1,90,0|0,1:0|0:0,0:0:0:0:
290,138,229297,1,0,1:0:0:0:
422,288,229570,5,4,3:2:0:0:
472,23,229843,2,0,L|471:114,1,90,0|2,1:0|0:0,0:0:0:0:
361,213,230116,1,0,3:0:0:0:
361,213,230252,1,0,3:0:0:0:
261,31,230388,1,0,1:0:0:0:
402,75,230525,1,2,0:0:0:0:
233,164,230661,6,0,L|40:158,1,180,0|0,3:0|1:0,0:0:0:0:
142,89,231070,2,0,L|231:91,1,90,2|0,3:2|0:0,0:0:0:0:
321,194,231343,1,0,3:0:0:0:
142,234,231479,2,0,L|52:231,1,90,0|0,1:0|0:0,0:0:0:0:
232,163,231751,6,0,P|258:247|217:325,1,180,0|0,3:0|1:0,0:0:0:0:
50,339,232161,1,2,0:0:0:0:
97,181,232297,1,0,3:0:0:0:
97,181,232434,1,0,3:0:0:0:
217,325,232570,2,0,L|315:319,1,90,0|0,1:0|0:0,0:0:0:0:
493,251,232842,6,0,L|395:245,1,90,0|0,3:0|0:0,0:0:0:0:
269,176,233116,1,0,1:0:0:0:
375,309,233252,2,0,P|370:353|337:383,1,90,2|0,3:2|0:0,0:0:0:0:
235,252,233524,1,0,3:0:0:0:
374,142,233661,1,0,1:0:0:0:
401,106,233729,1,0,1:0:0:0:
387,63,233797,1,0,1:0:0:0:
343,49,233866,1,0,1:0:0:0:
313,83,233934,6,0,P|418:89|515:79,1,180,0|0,3:0|1:0,0:0:0:0:
415,217,234342,1,2,0:0:0:0:
258,127,234479,2,0,P|214:117|169:119,1,90,0|0,3:0|3:0,0:0:0:0:
55,191,234751,1,0,1:0:0:0:
158,277,234887,1,0,0:0:0:0:
169,119,235024,6,0,L|164:12,1,90,0|0,3:0|0:0,0:0:0:0:
131,186,235297,1,0,1:0:0:0:
73,275,235433,2,0,L|68:168,1,90,2|0,3:2|0:0,0:0:0:0:
220,194,235706,1,0,3:0:0:0:
342,45,235842,2,0,L|347:135,1,90,0|0,1:0|0:0,0:0:0:0:
177,126,236116,5,2,3:2:0:0:
177,126,236184,1,0,3:0:0:0:
177,126,236252,1,0,3:0:0:0:
322,237,236388,5,2,3:2:0:0:
322,237,236456,1,0,3:0:0:0:
322,237,236524,1,0,3:0:0:0:
343,45,236661,5,2,3:2:0:0:
386,53,236729,1,0,3:0:0:0:
419,82,236797,1,0,3:0:0:0:
439,122,236866,1,0,3:0:0:0:
445,166,236934,1,0,3:0:0:0:
430,208,237002,1,0,3:0:0:0:
417,251,237070,1,0,3:0:0:0:
421,295,237138,1,0,3:0:0:0:
454,324,237206,6,0,P|408:250|322:237,1,180,4|0,1:2|0:0,0:0:0:0:
349,381,237616,1,0,3:0:0:0:
349,381,237684,1,0,3:0:0:0:
349,381,237751,1,0,1:0:0:0:
439,122,238025,1,0,1:0:0:0:
173,286,238297,5,0,3:0:0:0:
128,291,238365,1,0,3:0:0:0:
84,279,238433,1,0,1:0:0:0:
62,239,238501,1,0,3:0:0:0:
73,195,238569,1,0,3:0:0:0:
102,160,238638,1,0,3:0:0:0:
129,124,238706,1,0,1:0:0:0:
122,79,238774,1,0,3:0:0:0:
83,56,238842,1,0,3:0:0:0:
43,77,238910,1,0,3:0:0:0:
32,120,238978,1,0,1:0:0:0:
57,157,239047,1,0,3:0:0:0:
102,160,239115,1,0,3:0:0:0:
145,147,239183,1,0,3:0:0:0:
184,125,239251,1,0,1:0:0:0:
227,112,239319,1,0,3:0:0:0:
235,156,239388,5,0,3:0:0:0:
265,189,239456,1,0,3:0:0:0:
308,201,239524,1,0,1:0:0:0:
351,190,239592,1,0,3:0:0:0:
374,152,239660,1,0,3:0:0:0:
416,138,239728,1,0,3:0:0:0:
460,149,239797,1,0,1:0:0:0:
495,176,239865,1,0,3:0:0:0:
494,220,239933,1,0,3:0:0:0:
464,253,240001,1,0,3:0:0:0:
431,285,240070,1,0,1:0:0:0:
413,326,240138,1,0,3:0:0:0:
438,363,240206,1,0,3:0:0:0:
483,359,240274,1,0,3:0:0:0:
503,318,240342,1,0,1:0:0:0:
476,281,240411,1,0,3:0:0:0:
431,285,240479,5,4,1:2:0:0:
427,289,241024,6,0,P|327:313|236:288,1,180,2|0,0:0|0:0,0:0:0:0:
53,109,241570,5,2,0:0:0:0:
53,40,241661,1,2,0:0:0:0:
112,5,241751,1,0,0:0:0:0:
172,40,241842,1,2,0:0:0:0:
172,109,241933,1,2,0:0:0:0:
112,143,242024,1,0,0:0:0:0:
69,197,242115,1,2,1:2:0:0:
66,266,242206,1,2,0:0:0:0:
101,325,242297,1,0,0:0:0:0:
170,332,242388,1,2,0:0:0:0:
350,332,242524,6,0,L|170:332,1,180,4|0,1:2|3:0,0:0:0:0:
31,225,242933,2,0,P|75:240|119:297,1,90,0|0,1:0|0:0,0:0:0:0:
3,358,243206,1,0,3:0:0:0:
31,225,243342,1,0,3:0:0:0:
170,332,243478,1,0,1:0:0:0:
242,166,243615,2,0,P|245:115|217:65,1,90,2|0,3:2|0:0,0:0:0:0:
157,246,243888,2,0,P|153:290|170:332,1,90,2|0,0:2|1:0,0:0:0:0:
154,157,244160,2,0,P|111:144|58:152,1,90,2|0,3:2|0:0,0:0:0:0:
238,248,244433,2,0,P|282:252|325:239,1,90,2|0,3:2|1:0,0:0:0:0:
391,77,244706,6,0,P|303:87|284:194,1,180,2|0,0:0|3:0,0:0:0:0:
410,280,245115,2,0,L|501:278,1,90,0|0,1:0|0:0,0:0:0:0:
325,238,245388,2,0,L|234:236,1,90,0|0,3:0|3:0,3:0:0:0:
94,142,245661,1,0,1:0:0:0:
90,289,245797,2,0,P|178:299|238:223,1,180,0|0,3:0|0:0,0:0:0:0:
229,56,246206,1,0,1:0:0:0:
148,210,246342,1,0,3:0:0:0:
342,138,246478,1,0,0:0:0:0:
342,138,246615,1,0,3:0:0:0:
134,54,246751,1,0,1:0:0:0:
235,236,246888,6,0,L|228:38,1,180,2|0,0:0|3:0,0:0:0:0:
92,132,247297,2,0,P|48:142|4:134,1,90,0|0,1:0|0:0,0:0:0:0:
87,256,247570,1,0,3:0:0:0:
162,120,247707,1,2,3:2:0:0:
168,294,247843,1,0,1:0:0:0:
168,294,247979,1,0,3:0:0:0:
12,210,248116,1,2,0:2:0:0:
213,207,248252,1,0,0:0:0:0:
213,207,248389,1,0,1:0:0:0:
78,52,248525,1,2,3:2:0:0:
87,256,248661,1,0,3:0:0:0:
87,256,248797,1,0,3:0:0:0:
259,107,248933,1,2,1:2:0:0:
313,325,249070,1,0,0:0:0:0:
456,193,249206,6,0,P|382:172|295:206,1,135,4|0,3:2|3:0,0:0:0:0:
283,249,249479,2,0,P|321:228|327:185,1,90,0|0,1:0|3:0,0:0:0:0:
263,63,249752,1,0,0:0:0:0:
213,207,249888,2,0,L|219:310,1,90,0|0,3:0|1:0,0:0:0:0:
50,333,250161,1,0,3:0:0:0:
50,333,250229,1,0,3:0:0:0:
50,333,250297,5,0,3:0:0:0:
50,333,250388,2,0,P|22:322|0:301,1,60,0|0,3:0|3:0,3:0:0:0:
72,245,250570,1,0,3:0:0:0:
72,245,250661,2,0,P|59:217|59:187,1,60,0|0,3:0|3:0,3:0:0:0:
148,198,250842,1,0,3:0:0:0:
148,198,250933,2,0,P|157:170|181:150,1,60,0|0,3:0|3:0,3:0:0:0:
238,229,251116,5,0,3:0:0:0:
238,229,251184,1,0,3:0:0:0:
238,229,251251,6,0,L|446:224,1,180,4|0,1:2|3:0,0:0:0:0:
261,307,251660,2,0,P|216:309|175:278,1,90,0|0,1:0|0:0,0:0:0:0:
263,151,251933,1,0,3:0:0:0:
360,290,252069,1,0,3:0:0:0:
171,186,252205,1,0,1:0:0:0:
357,120,252342,2,0,L|459:124,1,90,2|0,3:2|0:0,0:0:0:0:
302,32,252615,2,0,L|200:36,1,90,2|0,0:2|1:0,0:0:0:0:
361,124,252888,2,0,L|463:128,1,90,2|0,3:2|0:0,0:0:0:0:
306,36,253161,2,0,L|204:40,1,90,2|0,3:2|1:0,0:0:0:0:
137,204,253433,6,0,P|222:190|255:110,1,180,2|0,0:0|3:0,0:0:0:0:
94,47,253842,2,0,P|67:88|70:139,1,90,0|0,1:0|0:0,0:0:0:0:
109,284,254115,2,0,P|134:248|137:204,1,90,0|0,3:0|3:0,3:0:0:0:
0,192,254387,1,0,1:0:0:0:
82,355,254524,2,0,B|238:348|238:348|225:375,1,180,0|0,3:0|0:0,0:0:0:0:
137,204,254933,1,0,1:0:0:0:
284,289,255069,1,0,3:0:0:0:
288,133,255205,1,0,0:0:0:0:
288,133,255342,1,0,3:0:0:0:
187,280,255478,1,0,1:0:0:0:
391,203,255615,6,0,L|211:211,1,180,2|0,0:0|3:0,0:0:0:0:
22,272,256024,2,0,L|113:276,1,90,0|0,1:0|0:0,0:0:0:0:
250,364,256297,1,0,3:0:0:0:
211,210,256434,1,2,3:2:0:0:
143,370,256570,1,0,1:0:0:0:
143,370,256706,1,0,3:0:0:0:
301,269,256843,1,2,0:2:0:0:
127,192,256979,1,0,0:0:0:0:
127,192,257116,1,0,1:0:0:0:
250,364,257251,1,2,3:2:0:0:
256,151,257388,1,0,3:0:0:0:
256,151,257525,1,0,3:0:0:0:
431,259,257661,1,2,1:2:0:0:
250,364,257797,1,0,0:0:0:0:
368,183,257933,6,0,L|361:35,1,135,4|0,3:2|3:0,0:0:0:0:
435,71,258206,2,0,L|438:160,1,90,0|0,1:0|0:0,0:0:0:0:
319,273,258479,1,0,0:0:0:0:
256,151,258616,2,0,P|214:133|170:136,1,90,0|0,3:0|1:0,0:0:0:0:
64,230,258888,1,0,3:0:0:0:
64,230,258956,1,0,3:0:0:0:
64,230,259024,5,0,3:0:0:0:
64,230,259115,2,0,L|4:234,1,60,0|0,3:0|3:0,3:0:0:0:
166,263,259297,1,0,3:0:0:0:
166,263,259388,2,0,L|225:267,1,60,0|0,3:0|3:0,3:0:0:0:
68,322,259570,1,0,3:0:0:0:
68,322,259661,2,0,L|8:326,1,60,0|0,3:0|3:0,3:0:0:0:
131,193,259842,1,0,3:0:0:0:
131,193,259911,1,0,3:0:0:0:
131,193,259979,1,0,3:0:0:0:
228,338,260115,6,0,P|269:324|293:287,1,90,0|0,1:0|0:0,0:0:0:0:
333,70,260388,1,0,3:0:0:0:
333,70,260456,1,0,3:0:0:0:
333,70,260524,2,0,L|337:185,1,90,0|0,1:0|0:0,0:0:0:0:
413,334,260797,1,0,3:0:0:0:
413,334,260865,1,0,3:0:0:0:
413,334,260933,1,0,1:0:0:0:
131,193,261070,5,4,1:2:0:0:
