osu file format v14

[General]
AudioFilename: audio.mp3
AudioLeadIn: 0
PreviewTime: 206128
Countdown: 0
SampleSet: None
StackLeniency: 0.7
Mode: 3
LetterboxInBreaks: 0
SpecialStyle: 0
WidescreenStoryboard: 1

[Editor]
Bookmarks: 2128,13699,17556,24413,31271,44985,51842,60413,63842,75842,82699,96413,111842,122128,132413,142699,146128,152985,159842,171842,178699,192413,206128,218128,224985,236985,238699
DistanceSpacing: 1.2
BeatDivisor: 4
GridSize: 8
TimelineZoom: 1.8

[Metadata]
Title:Broken Down
TitleUnicode:Broken Down
Artist:MisteryCircle
ArtistUnicode:MisteryCircle
Creator:Rudalek
Version:Hard
Source:東方Project
Tags:reitaisai 10 So What? 砕月 broken moon 東方萃夢想 ~ Immaterial and Missing Power somally youki zun touhou
BeatmapID:1242970
BeatmapSetID:586983

[Difficulty]
HPDrainRate:7.5
CircleSize:4
OverallDifficulty:7.5
ApproachRate:5
SliderMultiplier:1.4
SliderTickRate:1

[Events]
//Background and Video events
0,0,"suika.jpg",0,0
//Break Periods
//Storyboard Layer 0 (Background)
//Storyboard Layer 1 (Fail)
//Storyboard Layer 2 (Pass)
//Storyboard Layer 3 (Foreground)
//Storyboard Sound Samples

[TimingPoints]
2128,428.571428571429,4,2,0,20,1,0

[HitObjects]
320,192,2128,5,0,0:0:0:0:
192,192,2128,1,0,0:0:0:0:
64,192,2413,1,0,0:0:0:0:
448,192,2556,1,0,0:0:0:0:
192,192,2556,1,0,0:0:0:0:
320,192,2842,1,0,0:0:0:0:
192,192,2985,1,0,0:0:0:0:
64,192,2985,1,0,0:0:0:0:
448,192,3128,1,0,0:0:0:0:
192,192,3271,1,0,0:0:0:0:
64,192,3413,1,0,0:0:0:0:
320,192,3413,1,0,0:0:0:0:
448,192,3556,1,0,0:0:0:0:
192,192,3699,1,0,0:0:0:0:
320,192,3842,1,0,0:0:0:0:
448,192,3842,1,0,0:0:0:0:
192,192,4128,1,0,0:0:0:0:
448,192,4271,1,0,0:0:0:0:
64,192,4271,1,0,0:0:0:0:
448,192,4699,1,0,0:0:0:0:
64,192,4699,1,0,0:0:0:0:
320,192,4985,1,0,0:0:0:0:
448,192,5128,1,0,0:0:0:0:
192,192,5128,1,0,0:0:0:0:
448,192,5413,1,0,0:0:0:0:
192,192,5556,1,0,0:0:0:0:
64,192,5556,1,0,0:0:0:0:
192,192,5842,1,0,0:0:0:0:
64,192,5985,1,0,0:0:0:0:
448,192,5985,1,0,0:0:0:0:
192,192,6271,1,0,0:0:0:0:
448,192,6413,1,0,0:0:0:0:
320,192,6413,1,0,0:0:0:0:
64,192,6556,1,0,0:0:0:0:
320,192,6699,1,0,0:0:0:0:
448,192,6842,1,0,0:0:0:0:
64,192,6842,1,0,0:0:0:0:
320,192,7128,1,0,0:0:0:0:
192,192,7271,1,0,0:0:0:0:
64,192,7271,1,0,0:0:0:0:
320,192,7556,1,0,0:0:0:0:
448,192,7699,1,0,0:0:0:0:
192,192,7699,1,0,0:0:0:0:
192,192,7985,1,0,0:0:0:0:
320,192,8128,1,0,0:0:0:0:
448,192,8128,1,0,0:0:0:0:
64,192,8271,1,0,0:0:0:0:
192,192,8413,1,0,0:0:0:0:
448,192,8556,1,0,0:0:0:0:
64,192,8556,1,0,0:0:0:0:
320,192,8842,1,0,0:0:0:0:
192,192,8985,1,0,0:0:0:0:
64,192,8985,1,0,0:0:0:0:
320,192,9271,1,0,0:0:0:0:
448,192,9413,1,0,0:0:0:0:
64,192,9413,1,0,0:0:0:0:
320,192,9699,1,0,0:0:0:0:
192,192,9842,1,0,0:0:0:0:
64,192,9842,1,0,0:0:0:0:
448,192,9985,1,0,0:0:0:0:
192,192,10128,1,0,0:0:0:0:
64,192,10271,1,0,0:0:0:0:
320,192,10271,1,0,0:0:0:0:
448,192,10413,1,0,0:0:0:0:
192,192,10556,1,0,0:0:0:0:
320,192,10699,1,0,0:0:0:0:
448,192,10699,1,0,0:0:0:0:
192,192,10985,1,0,0:0:0:0:
64,192,11128,1,0,0:0:0:0:
320,192,11128,1,0,0:0:0:0:
448,192,11413,1,0,0:0:0:0:
320,192,11556,1,0,0:0:0:0:
64,192,11556,1,0,0:0:0:0:
320,192,11842,1,0,0:0:0:0:
448,192,11985,1,0,0:0:0:0:
64,192,11985,1,0,0:0:0:0:
192,192,12271,1,0,0:0:0:0:
320,192,12413,1,0,0:0:0:0:
448,192,12413,1,0,0:0:0:0:
192,192,12699,1,0,0:0:0:0:
64,192,12842,1,0,0:0:0:0:
448,192,12842,1,0,0:0:0:0:
320,192,13128,1,0,0:0:0:0:
192,192,13271,1,0,0:0:0:0:
64,192,13271,1,0,0:0:0:0:
448,192,13413,1,0,0:0:0:0:
320,192,13556,1,0,0:0:0:0:
64,192,13699,128,0,14128:0:0:0:0:
320,192,14128,1,0,0:0:0:0:
192,192,14342,128,0,14556:0:0:0:0:
64,192,14556,1,0,0:0:0:0:
320,192,14663,128,0,14878:0:0:0:0:
448,192,14985,128,0,15199:0:0:0:0:
64,192,14985,1,0,0:0:0:0:
192,192,15306,128,0,15628:0:0:0:0:
448,192,15413,1,0,0:0:0:0:
64,192,15628,128,0,15842:0:0:0:0:
448,192,15628,1,0,0:0:0:0:
320,192,15842,1,0,0:0:0:0:
448,192,15842,1,0,0:0:0:0:
192,192,15913,1,0,0:0:0:0:
64,192,15985,1,0,0:0:0:0:
320,192,16056,1,0,0:0:0:0:
192,192,16128,1,0,0:0:0:0:
448,192,16199,1,0,0:0:0:0:
320,192,16270,1,0,0:0:0:0:
192,192,16342,1,0,0:0:0:0:
64,192,16413,1,0,0:0:0:0:
320,192,16485,1,0,0:0:0:0:
448,192,16485,1,0,0:0:0:0:
64,192,16556,1,0,0:0:0:0:
192,192,16556,1,0,0:0:0:0:
320,192,16628,1,0,0:0:0:0:
448,192,16628,1,0,0:0:0:0:
192,192,16699,1,0,0:0:0:0:
64,192,16699,1,0,0:0:0:0:
448,192,16913,1,0,0:0:0:0:
64,192,16913,1,0,0:0:0:0:
448,192,17128,1,0,0:0:0:0:
64,192,17128,1,0,0:0:0:0:
448,192,17342,1,0,0:0:0:0:
64,192,17342,1,0,0:0:0:0:
320,192,17556,128,0,17663:0:0:0:0:
64,192,17771,128,0,17878:0:0:0:0:
448,192,17985,128,0,18092:0:0:0:0:
320,192,17985,1,0,0:0:0:0:
192,192,18092,128,0,18199:0:0:0:0:
320,192,18306,128,0,18520:0:0:0:0:
448,192,18628,128,0,18735:0:0:0:0:
192,192,18735,128,0,18842:0:0:0:0:
320,192,18842,128,0,18949:0:0:0:0:
448,192,18842,1,0,0:0:0:0:
64,192,18949,128,0,19056:0:0:0:0:
448,192,19056,128,0,19270:0:0:0:0:
192,192,19271,128,0,19378:0:0:0:0:
64,192,19485,128,0,19592:0:0:0:0:
320,192,19699,1,0,0:0:0:0:
448,192,19699,128,0,19806:0:0:0:0:
192,192,19806,128,0,19913:0:0:0:0:
448,192,20021,128,0,20235:0:0:0:0:
320,192,20342,128,0,20449:0:0:0:0:
64,192,20449,128,0,20556:0:0:0:0:
448,192,20556,128,0,20663:0:0:0:0:
192,192,20663,128,0,20771:0:0:0:0:
320,192,20771,128,0,20878:0:0:0:0:
64,192,20878,128,0,20985:0:0:0:0:
448,192,20985,128,0,21092:0:0:0:0:
192,192,21199,128,0,21306:0:0:0:0:
448,192,21413,128,0,21520:0:0:0:0:
64,192,21413,1,0,0:0:0:0:
192,192,21521,128,0,21628:0:0:0:0:
320,192,21735,128,0,21949:0:0:0:0:
448,192,22056,128,0,22163:0:0:0:0:
192,192,22163,128,0,22271:0:0:0:0:
448,192,22271,1,0,0:0:0:0:
320,192,22271,128,0,22378:0:0:0:0:
64,192,22378,128,0,22485:0:0:0:0:
448,192,22485,128,0,22592:0:0:0:0:
192,192,22592,128,0,22699:0:0:0:0:
320,192,22699,128,0,22806:0:0:0:0:
192,192,22913,128,0,23020:0:0:0:0:
448,192,23128,128,0,23235:0:0:0:0:
64,192,23128,1,0,0:0:0:0:
192,192,23235,128,0,23342:0:0:0:0:
320,192,23342,1,0,0:0:0:0:
192,192,23449,1,0,0:0:0:0:
64,192,23556,1,0,0:0:0:0:
448,192,23556,1,0,0:0:0:0:
448,192,23770,1,0,0:0:0:0:
64,192,23771,1,0,0:0:0:0:
64,192,23985,1,0,0:0:0:0:
448,192,23985,1,0,0:0:0:0:
64,192,24199,1,0,0:0:0:0:
448,192,24199,1,0,0:0:0:0:
320,192,24413,1,0,0:0:0:0:
192,192,24520,1,0,0:0:0:0:
64,192,24628,1,0,0:0:0:0:
448,192,24628,1,0,0:0:0:0:
320,192,24735,1,0,0:0:0:0:
192,192,24842,1,0,0:0:0:0:
448,192,24949,1,0,0:0:0:0:
320,192,25056,1,0,0:0:0:0:
64,192,25056,1,0,0:0:0:0:
192,192,25163,1,0,0:0:0:0:
320,192,25270,1,0,0:0:0:0:
192,192,25378,1,0,0:0:0:0:
448,192,25485,1,0,0:0:0:0:
64,192,25485,1,0,0:0:0:0:
320,192,25592,1,0,0:0:0:0:
192,192,25699,1,0,0:0:0:0:
448,192,25806,1,0,0:0:0:0:
320,192,25913,1,0,0:0:0:0:
64,192,25913,1,0,0:0:0:0:
192,192,26020,1,0,0:0:0:0:
64,192,26128,1,0,0:0:0:0:
192,192,26235,1,0,0:0:0:0:
320,192,26342,1,0,0:0:0:0:
448,192,26342,1,0,0:0:0:0:
64,192,26449,1,0,0:0:0:0:
320,192,26556,1,0,0:0:0:0:
192,192,26663,1,0,0:0:0:0:
448,192,26770,1,0,0:0:0:0:
64,192,26770,1,0,0:0:0:0:
320,192,26878,1,0,0:0:0:0:
192,192,26985,1,0,0:0:0:0:
320,192,27092,1,0,0:0:0:0:
448,192,27199,1,0,0:0:0:0:
64,192,27199,1,0,0:0:0:0:
192,192,27306,1,0,0:0:0:0:
320,192,27413,1,0,0:0:0:0:
64,192,27520,1,0,0:0:0:0:
448,192,27628,1,0,0:0:0:0:
192,192,27628,1,0,0:0:0:0:
320,192,27735,1,0,0:0:0:0:
448,192,27842,1,0,0:0:0:0:
192,192,27949,1,0,0:0:0:0:
64,192,28056,1,0,0:0:0:0:
448,192,28056,1,0,0:0:0:0:
320,192,28163,1,0,0:0:0:0:
192,192,28270,1,0,0:0:0:0:
448,192,28378,1,0,0:0:0:0:
64,192,28485,1,0,0:0:0:0:
320,192,28485,1,0,0:0:0:0:
192,192,28592,1,0,0:0:0:0:
320,192,28699,1,0,0:0:0:0:
448,192,28806,1,0,0:0:0:0:
64,192,28913,1,0,0:0:0:0:
192,192,28913,1,0,0:0:0:0:
320,192,29020,1,0,0:0:0:0:
448,192,29128,1,0,0:0:0:0:
192,192,29235,1,0,0:0:0:0:
320,192,29342,1,0,0:0:0:0:
64,192,29342,1,0,0:0:0:0:
448,192,29449,1,0,0:0:0:0:
320,192,29556,1,0,0:0:0:0:
192,192,29663,1,0,0:0:0:0:
64,192,29771,1,0,0:0:0:0:
448,192,29771,1,0,0:0:0:0:
448,192,29985,1,0,0:0:0:0:
320,192,30056,1,0,0:0:0:0:
192,192,30128,1,0,0:0:0:0:
448,192,30199,1,0,0:0:0:0:
64,192,30199,1,0,0:0:0:0:
320,192,30270,1,0,0:0:0:0:
192,192,30342,1,0,0:0:0:0:
64,192,30413,1,0,0:0:0:0:
320,192,30485,1,0,0:0:0:0:
192,192,30556,1,0,0:0:0:0:
448,192,30628,1,0,0:0:0:0:
64,192,30628,1,0,0:0:0:0:
320,192,30770,1,0,0:0:0:0:
448,192,30842,1,0,0:0:0:0:
64,192,30842,1,0,0:0:0:0:
192,192,30913,1,0,0:0:0:0:
320,192,30985,1,0,0:0:0:0:
64,192,31056,1,0,0:0:0:0:
448,192,31056,1,0,0:0:0:0:
192,192,31128,1,0,0:0:0:0:
320,192,31199,1,0,0:0:0:0:
64,192,31270,1,0,0:0:0:0:
448,192,31271,1,0,0:0:0:0:
192,192,31378,1,0,0:0:0:0:
64,192,31485,1,0,0:0:0:0:
448,192,31485,1,0,0:0:0:0:
320,192,31592,1,0,0:0:0:0:
448,192,31699,1,0,0:0:0:0:
192,192,31699,1,0,0:0:0:0:
320,192,31913,128,0,32021:0:0:0:0:
192,192,32021,128,0,32128:0:0:0:0:
64,192,32128,1,0,0:0:0:0:
320,192,32235,128,0,32342:0:0:0:0:
64,192,32342,128,0,32449:0:0:0:0:
192,192,32449,128,0,32556:0:0:0:0:
320,192,32556,1,0,0:0:0:0:
448,192,32556,128,0,32663:0:0:0:0:
64,192,32663,128,0,32771:0:0:0:0:
320,192,32770,1,0,0:0:0:0:
192,192,32878,1,0,0:0:0:0:
448,192,32985,1,0,0:0:0:0:
64,192,32985,1,0,0:0:0:0:
320,192,33092,1,0,0:0:0:0:
448,192,33199,1,0,0:0:0:0:
192,192,33199,1,0,0:0:0:0:
64,192,33306,1,0,0:0:0:0:
448,192,33413,1,0,0:0:0:0:
320,192,33413,1,0,0:0:0:0:
192,192,33628,128,0,33735:0:0:0:0:
320,192,33735,128,0,33842:0:0:0:0:
64,192,33842,1,0,0:0:0:0:
192,192,33949,128,0,34056:0:0:0:0:
320,192,34056,128,0,34163:0:0:0:0:
448,192,34163,128,0,34270:0:0:0:0:
320,192,34270,1,0,0:0:0:0:
64,192,34271,128,0,34378:0:0:0:0:
192,192,34378,128,0,34485:0:0:0:0:
448,192,34485,1,0,0:0:0:0:
320,192,34592,1,0,0:0:0:0:
64,192,34699,1,0,0:0:0:0:
192,192,34699,1,0,0:0:0:0:
320,192,34806,1,0,0:0:0:0:
64,192,34913,1,0,0:0:0:0:
448,192,34913,1,0,0:0:0:0:
192,192,35020,1,0,0:0:0:0:
64,192,35128,1,0,0:0:0:0:
320,192,35128,1,0,0:0:0:0:
320,192,35342,128,0,35449:0:0:0:0:
192,192,35449,128,0,35556:0:0:0:0:
64,192,35556,1,0,0:0:0:0:
320,192,35663,128,0,35771:0:0:0:0:
448,192,35771,128,0,35878:0:0:0:0:
192,192,35878,128,0,35985:0:0:0:0:
64,192,35985,128,0,36092:0:0:0:0:
320,192,35985,1,0,0:0:0:0:
448,192,36092,128,0,36199:0:0:0:0:
192,192,36199,1,0,0:0:0:0:
320,192,36306,1,0,0:0:0:0:
448,192,36413,1,0,0:0:0:0:
64,192,36413,1,0,0:0:0:0:
192,192,36521,1,0,0:0:0:0:
448,192,36628,1,0,0:0:0:0:
320,192,36628,1,0,0:0:0:0:
64,192,36735,1,0,0:0:0:0:
448,192,36842,1,0,0:0:0:0:
192,192,36842,1,0,0:0:0:0:
192,192,37056,128,0,37163:0:0:0:0:
320,192,37163,128,0,37271:0:0:0:0:
64,192,37271,1,0,0:0:0:0:
192,192,37378,128,0,37485:0:0:0:0:
320,192,37485,128,0,37592:0:0:0:0:
64,192,37592,128,0,37699:0:0:0:0:
320,192,37699,128,0,37806:0:0:0:0:
448,192,37699,1,0,0:0:0:0:
192,192,37806,128,0,37913:0:0:0:0:
448,192,37913,1,0,0:0:0:0:
320,192,38020,1,0,0:0:0:0:
192,192,38128,1,0,0:0:0:0:
64,192,38128,1,0,0:0:0:0:
320,192,38235,1,0,0:0:0:0:
448,192,38342,1,0,0:0:0:0:
64,192,38342,1,0,0:0:0:0:
192,192,38449,1,0,0:0:0:0:
320,192,38556,1,0,0:0:0:0:
64,192,38556,1,0,0:0:0:0:
192,192,38771,128,0,38878:0:0:0:0:
320,192,38878,128,0,38985:0:0:0:0:
64,192,38985,1,0,0:0:0:0:
192,192,39092,128,0,39199:0:0:0:0:
320,192,39199,128,0,39306:0:0:0:0:
64,192,39306,128,0,39413:0:0:0:0:
448,192,39413,128,0,39521:0:0:0:0:
320,192,39413,1,0,0:0:0:0:
192,192,39521,128,0,39628:0:0:0:0:
320,192,39628,1,0,0:0:0:0:
192,192,39735,1,0,0:0:0:0:
448,192,39842,1,0,0:0:0:0:
64,192,39842,1,0,0:0:0:0:
320,192,39949,1,0,0:0:0:0:
192,192,40056,1,0,0:0:0:0:
64,192,40056,1,0,0:0:0:0:
448,192,40163,1,0,0:0:0:0:
192,192,40270,1,0,0:0:0:0:
320,192,40270,1,0,0:0:0:0:
320,192,40485,128,0,40592:0:0:0:0:
192,192,40592,128,0,40699:0:0:0:0:
64,192,40699,1,0,0:0:0:0:
320,192,40806,128,0,40913:0:0:0:0:
448,192,40913,128,0,41021:0:0:0:0:
64,192,41021,128,0,41128:0:0:0:0:
320,192,41128,128,0,41235:0:0:0:0:
448,192,41128,1,0,0:0:0:0:
192,192,41235,128,0,41342:0:0:0:0:
448,192,41342,1,0,0:0:0:0:
320,192,41449,1,0,0:0:0:0:
192,192,41556,1,0,0:0:0:0:
448,192,41556,1,0,0:0:0:0:
64,192,41663,1,0,0:0:0:0:
448,192,41770,1,0,0:0:0:0:
320,192,41771,1,0,0:0:0:0:
192,192,41878,1,0,0:0:0:0:
64,192,41985,1,0,0:0:0:0:
448,192,41985,1,0,0:0:0:0:
192,192,42199,128,0,42306:0:0:0:0:
320,192,42306,128,0,42413:0:0:0:0:
64,192,42413,1,0,0:0:0:0:
192,192,42521,128,0,42628:0:0:0:0:
320,192,42628,128,0,42735:0:0:0:0:
64,192,42735,128,0,42842:0:0:0:0:
448,192,42842,128,0,42949:0:0:0:0:
320,192,42842,1,0,0:0:0:0:
192,192,42949,128,0,43056:0:0:0:0:
64,192,43056,1,0,0:0:0:0:
192,192,43163,1,0,0:0:0:0:
320,192,43270,1,0,0:0:0:0:
448,192,43270,1,0,0:0:0:0:
192,192,43378,1,0,0:0:0:0:
64,192,43485,1,0,0:0:0:0:
448,192,43485,1,0,0:0:0:0:
320,192,43592,1,0,0:0:0:0:
448,192,43699,1,0,0:0:0:0:
192,192,43699,1,0,0:0:0:0:
320,192,43913,128,0,44021:0:0:0:0:
192,192,44021,128,0,44128:0:0:0:0:
64,192,44128,1,0,0:0:0:0:
320,192,44235,128,0,44342:0:0:0:0:
448,192,44342,128,0,44449:0:0:0:0:
192,192,44449,128,0,44556:0:0:0:0:
320,192,44556,128,0,44663:0:0:0:0:
448,192,44556,1,0,0:0:0:0:
64,192,44663,128,0,44771:0:0:0:0:
192,192,44770,1,0,0:0:0:0:
320,192,44878,1,0,0:0:0:0:
64,192,44985,1,0,0:0:0:0:
448,192,44985,1,0,0:0:0:0:
320,192,45199,1,0,0:0:0:0:
448,192,45306,1,0,0:0:0:0:
64,192,45306,1,0,0:0:0:0:
192,192,45413,1,0,0:0:0:0:
320,192,45485,1,0,0:0:0:0:
448,192,45556,1,0,0:0:0:0:
64,192,45628,1,0,0:0:0:0:
192,192,45628,1,0,0:0:0:0:
448,192,45842,1,0,0:0:0:0:
64,192,45842,1,0,0:0:0:0:
448,192,46163,1,0,0:0:0:0:
64,192,46163,1,0,0:0:0:0:
448,192,46485,1,0,0:0:0:0:
64,192,46485,1,0,0:0:0:0:
320,192,46699,1,0,0:0:0:0:
192,192,46913,1,0,0:0:0:0:
448,192,46913,1,0,0:0:0:0:
320,192,47128,1,0,0:0:0:0:
192,192,47199,1,0,0:0:0:0:
64,192,47270,1,0,0:0:0:0:
448,192,47342,1,0,0:0:0:0:
320,192,47342,1,0,0:0:0:0:
64,192,47556,1,0,0:0:0:0:
448,192,47556,1,0,0:0:0:0:
64,192,47878,1,0,0:0:0:0:
448,192,47878,1,0,0:0:0:0:
64,192,48199,1,0,0:0:0:0:
448,192,48199,1,0,0:0:0:0:
448,192,48413,1,0,0:0:0:0:
192,192,48413,1,0,0:0:0:0:
320,192,48628,1,0,0:0:0:0:
64,192,48735,1,0,0:0:0:0:
448,192,48735,1,0,0:0:0:0:
192,192,48842,1,0,0:0:0:0:
320,192,48913,1,0,0:0:0:0:
448,192,48985,1,0,0:0:0:0:
64,192,49056,1,0,0:0:0:0:
192,192,49056,1,0,0:0:0:0:
64,192,49270,1,0,0:0:0:0:
448,192,49271,1,0,0:0:0:0:
448,192,49592,1,0,0:0:0:0:
64,192,49592,1,0,0:0:0:0:
448,192,49913,1,0,0:0:0:0:
64,192,49913,1,0,0:0:0:0:
320,192,50128,1,0,0:0:0:0:
192,192,50342,1,0,0:0:0:0:
448,192,50342,1,0,0:0:0:0:
320,192,50556,1,0,0:0:0:0:
192,192,50628,1,0,0:0:0:0:
64,192,50699,1,0,0:0:0:0:
320,192,50770,1,0,0:0:0:0:
448,192,50771,1,0,0:0:0:0:
64,192,50985,1,0,0:0:0:0:
448,192,50985,1,0,0:0:0:0:
64,192,51306,1,0,0:0:0:0:
448,192,51306,1,0,0:0:0:0:
64,192,51628,1,0,0:0:0:0:
448,192,51628,1,0,0:0:0:0:
192,192,51842,1,0,0:0:0:0:
320,192,51949,1,0,0:0:0:0:
448,192,52056,1,0,0:0:0:0:
64,192,52056,1,0,0:0:0:0:
320,192,52270,1,0,0:0:0:0:
192,192,52342,1,0,0:0:0:0:
64,192,52413,1,0,0:0:0:0:
448,192,52485,1,0,0:0:0:0:
320,192,52485,1,0,0:0:0:0:
192,192,52699,1,0,0:0:0:0:
192,192,52913,1,0,0:0:0:0:
320,192,53021,1,0,0:0:0:0:
448,192,53128,1,0,0:0:0:0:
64,192,53128,1,0,0:0:0:0:
192,192,53342,1,0,0:0:0:0:
320,192,53449,1,0,0:0:0:0:
64,192,53556,1,0,0:0:0:0:
320,192,53663,1,0,0:0:0:0:
448,192,53770,1,0,0:0:0:0:
192,192,53878,1,0,0:0:0:0:
64,192,53985,1,0,0:0:0:0:
448,192,53985,1,0,0:0:0:0:
192,192,54199,1,0,0:0:0:0:
320,192,54306,1,0,0:0:0:0:
192,192,54413,1,0,0:0:0:0:
448,192,54628,1,0,0:0:0:0:
64,192,54628,1,0,0:0:0:0:
320,192,54842,1,0,0:0:0:0:
192,192,54913,1,0,0:0:0:0:
64,192,54985,1,0,0:0:0:0:
448,192,55056,1,0,0:0:0:0:
320,192,55056,1,0,0:0:0:0:
192,192,55271,1,0,0:0:0:0:
64,192,55485,1,0,0:0:0:0:
448,192,55485,1,0,0:0:0:0:
192,192,55699,1,0,0:0:0:0:
320,192,55770,1,0,0:0:0:0:
448,192,55842,1,0,0:0:0:0:
64,192,55913,1,0,0:0:0:0:
192,192,55913,1,0,0:0:0:0:
192,192,56128,1,0,0:0:0:0:
448,192,56342,1,0,0:0:0:0:
64,192,56342,1,0,0:0:0:0:
320,192,56556,1,0,0:0:0:0:
192,192,56628,1,0,0:0:0:0:
64,192,56699,1,0,0:0:0:0:
320,192,56770,1,0,0:0:0:0:
448,192,56771,1,0,0:0:0:0:
192,192,56878,1,0,0:0:0:0:
64,192,56985,1,0,0:0:0:0:
320,192,57199,1,0,0:0:0:0:
192,192,57306,1,0,0:0:0:0:
64,192,57413,1,0,0:0:0:0:
448,192,57413,1,0,0:0:0:0:
320,192,57628,1,0,0:0:0:0:
192,192,57735,1,0,0:0:0:0:
448,192,57842,1,0,0:0:0:0:
192,192,57949,1,0,0:0:0:0:
64,192,58056,1,0,0:0:0:0:
320,192,58163,1,0,0:0:0:0:
64,192,58270,1,0,0:0:0:0:
448,192,58270,1,0,0:0:0:0:
192,192,58485,1,0,0:0:0:0:
320,192,58592,1,0,0:0:0:0:
192,192,58699,1,0,0:0:0:0:
448,192,58913,1,0,0:0:0:0:
64,192,58913,1,0,0:0:0:0:
192,192,59128,1,0,0:0:0:0:
320,192,59199,1,0,0:0:0:0:
448,192,59270,1,0,0:0:0:0:
192,192,59342,1,0,0:0:0:0:
64,192,59342,1,0,0:0:0:0:
320,192,59449,1,0,0:0:0:0:
448,192,59556,1,0,0:0:0:0:
64,192,59770,1,0,0:0:0:0:
448,192,59771,1,0,0:0:0:0:
320,192,59985,1,0,0:0:0:0:
192,192,60056,1,0,0:0:0:0:
64,192,60128,1,0,0:0:0:0:
448,192,60199,1,0,0:0:0:0:
320,192,60199,1,0,0:0:0:0:
192,192,60306,1,0,0:0:0:0:
64,192,60413,1,0,0:0:0:0:
192,192,60628,1,0,0:0:0:0:
320,192,60735,1,0,0:0:0:0:
448,192,60842,1,0,0:0:0:0:
64,192,60842,1,0,0:0:0:0:
192,192,61056,1,0,0:0:0:0:
320,192,61163,1,0,0:0:0:0:
64,192,61271,1,0,0:0:0:0:
320,192,61378,1,0,0:0:0:0:
448,192,61485,1,0,0:0:0:0:
192,192,61592,1,0,0:0:0:0:
64,192,61699,1,0,0:0:0:0:
448,192,61699,1,0,0:0:0:0:
320,192,61913,1,0,0:0:0:0:
192,192,62021,1,0,0:0:0:0:
320,192,62128,1,0,0:0:0:0:
320,192,62342,1,0,0:0:0:0:
192,192,62449,1,0,0:0:0:0:
64,192,62556,1,0,0:0:0:0:
448,192,62556,1,0,0:0:0:0:
192,192,62771,1,0,0:0:0:0:
320,192,62878,1,0,0:0:0:0:
448,192,62985,1,0,0:0:0:0:
64,192,62985,1,0,0:0:0:0:
320,192,63842,128,0,64699:0:0:0:0:
192,192,64056,1,0,0:0:0:0:
64,192,64270,1,0,0:0:0:0:
448,192,64271,1,0,0:0:0:0:
192,192,64485,1,0,0:0:0:0:
192,192,64699,128,0,65556:0:0:0:0:
64,192,64699,1,0,0:0:0:0:
320,192,64913,1,0,0:0:0:0:
448,192,65128,1,0,0:0:0:0:
64,192,65128,1,0,0:0:0:0:
320,192,65342,1,0,0:0:0:0:
448,192,65556,128,0,66413:0:0:0:0:
64,192,65556,1,0,0:0:0:0:
192,192,65771,1,0,0:0:0:0:
64,192,65985,1,0,0:0:0:0:
320,192,65985,1,0,0:0:0:0:
192,192,66199,1,0,0:0:0:0:
64,192,66413,128,0,67271:0:0:0:0:
320,192,66413,1,0,0:0:0:0:
192,192,66628,1,0,0:0:0:0:
320,192,66842,1,0,0:0:0:0:
448,192,66842,1,0,0:0:0:0:
192,192,67056,1,0,0:0:0:0:
448,192,67270,1,0,0:0:0:0:
320,192,67271,128,0,68128:0:0:0:0:
192,192,67485,1,0,0:0:0:0:
448,192,67699,1,0,0:0:0:0:
64,192,67699,1,0,0:0:0:0:
192,192,67913,1,0,0:0:0:0:
192,192,68128,128,0,68985:0:0:0:0:
448,192,68128,1,0,0:0:0:0:
320,192,68342,1,0,0:0:0:0:
64,192,68556,1,0,0:0:0:0:
448,192,68556,1,0,0:0:0:0:
320,192,68771,1,0,0:0:0:0:
448,192,68985,128,0,69842:0:0:0:0:
64,192,68985,1,0,0:0:0:0:
192,192,69199,1,0,0:0:0:0:
64,192,69413,1,0,0:0:0:0:
320,192,69413,1,0,0:0:0:0:
192,192,69628,1,0,0:0:0:0:
320,192,69842,128,0,70699:0:0:0:0:
64,192,69842,1,0,0:0:0:0:
192,192,70056,1,0,0:0:0:0:
448,192,70270,1,0,0:0:0:0:
64,192,70271,1,0,0:0:0:0:
192,192,70485,1,0,0:0:0:0:
192,192,70699,128,0,71556:0:0:0:0:
448,192,70699,1,0,0:0:0:0:
320,192,70913,1,0,0:0:0:0:
64,192,71128,1,0,0:0:0:0:
448,192,71128,1,0,0:0:0:0:
320,192,71342,1,0,0:0:0:0:
64,192,71556,128,0,72413:0:0:0:0:
448,192,71556,1,0,0:0:0:0:
192,192,71771,1,0,0:0:0:0:
320,192,71985,1,0,0:0:0:0:
448,192,71985,1,0,0:0:0:0:
192,192,72199,1,0,0:0:0:0:
448,192,72413,128,0,73271:0:0:0:0:
320,192,72413,1,0,0:0:0:0:
64,192,72628,1,0,0:0:0:0:
192,192,72842,1,0,0:0:0:0:
320,192,72842,1,0,0:0:0:0:
64,192,73056,1,0,0:0:0:0:
320,192,73270,1,0,0:0:0:0:
192,192,73271,128,0,74128:0:0:0:0:
64,192,73485,1,0,0:0:0:0:
320,192,73699,1,0,0:0:0:0:
448,192,73699,1,0,0:0:0:0:
64,192,73913,1,0,0:0:0:0:
448,192,74128,128,0,74985:0:0:0:0:
320,192,74128,1,0,0:0:0:0:
192,192,74342,1,0,0:0:0:0:
64,192,74556,1,0,0:0:0:0:
320,192,74556,1,0,0:0:0:0:
192,192,74770,1,0,0:0:0:0:
320,192,74985,128,0,75842:0:0:0:0:
64,192,74985,1,0,0:0:0:0:
192,192,75199,1,0,0:0:0:0:
64,192,75413,1,0,0:0:0:0:
448,192,75413,1,0,0:0:0:0:
192,192,75628,1,0,0:0:0:0:
64,192,75842,128,0,76056:0:0:0:0:
192,192,76056,128,0,76271:0:0:0:0:
64,192,76271,1,0,0:0:0:0:
320,192,76378,128,0,76592:0:0:0:0:
448,192,76699,128,0,76913:0:0:0:0:
64,192,76699,1,0,0:0:0:0:
192,192,77021,128,0,77342:0:0:0:0:
448,192,77128,1,0,0:0:0:0:
64,192,77342,128,0,77556:0:0:0:0:
448,192,77556,128,0,77771:0:0:0:0:
192,192,77556,1,0,0:0:0:0:
320,192,77770,1,0,0:0:0:0:
192,192,77878,128,0,78092:0:0:0:0:
64,192,77878,1,0,0:0:0:0:
448,192,78092,1,0,0:0:0:0:
320,192,78199,128,0,78413:0:0:0:0:
192,192,78199,1,0,0:0:0:0:
64,192,78413,1,0,0:0:0:0:
320,192,78520,1,0,0:0:0:0:
64,192,78628,1,0,0:0:0:0:
320,192,78735,1,0,0:0:0:0:
64,192,78842,1,0,0:0:0:0:
448,192,78842,1,0,0:0:0:0:
64,192,79056,1,0,0:0:0:0:
448,192,79056,1,0,0:0:0:0:
192,192,79270,1,0,0:0:0:0:
192,192,79485,128,0,79699:0:0:0:0:
64,192,79699,1,0,0:0:0:0:
320,192,79806,128,0,80021:0:0:0:0:
448,192,80128,128,0,80342:0:0:0:0:
64,192,80128,1,0,0:0:0:0:
192,192,80449,128,0,80771:0:0:0:0:
448,192,80556,1,0,0:0:0:0:
64,192,80771,128,0,80985:0:0:0:0:
192,192,80985,1,0,0:0:0:0:
320,192,81056,1,0,0:0:0:0:
448,192,81128,1,0,0:0:0:0:
64,192,81199,1,0,0:0:0:0:
320,192,81306,1,0,0:0:0:0:
64,192,81413,1,0,0:0:0:0:
320,192,81520,1,0,0:0:0:0:
192,192,81628,1,0,0:0:0:0:
320,192,81735,1,0,0:0:0:0:
448,192,81842,1,0,0:0:0:0:
64,192,81842,1,0,0:0:0:0:
448,192,82056,1,0,0:0:0:0:
64,192,82056,1,0,0:0:0:0:
64,192,82270,1,0,0:0:0:0:
448,192,82271,1,0,0:0:0:0:
448,192,82485,1,0,0:0:0:0:
64,192,82485,1,0,0:0:0:0:
192,192,82699,1,0,0:0:0:0:
320,192,82806,1,0,0:0:0:0:
64,192,82913,1,0,0:0:0:0:
448,192,82913,1,0,0:0:0:0:
192,192,83021,1,0,0:0:0:0:
320,192,83128,1,0,0:0:0:0:
448,192,83235,1,0,0:0:0:0:
320,192,83342,1,0,0:0:0:0:
64,192,83342,1,0,0:0:0:0:
192,192,83449,1,0,0:0:0:0:
320,192,83556,1,0,0:0:0:0:
448,192,83663,1,0,0:0:0:0:
64,192,83770,1,0,0:0:0:0:
320,192,83770,1,0,0:0:0:0:
192,192,83878,1,0,0:0:0:0:
64,192,83985,1,0,0:0:0:0:
320,192,84092,1,0,0:0:0:0:
448,192,84199,1,0,0:0:0:0:
64,192,84199,1,0,0:0:0:0:
192,192,84306,1,0,0:0:0:0:
320,192,84413,1,0,0:0:0:0:
448,192,84521,1,0,0:0:0:0:
320,192,84628,1,0,0:0:0:0:
64,192,84628,1,0,0:0:0:0:
192,192,84735,1,0,0:0:0:0:
320,192,84842,1,0,0:0:0:0:
448,192,84949,1,0,0:0:0:0:
320,192,85056,1,0,0:0:0:0:
64,192,85056,1,0,0:0:0:0:
192,192,85163,1,0,0:0:0:0:
64,192,85270,1,0,0:0:0:0:
320,192,85378,1,0,0:0:0:0:
448,192,85485,1,0,0:0:0:0:
192,192,85485,1,0,0:0:0:0:
64,192,85592,1,0,0:0:0:0:
320,192,85699,1,0,0:0:0:0:
192,192,85806,1,0,0:0:0:0:
448,192,85913,1,0,0:0:0:0:
64,192,85913,1,0,0:0:0:0:
320,192,86020,1,0,0:0:0:0:
64,192,86128,1,0,0:0:0:0:
192,192,86235,1,0,0:0:0:0:
448,192,86342,1,0,0:0:0:0:
320,192,86342,1,0,0:0:0:0:
64,192,86449,1,0,0:0:0:0:
192,192,86556,1,0,0:0:0:0:
320,192,86663,1,0,0:0:0:0:
64,192,86770,1,0,0:0:0:0:
448,192,86770,1,0,0:0:0:0:
192,192,86878,1,0,0:0:0:0:
448,192,86985,1,0,0:0:0:0:
320,192,87092,1,0,0:0:0:0:
64,192,87199,1,0,0:0:0:0:
192,192,87199,1,0,0:0:0:0:
448,192,87306,1,0,0:0:0:0:
192,192,87413,1,0,0:0:0:0:
320,192,87520,1,0,0:0:0:0:
448,192,87628,1,0,0:0:0:0:
64,192,87628,1,0,0:0:0:0:
192,192,87735,1,0,0:0:0:0:
320,192,87842,1,0,0:0:0:0:
192,192,87949,1,0,0:0:0:0:
64,192,88056,1,0,0:0:0:0:
448,192,88056,1,0,0:0:0:0:
448,192,88270,1,0,0:0:0:0:
192,192,88342,1,0,0:0:0:0:
320,192,88413,1,0,0:0:0:0:
448,192,88485,1,0,0:0:0:0:
64,192,88485,1,0,0:0:0:0:
192,192,88556,1,0,0:0:0:0:
320,192,88628,1,0,0:0:0:0:
64,192,88699,1,0,0:0:0:0:
192,192,88770,1,0,0:0:0:0:
320,192,88842,1,0,0:0:0:0:
64,192,88913,1,0,0:0:0:0:
448,192,88913,1,0,0:0:0:0:
192,192,89056,1,0,0:0:0:0:
64,192,89128,1,0,0:0:0:0:
448,192,89128,1,0,0:0:0:0:
192,192,89270,1,0,0:0:0:0:
64,192,89342,1,0,0:0:0:0:
448,192,89342,1,0,0:0:0:0:
192,192,89556,1,0,0:0:0:0:
320,192,89556,1,0,0:0:0:0:
448,192,89770,1,0,0:0:0:0:
64,192,89770,1,0,0:0:0:0:
192,192,89878,1,0,0:0:0:0:
320,192,89985,1,0,0:0:0:0:
64,192,90092,1,0,0:0:0:0:
448,192,90199,1,0,0:0:0:0:
192,192,90199,1,0,0:0:0:0:
320,192,90306,1,0,0:0:0:0:
192,192,90413,1,0,0:0:0:0:
64,192,90520,1,0,0:0:0:0:
448,192,90628,1,0,0:0:0:0:
320,192,90628,1,0,0:0:0:0:
192,192,90735,1,0,0:0:0:0:
64,192,90842,1,0,0:0:0:0:
320,192,90949,1,0,0:0:0:0:
448,192,91056,1,0,0:0:0:0:
192,192,91056,1,0,0:0:0:0:
64,192,91163,1,0,0:0:0:0:
320,192,91271,1,0,0:0:0:0:
192,192,91378,1,0,0:0:0:0:
448,192,91485,1,0,0:0:0:0:
64,192,91485,1,0,0:0:0:0:
320,192,91592,1,0,0:0:0:0:
192,192,91699,1,0,0:0:0:0:
448,192,91806,1,0,0:0:0:0:
320,192,91913,1,0,0:0:0:0:
64,192,91913,1,0,0:0:0:0:
192,192,92020,1,0,0:0:0:0:
320,192,92128,1,0,0:0:0:0:
448,192,92235,1,0,0:0:0:0:
64,192,92342,1,0,0:0:0:0:
192,192,92342,1,0,0:0:0:0:
320,192,92449,1,0,0:0:0:0:
448,192,92556,1,0,0:0:0:0:
192,192,92663,1,0,0:0:0:0:
64,192,92770,1,0,0:0:0:0:
448,192,92770,1,0,0:0:0:0:
320,192,92878,1,0,0:0:0:0:
192,192,92985,1,0,0:0:0:0:
448,192,93092,1,0,0:0:0:0:
64,192,93199,1,0,0:0:0:0:
320,192,93199,1,0,0:0:0:0:
192,192,93306,1,0,0:0:0:0:
320,192,93413,1,0,0:0:0:0:
64,192,93520,1,0,0:0:0:0:
448,192,93628,1,0,0:0:0:0:
192,192,93628,1,0,0:0:0:0:
320,192,93735,1,0,0:0:0:0:
448,192,93842,1,0,0:0:0:0:
192,192,93949,1,0,0:0:0:0:
320,192,94056,1,0,0:0:0:0:
64,192,94056,1,0,0:0:0:0:
448,192,94163,1,0,0:0:0:0:
320,192,94270,1,0,0:0:0:0:
192,192,94378,1,0,0:0:0:0:
64,192,94485,1,0,0:0:0:0:
448,192,94485,1,0,0:0:0:0:
320,192,94592,1,0,0:0:0:0:
192,192,94699,1,0,0:0:0:0:
448,192,94806,1,0,0:0:0:0:
64,192,94913,1,0,0:0:0:0:
320,192,94913,1,0,0:0:0:0:
192,192,95020,1,0,0:0:0:0:
448,192,95128,1,0,0:0:0:0:
320,192,95199,1,0,0:0:0:0:
192,192,95270,1,0,0:0:0:0:
64,192,95342,1,0,0:0:0:0:
448,192,95342,1,0,0:0:0:0:
320,192,95413,1,0,0:0:0:0:
192,192,95485,1,0,0:0:0:0:
64,192,95556,1,0,0:0:0:0:
448,192,95628,1,0,0:0:0:0:
320,192,95699,1,0,0:0:0:0:
192,192,95770,1,0,0:0:0:0:
64,192,95771,1,0,0:0:0:0:
320,192,95913,1,0,0:0:0:0:
64,192,95985,1,0,0:0:0:0:
448,192,95985,1,0,0:0:0:0:
192,192,96056,1,0,0:0:0:0:
320,192,96128,1,0,0:0:0:0:
448,192,96199,1,0,0:0:0:0:
64,192,96199,1,0,0:0:0:0:
192,192,96270,1,0,0:0:0:0:
320,192,96342,1,0,0:0:0:0:
448,192,96413,128,0,96628:0:0:0:0:
192,192,96628,1,0,0:0:0:0:
448,192,96735,128,0,96949:0:0:0:0:
320,192,96735,1,0,0:0:0:0:
64,192,96842,1,0,0:0:0:0:
192,192,96949,1,0,0:0:0:0:
448,192,97056,128,0,97270:0:0:0:0:
320,192,97056,1,0,0:0:0:0:
64,192,97163,1,0,0:0:0:0:
192,192,97270,1,0,0:0:0:0:
320,192,97378,1,0,0:0:0:0:
64,192,97485,1,0,0:0:0:0:
192,192,97485,1,0,0:0:0:0:
448,192,97592,1,0,0:0:0:0:
64,192,97699,1,0,0:0:0:0:
192,192,97806,1,0,0:0:0:0:
448,192,97913,1,0,0:0:0:0:
320,192,97913,1,0,0:0:0:0:
192,192,98020,1,0,0:0:0:0:
64,192,98128,128,0,98342:0:0:0:0:
448,192,98128,1,0,0:0:0:0:
320,192,98235,1,0,0:0:0:0:
192,192,98342,1,0,0:0:0:0:
64,192,98449,128,0,98663:0:0:0:0:
448,192,98449,1,0,0:0:0:0:
320,192,98556,1,0,0:0:0:0:
192,192,98556,1,0,0:0:0:0:
64,192,98770,128,0,98985:0:0:0:0:
448,192,98770,1,0,0:0:0:0:
320,192,98878,1,0,0:0:0:0:
192,192,98985,1,0,0:0:0:0:
448,192,99092,1,0,0:0:0:0:
320,192,99199,1,0,0:0:0:0:
192,192,99306,1,0,0:0:0:0:
448,192,99413,1,0,0:0:0:0:
64,192,99413,1,0,0:0:0:0:
320,192,99520,1,0,0:0:0:0:
192,192,99628,1,0,0:0:0:0:
192,192,99735,1,0,0:0:0:0:
448,192,99842,128,0,100056:0:0:0:0:
192,192,100056,1,0,0:0:0:0:
448,192,100163,128,0,100378:0:0:0:0:
320,192,100163,1,0,0:0:0:0:
64,192,100270,1,0,0:0:0:0:
192,192,100378,1,0,0:0:0:0:
448,192,100485,128,0,100699:0:0:0:0:
320,192,100485,1,0,0:0:0:0:
64,192,100592,1,0,0:0:0:0:
192,192,100699,128,0,100806:0:0:0:0:
64,192,100806,128,0,100913:0:0:0:0:
320,192,100913,128,0,101020:0:0:0:0:
448,192,101020,128,0,101128:0:0:0:0:
192,192,101128,128,0,101235:0:0:0:0:
320,192,101235,128,0,101342:0:0:0:0:
64,192,101342,128,0,101449:0:0:0:0:
192,192,101449,128,0,101556:0:0:0:0:
448,192,101556,128,0,102199:0:0:0:0:
320,192,101556,1,0,0:0:0:0:
192,192,101663,1,0,0:0:0:0:
64,192,101770,1,0,0:0:0:0:
320,192,101878,1,0,0:0:0:0:
64,192,101985,1,0,0:0:0:0:
192,192,101985,1,0,0:0:0:0:
64,192,102199,128,0,102842:0:0:0:0:
192,192,102199,1,0,0:0:0:0:
448,192,102413,1,0,0:0:0:0:
320,192,102520,1,0,0:0:0:0:
192,192,102628,1,0,0:0:0:0:
448,192,102735,1,0,0:0:0:0:
192,192,102842,1,0,0:0:0:0:
320,192,102842,1,0,0:0:0:0:
448,192,103056,1,0,0:0:0:0:
320,192,103128,1,0,0:0:0:0:
64,192,103199,1,0,0:0:0:0:
192,192,103199,1,0,0:0:0:0:
448,192,103270,128,0,103485:0:0:0:0:
64,192,103485,1,0,0:0:0:0:
192,192,103485,1,0,0:0:0:0:
448,192,103592,128,0,103806:0:0:0:0:
448,192,103913,128,0,104128:0:0:0:0:
64,192,103913,1,0,0:0:0:0:
192,192,103913,1,0,0:0:0:0:
192,192,104128,1,0,0:0:0:0:
192,192,104342,1,0,0:0:0:0:
64,192,104342,1,0,0:0:0:0:
320,192,104449,1,0,0:0:0:0:
448,192,104449,1,0,0:0:0:0:
64,192,104556,1,0,0:0:0:0:
448,192,104663,1,0,0:0:0:0:
64,192,104770,1,0,0:0:0:0:
192,192,104770,1,0,0:0:0:0:
320,192,104878,1,0,0:0:0:0:
448,192,104878,1,0,0:0:0:0:
192,192,104985,128,0,105199:0:0:0:0:
320,192,105199,1,0,0:0:0:0:
448,192,105199,1,0,0:0:0:0:
192,192,105306,128,0,105520:0:0:0:0:
192,192,105628,128,0,105842:0:0:0:0:
448,192,105628,1,0,0:0:0:0:
320,192,105628,1,0,0:0:0:0:
320,192,105842,1,0,0:0:0:0:
448,192,106056,1,0,0:0:0:0:
320,192,106056,1,0,0:0:0:0:
64,192,106163,1,0,0:0:0:0:
192,192,106163,1,0,0:0:0:0:
448,192,106270,1,0,0:0:0:0:
64,192,106378,1,0,0:0:0:0:
320,192,106485,1,0,0:0:0:0:
320,192,106592,1,0,0:0:0:0:
448,192,106699,128,0,107128:0:0:0:0:
64,192,106699,1,0,0:0:0:0:
64,192,106913,1,0,0:0:0:0:
192,192,106913,1,0,0:0:0:0:
192,192,107128,1,0,0:0:0:0:
320,192,107235,1,0,0:0:0:0:
192,192,107342,1,0,0:0:0:0:
64,192,107342,1,0,0:0:0:0:
320,192,107449,1,0,0:0:0:0:
448,192,107449,1,0,0:0:0:0:
192,192,107556,128,0,107663:0:0:0:0:
64,192,107663,128,0,107770:0:0:0:0:
320,192,107770,128,0,107878:0:0:0:0:
448,192,107878,128,0,107985:0:0:0:0:
192,192,107985,128,0,108092:0:0:0:0:
320,192,108092,128,0,108199:0:0:0:0:
64,192,108199,128,0,108306:0:0:0:0:
192,192,108306,128,0,108413:0:0:0:0:
320,192,108413,128,0,108628:0:0:0:0:
448,192,108628,1,0,0:0:0:0:
64,192,108628,1,0,0:0:0:0:
192,192,108735,1,0,0:0:0:0:
448,192,108842,128,0,109056:0:0:0:0:
320,192,108842,1,0,0:0:0:0:
64,192,108949,1,0,0:0:0:0:
192,192,109056,1,0,0:0:0:0:
320,192,109056,1,0,0:0:0:0:
320,192,109270,1,0,0:0:0:0:
64,192,109378,128,0,109485:0:0:0:0:
448,192,109485,1,0,0:0:0:0:
320,192,109485,128,0,109592:0:0:0:0:
320,192,109699,128,0,109806:0:0:0:0:
64,192,109806,128,0,109913:0:0:0:0:
320,192,109913,1,0,0:0:0:0:
448,192,109913,1,0,0:0:0:0:
192,192,110020,1,0,0:0:0:0:
64,192,110020,1,0,0:0:0:0:
448,192,110128,128,0,110235:0:0:0:0:
192,192,110235,128,0,110342:0:0:0:0:
320,192,110342,128,0,110449:0:0:0:0:
64,192,110449,128,0,110556:0:0:0:0:
448,192,110556,128,0,110663:0:0:0:0:
320,192,110663,128,0,110770:0:0:0:0:
192,192,110770,128,0,110878:0:0:0:0:
64,192,110878,128,0,110985:0:0:0:0:
448,192,110985,128,0,111306:0:0:0:0:
320,192,110985,1,0,0:0:0:0:
192,192,110985,1,0,0:0:0:0:
192,192,111306,128,0,111628:0:0:0:0:
320,192,111306,1,0,0:0:0:0:
64,192,111306,1,0,0:0:0:0:
64,192,111628,128,0,111842:0:0:0:0:
320,192,111628,1,0,0:0:0:0:
448,192,111735,1,0,0:0:0:0:
192,192,111842,1,0,0:0:0:0:
448,192,111949,1,0,0:0:0:0:
64,192,112056,1,0,0:0:0:0:
320,192,112163,1,0,0:0:0:0:
448,192,112270,1,0,0:0:0:0:
64,192,112270,1,0,0:0:0:0:
64,192,112378,1,0,0:0:0:0:
320,192,112485,1,0,0:0:0:0:
192,192,112592,1,0,0:0:0:0:
448,192,112699,1,0,0:0:0:0:
64,192,112806,1,0,0:0:0:0:
320,192,112913,1,0,0:0:0:0:
320,192,113020,1,0,0:0:0:0:
448,192,113128,1,0,0:0:0:0:
64,192,113128,1,0,0:0:0:0:
320,192,113342,1,0,0:0:0:0:
64,192,113449,1,0,0:0:0:0:
448,192,113556,1,0,0:0:0:0:
192,192,113663,1,0,0:0:0:0:
320,192,113770,1,0,0:0:0:0:
64,192,113878,1,0,0:0:0:0:
448,192,113985,1,0,0:0:0:0:
192,192,113985,1,0,0:0:0:0:
64,192,114199,1,0,0:0:0:0:
320,192,114306,1,0,0:0:0:0:
192,192,114413,1,0,0:0:0:0:
448,192,114520,1,0,0:0:0:0:
64,192,114628,1,0,0:0:0:0:
320,192,114735,1,0,0:0:0:0:
448,192,114842,1,0,0:0:0:0:
64,192,114842,1,0,0:0:0:0:
192,192,115056,1,0,0:0:0:0:
448,192,115163,1,0,0:0:0:0:
64,192,115270,1,0,0:0:0:0:
320,192,115378,1,0,0:0:0:0:
192,192,115485,1,0,0:0:0:0:
448,192,115592,1,0,0:0:0:0:
64,192,115699,1,0,0:0:0:0:
64,192,115806,1,0,0:0:0:0:
320,192,115913,1,0,0:0:0:0:
192,192,116020,1,0,0:0:0:0:
448,192,116128,1,0,0:0:0:0:
64,192,116235,1,0,0:0:0:0:
320,192,116342,1,0,0:0:0:0:
320,192,116449,1,0,0:0:0:0:
448,192,116556,1,0,0:0:0:0:
64,192,116556,1,0,0:0:0:0:
320,192,116770,1,0,0:0:0:0:
192,192,116878,1,0,0:0:0:0:
448,192,116985,128,0,117628:0:0:0:0:
64,192,116985,1,0,0:0:0:0:
320,192,117092,1,0,0:0:0:0:
192,192,117199,1,0,0:0:0:0:
64,192,117306,1,0,0:0:0:0:
320,192,117413,1,0,0:0:0:0:
192,192,117413,1,0,0:0:0:0:
64,192,117628,128,0,118699:0:0:0:0:
192,192,117628,1,0,0:0:0:0:
320,192,117735,1,0,0:0:0:0:
448,192,117842,1,0,0:0:0:0:
192,192,117949,1,0,0:0:0:0:
320,192,118056,1,0,0:0:0:0:
448,192,118163,1,0,0:0:0:0:
320,192,118270,1,0,0:0:0:0:
192,192,118270,1,0,0:0:0:0:
448,192,118485,1,0,0:0:0:0:
320,192,118592,1,0,0:0:0:0:
192,192,118699,1,0,0:0:0:0:
448,192,118806,1,0,0:0:0:0:
320,192,118913,1,0,0:0:0:0:
192,192,119020,1,0,0:0:0:0:
64,192,119128,1,0,0:0:0:0:
448,192,119128,1,0,0:0:0:0:
448,192,119235,1,0,0:0:0:0:
64,192,119342,128,0,119770:0:0:0:0:
192,192,119342,1,0,0:0:0:0:
320,192,119449,1,0,0:0:0:0:
448,192,119556,1,0,0:0:0:0:
192,192,119663,1,0,0:0:0:0:
320,192,119770,1,0,0:0:0:0:
320,192,119878,1,0,0:0:0:0:
448,192,119985,128,0,120413:0:0:0:0:
64,192,119985,1,0,0:0:0:0:
192,192,119985,1,0,0:0:0:0:
192,192,120199,1,0,0:0:0:0:
320,192,120306,1,0,0:0:0:0:
64,192,120413,128,0,121056:0:0:0:0:
192,192,120413,1,0,0:0:0:0:
448,192,121056,1,0,0:0:0:0:
320,192,121128,1,0,0:0:0:0:
64,192,121199,1,0,0:0:0:0:
192,192,121270,1,0,0:0:0:0:
448,192,121342,1,0,0:0:0:0:
320,192,121413,1,0,0:0:0:0:
192,192,121556,1,0,0:0:0:0:
320,192,121699,1,0,0:0:0:0:
192,192,121770,1,0,0:0:0:0:
64,192,121842,1,0,0:0:0:0:
192,192,121985,1,0,0:0:0:0:
320,192,122056,1,0,0:0:0:0:
64,192,122128,128,0,125556:0:0:0:0:
448,192,122128,1,0,0:0:0:0:
448,192,122770,1,0,0:0:0:0:
320,192,123128,1,0,0:0:0:0:
192,192,123270,1,0,0:0:0:0:
448,192,123413,1,0,0:0:0:0:
320,192,123485,1,0,0:0:0:0:
192,192,123556,1,0,0:0:0:0:
448,192,123628,1,0,0:0:0:0:
320,192,123842,1,0,0:0:0:0:
192,192,124056,1,0,0:0:0:0:
448,192,124270,1,0,0:0:0:0:
192,192,124485,1,0,0:0:0:0:
448,192,124699,1,0,0:0:0:0:
320,192,124913,1,0,0:0:0:0:
448,192,125128,1,0,0:0:0:0:
320,192,125199,1,0,0:0:0:0:
192,192,125270,1,0,0:0:0:0:
448,192,125342,1,0,0:0:0:0:
320,192,125413,1,0,0:0:0:0:
192,192,125485,1,0,0:0:0:0:
448,192,125556,1,0,0:0:0:0:
320,192,125699,1,0,0:0:0:0:
320,192,126199,1,0,0:0:0:0:
64,192,126413,1,0,0:0:0:0:
320,192,126628,1,0,0:0:0:0:
448,192,126842,1,0,0:0:0:0:
192,192,127056,128,0,127270:0:0:0:0:
192,192,127699,1,0,0:0:0:0:
448,192,127913,1,0,0:0:0:0:
64,192,128128,1,0,0:0:0:0:
320,192,128342,1,0,0:0:0:0:
64,192,128556,1,0,0:0:0:0:
448,192,128770,1,0,0:0:0:0:
192,192,128985,1,0,0:0:0:0:
320,192,129199,128,0,129306:0:0:0:0:
448,192,129413,1,0,0:0:0:0:
64,192,129628,1,0,0:0:0:0:
320,192,129699,1,0,0:0:0:0:
192,192,129985,1,0,0:0:0:0:
448,192,130128,1,0,0:0:0:0:
192,192,130270,1,0,0:0:0:0:
320,192,130342,1,0,0:0:0:0:
448,192,130413,1,0,0:0:0:0:
192,192,130699,1,0,0:0:0:0:
448,192,130913,1,0,0:0:0:0:
192,192,131128,1,0,0:0:0:0:
320,192,131342,1,0,0:0:0:0:
64,192,131556,1,0,0:0:0:0:
320,192,131770,128,0,131985:0:0:0:0:
64,192,131985,1,0,0:0:0:0:
192,192,132199,128,0,132413:0:0:0:0:
448,192,132413,128,0,135842:0:0:0:0:
320,192,132842,1,0,0:0:0:0:
192,192,132949,1,0,0:0:0:0:
64,192,133056,1,0,0:0:0:0:
320,192,133163,1,0,0:0:0:0:
64,192,133270,1,0,0:0:0:0:
192,192,133378,1,0,0:0:0:0:
320,192,133485,1,0,0:0:0:0:
64,192,133592,1,0,0:0:0:0:
320,192,133699,1,0,0:0:0:0:
192,192,133806,1,0,0:0:0:0:
64,192,133913,1,0,0:0:0:0:
320,192,134020,1,0,0:0:0:0:
64,192,134128,1,0,0:0:0:0:
192,192,134235,1,0,0:0:0:0:
320,192,134342,1,0,0:0:0:0:
64,192,134449,1,0,0:0:0:0:
320,192,134556,1,0,0:0:0:0:
192,192,134663,1,0,0:0:0:0:
64,192,134770,1,0,0:0:0:0:
320,192,134878,1,0,0:0:0:0:
64,192,134985,1,0,0:0:0:0:
192,192,135092,1,0,0:0:0:0:
320,192,135199,1,0,0:0:0:0:
64,192,135306,1,0,0:0:0:0:
320,192,135413,1,0,0:0:0:0:
192,192,135520,1,0,0:0:0:0:
64,192,135628,1,0,0:0:0:0:
320,192,135735,1,0,0:0:0:0:
64,192,135842,128,0,139270:0:0:0:0:
192,192,135842,1,0,0:0:0:0:
448,192,136270,1,0,0:0:0:0:
192,192,136270,1,0,0:0:0:0:
448,192,136592,1,0,0:0:0:0:
192,192,136592,1,0,0:0:0:0:
320,192,136699,1,0,0:0:0:0:
320,192,136913,1,0,0:0:0:0:
448,192,137128,1,0,0:0:0:0:
192,192,137128,1,0,0:0:0:0:
192,192,137449,1,0,0:0:0:0:
448,192,137449,1,0,0:0:0:0:
320,192,137556,1,0,0:0:0:0:
320,192,137985,1,0,0:0:0:0:
448,192,138413,1,0,0:0:0:0:
320,192,138842,1,0,0:0:0:0:
448,192,139270,128,0,139699:0:0:0:0:
192,192,139270,1,0,0:0:0:0:
320,192,139270,1,0,0:0:0:0:
64,192,139699,1,0,0:0:0:0:
192,192,139699,1,0,0:0:0:0:
448,192,139913,1,0,0:0:0:0:
192,192,140020,1,0,0:0:0:0:
320,192,140128,1,0,0:0:0:0:
64,192,140235,1,0,0:0:0:0:
448,192,140342,1,0,0:0:0:0:
448,192,140556,128,0,140985:0:0:0:0:
64,192,140556,1,0,0:0:0:0:
192,192,140556,1,0,0:0:0:0:
64,192,140985,1,0,0:0:0:0:
192,192,140985,1,0,0:0:0:0:
448,192,141199,1,0,0:0:0:0:
320,192,141270,1,0,0:0:0:0:
192,192,141342,1,0,0:0:0:0:
448,192,141413,1,0,0:0:0:0:
64,192,141413,1,0,0:0:0:0:
64,192,141628,1,0,0:0:0:0:
192,192,141699,1,0,0:0:0:0:
320,192,141770,1,0,0:0:0:0:
448,192,141842,1,0,0:0:0:0:
64,192,141842,1,0,0:0:0:0:
320,192,142056,1,0,0:0:0:0:
192,192,142056,1,0,0:0:0:0:
448,192,142270,1,0,0:0:0:0:
64,192,142270,1,0,0:0:0:0:
192,192,142342,1,0,0:0:0:0:
320,192,142413,1,0,0:0:0:0:
64,192,142485,1,0,0:0:0:0:
448,192,142485,1,0,0:0:0:0:
192,192,142592,1,0,0:0:0:0:
448,192,142699,1,0,0:0:0:0:
320,192,142770,1,0,0:0:0:0:
192,192,142842,1,0,0:0:0:0:
64,192,142913,1,0,0:0:0:0:
448,192,142913,1,0,0:0:0:0:
320,192,143128,1,0,0:0:0:0:
192,192,143235,1,0,0:0:0:0:
64,192,143235,1,0,0:0:0:0:
448,192,143342,1,0,0:0:0:0:
320,192,143413,1,0,0:0:0:0:
64,192,143485,1,0,0:0:0:0:
192,192,143556,1,0,0:0:0:0:
320,192,143628,1,0,0:0:0:0:
448,192,143699,1,0,0:0:0:0:
64,192,143770,1,0,0:0:0:0:
192,192,143842,1,0,0:0:0:0:
320,192,143913,1,0,0:0:0:0:
64,192,143985,1,0,0:0:0:0:
448,192,143985,1,0,0:0:0:0:
448,192,144199,1,0,0:0:0:0:
64,192,144199,1,0,0:0:0:0:
64,192,144413,1,0,0:0:0:0:
192,192,144485,1,0,0:0:0:0:
320,192,144556,1,0,0:0:0:0:
64,192,144628,1,0,0:0:0:0:
448,192,144628,1,0,0:0:0:0:
320,192,144842,1,0,0:0:0:0:
64,192,144949,1,0,0:0:0:0:
192,192,144949,1,0,0:0:0:0:
448,192,145056,1,0,0:0:0:0:
320,192,145128,1,0,0:0:0:0:
192,192,145199,1,0,0:0:0:0:
64,192,145270,1,0,0:0:0:0:
448,192,145270,1,0,0:0:0:0:
320,192,145485,1,0,0:0:0:0:
64,192,145592,1,0,0:0:0:0:
448,192,145592,1,0,0:0:0:0:
192,192,145806,1,0,0:0:0:0:
448,192,145913,1,0,0:0:0:0:
64,192,145913,1,0,0:0:0:0:
192,192,146128,128,0,146342:0:0:0:0:
64,192,146342,128,0,146556:0:0:0:0:
448,192,146556,1,0,0:0:0:0:
192,192,146663,1,0,0:0:0:0:
64,192,146770,1,0,0:0:0:0:
320,192,146842,1,0,0:0:0:0:
192,192,146913,1,0,0:0:0:0:
64,192,146985,1,0,0:0:0:0:
448,192,146985,1,0,0:0:0:0:
320,192,147092,1,0,0:0:0:0:
64,192,147199,1,0,0:0:0:0:
192,192,147306,1,0,0:0:0:0:
320,192,147413,1,0,0:0:0:0:
64,192,147520,1,0,0:0:0:0:
448,192,147628,1,0,0:0:0:0:
192,192,147735,1,0,0:0:0:0:
64,192,147842,1,0,0:0:0:0:
320,192,147842,128,0,148056:0:0:0:0:
192,192,148056,128,0,148270:0:0:0:0:
320,192,148270,1,0,0:0:0:0:
64,192,148378,1,0,0:0:0:0:
448,192,148485,1,0,0:0:0:0:
192,192,148556,1,0,0:0:0:0:
320,192,148628,1,0,0:0:0:0:
448,192,148699,1,0,0:0:0:0:
64,192,148699,1,0,0:0:0:0:
192,192,148806,1,0,0:0:0:0:
320,192,148913,1,0,0:0:0:0:
64,192,149020,1,0,0:0:0:0:
448,192,149128,1,0,0:0:0:0:
192,192,149235,1,0,0:0:0:0:
320,192,149342,1,0,0:0:0:0:
64,192,149449,1,0,0:0:0:0:
448,192,149556,128,0,149770:0:0:0:0:
192,192,149556,1,0,0:0:0:0:
64,192,149770,128,0,149985:0:0:0:0:
320,192,149985,1,0,0:0:0:0:
448,192,150092,1,0,0:0:0:0:
64,192,150199,1,0,0:0:0:0:
320,192,150270,1,0,0:0:0:0:
192,192,150342,1,0,0:0:0:0:
64,192,150413,1,0,0:0:0:0:
448,192,150413,1,0,0:0:0:0:
320,192,150520,1,0,0:0:0:0:
192,192,150628,1,0,0:0:0:0:
448,192,150735,1,0,0:0:0:0:
64,192,150842,1,0,0:0:0:0:
320,192,150949,1,0,0:0:0:0:
192,192,151056,1,0,0:0:0:0:
448,192,151163,1,0,0:0:0:0:
64,192,151270,128,0,151485:0:0:0:0:
320,192,151270,1,0,0:0:0:0:
448,192,151485,128,0,151699:0:0:0:0:
64,192,151699,1,0,0:0:0:0:
320,192,151806,1,0,0:0:0:0:
448,192,151913,1,0,0:0:0:0:
192,192,151985,1,0,0:0:0:0:
320,192,152056,1,0,0:0:0:0:
448,192,152128,1,0,0:0:0:0:
64,192,152128,1,0,0:0:0:0:
192,192,152235,1,0,0:0:0:0:
320,192,152342,1,0,0:0:0:0:
64,192,152449,1,0,0:0:0:0:
448,192,152556,1,0,0:0:0:0:
192,192,152663,1,0,0:0:0:0:
320,192,152770,1,0,0:0:0:0:
64,192,152878,1,0,0:0:0:0:
192,192,152985,128,0,153199:0:0:0:0:
64,192,153199,128,0,153413:0:0:0:0:
448,192,153413,1,0,0:0:0:0:
192,192,153520,1,0,0:0:0:0:
320,192,153628,1,0,0:0:0:0:
64,192,153735,1,0,0:0:0:0:
448,192,153842,1,0,0:0:0:0:
320,192,153949,1,0,0:0:0:0:
192,192,154056,1,0,0:0:0:0:
64,192,154163,1,0,0:0:0:0:
448,192,154270,1,0,0:0:0:0:
192,192,154378,1,0,0:0:0:0:
64,192,154485,1,0,0:0:0:0:
320,192,154556,1,0,0:0:0:0:
192,192,154628,1,0,0:0:0:0:
448,192,154699,128,0,154913:0:0:0:0:
64,192,154699,1,0,0:0:0:0:
192,192,154913,128,0,155128:0:0:0:0:
320,192,155128,1,0,0:0:0:0:
64,192,155235,1,0,0:0:0:0:
448,192,155342,1,0,0:0:0:0:
192,192,155449,1,0,0:0:0:0:
320,192,155556,1,0,0:0:0:0:
448,192,155663,1,0,0:0:0:0:
64,192,155770,1,0,0:0:0:0:
448,192,155878,1,0,0:0:0:0:
192,192,155985,1,0,0:0:0:0:
320,192,156092,1,0,0:0:0:0:
448,192,156199,1,0,0:0:0:0:
192,192,156270,1,0,0:0:0:0:
320,192,156342,1,0,0:0:0:0:
448,192,156413,1,0,0:0:0:0:
64,192,156413,128,0,156628:0:0:0:0:
448,192,156628,128,0,156842:0:0:0:0:
192,192,156842,1,0,0:0:0:0:
320,192,156949,1,0,0:0:0:0:
64,192,157056,1,0,0:0:0:0:
448,192,157163,1,0,0:0:0:0:
192,192,157270,1,0,0:0:0:0:
320,192,157378,1,0,0:0:0:0:
448,192,157485,1,0,0:0:0:0:
192,192,157592,1,0,0:0:0:0:
320,192,157699,1,0,0:0:0:0:
64,192,157806,1,0,0:0:0:0:
320,192,157913,1,0,0:0:0:0:
192,192,157967,1,0,0:0:0:0:
64,192,158020,1,0,0:0:0:0:
448,192,158020,1,0,0:0:0:0:
320,192,158128,1,0,0:0:0:0:
448,192,158235,1,0,0:0:0:0:
192,192,158342,1,0,0:0:0:0:
192,192,158556,1,0,0:0:0:0:
448,192,158663,1,0,0:0:0:0:
64,192,158770,1,0,0:0:0:0:
192,192,158842,1,0,0:0:0:0:
320,192,158913,1,0,0:0:0:0:
64,192,158985,1,0,0:0:0:0:
448,192,159092,1,0,0:0:0:0:
192,192,159306,1,0,0:0:0:0:
320,192,159413,1,0,0:0:0:0:
448,192,159628,1,0,0:0:0:0:
192,192,159735,1,0,0:0:0:0:
320,192,159842,128,0,160699:0:0:0:0:
192,192,160056,1,0,0:0:0:0:
448,192,160270,1,0,0:0:0:0:
64,192,160270,1,0,0:0:0:0:
192,192,160485,1,0,0:0:0:0:
192,192,160699,128,0,161556:0:0:0:0:
64,192,160699,1,0,0:0:0:0:
320,192,160913,1,0,0:0:0:0:
448,192,161128,1,0,0:0:0:0:
64,192,161128,1,0,0:0:0:0:
320,192,161342,1,0,0:0:0:0:
448,192,161556,128,0,162413:0:0:0:0:
64,192,161556,1,0,0:0:0:0:
192,192,161770,1,0,0:0:0:0:
64,192,161985,1,0,0:0:0:0:
320,192,161985,1,0,0:0:0:0:
192,192,162199,1,0,0:0:0:0:
64,192,162413,128,0,163270:0:0:0:0:
320,192,162413,1,0,0:0:0:0:
192,192,162628,1,0,0:0:0:0:
320,192,162842,1,0,0:0:0:0:
448,192,162842,1,0,0:0:0:0:
192,192,163056,1,0,0:0:0:0:
320,192,163270,128,0,164128:0:0:0:0:
448,192,163270,1,0,0:0:0:0:
192,192,163485,1,0,0:0:0:0:
64,192,163699,1,0,0:0:0:0:
448,192,163699,1,0,0:0:0:0:
192,192,163913,1,0,0:0:0:0:
192,192,164128,128,0,164985:0:0:0:0:
448,192,164128,1,0,0:0:0:0:
64,192,164342,1,0,0:0:0:0:
320,192,164556,1,0,0:0:0:0:
448,192,164556,1,0,0:0:0:0:
64,192,164770,1,0,0:0:0:0:
448,192,164985,128,0,165842:0:0:0:0:
320,192,164985,1,0,0:0:0:0:
192,192,165199,1,0,0:0:0:0:
64,192,165413,1,0,0:0:0:0:
320,192,165413,1,0,0:0:0:0:
192,192,165628,1,0,0:0:0:0:
320,192,165842,128,0,166699:0:0:0:0:
64,192,165842,1,0,0:0:0:0:
448,192,166056,1,0,0:0:0:0:
64,192,166270,1,0,0:0:0:0:
192,192,166270,1,0,0:0:0:0:
448,192,166485,1,0,0:0:0:0:
192,192,166699,128,0,167556:0:0:0:0:
64,192,166699,1,0,0:0:0:0:
320,192,166913,1,0,0:0:0:0:
64,192,167128,1,0,0:0:0:0:
448,192,167128,1,0,0:0:0:0:
320,192,167342,1,0,0:0:0:0:
64,192,167556,128,0,168413:0:0:0:0:
448,192,167556,1,0,0:0:0:0:
192,192,167770,1,0,0:0:0:0:
320,192,167985,1,0,0:0:0:0:
448,192,167985,1,0,0:0:0:0:
192,192,168199,1,0,0:0:0:0:
448,192,168413,128,0,169270:0:0:0:0:
320,192,168413,1,0,0:0:0:0:
64,192,168628,1,0,0:0:0:0:
192,192,168842,1,0,0:0:0:0:
320,192,168842,1,0,0:0:0:0:
64,192,169056,1,0,0:0:0:0:
192,192,169270,128,0,170128:0:0:0:0:
320,192,169270,1,0,0:0:0:0:
64,192,169485,1,0,0:0:0:0:
320,192,169699,1,0,0:0:0:0:
448,192,169699,1,0,0:0:0:0:
64,192,169913,1,0,0:0:0:0:
448,192,170128,128,0,170985:0:0:0:0:
320,192,170128,1,0,0:0:0:0:
192,192,170342,1,0,0:0:0:0:
64,192,170556,1,0,0:0:0:0:
320,192,170556,1,0,0:0:0:0:
192,192,170770,1,0,0:0:0:0:
320,192,170985,128,0,171842:0:0:0:0:
64,192,170985,1,0,0:0:0:0:
192,192,171199,1,0,0:0:0:0:
64,192,171413,1,0,0:0:0:0:
448,192,171413,1,0,0:0:0:0:
192,192,171628,1,0,0:0:0:0:
64,192,171842,128,0,172056:0:0:0:0:
192,192,172056,128,0,172270:0:0:0:0:
64,192,172270,1,0,0:0:0:0:
320,192,172378,128,0,172592:0:0:0:0:
448,192,172699,128,0,172913:0:0:0:0:
64,192,172699,1,0,0:0:0:0:
192,192,173020,128,0,173342:0:0:0:0:
448,192,173128,1,0,0:0:0:0:
64,192,173342,128,0,173556:0:0:0:0:
448,192,173556,128,0,173770:0:0:0:0:
192,192,173556,1,0,0:0:0:0:
320,192,173770,1,0,0:0:0:0:
192,192,173878,128,0,174092:0:0:0:0:
64,192,173878,1,0,0:0:0:0:
448,192,174092,1,0,0:0:0:0:
320,192,174199,128,0,174413:0:0:0:0:
192,192,174199,1,0,0:0:0:0:
64,192,174413,1,0,0:0:0:0:
320,192,174520,1,0,0:0:0:0:
64,192,174628,1,0,0:0:0:0:
320,192,174735,1,0,0:0:0:0:
64,192,174842,1,0,0:0:0:0:
448,192,174842,1,0,0:0:0:0:
64,192,175056,1,0,0:0:0:0:
448,192,175056,1,0,0:0:0:0:
192,192,175270,1,0,0:0:0:0:
192,192,175485,128,0,175699:0:0:0:0:
64,192,175699,1,0,0:0:0:0:
320,192,175806,128,0,176020:0:0:0:0:
448,192,176128,128,0,176342:0:0:0:0:
64,192,176128,1,0,0:0:0:0:
192,192,176449,128,0,176770:0:0:0:0:
448,192,176556,1,0,0:0:0:0:
64,192,176770,128,0,176985:0:0:0:0:
320,192,176985,1,0,0:0:0:0:
448,192,177056,1,0,0:0:0:0:
192,192,177128,1,0,0:0:0:0:
320,192,177199,1,0,0:0:0:0:
448,192,177270,1,0,0:0:0:0:
64,192,177342,1,0,0:0:0:0:
192,192,177413,1,0,0:0:0:0:
448,192,177520,1,0,0:0:0:0:
320,192,177628,1,0,0:0:0:0:
192,192,177735,1,0,0:0:0:0:
448,192,177842,1,0,0:0:0:0:
64,192,177842,1,0,0:0:0:0:
448,192,178056,1,0,0:0:0:0:
64,192,178056,1,0,0:0:0:0:
64,192,178270,1,0,0:0:0:0:
448,192,178270,1,0,0:0:0:0:
448,192,178485,1,0,0:0:0:0:
64,192,178485,1,0,0:0:0:0:
448,192,178699,1,0,0:0:0:0:
64,192,178699,1,0,0:0:0:0:
192,192,178806,1,0,0:0:0:0:
320,192,178913,1,0,0:0:0:0:
448,192,178913,1,0,0:0:0:0:
64,192,179020,1,0,0:0:0:0:
320,192,179128,1,0,0:0:0:0:
192,192,179235,1,0,0:0:0:0:
448,192,179342,1,0,0:0:0:0:
64,192,179342,1,0,0:0:0:0:
320,192,179449,1,0,0:0:0:0:
64,192,179556,1,0,0:0:0:0:
192,192,179663,1,0,0:0:0:0:
64,192,179770,1,0,0:0:0:0:
320,192,179770,1,0,0:0:0:0:
448,192,179878,1,0,0:0:0:0:
192,192,179985,1,0,0:0:0:0:
320,192,180092,1,0,0:0:0:0:
448,192,180199,1,0,0:0:0:0:
64,192,180199,1,0,0:0:0:0:
192,192,180306,1,0,0:0:0:0:
320,192,180413,1,0,0:0:0:0:
64,192,180520,1,0,0:0:0:0:
448,192,180628,1,0,0:0:0:0:
192,192,180628,1,0,0:0:0:0:
320,192,180735,1,0,0:0:0:0:
192,192,180842,1,0,0:0:0:0:
64,192,180949,1,0,0:0:0:0:
448,192,181056,1,0,0:0:0:0:
320,192,181056,1,0,0:0:0:0:
192,192,181163,1,0,0:0:0:0:
64,192,181270,1,0,0:0:0:0:
320,192,181378,1,0,0:0:0:0:
64,192,181485,1,0,0:0:0:0:
448,192,181485,1,0,0:0:0:0:
192,192,181592,1,0,0:0:0:0:
320,192,181699,1,0,0:0:0:0:
192,192,181806,1,0,0:0:0:0:
448,192,181913,1,0,0:0:0:0:
64,192,181913,1,0,0:0:0:0:
320,192,182020,1,0,0:0:0:0:
64,192,182128,128,0,182342:0:0:0:0:
448,192,182342,1,0,0:0:0:0:
320,192,182342,1,0,0:0:0:0:
192,192,182413,1,0,0:0:0:0:
64,192,182485,1,0,0:0:0:0:
448,192,182556,1,0,0:0:0:0:
320,192,182628,1,0,0:0:0:0:
192,192,182699,1,0,0:0:0:0:
64,192,182770,1,0,0:0:0:0:
448,192,182770,1,0,0:0:0:0:
320,192,182842,1,0,0:0:0:0:
192,192,182913,1,0,0:0:0:0:
448,192,182985,1,0,0:0:0:0:
320,192,183056,1,0,0:0:0:0:
192,192,183128,1,0,0:0:0:0:
64,192,183199,1,0,0:0:0:0:
448,192,183199,1,0,0:0:0:0:
192,192,183270,1,0,0:0:0:0:
320,192,183342,1,0,0:0:0:0:
64,192,183413,1,0,0:0:0:0:
192,192,183485,1,0,0:0:0:0:
320,192,183556,1,0,0:0:0:0:
64,192,183628,1,0,0:0:0:0:
448,192,183628,1,0,0:0:0:0:
320,192,183699,1,0,0:0:0:0:
192,192,183770,1,0,0:0:0:0:
64,192,183842,1,0,0:0:0:0:
320,192,183949,1,0,0:0:0:0:
448,192,184056,1,0,0:0:0:0:
64,192,184056,1,0,0:0:0:0:
192,192,184163,1,0,0:0:0:0:
448,192,184270,1,0,0:0:0:0:
320,192,184342,1,0,0:0:0:0:
192,192,184413,1,0,0:0:0:0:
448,192,184485,1,0,0:0:0:0:
64,192,184485,1,0,0:0:0:0:
320,192,184556,1,0,0:0:0:0:
192,192,184628,1,0,0:0:0:0:
64,192,184699,1,0,0:0:0:0:
192,192,184770,1,0,0:0:0:0:
320,192,184842,1,0,0:0:0:0:
448,192,184913,1,0,0:0:0:0:
64,192,184913,1,0,0:0:0:0:
192,192,185056,1,0,0:0:0:0:
64,192,185128,1,0,0:0:0:0:
448,192,185128,1,0,0:0:0:0:
192,192,185270,1,0,0:0:0:0:
448,192,185342,1,0,0:0:0:0:
64,192,185342,1,0,0:0:0:0:
192,192,185485,1,0,0:0:0:0:
64,192,185556,1,0,0:0:0:0:
448,192,185556,1,0,0:0:0:0:
192,192,185770,1,0,0:0:0:0:
448,192,185770,1,0,0:0:0:0:
64,192,185878,1,0,0:0:0:0:
320,192,185985,1,0,0:0:0:0:
192,192,186092,1,0,0:0:0:0:
64,192,186199,1,0,0:0:0:0:
448,192,186199,1,0,0:0:0:0:
320,192,186306,1,0,0:0:0:0:
192,192,186413,1,0,0:0:0:0:
320,192,186520,1,0,0:0:0:0:
64,192,186628,1,0,0:0:0:0:
448,192,186628,1,0,0:0:0:0:
192,192,186735,1,0,0:0:0:0:
320,192,186842,1,0,0:0:0:0:
448,192,186949,1,0,0:0:0:0:
64,192,187056,1,0,0:0:0:0:
192,192,187056,1,0,0:0:0:0:
320,192,187163,1,0,0:0:0:0:
448,192,187270,1,0,0:0:0:0:
192,192,187378,1,0,0:0:0:0:
448,192,187485,1,0,0:0:0:0:
64,192,187485,1,0,0:0:0:0:
320,192,187592,1,0,0:0:0:0:
192,192,187699,1,0,0:0:0:0:
64,192,187806,1,0,0:0:0:0:
448,192,187913,1,0,0:0:0:0:
320,192,187913,1,0,0:0:0:0:
192,192,188020,1,0,0:0:0:0:
64,192,188128,1,0,0:0:0:0:
448,192,188235,1,0,0:0:0:0:
64,192,188342,1,0,0:0:0:0:
320,192,188342,1,0,0:0:0:0:
192,192,188449,1,0,0:0:0:0:
320,192,188556,1,0,0:0:0:0:
448,192,188663,1,0,0:0:0:0:
64,192,188770,1,0,0:0:0:0:
192,192,188770,1,0,0:0:0:0:
320,192,188878,1,0,0:0:0:0:
448,192,188985,1,0,0:0:0:0:
192,192,189092,1,0,0:0:0:0:
64,192,189199,1,0,0:0:0:0:
448,192,189199,1,0,0:0:0:0:
320,192,189306,1,0,0:0:0:0:
64,192,189413,1,0,0:0:0:0:
192,192,189520,1,0,0:0:0:0:
448,192,189628,1,0,0:0:0:0:
320,192,189628,1,0,0:0:0:0:
64,192,189735,1,0,0:0:0:0:
192,192,189842,1,0,0:0:0:0:
320,192,189949,1,0,0:0:0:0:
64,192,190056,1,0,0:0:0:0:
448,192,190056,1,0,0:0:0:0:
192,192,190163,1,0,0:0:0:0:
320,192,190270,1,0,0:0:0:0:
64,192,190378,1,0,0:0:0:0:
448,192,190485,1,0,0:0:0:0:
192,192,190485,1,0,0:0:0:0:
320,192,190592,1,0,0:0:0:0:
64,192,190699,1,0,0:0:0:0:
192,192,190770,1,0,0:0:0:0:
320,192,190842,1,0,0:0:0:0:
64,192,190913,1,0,0:0:0:0:
448,192,190913,1,0,0:0:0:0:
192,192,190985,1,0,0:0:0:0:
320,192,191056,1,0,0:0:0:0:
448,192,191128,1,0,0:0:0:0:
192,192,191199,1,0,0:0:0:0:
64,192,191270,1,0,0:0:0:0:
320,192,191342,1,0,0:0:0:0:
448,192,191342,1,0,0:0:0:0:
192,192,191413,1,0,0:0:0:0:
64,192,191485,1,0,0:0:0:0:
448,192,191556,1,0,0:0:0:0:
320,192,191628,1,0,0:0:0:0:
192,192,191699,1,0,0:0:0:0:
448,192,191770,1,0,0:0:0:0:
64,192,191770,1,0,0:0:0:0:
192,192,191913,1,0,0:0:0:0:
64,192,191985,1,0,0:0:0:0:
448,192,191985,1,0,0:0:0:0:
192,192,192128,1,0,0:0:0:0:
320,192,192199,1,0,0:0:0:0:
448,192,192199,1,0,0:0:0:0:
192,192,192270,1,0,0:0:0:0:
64,192,192270,1,0,0:0:0:0:
320,192,192342,1,0,0:0:0:0:
448,192,192342,1,0,0:0:0:0:
192,192,192413,1,0,0:0:0:0:
64,192,192413,128,0,194128:0:0:0:0:
448,192,193056,1,0,0:0:0:0:
320,192,193128,1,0,0:0:0:0:
192,192,193199,1,0,0:0:0:0:
448,192,193270,1,0,0:0:0:0:
192,192,193699,1,0,0:0:0:0:
320,192,193913,1,0,0:0:0:0:
192,192,194128,1,0,0:0:0:0:
192,192,194770,1,0,0:0:0:0:
320,192,194842,1,0,0:0:0:0:
448,192,194913,1,0,0:0:0:0:
192,192,194985,1,0,0:0:0:0:
64,192,194985,1,0,0:0:0:0:
320,192,195413,1,0,0:0:0:0:
192,192,195628,1,0,0:0:0:0:
320,192,195842,1,0,0:0:0:0:
320,192,196485,1,0,0:0:0:0:
192,192,196556,1,0,0:0:0:0:
64,192,196628,1,0,0:0:0:0:
448,192,196699,1,0,0:0:0:0:
320,192,196699,1,0,0:0:0:0:
192,192,197128,1,0,0:0:0:0:
320,192,197342,1,0,0:0:0:0:
192,192,197556,1,0,0:0:0:0:
448,192,197770,1,0,0:0:0:0:
192,192,198199,1,0,0:0:0:0:
320,192,198270,1,0,0:0:0:0:
448,192,198342,1,0,0:0:0:0:
192,192,198413,1,0,0:0:0:0:
64,192,198413,1,0,0:0:0:0:
320,192,198842,1,0,0:0:0:0:
192,192,199056,1,0,0:0:0:0:
320,192,199270,1,0,0:0:0:0:
320,192,199913,1,0,0:0:0:0:
192,192,199985,1,0,0:0:0:0:
64,192,200056,1,0,0:0:0:0:
320,192,200128,1,0,0:0:0:0:
448,192,200128,1,0,0:0:0:0:
192,192,200556,1,0,0:0:0:0:
320,192,200770,1,0,0:0:0:0:
192,192,200985,1,0,0:0:0:0:
192,192,201628,1,0,0:0:0:0:
320,192,201699,1,0,0:0:0:0:
448,192,201770,1,0,0:0:0:0:
64,192,201842,1,0,0:0:0:0:
192,192,201842,1,0,0:0:0:0:
320,192,202270,1,0,0:0:0:0:
192,192,202485,1,0,0:0:0:0:
448,192,202699,1,0,0:0:0:0:
64,192,202699,1,0,0:0:0:0:
448,192,203020,1,0,0:0:0:0:
64,192,203020,1,0,0:0:0:0:
448,192,203342,1,0,0:0:0:0:
64,192,203342,1,0,0:0:0:0:
448,192,203556,1,0,0:0:0:0:
192,192,203556,1,0,0:0:0:0:
448,192,203770,1,0,0:0:0:0:
64,192,203770,1,0,0:0:0:0:
320,192,203878,1,0,0:0:0:0:
192,192,203985,1,0,0:0:0:0:
320,192,204092,5,0,0:0:0:0:
448,192,204199,1,0,0:0:0:0:
64,192,204199,1,0,0:0:0:0:
192,192,204306,1,0,0:0:0:0:
320,192,204306,1,0,0:0:0:0:
448,192,204413,1,0,0:0:0:0:
64,192,204413,1,0,0:0:0:0:
64,192,204735,1,0,0:0:0:0:
448,192,204735,1,0,0:0:0:0:
448,192,205056,1,0,0:0:0:0:
64,192,205056,1,0,0:0:0:0:
320,192,205270,1,0,0:0:0:0:
192,192,205378,1,0,0:0:0:0:
64,192,205485,1,0,0:0:0:0:
448,192,205485,1,0,0:0:0:0:
320,192,205592,1,0,0:0:0:0:
192,192,205699,1,0,0:0:0:0:
320,192,205806,1,0,0:0:0:0:
448,192,205913,1,0,0:0:0:0:
64,192,205913,1,0,0:0:0:0:
192,192,206020,1,0,0:0:0:0:
448,192,206342,1,0,0:0:0:0:
64,192,206342,1,0,0:0:0:0:
320,192,206449,1,0,0:0:0:0:
192,192,206556,1,0,0:0:0:0:
448,192,206663,1,0,0:0:0:0:
320,192,206770,1,0,0:0:0:0:
64,192,206770,1,0,0:0:0:0:
192,192,206878,1,0,0:0:0:0:
64,192,206985,1,0,0:0:0:0:
320,192,207092,1,0,0:0:0:0:
448,192,207199,1,0,0:0:0:0:
64,192,207199,1,0,0:0:0:0:
192,192,207306,1,0,0:0:0:0:
320,192,207413,1,0,0:0:0:0:
64,192,207520,1,0,0:0:0:0:
192,192,207628,1,0,0:0:0:0:
448,192,207628,1,0,0:0:0:0:
320,192,207735,1,0,0:0:0:0:
448,192,207842,1,0,0:0:0:0:
192,192,207949,1,0,0:0:0:0:
64,192,208056,1,0,0:0:0:0:
320,192,208056,1,0,0:0:0:0:
448,192,208163,1,0,0:0:0:0:
192,192,208270,1,0,0:0:0:0:
320,192,208378,1,0,0:0:0:0:
448,192,208485,1,0,0:0:0:0:
64,192,208485,1,0,0:0:0:0:
192,192,208592,1,0,0:0:0:0:
320,192,208699,1,0,0:0:0:0:
192,192,208806,1,0,0:0:0:0:
448,192,208913,1,0,0:0:0:0:
64,192,208913,1,0,0:0:0:0:
320,192,209020,1,0,0:0:0:0:
192,192,209128,1,0,0:0:0:0:
64,192,209235,1,0,0:0:0:0:
448,192,209342,1,0,0:0:0:0:
192,192,209342,1,0,0:0:0:0:
320,192,209449,1,0,0:0:0:0:
64,192,209556,1,0,0:0:0:0:
192,192,209663,1,0,0:0:0:0:
320,192,209770,1,0,0:0:0:0:
448,192,209770,1,0,0:0:0:0:
64,192,209878,1,0,0:0:0:0:
448,192,209985,1,0,0:0:0:0:
320,192,210056,1,0,0:0:0:0:
192,192,210128,1,0,0:0:0:0:
64,192,210199,1,0,0:0:0:0:
448,192,210199,1,0,0:0:0:0:
320,192,210306,1,0,0:0:0:0:
192,192,210413,1,0,0:0:0:0:
320,192,210520,1,0,0:0:0:0:
448,192,210628,1,0,0:0:0:0:
64,192,210628,1,0,0:0:0:0:
192,192,210770,1,0,0:0:0:0:
64,192,210842,1,0,0:0:0:0:
448,192,210842,1,0,0:0:0:0:
192,192,210985,1,0,0:0:0:0:
448,192,211056,1,0,0:0:0:0:
64,192,211056,1,0,0:0:0:0:
320,192,211199,1,0,0:0:0:0:
192,192,211270,1,0,0:0:0:0:
64,192,211270,1,0,0:0:0:0:
320,192,211378,1,0,0:0:0:0:
64,192,211485,1,0,0:0:0:0:
448,192,211485,1,0,0:0:0:0:
192,192,211592,1,0,0:0:0:0:
320,192,211699,1,0,0:0:0:0:
192,192,211806,1,0,0:0:0:0:
64,192,211913,1,0,0:0:0:0:
448,192,211913,1,0,0:0:0:0:
320,192,212020,1,0,0:0:0:0:
192,192,212128,1,0,0:0:0:0:
64,192,212235,1,0,0:0:0:0:
320,192,212342,1,0,0:0:0:0:
448,192,212342,1,0,0:0:0:0:
192,192,212449,1,0,0:0:0:0:
64,192,212556,1,0,0:0:0:0:
320,192,212663,1,0,0:0:0:0:
448,192,212770,1,0,0:0:0:0:
64,192,212770,1,0,0:0:0:0:
192,192,212878,1,0,0:0:0:0:
320,192,212985,1,0,0:0:0:0:
192,192,213092,1,0,0:0:0:0:
448,192,213199,1,0,0:0:0:0:
64,192,213199,1,0,0:0:0:0:
320,192,213306,1,0,0:0:0:0:
192,192,213413,1,0,0:0:0:0:
64,192,213520,1,0,0:0:0:0:
448,192,213628,1,0,0:0:0:0:
320,192,213628,1,0,0:0:0:0:
192,192,213735,1,0,0:0:0:0:
64,192,213842,1,0,0:0:0:0:
320,192,213949,1,0,0:0:0:0:
64,192,214056,1,0,0:0:0:0:
448,192,214056,1,0,0:0:0:0:
192,192,214163,1,0,0:0:0:0:
320,192,214270,1,0,0:0:0:0:
448,192,214378,1,0,0:0:0:0:
64,192,214485,1,0,0:0:0:0:
192,192,214485,1,0,0:0:0:0:
320,192,214592,1,0,0:0:0:0:
448,192,214699,1,0,0:0:0:0:
192,192,214806,1,0,0:0:0:0:
64,192,214913,1,0,0:0:0:0:
320,192,214913,1,0,0:0:0:0:
448,192,215020,1,0,0:0:0:0:
192,192,215128,1,0,0:0:0:0:
320,192,215235,1,0,0:0:0:0:
64,192,215342,1,0,0:0:0:0:
448,192,215342,1,0,0:0:0:0:
320,192,215449,1,0,0:0:0:0:
192,192,215556,1,0,0:0:0:0:
320,192,215663,1,0,0:0:0:0:
448,192,215770,1,0,0:0:0:0:
64,192,215770,1,0,0:0:0:0:
192,192,215878,1,0,0:0:0:0:
320,192,215985,1,0,0:0:0:0:
64,192,216092,1,0,0:0:0:0:
192,192,216199,1,0,0:0:0:0:
448,192,216199,1,0,0:0:0:0:
320,192,216306,1,0,0:0:0:0:
192,192,216413,1,0,0:0:0:0:
448,192,216520,1,0,0:0:0:0:
64,192,216628,1,0,0:0:0:0:
320,192,216628,1,0,0:0:0:0:
192,192,216735,1,0,0:0:0:0:
320,192,216842,1,0,0:0:0:0:
192,192,216949,1,0,0:0:0:0:
64,192,217056,5,0,0:0:0:0:
448,192,217056,1,0,0:0:0:0:
320,192,217163,1,0,0:0:0:0:
192,192,217270,1,0,0:0:0:0:
448,192,217378,1,0,0:0:0:0:
192,192,217485,1,0,0:0:0:0:
64,192,217485,1,0,0:0:0:0:
320,192,217628,1,0,0:0:0:0:
64,192,217699,1,0,0:0:0:0:
448,192,217699,1,0,0:0:0:0:
320,192,217842,1,0,0:0:0:0:
448,192,217913,1,0,0:0:0:0:
64,192,217913,1,0,0:0:0:0:
320,192,218056,1,0,0:0:0:0:
64,192,218128,128,0,218342:0:0:0:0:
448,192,218128,1,0,0:0:0:0:
192,192,218342,128,0,218556:0:0:0:0:
64,192,218556,1,0,0:0:0:0:
320,192,218663,128,0,218878:0:0:0:0:
448,192,218985,128,0,219199:0:0:0:0:
64,192,218985,1,0,0:0:0:0:
192,192,219306,128,0,219628:0:0:0:0:
448,192,219413,1,0,0:0:0:0:
64,192,219628,128,0,219842:0:0:0:0:
448,192,219842,128,0,220056:0:0:0:0:
192,192,219842,1,0,0:0:0:0:
320,192,220056,1,0,0:0:0:0:
192,192,220163,128,0,220378:0:0:0:0:
64,192,220163,1,0,0:0:0:0:
448,192,220378,1,0,0:0:0:0:
320,192,220485,128,0,220699:0:0:0:0:
192,192,220485,1,0,0:0:0:0:
320,192,220913,1,0,0:0:0:0:
192,192,220985,1,0,0:0:0:0:
64,192,221056,1,0,0:0:0:0:
448,192,221128,1,0,0:0:0:0:
320,192,221128,1,0,0:0:0:0:
320,192,221342,1,0,0:0:0:0:
448,192,221342,1,0,0:0:0:0:
192,192,221556,1,0,0:0:0:0:
192,192,221770,128,0,221985:0:0:0:0:
64,192,221985,1,0,0:0:0:0:
320,192,222092,128,0,222306:0:0:0:0:
448,192,222413,128,0,222628:0:0:0:0:
64,192,222413,1,0,0:0:0:0:
192,192,222735,128,0,223056:0:0:0:0:
448,192,222842,1,0,0:0:0:0:
64,192,223056,128,0,223270:0:0:0:0:
192,192,223270,1,0,0:0:0:0:
320,192,223342,1,0,0:0:0:0:
448,192,223413,1,0,0:0:0:0:
64,192,223485,1,0,0:0:0:0:
320,192,223592,1,0,0:0:0:0:
64,192,223699,1,0,0:0:0:0:
320,192,223806,1,0,0:0:0:0:
192,192,223913,1,0,0:0:0:0:
320,192,224020,1,0,0:0:0:0:
448,192,224128,1,0,0:0:0:0:
64,192,224128,1,0,0:0:0:0:
448,192,224342,1,0,0:0:0:0:
64,192,224342,1,0,0:0:0:0:
64,192,224556,1,0,0:0:0:0:
448,192,224556,1,0,0:0:0:0:
448,192,224770,1,0,0:0:0:0:
64,192,224770,1,0,0:0:0:0:
192,192,224985,1,0,0:0:0:0:
320,192,225092,1,0,0:0:0:0:
448,192,225199,1,0,0:0:0:0:
64,192,225199,1,0,0:0:0:0:
192,192,225306,1,0,0:0:0:0:
320,192,225413,1,0,0:0:0:0:
64,192,225520,1,0,0:0:0:0:
448,192,225628,1,0,0:0:0:0:
192,192,225628,1,0,0:0:0:0:
320,192,225735,1,0,0:0:0:0:
192,192,225842,1,0,0:0:0:0:
64,192,225949,1,0,0:0:0:0:
320,192,226056,1,0,0:0:0:0:
448,192,226056,1,0,0:0:0:0:
192,192,226163,1,0,0:0:0:0:
64,192,226270,1,0,0:0:0:0:
320,192,226378,1,0,0:0:0:0:
448,192,226485,1,0,0:0:0:0:
192,192,226485,1,0,0:0:0:0:
64,192,226592,1,0,0:0:0:0:
320,192,226699,1,0,0:0:0:0:
192,192,226806,1,0,0:0:0:0:
448,192,226913,1,0,0:0:0:0:
64,192,226913,1,0,0:0:0:0:
320,192,227020,1,0,0:0:0:0:
64,192,227128,1,0,0:0:0:0:
192,192,227235,1,0,0:0:0:0:
448,192,227342,1,0,0:0:0:0:
320,192,227342,1,0,0:0:0:0:
64,192,227449,1,0,0:0:0:0:
192,192,227556,1,0,0:0:0:0:
320,192,227663,1,0,0:0:0:0:
448,192,227770,1,0,0:0:0:0:
64,192,227770,1,0,0:0:0:0:
192,192,227878,1,0,0:0:0:0:
320,192,227985,1,0,0:0:0:0:
64,192,228092,1,0,0:0:0:0:
448,192,228199,1,0,0:0:0:0:
192,192,228199,1,0,0:0:0:0:
320,192,228306,1,0,0:0:0:0:
64,192,228413,1,0,0:0:0:0:
192,192,228520,1,0,0:0:0:0:
320,192,228628,1,0,0:0:0:0:
448,192,228628,1,0,0:0:0:0:
64,192,228735,1,0,0:0:0:0:
192,192,228842,1,0,0:0:0:0:
320,192,228949,1,0,0:0:0:0:
64,192,229056,1,0,0:0:0:0:
448,192,229056,1,0,0:0:0:0:
192,192,229163,1,0,0:0:0:0:
448,192,229270,1,0,0:0:0:0:
320,192,229378,1,0,0:0:0:0:
192,192,229485,1,0,0:0:0:0:
64,192,229485,1,0,0:0:0:0:
448,192,229592,1,0,0:0:0:0:
320,192,229699,1,0,0:0:0:0:
192,192,229806,1,0,0:0:0:0:
448,192,229913,1,0,0:0:0:0:
64,192,229913,1,0,0:0:0:0:
320,192,230020,1,0,0:0:0:0:
64,192,230128,1,0,0:0:0:0:
192,192,230235,1,0,0:0:0:0:
448,192,230342,1,0,0:0:0:0:
320,192,230342,1,0,0:0:0:0:
64,192,230449,1,0,0:0:0:0:
448,192,230556,1,0,0:0:0:0:
320,192,230628,1,0,0:0:0:0:
192,192,230699,1,0,0:0:0:0:
64,192,230770,1,0,0:0:0:0:
448,192,230770,1,0,0:0:0:0:
320,192,230842,1,0,0:0:0:0:
192,192,230913,1,0,0:0:0:0:
64,192,230985,1,0,0:0:0:0:
448,192,231056,1,0,0:0:0:0:
320,192,231128,1,0,0:0:0:0:
64,192,231199,1,0,0:0:0:0:
192,192,231199,1,0,0:0:0:0:
320,192,231342,1,0,0:0:0:0:
64,192,231413,1,0,0:0:0:0:
448,192,231413,1,0,0:0:0:0:
320,192,231556,1,0,0:0:0:0:
64,192,231628,1,0,0:0:0:0:
448,192,231628,1,0,0:0:0:0:
192,192,231842,1,0,0:0:0:0:
320,192,231842,1,0,0:0:0:0:
448,192,232056,1,0,0:0:0:0:
64,192,232056,1,0,0:0:0:0:
192,192,232163,1,0,0:0:0:0:
320,192,232270,1,0,0:0:0:0:
192,192,232378,1,0,0:0:0:0:
64,192,232485,1,0,0:0:0:0:
448,192,232485,1,0,0:0:0:0:
320,192,232592,1,0,0:0:0:0:
64,192,232699,1,0,0:0:0:0:
192,192,232806,1,0,0:0:0:0:
448,192,232913,1,0,0:0:0:0:
320,192,232913,1,0,0:0:0:0:
64,192,233020,1,0,0:0:0:0:
192,192,233128,1,0,0:0:0:0:
320,192,233235,1,0,0:0:0:0:
448,192,233342,1,0,0:0:0:0:
64,192,233342,1,0,0:0:0:0:
192,192,233449,1,0,0:0:0:0:
448,192,233556,1,0,0:0:0:0:
320,192,233663,1,0,0:0:0:0:
448,192,233770,1,0,0:0:0:0:
192,192,233770,1,0,0:0:0:0:
64,192,233878,1,0,0:0:0:0:
320,192,233985,1,0,0:0:0:0:
192,192,234092,1,0,0:0:0:0:
64,192,234199,1,0,0:0:0:0:
448,192,234199,1,0,0:0:0:0:
320,192,234306,1,0,0:0:0:0:
64,192,234413,1,0,0:0:0:0:
192,192,234520,1,0,0:0:0:0:
448,192,234628,1,0,0:0:0:0:
320,192,234628,1,0,0:0:0:0:
64,192,234735,1,0,0:0:0:0:
192,192,234842,1,0,0:0:0:0:
320,192,234949,1,0,0:0:0:0:
448,192,235056,1,0,0:0:0:0:
64,192,235056,1,0,0:0:0:0:
192,192,235163,1,0,0:0:0:0:
320,192,235270,1,0,0:0:0:0:
192,192,235378,1,0,0:0:0:0:
64,192,235485,1,0,0:0:0:0:
448,192,235485,1,0,0:0:0:0:
320,192,235592,1,0,0:0:0:0:
64,192,235699,1,0,0:0:0:0:
192,192,235806,1,0,0:0:0:0:
448,192,235913,1,0,0:0:0:0:
320,192,235913,1,0,0:0:0:0:
64,192,236020,1,0,0:0:0:0:
192,192,236128,1,0,0:0:0:0:
320,192,236235,1,0,0:0:0:0:
448,192,236342,1,0,0:0:0:0:
64,192,236342,1,0,0:0:0:0:
192,192,236449,1,0,0:0:0:0:
320,192,236556,1,0,0:0:0:0:
64,192,236663,1,0,0:0:0:0:
192,192,236770,1,0,0:0:0:0:
448,192,236770,1,0,0:0:0:0:
320,192,236878,1,0,0:0:0:0:
64,192,236985,1,0,0:0:0:0:
448,192,236985,1,0,0:0:0:0:
448,192,237199,1,0,0:0:0:0:
64,192,237199,1,0,0:0:0:0:
448,192,237413,1,0,0:0:0:0:
64,192,237413,1,0,0:0:0:0:
448,192,237628,1,0,0:0:0:0:
64,192,237628,1,0,0:0:0:0:
64,192,237842,1,0,0:0:0:0:
448,192,237842,1,0,0:0:0:0:
320,192,237913,1,0,0:0:0:0:
192,192,237985,1,0,0:0:0:0:
64,192,238056,1,0,0:0:0:0:
448,192,238056,1,0,0:0:0:0:
320,192,238199,1,0,0:0:0:0:
64,192,238270,1,0,0:0:0:0:
448,192,238270,1,0,0:0:0:0:
320,192,238413,1,0,0:0:0:0:
64,192,238485,1,0,0:0:0:0:
448,192,238485,1,0,0:0:0:0:
64,192,238699,1,0,0:0:0:0:
192,192,239128,1,0,0:0:0:0:
320,192,239556,1,0,0:0:0:0:
448,192,239985,1,0,0:0:0:0:
64,192,240413,1,0,0:0:0:0:
448,192,240413,1,0,0:0:0:0:
192,192,240628,1,0,0:0:0:0:
64,192,240735,1,0,0:0:0:0:
448,192,240735,1,0,0:0:0:0:
192,192,240949,1,0,0:0:0:0:
64,192,241056,128,0,242770:0:0:0:0:
448,192,241056,1,0,0:0:0:0:
