osu file format v14

[General]
AudioFilename: audio.ogg
AudioLeadIn: 0
PreviewTime: 68254
Countdown: 0
SampleSet: Soft
StackLeniency: 0.7
Mode: 3
LetterboxInBreaks: 0
SpecialStyle: 0
WidescreenStoryboard: 1

[Editor]
Bookmarks: 15227,25332,35437,45543,55648,68279,78385,88490,98595,109964,110595
DistanceSpacing: 0.3
BeatDivisor: 2
GridSize: 32
TimelineZoom: 1.3

[Metadata]
Title:Song of Sin
TitleUnicode:罪曲
Artist:MIssionary
ArtistUnicode:MIssionary
Creator:cai_ji_ccc
Version:CASUAL
Source:Dynamix
Tags:sinful melody baroque trancecore electronic instrumental video game つみきょく ざいきょく zaikyoku tsumikyoku
BeatmapID:3838245
BeatmapSetID:1865984

[Difficulty]
HPDrainRate:6.5
CircleSize:4
OverallDifficulty:6.5
ApproachRate:5
SliderMultiplier:1.4
SliderTickRate:1

[Events]
//Background and Video events
0,0,"1665732524433.png",0,0
//Break Periods
//Storyboard Layer 0 (Background)
//Storyboard Layer 1 (Fail)
//Storyboard Layer 2 (Pass)
//Storyboard Layer 3 (Foreground)
//Storyboard Layer 4 (Overlay)
//Storyboard Sound Samples

[TimingPoints]
5097,315.789473684211,4,2,1,70,1,0
68254,-100,4,2,1,70,0,1
88465,-100,4,2,1,70,0,0

[HitObjects]
64,192,5097,5,2,0:0:0:0:
448,192,5097,1,8,0:0:0:0:
192,192,5412,1,8,0:0:0:0:
448,192,5886,1,2,0:0:0:0:
192,192,6044,1,8,0:0:0:0:
320,192,6360,1,2,0:0:0:0:
64,192,6675,1,8,0:0:0:0:
320,192,7149,1,2,0:0:0:0:
64,192,7307,1,8,0:0:0:0:
192,192,7623,1,2,0:0:0:0:
448,192,7939,1,8,0:0:0:0:
192,192,8412,1,2,0:0:0:0:
448,192,8570,1,8,0:0:0:0:
64,192,8886,1,2,0:0:0:0:
320,192,9202,1,8,0:0:0:0:
64,192,9675,1,2,0:0:0:0:
320,192,9833,1,8,0:0:0:0:
448,192,10149,1,2,0:0:0:0:
64,192,10465,1,8,0:0:0:0:
448,192,10939,1,2,0:0:0:0:
64,192,11097,1,8,0:0:0:0:
320,192,11412,1,2,0:0:0:0:
192,192,11728,1,8,0:0:0:0:
320,192,12202,1,2,0:0:0:0:
192,192,12360,1,8,0:0:0:0:
64,192,12675,1,2,0:0:0:0:
448,192,12991,1,8,0:0:0:0:
64,192,13465,1,2,0:0:0:0:
448,192,13623,1,8,0:0:0:0:
64,192,13939,128,2,15202:0:0:0:0:
448,192,14886,128,2,15202:0:0:0:0:
192,192,15202,1,4,0:0:0:0:
320,192,15202,1,2,0:0:0:0:
64,192,15518,1,10,0:0:0:0:
320,192,15833,1,2,0:0:0:0:
192,192,16149,1,10,0:0:0:0:
448,192,16465,1,2,0:0:0:0:
320,192,16781,1,10,0:0:0:0:
192,192,17097,1,2,0:0:0:0:
64,192,17412,1,10,0:0:0:0:
320,192,17728,1,2,0:0:0:0:
192,192,18044,1,10,0:0:0:0:
448,192,18360,1,2,0:0:0:0:
320,192,18675,1,10,0:0:0:0:
64,192,18991,1,2,0:0:0:0:
192,192,19307,1,10,0:0:0:0:
320,192,19623,1,2,0:0:0:0:
448,192,19939,1,10,0:0:0:0:
192,192,20254,1,2,0:0:0:0:
64,192,20254,1,4,0:0:0:0:
320,192,20570,1,10,0:0:0:0:
64,192,20886,1,2,0:0:0:0:
192,192,21202,1,10,0:0:0:0:
448,192,21518,1,2,0:0:0:0:
320,192,21833,1,10,0:0:0:0:
192,192,22149,1,2,0:0:0:0:
64,192,22465,1,10,0:0:0:0:
320,192,22781,1,2,0:0:0:0:
448,192,23097,1,10,0:0:0:0:
192,192,23412,1,2,0:0:0:0:
320,192,23728,1,10,0:0:0:0:
64,192,24044,1,2,0:0:0:0:
192,192,24360,1,10,0:0:0:0:
320,192,24675,1,2,0:0:0:0:
64,192,24991,128,6,25307:0:0:0:0:
192,192,24991,1,8,0:0:0:0:
320,192,25307,1,4,0:0:0:0:
448,192,25307,1,2,0:0:0:0:
192,192,25623,1,10,0:0:0:0:
64,192,25939,1,2,0:0:0:0:
448,192,26254,1,10,0:0:0:0:
192,192,26412,1,0,0:0:0:0:
320,192,26728,1,0,0:0:0:0:
64,192,27044,1,0,0:0:0:0:
192,192,27202,1,2,0:0:0:0:
320,192,27518,1,10,0:0:0:0:
448,192,27833,128,2,28781:0:0:0:0:
64,192,28149,1,10,0:0:0:0:
320,192,28465,1,2,0:0:0:0:
64,192,28781,1,10,0:0:0:0:
192,192,28939,1,0,0:0:0:0:
448,192,29097,1,2,0:0:0:0:
320,192,29412,1,10,0:0:0:0:
192,192,29728,1,2,0:0:0:0:
320,192,30044,1,10,0:0:0:0:
64,192,30360,1,2,0:0:0:0:
448,192,30360,1,4,0:0:0:0:
192,192,30675,1,10,0:0:0:0:
320,192,30991,1,2,0:0:0:0:
448,192,31307,1,10,0:0:0:0:
192,192,31623,1,2,0:0:0:0:
320,192,31939,1,10,0:0:0:0:
64,192,32254,1,2,0:0:0:0:
448,192,32570,1,10,0:0:0:0:
192,192,32886,128,2,34781:0:0:0:0:
448,192,33202,1,10,0:0:0:0:
64,192,33518,1,2,0:0:0:0:
448,192,33833,1,10,0:0:0:0:
64,192,34149,1,2,0:0:0:0:
448,192,34465,1,10,0:0:0:0:
64,192,34781,1,2,0:0:0:0:
320,192,35097,1,10,0:0:0:0:
448,192,35097,1,4,0:0:0:0:
64,192,35412,1,2,0:0:0:0:
192,192,35412,1,4,0:0:0:0:
320,192,35728,1,10,0:0:0:0:
448,192,36044,1,2,0:0:0:0:
64,192,36360,1,10,0:0:0:0:
320,192,36518,1,0,0:0:0:0:
192,192,36833,1,0,0:0:0:0:
448,192,37149,1,0,0:0:0:0:
320,192,37307,1,2,0:0:0:0:
64,192,37623,1,10,0:0:0:0:
448,192,37939,128,2,38886:0:0:0:0:
320,192,38254,1,10,0:0:0:0:
192,192,38570,1,2,0:0:0:0:
64,192,38886,1,10,0:0:0:0:
320,192,39044,1,0,0:0:0:0:
192,192,39202,1,2,0:0:0:0:
320,192,39518,1,10,0:0:0:0:
448,192,39833,1,2,0:0:0:0:
64,192,40149,1,10,0:0:0:0:
192,192,40465,1,2,0:0:0:0:
320,192,40465,1,4,0:0:0:0:
448,192,40781,1,10,0:0:0:0:
320,192,41097,1,2,0:0:0:0:
64,192,41412,1,10,0:0:0:0:
192,192,41728,1,2,0:0:0:0:
448,192,42044,1,10,0:0:0:0:
320,192,42360,1,2,0:0:0:0:
192,192,42675,1,10,0:0:0:0:
64,192,42991,128,2,44254:0:0:0:0:
192,192,43307,1,10,0:0:0:0:
448,192,43623,1,2,0:0:0:0:
192,192,43939,1,10,0:0:0:0:
320,192,44254,1,4,0:0:0:0:
448,192,44254,1,2,0:0:0:0:
192,192,44570,1,10,0:0:0:0:
64,192,44886,1,2,0:0:0:0:
448,192,44886,1,4,0:0:0:0:
192,192,45202,1,10,0:0:0:0:
320,192,45202,1,4,0:0:0:0:
64,192,45518,1,4,0:0:0:0:
448,192,45518,1,0,0:0:0:0:
320,192,46149,1,0,0:0:0:0:
192,192,46465,1,0,0:0:0:0:
448,192,46781,128,0,47097:0:0:0:0:
64,192,47254,128,0,47570:0:0:0:0:
320,192,47728,1,0,0:0:0:0:
192,192,48044,1,0,0:0:0:0:
448,192,48360,1,0,0:0:0:0:
320,192,48675,1,0,0:0:0:0:
64,192,48991,1,0,0:0:0:0:
192,192,49307,1,0,0:0:0:0:
448,192,49307,128,0,50570:0:0:0:0:
320,192,49623,1,0,0:0:0:0:
64,192,49939,1,0,0:0:0:0:
192,192,50254,1,0,0:0:0:0:
320,192,50570,1,0,0:0:0:0:
64,192,51202,1,0,0:0:0:0:
448,192,51833,1,0,0:0:0:0:
192,192,52465,1,0,0:0:0:0:
64,192,53097,128,0,53728:0:0:0:0:
448,192,53097,1,0,0:0:0:0:
320,192,53412,1,0,0:0:0:0:
192,192,53728,128,0,54360:0:0:0:0:
448,192,54044,1,0,0:0:0:0:
320,192,54360,128,0,54991:0:0:0:0:
64,192,54675,1,0,0:0:0:0:
192,192,54991,128,0,55623:0:0:0:0:
448,192,55307,1,0,0:0:0:0:
64,192,55623,1,4,0:0:0:0:
320,192,55623,1,2,0:0:0:0:
448,192,56254,1,0,0:0:0:0:
64,192,56886,1,4,0:0:0:0:
192,192,56886,1,2,0:0:0:0:
320,192,57360,1,2,0:0:0:0:
448,192,57360,1,4,0:0:0:0:
192,192,57518,1,0,0:0:0:0:
64,192,57833,1,4,0:0:0:0:
448,192,57833,1,2,0:0:0:0:
192,192,58149,1,2,0:0:0:0:
320,192,58149,1,4,0:0:0:0:
64,192,58781,1,0,0:0:0:0:
320,192,59412,1,4,0:0:0:0:
448,192,59412,1,2,0:0:0:0:
192,192,60360,1,0,0:0:0:0:
320,192,60675,1,4,0:0:0:0:
448,192,60675,1,2,0:0:0:0:
64,192,61307,1,4,0:0:0:0:
192,192,61307,1,2,0:0:0:0:
320,192,61939,1,4,0:0:0:0:
448,192,61939,1,2,0:0:0:0:
64,192,62570,1,4,0:0:0:0:
192,192,62570,1,2,0:0:0:0:
320,192,63202,1,4,0:0:0:0:
448,192,63202,1,2,0:0:0:0:
64,192,63518,1,4,0:0:0:0:
192,192,63518,1,2,0:0:0:0:
320,192,63833,1,4,0:0:0:0:
448,192,63833,1,2,0:0:0:0:
64,192,64149,1,4,0:0:0:0:
192,192,64149,1,2,0:0:0:0:
320,192,64465,1,4,0:0:0:0:
448,192,64465,128,2,65728:0:0:0:0:
64,192,64781,1,6,0:0:0:0:
320,192,65097,1,6,0:0:0:0:
64,192,65412,128,6,65728:0:0:0:0:
192,192,65728,1,2,0:0:0:0:
320,192,65728,1,4,0:0:0:0:
448,192,67307,128,0,67623:0:0:0:0:
320,192,67623,128,0,67939:0:0:0:0:
192,192,67939,128,0,68254:0:0:0:0:
64,192,68254,128,2,68886:0:0:0:0:
448,192,68254,1,4,0:0:0:0:
192,192,68570,1,10,0:0:0:0:
448,192,68886,1,2,0:0:0:0:
320,192,69202,1,10,0:0:0:0:
192,192,69518,128,2,70149:0:0:0:0:
448,192,69833,1,10,0:0:0:0:
64,192,70149,1,2,0:0:0:0:
320,192,70465,1,10,0:0:0:0:
192,192,70781,1,2,0:0:0:0:
448,192,71097,1,10,0:0:0:0:
320,192,71412,1,2,0:0:0:0:
192,192,71728,1,10,0:0:0:0:
64,192,72044,128,2,72360:0:0:0:0:
192,192,72360,128,10,72675:0:0:0:0:
320,192,72675,128,2,72991:0:0:0:0:
448,192,72991,128,10,73307:0:0:0:0:
64,192,73307,128,2,73939:0:0:0:0:
192,192,73307,1,4,0:0:0:0:
448,192,73623,1,10,0:0:0:0:
192,192,73939,1,2,0:0:0:0:
320,192,74254,1,10,0:0:0:0:
448,192,74570,1,2,0:0:0:0:
64,192,74886,1,10,0:0:0:0:
320,192,75202,1,2,0:0:0:0:
192,192,75518,1,10,0:0:0:0:
448,192,75833,1,2,0:0:0:0:
320,192,76149,1,10,0:0:0:0:
192,192,76465,1,2,0:0:0:0:
64,192,76781,1,10,0:0:0:0:
192,192,77097,1,2,0:0:0:0:
320,192,77412,1,10,0:0:0:0:
448,192,77728,1,2,0:0:0:0:
64,192,78044,128,10,78360:0:0:0:0:
192,192,78044,1,4,0:0:0:0:
320,192,78360,1,2,0:0:0:0:
448,192,78360,128,4,78991:0:0:0:0:
64,192,78675,1,10,0:0:0:0:
320,192,78991,1,2,0:0:0:0:
192,192,79307,1,10,0:0:0:0:
64,192,79623,128,2,80254:0:0:0:0:
448,192,79939,1,10,0:0:0:0:
192,192,80254,1,2,0:0:0:0:
320,192,80570,1,10,0:0:0:0:
64,192,80886,1,2,0:0:0:0:
192,192,81202,1,10,0:0:0:0:
320,192,81518,1,2,0:0:0:0:
448,192,81833,1,10,0:0:0:0:
320,192,82149,128,2,82465:0:0:0:0:
192,192,82465,128,10,82781:0:0:0:0:
64,192,82781,128,2,83097:0:0:0:0:
448,192,83097,128,10,83412:0:0:0:0:
320,192,83412,128,6,84360:0:0:0:0:
64,192,83728,1,10,0:0:0:0:
192,192,84044,1,2,0:0:0:0:
64,192,84360,1,10,0:0:0:0:
192,192,84675,128,2,85623:0:0:0:0:
448,192,84991,1,10,0:0:0:0:
320,192,85307,1,2,0:0:0:0:
448,192,85623,1,10,0:0:0:0:
64,192,85939,128,2,87202:0:0:0:0:
192,192,86254,1,10,0:0:0:0:
320,192,86570,1,2,0:0:0:0:
192,192,86886,1,10,0:0:0:0:
320,192,87202,1,4,0:0:0:0:
448,192,87202,1,2,0:0:0:0:
64,192,87518,1,2,0:0:0:0:
192,192,87518,1,4,0:0:0:0:
320,192,87833,1,2,0:0:0:0:
448,192,87833,1,4,0:0:0:0:
64,192,88149,128,2,88465:0:0:0:0:
192,192,88149,1,4,0:0:0:0:
320,192,88465,1,4,0:0:0:0:
448,192,88465,1,2,0:0:0:0:
64,192,88781,1,10,0:0:0:0:
192,192,89097,1,2,0:0:0:0:
320,192,89412,1,10,0:0:0:0:
448,192,89728,1,2,0:0:0:0:
192,192,90044,1,10,0:0:0:0:
320,192,90360,1,2,0:0:0:0:
64,192,90675,1,10,0:0:0:0:
192,192,90991,1,2,0:0:0:0:
320,192,91307,1,10,0:0:0:0:
192,192,91623,1,2,0:0:0:0:
64,192,91939,1,10,0:0:0:0:
448,192,92254,1,2,0:0:0:0:
320,192,92570,1,10,0:0:0:0:
192,192,92886,1,2,0:0:0:0:
64,192,93202,1,10,0:0:0:0:
320,192,93518,1,2,0:0:0:0:
448,192,93518,1,4,0:0:0:0:
64,192,93833,1,10,0:0:0:0:
192,192,94149,1,2,0:0:0:0:
320,192,94465,1,10,0:0:0:0:
448,192,94781,128,2,95412:0:0:0:0:
64,192,95097,1,10,0:0:0:0:
192,192,95412,1,2,0:0:0:0:
320,192,95728,1,10,0:0:0:0:
64,192,96044,1,2,0:0:0:0:
448,192,96360,1,10,0:0:0:0:
192,192,96675,1,2,0:0:0:0:
320,192,96991,1,10,0:0:0:0:
64,192,97307,1,2,0:0:0:0:
448,192,97623,1,10,0:0:0:0:
320,192,97939,1,2,0:0:0:0:
64,192,98254,128,10,98570:0:0:0:0:
192,192,98254,1,4,0:0:0:0:
320,192,98570,1,2,0:0:0:0:
448,192,98570,1,4,0:0:0:0:
64,192,98886,1,10,0:0:0:0:
192,192,99202,1,2,0:0:0:0:
320,192,99518,1,10,0:0:0:0:
448,192,99833,1,2,0:0:0:0:
192,192,100149,1,10,0:0:0:0:
320,192,100465,1,2,0:0:0:0:
64,192,100781,1,10,0:0:0:0:
192,192,101097,1,2,0:0:0:0:
320,192,101412,1,10,0:0:0:0:
192,192,101728,1,2,0:0:0:0:
64,192,102044,1,10,0:0:0:0:
448,192,102360,1,2,0:0:0:0:
320,192,102675,1,10,0:0:0:0:
192,192,102991,1,2,0:0:0:0:
320,192,103307,1,10,0:0:0:0:
448,192,103307,1,4,0:0:0:0:
64,192,103623,1,4,0:0:0:0:
192,192,103623,1,2,0:0:0:0:
448,192,103939,1,10,0:0:0:0:
320,192,104254,1,2,0:0:0:0:
192,192,104570,1,10,0:0:0:0:
64,192,104886,128,2,105518:0:0:0:0:
448,192,105202,1,10,0:0:0:0:
320,192,105518,1,2,0:0:0:0:
192,192,105833,1,10,0:0:0:0:
64,192,106149,1,2,0:0:0:0:
448,192,106149,1,4,0:0:0:0:
320,192,106465,1,10,0:0:0:0:
64,192,106781,1,2,0:0:0:0:
448,192,106781,1,4,0:0:0:0:
192,192,107097,1,10,0:0:0:0:
320,192,107412,1,2,0:0:0:0:
448,192,107412,1,4,0:0:0:0:
64,192,107728,1,2,0:0:0:0:
192,192,107728,1,4,0:0:0:0:
320,192,108044,1,2,0:0:0:0:
448,192,108044,1,4,0:0:0:0:
64,192,108360,128,2,108675:0:0:0:0:
192,192,108360,1,4,0:0:0:0:
320,192,108675,1,2,0:0:0:0:
448,192,108675,1,4,0:0:0:0:
64,192,109623,1,0,0:0:0:0:
192,192,109781,1,0,0:0:0:0:
