osu file format v14

[General]
AudioFilename: audio.mp3
AudioLeadIn: 0
PreviewTime: 29115
Countdown: 0
SampleSet: Soft
StackLeniency: 0.4
Mode: 0
LetterboxInBreaks: 0
WidescreenStoryboard: 0

[Editor]
DistanceSpacing: 1
BeatDivisor: 4
GridSize: 32
TimelineZoom: 2.4

[Metadata]
Title:Poker Face (TV Size)
TitleUnicode:ポーカーフェイス (TV Size)
Artist:Miss Monochrome (CV: Horie Yui)
ArtistUnicode:ミス・モノクローム (CV: 堀江由衣)
Creator:eiri-
Version:Linada's Insane
Source:ミス・モノクローム -The Animation-
Tags:Ayyri Linada Miss Monochrome: The Animation Ending ED Idol Anime
BeatmapID:1720950
BeatmapSetID:821033

[Difficulty]
HPDrainRate:6.2
CircleSize:4.3
OverallDifficulty:8
ApproachRate:8.4
SliderMultiplier:1.8
SliderTickRate:1

[Events]
//Background and Video events
0,0,"Miss Monochrome.jpg",0,0
Video,0,"Miss Monochrome.avi"
//Break Periods
//Storyboard Layer 0 (Background)
//Storyboard Layer 1 (Fail)
//Storyboard Layer 2 (Pass)
//Storyboard Layer 3 (Foreground)
//Storyboard Sound Samples

[TimingPoints]
880,441.176470588235,4,2,1,75,1,0
7497,-133.333333333333,4,2,1,75,0,0
7828,-133.333333333333,4,2,1,5,0,0
7938,-125,4,2,1,75,0,0
14556,-83.3333333333333,4,2,1,75,0,0
14997,-125,4,2,1,75,0,0
20071,-200,4,2,1,75,0,0
20512,-100,4,2,1,5,0,0
20622,-100,4,2,1,75,0,0
22056,-100,4,2,1,55,0,0
29115,-80,4,2,1,75,0,1
35732,-66.6666666666667,4,2,1,75,0,1
36174,-80,4,2,1,75,0,1
40144,-133.333333333333,4,2,1,75,0,1
40475,-133.333333333333,4,2,1,5,0,1
40585,-133.333333333333,4,2,1,75,0,1
41357,-133.333333333333,4,2,1,5,0,1
41468,-80,4,2,1,75,0,1
42350,-80,4,2,1,55,0,0
43232,-80,4,2,1,75,0,1
49850,-66.6666666666667,4,2,1,75,0,1
50291,-80,4,2,1,75,0,1
53821,-133.333333333333,4,2,1,75,0,1
54593,-133.333333333333,4,2,1,5,0,1
54703,-133.333333333333,4,2,1,75,0,1
55475,-133.333333333333,4,2,1,5,0,1
55585,-133.333333333333,4,2,1,75,0,1
56468,-100,4,2,1,75,0,1
57350,-100,4,2,1,35,0,0
57571,-100,4,2,1,40,0,0
57791,-100,4,2,1,45,0,0
58012,-100,4,2,1,50,0,0
58232,-100,4,2,1,55,0,0
58453,-100,4,2,1,60,0,0
58674,-100,4,2,1,65,0,0
58894,-100,4,2,1,70,0,0
59115,-100,4,2,1,75,0,0

[Colours]
Combo1 : 252,133,201
Combo2 : 187,220,253
Combo3 : 5,112,218
Combo4 : 253,242,179
Combo5 : 252,225,73
Combo6 : 255,219,183
Combo7 : 255,179,102
Combo8 : 255,198,255

[HitObjects]
94,283,879,6,0,P|161:280|228:270,1,135,6|0,0:1|0:0,0:0:0:0:
228,270,1321,2,0,L|223:314,1,45,8|0,0:0|0:0,0:0:0:0:
235,194,1541,1,2,0:0:0:0:
350,184,1762,6,0,L|260:177,1,90,2|0,0:1|0:0,0:0:0:0:
179,86,2093,1,0,0:0:0:0:
179,86,2203,2,0,L|182:130,1,45,8|0,0:0|0:0,0:0:0:0:
235,194,2424,1,2,0:1:0:0:
166,12,2644,6,0,L|156:146,1,135,2|0,0:0|0:0,0:0:0:0:
156,146,3085,1,8,0:0:0:0:
38,112,3306,1,2,0:0:0:0:
120,217,3527,5,2,0:0:0:0:
163,224,3637,1,2,0:0:0:0:
204,207,3747,1,2,0:0:0:0:
230,171,3857,1,2,0:0:0:0:
232,127,3968,1,10,0:0:0:0:
268,306,4188,1,0,0:0:0:0:
268,306,4299,1,0,0:0:0:0:
268,306,4409,6,0,P|200:299|133:297,1,135,2|0,0:1|0:0,0:0:0:0:
133,297,4850,2,0,P|135:320|135:342,1,45,10|0,0:0|0:0,0:0:0:0:
83,238,5071,1,2,0:0:0:0:
153,56,5291,6,0,P|152:100|155:145,1,90,2|0,0:1|0:0,0:0:0:0:
274,181,5622,1,2,0:1:0:0:
274,181,5732,2,0,L|229:176,1,45,10|0,0:0|0:0,0:0:0:0:
163,224,5953,1,2,0:0:0:0:
340,133,6174,5,10,0:0:0:0:
268,306,6504,1,10,0:0:0:0:
268,306,6615,1,2,0:1:0:0:
345,122,6835,5,2,0:1:0:0:
345,122,7277,2,0,L|349:166,1,45,2|0,0:0|0:0,0:0:0:0:
357,286,7497,6,0,P|354:236|373:189,1,101.250003862381,10|0,0:0|0:0,0:0:0:0:
471,180,7938,6,0,L|399:171,1,72,6|2,0:1|0:0,0:0:0:0:
344,91,8379,1,10,0:0:0:0:
344,91,8600,1,2,0:0:0:0:
451,78,8821,2,0,L|343:90,1,108,2|0,0:1|0:0,0:0:0:0:
323,70,9262,1,8,0:0:0:0:
471,180,9482,5,2,0:0:0:0:
471,180,9924,1,2,0:0:0:0:
357,286,10144,1,10,0:0:0:0:
301,183,10365,1,2,0:0:0:0:
301,183,10475,1,0,0:0:0:0:
301,183,10585,2,0,L|372:189,1,72,2|0,0:1|0:0,0:0:0:0:
180,88,11027,1,10,0:0:0:0:
323,70,11247,1,2,0:0:0:0:
196,97,11468,6,0,P|191:132|191:168,1,72,2|2,0:1|0:0,0:0:0:0:
295,289,11909,1,10,0:0:0:0:
301,183,12129,1,2,0:0:0:0:
301,183,12240,1,0,0:0:0:0:
301,183,12350,2,0,P|307:223|295:289,1,108,2|0,0:1|0:0,0:0:0:0:
271,307,12791,1,10,0:0:0:0:
125,237,13012,1,2,0:0:0:0:
160,341,13232,5,2,0:1:0:0:
294,289,13453,1,2,0:0:0:0:
145,329,13674,1,10,0:0:0:0:
301,384,13894,1,2,0:0:0:0:
301,384,14004,1,0,0:0:0:0:
301,384,14115,2,0,L|295:312,1,72,2|0,0:1|0:0,0:0:0:0:
247,111,14556,2,0,L|238:218,1,107.999996704102,10|0,0:0|0:0,0:0:0:0:
294,289,14887,1,0,0:0:0:0:
294,289,14997,6,0,P|329:293|364:285,1,72,2|2,0:1|0:0,0:0:0:0:
238,218,15438,1,10,0:0:0:0:
330,143,15659,1,2,0:0:0:0:
330,143,15769,1,0,0:0:0:0:
330,143,15879,2,0,L|324:214,1,72,2|0,0:1|0:0,0:0:0:0:
209,102,16321,1,8,0:0:0:0:
223,242,16541,1,2,0:0:0:0:
125,120,16762,6,0,L|196:114,1,72,2|2,0:1|0:0,0:0:0:0:
83,228,17203,1,10,0:0:0:0:
223,242,17423,1,2,0:0:0:0:
74,244,17644,1,2,0:1:0:0:
232,226,17865,1,2,0:0:0:0:
146,357,18085,2,0,L|140:285,1,72,10|2,0:0|0:0,0:0:0:0:
74,244,18416,1,0,0:0:0:0:
74,244,18527,6,0,P|144:245|203:205,2,144,2|8|2,0:1|0:0|0:0,0:0:0:0:
74,244,19850,1,10,0:0:0:0:
210,25,20071,6,0,P|205:115|203:205,1,180,6|2,0:0|0:0,0:0:0:0:
203,205,21394,1,2,0:0:0:0:
291,221,21615,1,2,0:0:0:0:
201,215,21835,1,2,0:0:0:0:
297,130,22056,6,0,L|290:220,1,90,10|2,0:0|0:0,0:0:0:0:
379,122,22497,2,0,L|371:211,1,90,10|2,0:0|0:0,0:0:0:0:
460,113,22938,2,0,L|452:202,1,90,10|2,0:0|0:0,0:0:0:0:
469,231,23269,1,8,0:0:0:0:
469,231,23379,1,10,0:0:0:0:
374,105,23600,1,2,0:0:0:0:
290,220,23821,5,10,0:0:0:0:
452,202,24041,1,2,0:0:0:0:
297,129,24262,2,0,P|309:219|311:309,1,180,10|10,0:0|0:0,0:0:0:0:
236,357,25034,5,8,0:0:0:0:
236,357,25144,1,8,0:0:0:0:
147,341,25365,1,8,0:0:0:0:
311,309,25585,5,6,0:1:0:0:
221,267,25806,1,2,0:0:0:0:
311,217,26027,1,2,0:0:0:0:
236,357,26247,1,2,0:0:0:0:
390,264,26468,5,8,0:0:0:0:
221,267,26688,1,2,0:0:0:0:
221,267,26799,1,10,0:0:0:0:
221,267,26909,1,10,0:0:0:0:
311,309,27129,1,10,0:0:0:0:
147,341,27350,5,10,0:0:0:0:
236,357,27571,1,2,0:0:0:0:
75,261,27791,1,10,0:0:0:0:
196,243,28012,1,0,0:0:0:0:
136,88,28232,5,10,0:0:0:0:
136,88,28343,2,0,L|127:177,1,90,2|10,0:1|0:0,0:0:0:0:
199,287,28674,2,0,L|196:243,1,45,2|0,0:1|0:0,0:0:0:0:
261,155,28894,2,0,L|258:177,3,22.5,2|2|2|2,0:1|0:1|0:1|0:1,0:0:0:0:
276,201,29115,6,0,P|332:208|384:188,1,112.5,6|0,0:0|0:0,0:0:0:0:
512,116,29556,2,0,P|456:122|404:102,1,112.5,10|0,0:0|0:0,0:0:0:0:
261,155,29997,5,2,0:1:0:0:
297,43,30218,1,2,0:0:0:0:
258,177,30438,1,10,0:0:0:0:
213,0,30659,1,2,0:0:0:0:
147,233,30879,5,2,0:1:0:0:
245,258,31100,1,2,0:0:0:0:
326,370,31321,1,10,0:0:0:0:
424,348,31541,1,2,0:0:0:0:
245,258,31762,5,2,0:1:0:0:
326,370,31982,1,2,0:0:0:0:
384,188,32203,1,10,0:0:0:0:
384,188,32644,6,0,L|272:180,1,112.5,2|0,0:1|0:0,0:0:0:0:
132,77,33085,2,0,L|244:69,1,112.5,10|0,0:0|0:0,0:0:0:0:
426,83,33527,5,2,0:1:0:0:
272,179,33747,1,2,0:0:0:0:
341,11,33968,1,10,0:0:0:0:
244,69,34188,1,2,0:0:0:0:
384,187,34409,5,2,0:1:0:0:
257,205,34629,1,2,0:0:0:0:
435,89,34850,1,10,0:0:0:0:
238,59,35070,1,2,0:0:0:0:
45,234,35291,5,2,0:1:0:0:
112,81,35512,2,0,P|116:108|118:136,1,56.25,2|2,0:0|0:0,0:0:0:0:
37,242,35732,6,0,B|71:220|104:234|104:234|126:264|163:265,1,135.000005149842,6|2,0:2|0:1,0:0:0:0:
205,353,36063,1,2,0:1:0:0:
193,336,36174,6,0,P|194:281|228:229,1,112.5,6|0,0:1|0:0,0:0:0:0:
385,141,36615,2,0,P|335:167|280:167,1,112.5,10|0,0:0|0:0,0:0:0:0:
116,45,37056,5,2,0:1:0:0:
154,180,37277,1,2,0:0:0:0:
213,57,37497,1,10,0:0:0:0:
225,230,37718,1,2,0:0:0:0:
321,9,37938,5,2,0:1:0:0:
231,220,38159,1,2,0:0:0:0:
426,65,38379,1,10,0:0:0:0:
204,70,38600,1,2,0:0:0:0:
435,46,38821,5,2,0:1:0:0:
369,232,39041,1,2,0:0:0:0:
321,9,39262,1,10,0:0:0:0:
330,0,39703,5,2,0:1:0:0:
369,232,39924,1,0,0:0:0:0:
426,65,40144,6,0,L|416:165,1,101.250003862381,10|0,0:0|0:0,0:0:0:0:
369,232,40585,5,2,0:1:0:0:
512,92,40806,1,0,0:0:0:0:
300,9,41027,6,0,L|309:109,1,101.250003862381,10|0,0:0|0:0,0:0:0:0:
250,183,41468,5,2,0:1:0:0:
383,240,41688,1,2,0:0:0:0:
193,248,41909,1,10,0:0:0:0:
431,173,42129,1,2,0:0:0:0:
332,339,42350,5,8,0:0:0:0:
280,359,42460,1,8,0:0:0:0:
226,346,42570,1,8,0:0:0:0:
190,304,42680,1,8,0:0:0:0:
183,276,42791,5,2,0:1:0:0:
193,248,42901,1,2,0:1:0:0:
189,219,43011,1,2,0:1:0:0:
176,194,43121,1,2,0:1:0:0:
155,173,43232,6,0,P|153:117|141:62,1,112.5,6|0,0:1|0:0,0:0:0:0:
0,285,43674,2,0,P|55:274|111:275,1,112.5,10|0,0:0|0:0,0:0:0:0:
206,358,44115,5,2,0:1:0:0:
155,173,44335,1,2,0:0:0:0:
214,376,44556,1,10,0:0:0:0:
111,275,44777,1,2,0:0:0:0:
111,275,44887,1,2,0:0:0:0:
111,275,44997,5,2,0:1:0:0:
341,250,45218,1,2,0:0:0:0:
146,168,45438,1,10,0:0:0:0:
206,358,45659,1,2,0:0:0:0:
307,132,45879,5,2,0:1:0:0:
214,376,46100,1,2,0:0:0:0:
141,62,46321,1,10,0:0:0:0:
141,62,46762,6,0,B|158:83|155:106|155:106|138:136|146:168,1,112.5,2|0,0:1|0:0,0:0:0:0:
327,149,47203,2,0,P|271:156|216:146,1,112.5,10|0,0:0|0:0,0:0:0:0:
111,276,47644,5,2,0:1:0:0:
318,355,47865,1,2,0:0:0:0:
163,354,48085,1,10,0:0:0:0:
387,277,48306,1,2,0:0:0:0:
229,171,48527,5,2,0:1:0:0:
326,362,48747,1,2,0:0:0:0:
326,362,48857,1,2,0:0:0:0:
326,362,48968,1,10,0:0:0:0:
371,177,49188,1,2,0:0:0:0:
320,384,49409,5,2,0:1:0:0:
427,186,49629,2,0,P|398:183|371:177,1,56.25
322,78,49850,6,0,P|257:94|213:144,1,135.000005149842,6|0,0:0|0:1,0:0:0:0:
140,206,50181,1,2,0:1:0:0:
140,206,50291,6,0,P|122:152|132:98,1,112.5,6|0,0:1|0:0,0:0:0:0:
219,277,50732,2,0,P|228:331|211:384,1,112.5,10|0,0:0|0:0,0:0:0:0:
140,206,51174,5,2,0:1:0:0:
394,117,51394,1,2,0:0:0:0:
210,51,51615,1,10,0:0:0:0:
303,277,51835,1,2,0:0:0:0:
458,0,52056,5,2,0:1:0:0:
349,202,52277,1,2,0:0:0:0:
349,202,52387,1,2,0:0:0:0:
349,202,52497,1,10,0:0:0:0:
308,36,52718,1,2,0:0:0:0:
420,338,52938,5,2,0:1:0:0:
512,99,53159,1,2,0:0:0:0:
416,352,53379,1,8,0:0:0:0:
412,366,53821,5,2,0:1:0:0:
349,202,54041,1,2,0:0:0:0:
203,272,54262,6,0,L|303:264,1,101.250003862381,10|0,0:0|0:0,0:0:0:0:
349,202,54703,5,2,0:1:0:0:
166,363,54924,1,2,0:0:0:0:
106,171,55144,6,0,L|99:271,1,101.250003862381,10|0,0:0|0:0,0:0:0:0:
32,332,55585,5,2,0:1:0:0:
232,174,55806,1,2,0:0:0:0:
0,202,56027,1,10,0:0:0:0:
252,346,56247,1,2,0:0:0:0:
106,171,56468,5,2,0:1:0:0:
77,136,56578,1,8,0:0:0:0:
68,91,56688,1,2,0:1:0:0:
82,48,56798,1,2,0:0:0:0:
113,15,56909,6,0,L|157:4,1,45,8|0,0:0|0:0,0:0:0:0:
194,79,57129,2,0,L|238:90,1,45,2|2,0:1|0:1,0:0:0:0:
298,36,57350,6,0,L|320:31,32,22.5
