osu file format v14

[General]
AudioFilename: audio.mp3
AudioLeadIn: 0
PreviewTime: 29115
Countdown: 0
SampleSet: Soft
StackLeniency: 0.7
Mode: 0
LetterboxInBreaks: 0
WidescreenStoryboard: 0

[Editor]
Bookmarks: 880,7938,14997,22056,29115,42350,43232,57350,59115
DistanceSpacing: 1.4
BeatDivisor: 4
GridSize: 32
TimelineZoom: 2.5

[Metadata]
Title:Poker Face (TV Size)
TitleUnicode:ポーカーフェイス (TV Size)
Artist:Miss Monochrome (CV: Horie Yui)
ArtistUnicode:ミス・モノクローム (CV: 堀江由衣)
Creator:eiri-
Version:Hard
Source:ミス・モノクローム -The Animation-
Tags:Ayyri Linada Miss Monochrome: The Animation Ending ED Idol Anime
BeatmapID:1720949
BeatmapSetID:821033

[Difficulty]
HPDrainRate:5
CircleSize:3.5
OverallDifficulty:7
ApproachRate:7
SliderMultiplier:1.4
SliderTickRate:1

[Events]
//Background and Video events
0,0,"Miss Monochrome.jpg",0,0
Video,0,"Miss Monochrome.avi"
//Break Periods
//Storyboard Layer 0 (Background)
//Storyboard Layer 1 (Fail)
//Storyboard Layer 2 (Pass)
//Storyboard Layer 3 (Foreground)
//Storyboard Sound Samples

[TimingPoints]
880,441.176470588235,4,2,1,75,1,0
20512,-100,4,2,1,5,0,0
20622,-100,4,2,1,75,0,0
29115,-100,4,2,1,75,0,1
42350,-100,4,2,1,75,0,0
43232,-100,4,2,1,75,0,1
57350,-100,4,2,1,75,0,0

[Colours]
Combo1 : 252,133,201
Combo2 : 187,220,253
Combo3 : 5,112,218
Combo4 : 253,242,179
Combo5 : 252,225,73
Combo6 : 255,219,183
Combo7 : 255,179,102
Combo8 : 255,198,255

[HitObjects]
42,320,879,6,0,P|84:329|124:320,1,70,6|0,0:1|0:0,0:0:0:0:
178,253,1321,1,8,0:0:0:0:
149,159,1541,1,2,0:0:0:0:
217,87,1762,2,0,P|265:84|290:62,1,70,2|0,0:1|0:0,0:0:0:0:
324,47,2093,1,0,0:0:0:0:
324,47,2203,2,0,L|336:149,1,70,8|2,0:0|0:1,0:0:0:0:
397,237,2644,6,0,P|360:235|322:246,1,70,2|0,0:0|0:0,0:0:0:0:
241,288,3085,1,8,0:0:0:0:
181,365,3306,1,2,0:0:0:0:
111,295,3527,2,0,B|106:258|106:258|127:233|127:233|120:187,1,105,2|2,0:0|0:0,0:0:0:0:
116,150,3968,1,10,0:0:0:0:
116,150,4188,1,0,0:0:0:0:
41,28,4409,6,0,P|92:39|123:32,1,70,2|0,0:1|0:0,0:0:0:0:
203,9,4850,1,10,0:0:0:0:
273,77,5071,1,2,0:0:0:0:
368,50,5291,2,0,L|376:136,1,70,2|0,0:1|0:0,0:0:0:0:
381,168,5622,1,2,0:1:0:0:
381,168,5732,2,0,P|328:169|309:177,1,70,10|2,0:0|0:0,0:0:0:0:
238,240,6174,5,10,0:0:0:0:
125,104,6504,1,10,0:0:0:0:
77,294,6835,1,2,0:1:0:0:
242,105,7277,2,0,L|236:62,2,35,2|2|10,0:0|0:0|0:0,0:0:0:0:
312,175,7718,1,0,0:0:0:0:
391,59,7938,5,6,0:1:0:0:
477,106,8159,2,0,L|484:31,2,70,2|10|2,0:0|0:0|0:0,0:0:0:0:
464,203,8821,2,0,P|447:244|423:262,1,70,2|0,0:1|0:0,0:0:0:0:
331,278,9262,1,8,0:0:0:0:
264,349,9482,6,0,L|175:354,1,70,2|2,0:0|0:1,0:0:0:0:
126,281,9924,1,2,0:0:0:0:
40,328,10144,2,0,P|15:280|19:240,1,70,10|2,0:0|0:0,0:0:0:0:
36,169,10585,2,0,L|26:126,2,35,2|0|0,0:1|0:0|0:0,0:0:0:0:
113,230,11027,1,10,0:0:0:0:
162,145,11247,1,2,0:0:0:0:
328,244,11688,6,0,L|413:238,2,70,2|10|2,0:0|0:0|0:0,0:0:0:0:
257,312,12350,2,0,P|293:344|319:350,1,70,2|0,0:1|0:0,0:0:0:0:
410,338,12791,1,10,0:0:0:0:
479,269,13012,2,0,L|484:195,1,70,2|2,0:0|0:1,0:0:0:0:
457,104,13453,1,2,0:0:0:0:
358,100,13674,2,0,P|352:44|363:15,2,70,10|2|2,0:0|0:0|0:1,0:0:0:0:
313,186,14335,6,0,P|319:242|308:271,1,70,0|10,0:0|0:0,0:0:0:0:
257,334,14777,1,0,0:0:0:0:
74,263,15218,6,0,L|56:185,1,70,2|10,0:0|0:0,0:0:0:0:
68,97,15659,1,2,0:0:0:0:
162,122,15879,2,0,P|199:122|245:96,1,70,2|0,0:1|0:0,0:0:0:0:
287,29,16321,1,8,0:0:0:0:
365,87,16541,6,0,L|354:186,1,70,2|2,0:0|0:1,0:0:0:0:
423,229,16982,1,2,0:0:0:0:
364,307,17203,2,0,L|265:296,1,70,10|2,0:0|0:0,0:0:0:0:
197,282,17644,2,0,L|209:366,2,70,2|2|10,0:1|0:0|0:0,0:0:0:0:
134,206,18306,1,2,0:0:0:0:
183,121,18527,6,0,L|190:31,1,70,2|0,0:1|0:0,0:0:0:0:
281,19,18968,2,0,L|288:109,1,70,8|0,0:0|0:0,0:0:0:0:
372,136,19409,2,0,L|379:46,1,70,2|0,0:0|0:0,0:0:0:0:
453,4,19850,1,10,0:0:0:0:
511,83,20071,2,0,P|521:133|420:253,1,210,6|0,0:0|0:0,0:0:0:0:
333,237,20953,1,2,0:0:0:0:
187,368,21394,5,2,0:0:0:0:
206,271,21615,1,2,0:0:0:0:
163,182,21835,1,2,0:0:0:0:
279,133,22056,6,0,L|289:48,1,70,10|2,0:0|0:0,0:0:0:0:
210,2,22497,1,10,0:0:0:0:
161,87,22718,2,0,L|92:79,1,70,2|10,0:0|0:0,0:0:0:0:
67,174,23159,2,0,P|31:178|-9:166,2,70,2|10|2,0:0|0:0|0:0,0:0:0:0:
92,79,23821,5,10,0:0:0:0:
152,155,24041,1,2,0:0:0:0:
127,250,24262,2,0,L|150:349,1,70,10|0,0:0|0:0,0:0:0:0:
238,341,24703,2,0,P|301:320|324:325,1,70,10|0,0:0|0:0,0:0:0:0:
350,333,25034,1,8,0:0:0:0:
350,333,25144,2,0,L|368:255,1,70,8|8,0:0|0:0,0:0:0:0:
316,148,25585,6,0,L|409:142,1,70,6|2,0:1|0:0,0:0:0:0:
478,109,26027,1,10,0:0:0:0:
427,25,26247,2,0,P|390:11|348:11,1,70,2|8,0:0|0:0,0:0:0:0:
264,31,26688,1,2,0:0:0:0:
212,114,26909,2,0,L|182:179,1,70,10|2,0:0|0:0,0:0:0:0:
205,264,27350,6,0,P|250:246|274:248,1,70,10|2,0:0|0:0,0:0:0:0:
261,345,27791,2,0,P|216:363|192:361,1,70,10|0,0:0|0:0,0:0:0:0:
98,344,28232,1,10,0:0:0:0:
98,344,28343,1,2,0:1:0:0:
80,246,28563,1,10,0:0:0:0:
80,246,28674,2,0,L|68:204,2,35,2|2|2,0:1|0:1|0:1,0:0:0:0:
205,264,29115,6,0,L|230:175,1,70,6|0,0:0|0:0,0:0:0:0:
319,173,29556,2,0,L|344:84,1,70,10|0,0:0|0:0,0:0:0:0:
276,28,29997,5,2,0:1:0:0:
186,67,30218,1,2,0:0:0:0:
95,29,30438,2,0,L|85:121,1,70,10|2,0:0|0:0,0:0:0:0:
82,196,30879,2,0,P|48:218|10:223,1,70,2|2,0:1|0:0,0:0:0:0:
90,294,31321,2,0,P|123:301|152:321,1,70,10|2,0:0|0:0,0:0:0:0:
229,382,31762,2,0,L|314:364,1,70,2|2,0:1|0:0,0:0:0:0:
357,289,32203,1,10,0:0:0:0:
381,94,32644,6,0,L|296:87,1,70,2|0,0:1|0:0,0:0:0:0:
256,6,33085,2,0,L|213:80,1,70,10|0,0:0|0:0,0:0:0:0:
164,147,33527,6,0,P|121:126|91:127,1,70,2|2,0:1|0:0,0:0:0:0:
101,223,33968,2,0,P|144:244|174:243,1,70,10|2,0:0|0:0,0:0:0:0:
260,219,34409,2,0,L|279:311,1,70,2|2,0:1|0:0,0:0:0:0:
362,330,34850,1,10,0:0:0:0:
444,276,35071,2,0,P|465:242|464:183,1,70,2|2,0:0|0:1,0:0:0:0:
457,115,35512,1,2,0:0:0:0:
400,35,35732,2,0,P|361:22|316:27,1,70,6|2,0:2|0:1,0:0:0:0:
287,42,36063,1,2,0:1:0:0:
287,42,36174,6,0,L|308:131,1,70,6|0,0:1|0:0,0:0:0:0:
269,202,36615,2,0,P|226:180|193:180,1,70,10|0,0:0|0:0,0:0:0:0:
106,181,37056,5,2,0:1:0:0:
37,251,37277,1,2,0:0:0:0:
129,281,37497,2,0,L|112:352,1,70,10|2,0:0|0:0,0:0:0:0:
204,382,37938,2,0,P|230:351|236:309,1,70,2|2,0:1|0:0,0:0:0:0:
297,246,38379,2,0,L|389:237,1,70,10|2,0:0|0:0,0:0:0:0:
426,160,38821,2,0,L|434:79,2,70,2|2|10,0:1|0:0|0:0,0:0:0:0:
478,348,39703,5,2,0:1:0:0:
383,320,39924,1,0,0:0:0:0:
288,292,40144,2,0,P|239:298|212:315,1,70,10|0,0:0|0:0,0:0:0:0:
126,333,40585,5,2,0:1:0:0:
154,238,40806,1,0,0:0:0:0:
182,143,41026,2,0,P|176:94|159:67,1,70,10|0,0:0|0:0,0:0:0:0:
86,18,41468,6,0,L|-14:29,2,70,2|2|10,0:1|0:0|0:0,0:0:0:0:
166,76,42129,1,2,0:0:0:0:
254,33,42350,2,0,L|266:-12,2,35,8|8|8,0:0|0:0|0:0,0:0:0:0:
291,123,42791,2,0,L|279:168,2,35,2|2|2,0:1|0:1|0:1,0:0:0:0:
369,63,43232,6,0,L|446:55,1,70,6|0,0:1|0:0,0:0:0:0:
438,154,43674,2,0,L|515:146,1,70,10|0,0:0|0:0,0:0:0:0:
479,240,44115,6,0,P|435:266|419:298,1,70,2|2,0:1|0:0,0:0:0:0:
379,367,44556,2,0,L|291:358,1,70,10|2,0:0|0:0,0:0:0:0:
270,329,44887,1,2,0:0:0:0:
270,329,44997,2,0,P|275:288|262:235,1,70,2|2,0:1|0:0,0:0:0:0:
178,292,45438,2,0,P|137:297|84:284,1,70,10|2,0:0|0:0,0:0:0:0:
58,208,45879,1,2,0:1:0:0:
108,123,46100,1,2,0:0:0:0:
58,39,46321,1,10,0:0:0:0:
251,11,46762,6,0,L|235:97,1,70,2|0,0:1|0:0,0:0:0:0:
277,169,47203,2,0,P|316:154|357:157,1,70,10|0,0:0|0:0,0:0:0:0:
432,195,47644,5,2,0:1:0:0:
485,277,47865,1,2,0:0:0:0:
453,369,48085,2,0,L|354:363,1,70,10|2,0:0|0:0,0:0:0:0:
290,329,48527,2,0,P|265:294|260:252,1,70,2|2,0:1|0:0,0:0:0:0:
277,169,48968,1,10,0:0:0:0:
353,108,49188,2,0,L|361:15,1,70,2|2,0:0|0:1,0:0:0:0:
265,7,49629,1,0,0:0:0:0:
177,51,49850,2,0,P|142:55|110:42,1,70,4|0,0:0|0:1,0:0:0:0:
110,42,50181,1,2,0:1:0:0:
110,42,50291,6,0,L|91:136,1,70,6|0,0:1|0:0,0:0:0:0:
156,187,50732,2,0,L|137:281,1,70,10|0,0:0|0:0,0:0:0:0:
198,335,51174,6,0,P|234:310|263:308,1,70,2|2,0:1|0:0,0:0:0:0:
353,334,51615,1,10,0:0:0:0:
441,292,51835,1,2,0:0:0:0:
415,197,52056,2,0,L|429:108,1,70,2|2,0:1|0:0,0:0:0:0:
350,64,52497,2,0,L|336:153,1,70,10|2,0:0|0:0,0:0:0:0:
262,194,52938,2,0,P|216:188|174:198,2,70,2|2|8,0:1|0:0|0:0,0:0:0:0:
374,354,53821,5,2,0:1:0:0:
425,271,54041,1,2,0:0:0:0:
476,188,54262,2,0,P|486:148|479:111,1,70,10|0,0:0|0:0,0:0:0:0:
427,38,54703,5,2,0:1:0:0:
344,89,54923,1,2,0:0:0:0:
261,140,55144,2,0,P|221:150|184:143,1,70,10|0,0:0|0:0,0:0:0:0:
99,115,55585,6,0,L|113:189,2,70,2|2|10,0:1|0:0|0:0,0:0:0:0:
23,51,56247,1,2,0:0:0:0:
0,146,56468,2,0,L|-5:188,2,35,2|10|2,0:1|0:0|0:1,0:0:0:0:
65,219,56909,2,0,L|71:261,2,35,8|0|2,0:0|0:0|0:1,0:0:0:0:
131,146,57350,5,2,0:0:0:0:
256,192,57571,12,0,59115,0:0:0:0:
