osu file format v14

[General]
AudioFilename: audio.mp3
AudioLeadIn: 0
PreviewTime: 77563
Countdown: 0
SampleSet: Soft
StackLeniency: 0.4
Mode: 0
LetterboxInBreaks: 0
WidescreenStoryboard: 1

[Editor]
Bookmarks: 1871,6794,21563,36332,46178,53563,58486,78178,80640,92947,97871,102794,107717,112640,115101,116332,117563,118794
DistanceSpacing: 0.8
BeatDivisor: 4
GridSize: 32
TimelineZoom: 1.9

[Metadata]
Title:Ring ! Run ! Nyan!!
TitleUnicode:Ring!Run!Nyan!!
Artist:MisomyL
ArtistUnicode:MisomyL
Creator:TNTlealu
Version:gazimal's Extreme~!!
Source:SOUND VOLTEX III GRAVITY WARS コナステ
Tags:bongo light_u light Crysisters Pado gazimal Matsuyuki Ame RK657 dahkjdas Sweets ImWater Dailycare -Hitomi L1gHT_u SDVX VIVID WAVE Konasute Version! Original Song Contest INFINITE BLASTER rhythm video game electronic instrumental Arcades
BeatmapID:3584740
BeatmapSetID:1752046

[Difficulty]
HPDrainRate:5.4
CircleSize:4
OverallDifficulty:9
ApproachRate:9.4
SliderMultiplier:1.9
SliderTickRate:1

[Events]
//Background and Video events
0,0,"catgirl.jpg",0,0
//Break Periods
//Storyboard Layer 0 (Background)
//Storyboard Layer 1 (Fail)
//Storyboard Layer 2 (Pass)
//Storyboard Layer 3 (Foreground)
//Storyboard Layer 4 (Overlay)
//Storyboard Sound Samples

[TimingPoints]
1256,307.692307692308,4,2,1,40,1,0
1871,307.692307692308,4,2,1,40,1,0
3255,-111.111111111111,4,2,1,40,0,0
3409,-125,4,2,1,40,0,0
3563,-142.857142857143,4,2,1,40,0,0
6486,-200,4,2,1,40,0,0
6794,-83.3333333333333,4,2,1,60,0,0
16024,-40,4,2,2,40,0,0
16332,-200,4,2,1,60,0,0
16794,-166.666666666667,4,2,1,60,0,0
16947,-142.857142857143,4,2,1,60,0,0
17101,-125,4,2,1,60,0,0
17255,-111.111111111111,4,2,1,60,0,0
17409,-100,4,2,1,60,0,0
17563,-90.9090909090909,4,2,1,60,0,0
17717,-83.3333333333333,4,2,1,60,0,0
20640,-66.6666666666667,4,2,1,60,0,0
20947,-1000,4,2,1,50,0,0
21255,-50,4,2,1,50,0,0
21563,-83.3333333333333,4,2,1,60,0,0
30794,-40,4,2,1,50,0,0
31101,-200,4,2,2,50,0,0
31409,-200,4,2,1,60,0,0
31563,-166.666666666667,4,2,1,60,0,0
31717,-142.857142857143,4,2,1,60,0,0
31871,-125,4,2,1,60,0,0
32640,-100,4,2,1,60,0,0
33255,-83.3333333333333,4,2,1,60,0,0
35101,-71.4285714285714,4,2,1,60,0,0
36332,-83.3333333333333,4,2,1,60,0,0
36640,-83.3333333333333,4,2,2,60,0,0
43101,-66.6666666666667,4,2,2,60,0,0
43717,-83.3333333333333,4,2,2,60,0,0
44332,-111.111111111111,4,2,2,60,0,0
44947,-333.333333333333,4,2,2,40,0,0
45563,-100,4,2,2,50,0,0
46178,-100,4,2,1,60,0,0
46640,-83.3333333333333,4,2,1,60,0,0
46947,-100,4,2,1,60,0,0
47255,-83.3333333333333,4,2,1,60,0,0
47563,-100,4,2,1,60,0,0
50332,-83.3333333333333,4,2,1,60,0,0
50640,-100,4,2,1,60,0,0
50794,-71.4285714285714,4,2,1,60,0,0
51101,-333.333333333333,4,2,1,20,0,0
52024,-333.333333333333,4,2,2,20,0,0
53255,-166.666666666667,4,2,1,20,0,0
53563,-83.3333333333333,4,2,1,60,0,0
58486,-1000,4,2,19,50,0,0
59101,-1000,4,2,14,50,0,0
59717,-1000,4,2,18,50,0,0
60332,-1000,4,2,19,50,0,0
60947,-1000,4,2,16,50,0,0
61409,-1000,4,2,17,50,0,0
62178,-100,4,2,22,50,0,0
62486,-100,4,2,23,50,0,0
62794,-100,4,2,14,50,0,0
63101,-100,4,2,13,50,0,0
63409,-100,4,2,14,50,0,0
64024,-100,4,2,9,50,0,0
64332,-100,4,2,15,50,0,0
64640,-1000,4,2,14,50,0,0
65255,-1000,4,2,13,50,0,0
65871,-1000,4,2,12,50,0,0
66178,-500,4,2,1,50,0,0
66486,-500,4,2,10,30,0,0
66794,-500,4,2,11,30,0,0
67101,-500,4,2,12,30,0,0
67563,-250,4,2,13,30,0,0
67640,-250,4,2,12,30,0,0
67717,-250,4,2,11,30,0,0
68178,-250,4,2,10,30,0,0
68255,-250,4,2,11,30,0,0
68332,-200,4,2,12,30,0,0
68947,-333.333333333333,4,2,15,30,0,0
69563,-200,4,2,18,30,0,0
70178,-200,4,2,19,30,0,0
70794,-200,4,2,16,30,0,0
71255,-200,4,2,17,30,0,0
72024,-200,4,2,16,30,0,0
72332,-200,4,2,15,30,0,0
72640,-200,4,2,14,30,0,0
72947,-200,4,2,13,30,0,0
73255,-200,4,2,14,30,0,0
73871,-200,4,2,12,30,0,0
74178,-200,4,2,14,30,0,0
74486,-200,4,2,17,30,0,0
74794,-200,4,2,14,30,0,0
75102,-200,4,2,17,30,0,0
75409,-200,4,2,18,30,0,0
75717,-200,4,2,19,30,0,0
76332,-500,4,2,17,30,0,0
76640,-500,4,2,18,30,0,0
76947,-500,4,2,20,30,0,0
77409,-500,4,2,21,30,0,0
77486,-500,4,2,20,30,0,0
77563,-166.666666666667,4,2,19,30,0,0
77640,-166.666666666667,4,2,20,30,0,0
77717,-166.666666666667,4,2,19,30,0,0
77794,-166.666666666667,4,2,20,30,0,0
77871,-100,4,2,1,30,0,0
78178,-100,4,2,1,60,0,0
80640,-100,4,2,1,80,0,0
81871,-71.4285714285714,4,2,1,80,0,0
90178,-125,4,2,1,80,0,0
92947,-90.9090909090909,4,2,2,50,0,0
97255,-90.9090909090909,4,2,1,50,0,0
97871,-100,4,2,1,80,0,0
101563,-333.333333333334,4,2,1,40,0,0
102101,-333.333333333334,4,2,1,5,0,0
102178,-333.333333333334,4,2,1,40,0,0
102717,-333.333333333334,4,2,1,5,0,0
102794,-166.666666666667,4,2,1,40,0,0
102947,-166.666666666667,4,2,2,40,0,0
106794,-125,4,2,2,25,0,0
106947,-125,4,2,2,30,0,0
107101,-125,4,2,2,35,0,0
107255,-125,4,2,2,40,0,0
107409,-100,4,2,2,45,0,0
107563,-100,4,2,2,50,0,0
107717,-100,4,2,1,70,0,0
107871,-83.3333333333333,4,2,1,70,0,0
112640,-166.666666666667,4,2,2,20,0,0
112947,-166.666666666667,4,2,2,25,0,0
113255,-166.666666666667,4,2,2,30,0,0
113563,-166.666666666667,4,2,2,35,0,0
113871,-166.666666666667,4,2,2,40,0,0
114178,-166.666666666667,4,2,2,45,0,0
114486,-166.666666666667,4,2,2,50,0,0
114794,-166.666666666667,4,2,2,55,0,0
115101,-166.666666666667,4,2,2,60,0,0
115563,-166.666666666667,4,2,1,60,0,0
115717,-66.6666666666667,4,2,1,60,0,0
116178,-166.666666666667,4,2,1,60,0,0
116332,-133.333333333333,4,2,1,60,0,0
118794,-133.333333333333,4,2,1,60,0,0

[Colours]
Combo1 : 222,104,247
Combo2 : 255,142,142
Combo3 : 79,170,238
Combo4 : 244,89,113

[HitObjects]
153,234,1256,5,2,0:0:0:0:
145,227,1332,1,2,0:0:0:0:
141,211,1409,1,2,0:0:0:0:
151,189,1486,1,2,0:0:0:0:
181,174,1563,1,2,0:0:0:0:
219,175,1640,1,2,0:0:0:0:
250,208,1717,1,2,0:0:0:0:
251,253,1794,1,2,0:0:0:0:
218,290,1871,6,0,L|166:278,1,47.5,6|0,0:0|0:0,0:0:0:0:
212,297,2024,2,0,L|160:285,1,47.5,2|0,0:0|0:0,0:0:0:0:
206,304,2178,2,0,L|154:292,1,47.5,2|0,0:0|0:0,0:0:0:0:
310,322,2332,2,0,L|362:310,1,47.5,2|0,0:0|0:0,0:0:0:0:
218,290,2486,6,0,L|166:278,1,47.5,2|0,0:0|0:0,0:0:0:0:
212,297,2639,2,0,L|160:285,1,47.5,2|0,0:0|0:0,0:0:0:0:
206,304,2793,2,0,L|154:292,1,47.5,2|0,0:0|0:0,0:0:0:0:
310,322,2947,2,0,L|362:310,1,47.5,2|0,0:0|0:0,0:0:0:0:
218,290,3101,6,0,L|166:278,1,47.5,2|0,3:0|0:0,0:0:0:0:
299,185,3255,2,0,L|351:173,1,42.7499986953736,2|0,0:0|0:0,0:0:0:0:
221,115,3409,2,0,L|169:103,1,38,2|0,0:0|0:0,0:0:0:0:
287,38,3563,2,0,L|339:26,1,33.2499989852906,2|0,0:0|0:0,0:0:0:0:
477,121,3717,5,2,0:0:0:0:
459,128,3794,1,2,0:0:0:0:
434,126,3871,1,2,0:0:0:0:
407,109,3947,1,2,0:0:0:0:
393,69,4024,1,2,0:0:0:0:
414,27,4101,1,2,0:0:0:0:
462,18,4178,1,2,0:0:0:0:
502,41,4255,1,2,0:0:0:0:
507,90,4332,5,6,0:0:0:0:
485,72,4409,1,2,0:0:0:0:
446,66,4486,1,2,0:0:0:0:
410,84,4563,1,2,0:0:0:0:
386,119,4640,1,2,0:0:0:0:
336,142,4717,1,2,0:0:0:0:
275,143,4794,1,2,0:0:0:0:
224,103,4871,1,2,0:0:0:0:
215,38,4947,5,2,3:0:0:0:
256,56,5024,1,2,0:0:0:0:
280,98,5101,1,2,0:0:0:0:
275,143,5178,1,2,0:0:0:0:
246,180,5255,1,2,0:0:0:0:
197,205,5332,1,2,0:0:0:0:
160,256,5409,1,2,0:0:0:0:
165,320,5486,1,2,0:0:0:0:
212,364,5563,5,2,3:0:0:0:
252,317,5639,1,2,0:0:0:0:
259,256,5716,1,2,0:0:0:0:
231,201,5793,1,2,0:0:0:0:
177,172,5870,1,2,0:0:0:0:
116,177,5947,1,2,0:0:0:0:
68,216,6024,1,2,0:0:0:0:
50,275,6101,1,2,0:0:0:0:
68,333,6178,2,0,L|112:323,1,33.2499989852906,8|0,2:1|0:0,0:0:0:0:
111,338,6486,6,0,L|45:354,1,47.5,2|0,0:0|0:0,0:0:0:0:
231,201,6794,6,0,L|289:213,1,56.9999982604981,4|0,1:1|0:0,0:0:0:0:
363,157,6947,2,0,L|381:214,1,56.9999982604981,2|0,0:0|0:0,0:0:0:0:
467,249,7101,2,0,L|426:293,1,56.9999982604981,10|0,0:0|0:0,0:0:0:0:
441,380,7255,2,0,L|382:367,1,56.9999982604981,2|0,0:0|0:0,0:0:0:0:
235,199,7409,6,0,L|293:211,1,56.9999982604981,2|0,1:2|0:0,0:0:0:0:
367,155,7562,2,0,L|385:212,1,56.9999982604981,2|0,0:0|0:0,0:0:0:0:
471,247,7716,2,0,L|430:291,1,56.9999982604981,10|0,0:0|0:0,0:0:0:0:
445,378,7870,2,0,L|386:365,1,56.9999982604981,2|0,0:0|0:0,0:0:0:0:
239,197,8025,6,0,L|297:209,1,56.9999982604981,2|0,1:2|0:0,0:0:0:0:
371,153,8178,2,0,L|389:210,1,56.9999982604981,2|0,0:0|0:0,0:0:0:0:
475,245,8332,2,0,L|434:289,1,56.9999982604981,10|0,0:0|0:0,0:0:0:0:
449,376,8486,2,0,L|390:363,1,56.9999982604981,2|0,0:0|0:0,0:0:0:0:
243,195,8640,6,0,L|301:207,1,56.9999982604981,2|0,1:2|0:0,0:0:0:0:
375,151,8793,2,0,L|393:208,1,56.9999982604981,2|0,0:0|0:0,0:0:0:0:
479,243,8947,2,0,L|438:287,1,56.9999982604981,10|0,0:0|0:0,0:0:0:0:
453,374,9101,2,0,L|394:361,1,56.9999982604981,2|0,0:0|0:0,0:0:0:0:
272,307,9255,6,0,L|213:320,1,56.9999982604981,2|0,1:2|0:0,0:0:0:0:
91,374,9409,1,2,0:0:0:0:
91,374,9486,1,2,0:0:0:0:
91,374,9563,2,0,L|32:361,1,56.9999982604981,10|0,0:0|0:0,0:0:0:0:
35,252,9717,2,0,L|94:265,1,56.9999982604981,2|0,0:0|0:0,0:0:0:0:
216,319,9871,1,2,1:2:0:0:
216,319,9947,1,2,0:0:0:0:
216,319,10024,2,0,L|275:306,1,56.9999982604981,2|0,0:0|0:0,0:0:0:0:
397,252,10179,6,0,L|456:265,1,56.9999982604981,10|0,0:0|0:0,0:0:0:0:
451,154,10332,1,2,0:0:0:0:
451,154,10409,1,2,0:0:0:0:
451,154,10486,2,0,L|396:142,1,56.9999982604981,2|0,1:2|0:0,0:0:0:0:
270,87,10640,2,0,L|211:100,1,56.9999982604981,2|0,0:0|0:0,0:0:0:0:
89,154,10794,1,10,0:0:0:0:
89,154,10871,1,2,0:0:0:0:
89,154,10947,2,0,L|30:141,1,56.9999982604981,2|0,0:0|0:0,0:0:0:0:
30,12,11101,5,2,1:2:0:0:
91,13,11178,1,2,0:0:0:0:
136,58,11255,1,2,0:0:0:0:
134,114,11332,1,2,0:0:0:0:
89,154,11409,1,10,0:0:0:0:
56,194,11486,1,2,0:0:0:0:
38,237,11563,1,2,0:0:0:0:
46,277,11640,1,2,0:0:0:0:
67,300,11717,6,0,P|88:284|122:281,1,56.9999982604981,6|0,1:2|0:0,0:0:0:0:
146,365,11871,2,0,P|125:381|91:384,1,56.9999982604981
157,204,12024,6,0,P|181:214|200:242,1,56.9999982604981,8|0,0:0|0:0,0:0:0:0:
265,363,12178,1,2,0:0:0:0:
265,363,12255,1,2,0:0:0:0:
265,363,12332,2,0,P|281:340|307:328,1,56.9999982604981,2|0,1:2|0:0,0:0:0:0:
492,267,12486,2,0,P|470:251|442:248,1,56.9999982604981
414,333,12640,2,0,P|436:349|464:352,1,56.9999982604981,8|0,0:0|0:0,0:0:0:0:
414,169,12794,5,2,0:0:0:0:
414,169,12871,1,2,0:0:0:0:
414,169,12947,2,0,P|390:179|371:207,1,56.9999982604981,2|0,1:2|0:0,0:0:0:0:
306,328,13101,2,0,P|290:305|264:293,1,56.9999982604981
73,229,13255,2,0,P|94:213|128:210,1,56.9999982604981,8|0,0:0|0:0,0:0:0:0:
152,294,13409,1,2,0:0:0:0:
152,294,13486,1,2,0:0:0:0:
152,294,13563,2,0,P|131:310|97:313,1,56.9999982604981,2|0,1:2|0:0,0:0:0:0:
156,134,13717,2,0,P|180:144|199:172,1,56.9999982604981
264,293,13871,2,0,P|280:270|306:258,1,56.9999982604981,8|0,0:0|0:0,0:0:0:0:
465,187,14024,5,2,0:0:0:0:
465,187,14101,1,2,0:0:0:0:
465,187,14178,2,0,P|436:184|413:168,1,56.9999982604981,2|0,1:2|0:0,0:0:0:0:
423,36,14332,1,2,0:0:0:0:
423,36,14409,1,2,0:0:0:0:
423,36,14486,2,0,L|493:22,1,56.9999982604981,10|0,0:0|0:0,0:0:0:0:
347,104,14640,2,0,L|291:92,1,56.9999982604981,2|0,0:0|0:0,0:0:0:0:
159,35,14794,1,2,1:2:0:0:
159,35,14871,1,2,0:0:0:0:
159,35,14947,2,0,L|215:24,1,56.9999982604981,2|0,0:0|0:0,0:0:0:0:
82,104,15101,2,0,L|26:93,1,56.9999982604981,10|0,0:0|0:0,0:0:0:0:
114,256,15255,5,2,0:0:0:0:
114,256,15332,1,2,0:0:0:0:
114,256,15409,1,2,1:2:0:0:
134,259,15486,1,2,0:0:0:0:
172,249,15563,1,2,0:0:0:0:
207,219,15640,1,2,0:0:0:0:
220,167,15717,1,8,0:0:0:0:
201,113,15794,1,2,0:0:0:0:
145,91,15871,1,2,0:0:0:0:
82,104,15947,1,2,0:0:0:0:
42,157,16024,6,0,L|70:292,1,118.75,10|0,1:1|0:0,0:0:0:0:
406,54,16332,6,0,L|417:0,1,47.5,10|0,1:0|0:0,0:0:0:0:
467,188,16640,6,0,L|443:183,1,23.75,6|0,1:2|0:0,0:0:0:0:
369,133,16794,2,0,L|346:155,1,28.4999991302491,2|0,0:0|0:0,0:0:0:0:
254,177,16947,2,0,L|263:212,1,33.2499989852906,10|0,0:0|0:0,0:0:0:0:
225,305,17101,2,0,L|269:316,1,38,2|0,0:0|0:0,0:0:0:0:
495,182,17255,6,0,L|440:170,1,42.7499986953736,2|0,1:2|0:0,0:0:0:0:
370,110,17409,2,0,L|332:151,1,47.5,2|0,0:0|0:0,0:0:0:0:
227,166,17563,2,0,L|244:219,1,52.2500015945435,10|0,0:0|0:0,0:0:0:0:
218,331,17717,2,0,L|278:344,1,56.9999982604981
456,384,17871,6,0,L|441:315,1,56.9999982604981,2|0,1:2|0:0,0:0:0:0:
343,234,18024,1,2,0:0:0:0:
343,234,18101,1,2,0:0:0:0:
343,234,18178,2,0,L|328:302,1,56.9999982604981,10|0,0:0|0:0,0:0:0:0:
145,384,18332,2,0,L|130:315,1,56.9999982604981,2|0,0:0|0:0,0:0:0:0:
32,234,18485,1,2,1:2:0:0:
32,234,18562,1,2,0:0:0:0:
32,234,18639,2,0,L|17:302,1,56.9999982604981,2|0,0:0|0:0,0:0:0:0:
151,175,18794,5,10,0:0:0:0:
146,158,18870,1,2,0:0:0:0:
138,119,18947,1,2,0:0:0:0:
134,102,19024,1,2,0:0:0:0:
126,63,19101,6,0,L|63:76,1,56.9999982604981,2|0,1:2|0:0,0:0:0:0:
258,0,19255,2,0,L|321:13,1,56.9999982604981,2|0,0:0|0:0,0:0:0:0:
264,12,19409,2,0,L|327:25,1,56.9999982604981,10|0,0:0|0:0,0:0:0:0:
132,51,19563,2,0,L|69:64,1,56.9999982604981,2|0,0:0|0:0,0:0:0:0:
270,24,19717,2,0,L|333:37,1,56.9999982604981,2|0,1:2|0:0,0:0:0:0:
276,36,19871,2,0,L|339:49,1,56.9999982604981,2|0,0:0|0:0,0:0:0:0:
282,48,20024,2,0,L|345:61,1,56.9999982604981,10|0,0:0|0:0,0:0:0:0:
138,39,20178,2,0,L|75:52,1,56.9999982604981,2|0,0:0|0:0,0:0:0:0:
288,60,20332,6,0,L|351:73,1,56.9999982604981,2|0,1:2|0:0,0:0:0:0:
465,198,20486,1,2,0:0:0:0:
465,198,20563,1,2,0:0:0:0:
465,198,20640,2,0,B|470:197|509:171|484:95|378:104|357:196,1,213.750008153916,8|0,0:0|0:0,0:0:0:0:
357,197,20947,6,0,L|360:212,1,14.25,8|0,3:0|0:0,0:0:0:0:
351,329,21255,2,0,B|292:262|358:201|358:201|357:197|357:197|441:158|406:78,1,285,4|0,3:0|0:0,0:0:0:0:
343,47,21563,6,0,L|288:60,1,56.9999982604981,4|0,1:1|0:0,0:0:0:0:
202,24,21717,2,0,L|184:78,1,56.9999982604981,2|0,0:0|0:0,0:0:0:0:
110,134,21871,2,0,L|148:176,1,56.9999982604981,10|0,0:0|0:0,0:0:0:0:
159,268,22024,2,0,L|214:255,1,56.9999982604981,2|0,0:0|0:0,0:0:0:0:
338,45,22178,6,0,L|283:58,1,56.9999982604981,2|0,1:2|0:0,0:0:0:0:
197,22,22332,2,0,L|179:76,1,56.9999982604981,2|0,0:0|0:0,0:0:0:0:
105,132,22486,2,0,L|143:174,1,56.9999982604981,10|0,0:0|0:0,0:0:0:0:
154,266,22639,2,0,L|209:253,1,56.9999982604981,2|0,0:0|0:0,0:0:0:0:
333,43,22794,6,0,L|278:56,1,56.9999982604981,2|0,1:2|0:0,0:0:0:0:
192,20,22948,2,0,L|174:74,1,56.9999982604981,2|0,0:0|0:0,0:0:0:0:
100,130,23102,2,0,L|138:172,1,56.9999982604981,10|0,0:0|0:0,0:0:0:0:
149,264,23255,2,0,L|204:251,1,56.9999982604981,2|0,0:0|0:0,0:0:0:0:
328,41,23410,6,0,L|273:54,1,56.9999982604981,2|0,1:2|0:0,0:0:0:0:
187,18,23564,2,0,L|169:72,1,56.9999982604981,2|0,0:0|0:0,0:0:0:0:
95,128,23718,2,0,L|133:170,1,56.9999982604981,10|0,0:0|0:0,0:0:0:0:
144,262,23871,2,0,L|199:249,1,56.9999982604981,2|0,0:0|0:0,0:0:0:0:
328,140,24024,6,0,L|311:194,1,56.9999982604981,6|0,1:2|0:0,0:0:0:0:
341,360,24178,1,2,0:0:0:0:
341,360,24255,1,2,0:0:0:0:
341,360,24331,2,0,L|302:318,1,56.9999982604981,2|0,0:0|0:0,0:0:0:0:
146,228,24486,6,0,L|202:230,1,56.9999982604981,6|0,1:2|0:0,0:0:0:0:
355,158,24640,1,2,0:2:0:0:
355,158,24717,1,2,0:0:0:0:
355,158,24794,2,0,L|325:206,1,56.9999982604981,2|0,0:0|0:0,0:0:0:0:
311,374,24946,6,0,L|284:323,1,56.9999982604981,6|0,1:2|0:0,0:0:0:0:
156,196,25101,1,2,0:0:0:0:
156,196,25178,1,2,0:0:0:0:
156,196,25255,2,0,L|210:213,1,56.9999982604981,2|0,0:2|0:0,0:0:0:0:
376,183,25409,6,0,L|335:221,1,56.9999982604981,6|0,1:2|0:0,0:0:0:0:
278,380,25563,1,2,0:0:0:0:
278,380,25640,1,2,0:0:0:0:
278,380,25717,2,0,L|265:324,1,56.9999982604981,2|0,0:0|0:0,0:0:0:0:
175,122,25871,5,2,1:2:0:0:
232,88,25947,1,2,0:0:0:0:
295,95,26024,1,2,0:0:0:0:
349,127,26101,1,2,0:0:0:0:
376,183,26178,1,10,0:0:0:0:
418,207,26255,1,2,0:0:0:0:
462,202,26332,1,2,0:0:0:0:
488,183,26409,1,2,0:0:0:0:
499,158,26486,6,0,L|483:86,1,56.9999982604981,6|0,1:2|0:0,0:0:0:0:
369,35,26640,2,0,P|381:61|421:86,1,56.9999982604981
512,3,26794,2,0,L|443:17,1,56.9999982604981,8|0,0:0|0:0,0:0:0:0:
295,95,26947,1,2,0:0:0:0:
295,95,27024,1,2,0:0:0:0:
295,95,27101,2,0,L|226:80,1,56.9999982604981,2|0,1:2|0:0,0:0:0:0:
165,185,27255,2,0,P|194:182|220:149,1,56.9999982604981
148,47,27409,2,0,L|162:120,1,56.9999982604981,8|0,0:0|0:0,0:0:0:0:
4,56,27563,5,2,0:0:0:0:
4,56,27640,1,2,0:0:0:0:
4,56,27717,2,0,L|18:-18,1,56.9999982604981,2|0,1:2|0:0,0:0:0:0:
81,156,27871,2,0,L|95:230,1,56.9999982604981
0,306,28024,2,0,P|10:277|51:260,1,56.9999982604981,8|0,0:0|0:0,0:0:0:0:
132,339,28178,1,2,0:0:0:0:
132,339,28255,1,2,0:0:0:0:
132,339,28332,2,0,L|70:326,1,56.9999982604981,2|0,1:2|0:0,0:0:0:0:
216,261,28486,2,0,L|278:248,1,56.9999982604981
360,345,28640,2,0,P|325:342|306:311,1,56.9999982604981,8|0,0:0|0:0,0:0:0:0:
379,194,28794,5,2,0:0:0:0:
379,194,28871,1,2,0:0:0:0:
379,194,28947,2,0,L|362:279,1,56.9999982604981,2|0,1:2|0:0,0:0:0:0:
479,363,29101,1,2,0:0:0:0:
479,363,29178,1,2,0:0:0:0:
479,363,29254,2,0,L|462:278,1,56.9999982604981,10|0,0:0|0:0,0:0:0:0:
435,108,29409,2,0,L|418:23,1,56.9999982604981,2|0,0:0|0:0,0:0:0:0:
282,193,29563,1,2,1:2:0:0:
282,193,29640,1,2,0:0:0:0:
282,193,29716,2,0,L|265:278,1,56.9999982604981,2|0,0:0|0:0,0:0:0:0:
149,378,29871,2,0,L|132:293,1,56.9999982604981,10|0,0:0|0:0,0:0:0:0:
106,113,30024,5,2,0:0:0:0:
106,113,30101,1,2,0:0:0:0:
106,113,30178,1,2,1:2:0:0:
119,138,30255,1,2,0:0:0:0:
157,148,30332,1,2,0:0:0:0:
204,139,30409,1,2,0:0:0:0:
236,101,30486,1,8,0:0:0:0:
275,60,30563,1,2,0:0:0:0:
331,50,30640,1,2,0:0:0:0:
390,64,30717,1,2,0:0:0:0:
435,108,30794,6,0,L|313:133,1,118.75,8|0,1:0|0:0,0:0:0:0:
127,377,31101,6,0,L|113:313,1,47.5,8|0,1:0|0:0,0:0:0:0:
205,217,31409,6,0,L|200:240,1,23.75,6|0,1:2|0:0,0:0:0:0:
64,174,31563,2,0,L|74:226,1,28.4999991302491,2|0,0:0|0:0,0:0:0:0:
198,57,31717,2,0,L|187:109,1,33.2499989852906,10|0,0:0|0:0,0:0:0:0:
33,2,31871,2,0,L|46:66,1,38,2|0,0:0|0:0,0:0:0:0:
64,174,32024,6,0,P|109:166|133:142,1,76,6|0,1:2|0:0,0:0:0:0:
68,185,32255,2,0,P|113:177|137:153,1,76,2|0,1:2|0:0,0:0:0:0:
198,57,32486,2,0,P|220:61|241:78,1,38,2|0,1:2|0:0,0:0:0:0:
401,232,32640,6,0,P|349:236|310:198,1,95,6|0,1:2|0:0,0:0:0:0:
401,245,32871,2,0,P|349:249|310:211,1,95,2|0,1:2|0:0,0:0:0:0:
250,147,33101,2,0,P|225:153|209:172,1,47.5,2|0,1:2|0:0,0:0:0:0:
63,360,33255,6,0,P|115:364|156:316,1,113.999996520996,6|0,1:2|0:0,0:0:0:0:
63,373,33486,2,0,P|115:377|160:335,1,113.999996520996,2|0,1:2|0:0,0:0:0:0:
210,251,33717,2,0,P|235:257|255:282,1,56.9999982604981,2|0,1:2|0:0,0:0:0:0:
421,353,33871,5,6,1:2:0:0:
468,318,33947,1,2,0:0:0:0:
485,266,34024,1,2,0:0:0:0:
473,210,34101,1,2,0:0:0:0:
432,168,34178,1,10,0:0:0:0:
400,129,34255,1,2,0:0:0:0:
394,87,34332,1,2,0:0:0:0:
404,56,34409,1,2,0:0:0:0:
410,40,34486,5,2,1:2:0:0:
392,55,34563,1,2,0:0:0:0:
382,86,34640,1,2,0:0:0:0:
388,128,34717,1,2,0:0:0:0:
420,167,34794,1,10,0:0:0:0:
461,209,34871,1,2,0:0:0:0:
473,265,34948,1,2,0:0:0:0:
456,317,35025,1,2,0:0:0:0:
409,352,35101,6,0,L|334:336,1,66.4999979705811,6|0,1:2|0:0,0:0:0:0:
153,277,35255,2,0,L|78:261,1,66.4999979705811,2|0,1:2|0:0,0:0:0:0:
0,378,35409,6,0,L|74:362,1,66.4999979705811,2|0,1:2|0:0,0:0:0:0:
217,316,35563,2,0,L|291:300,1,66.4999979705811,2|0,1:2|0:0,0:0:0:0:
461,209,35717,5,2,1:2:0:0:
412,198,35793,1,0,1:2:0:0:
363,188,35870,1,0,1:2:0:0:
314,177,35947,1,0,1:2:0:0:
265,167,36024,1,2,1:2:0:0:
217,156,36101,1,0,1:2:0:0:
168,146,36178,1,0,1:2:0:0:
119,135,36255,1,0,1:2:0:0:
70,125,36332,6,0,P|107:109|125:62,2,75.9999976806641,6|0|0,1:1|0:0|0:0,0:0:0:0:
113,283,36640,1,10,0:0:0:0:
185,318,36742,1,10,0:0:0:0:
256,280,36845,1,10,0:0:0:0:
271,202,36947,6,0,P|251:169|217:156,2,75.9999976806641,2|0|0,1:2|0:0|0:0,0:0:0:0:
292,70,37255,1,10,0:0:0:0:
364,35,37357,1,8,0:0:0:0:
435,73,37460,1,8,0:0:0:0:
466,152,37563,6,0,P|446:184|412:197,2,75.9999976806641,2|0|0,1:2|0:0|0:0,0:0:0:0:
434,288,37871,1,10,0:0:0:0:
362,323,37973,1,8,0:0:0:0:
291,285,38076,1,10,0:0:0:0:
271,202,38178,6,0,P|251:169|217:156,2,75.9999976806641,2|2|2,1:2|0:0|0:0,0:0:0:0:
308,62,38486,1,10,0:0:0:0:
253,3,38588,1,8,0:0:0:0:
173,13,38691,1,10,0:0:0:0:
122,79,38794,6,0,P|103:111|69:124,2,75.9999976806641,2|0|0,1:2|0:0|0:0,0:0:0:0:
113,283,39101,1,10,0:0:0:0:
185,318,39203,1,8,0:0:0:0:
256,280,39306,1,10,0:0:0:0:
292,209,39409,1,2,1:2:0:0:
357,162,39512,1,2,0:0:0:0:
434,166,39614,1,2,0:0:0:0:
475,233,39717,1,10,0:0:0:0:
465,311,39819,1,10,0:0:0:0:
398,351,39922,1,10,0:0:0:0:
320,338,40024,6,0,P|301:308|257:292,2,75.9999976806641,2|0|2,1:2|0:0|0:0,0:0:0:0:
398,351,40332,1,8,0:0:0:0:
465,311,40435,1,8,0:0:0:0:
475,233,40537,1,10,0:0:0:0:
434,166,40640,1,2,1:2:0:0:
357,162,40742,1,8,0:0:0:0:
292,209,40845,1,8,0:0:0:0:
256,280,40948,1,10,0:0:0:0:
185,318,41051,1,8,0:0:0:0:
113,283,41153,1,8,0:0:0:0:
94,209,41255,6,0,L|111:128,2,75.9999976806641,6|0|0,1:2|0:0|0:0,0:0:0:0:
157,66,41563,1,10,0:0:0:0:
240,60,41665,1,10,0:0:0:0:
285,129,41768,1,10,0:0:0:0:
292,209,41871,6,0,L|309:289,2,75.9999976806641,2|0|0,1:2|0:0|0:0,0:0:0:0:
350,350,42178,1,10,0:0:0:0:
435,357,42281,1,8,0:0:0:0:
488,291,42383,1,8,0:0:0:0:
490,209,42486,6,0,L|507:128,2,75.9999976806641,2|0|0,1:2|0:0|0:0,0:0:0:0:
429,84,42794,1,10,0:0:0:0:
346,73,42896,1,8,0:0:0:0:
285,129,42999,1,10,0:0:0:0:
292,209,43101,6,0,B|259:236|253:268|253:268|249:236|213:210,1,142.500005435944,2|0,1:2|0:0,0:0:0:0:
121,241,43332,2,0,B|81:225|50:236|50:236|76:217|80:173,1,142.500005435944,2|0,0:2|0:0,0:0:0:0:
49,95,43563,2,0,B|45:73|33:63|33:63|48:69|68:60,1,71.2500027179719,2|0,0:2|0:0,0:0:0:0:
247,263,43717,6,0,B|215:250|190:259|190:259|211:244|214:208,1,113.999996520996,2|0,1:2|0:0,0:0:0:0:
156,156,43948,2,0,B|150:122|130:105|130:105|154:115|186:100,1,113.999996520996,2|0,0:2|0:0,0:0:0:0:
235,46,44179,2,0,B|248:35|250:22|250:22|252:35|266:45,1,56.9999982604981,2|0,0:2|0:0,0:0:0:0:
214,210,44332,6,0,B|209:185|195:172|195:172|212:180|236:169,1,85.4999973907472,2|0,1:2|0:0,0:0:0:0:
248,112,44563,2,0,B|267:96|270:77|270:77|273:96|294:111,1,85.4999973907472,2|0,0:2|0:0,0:0:0:0:
347,122,44794,2,0,B|358:126|367:123|367:123|360:128|358:141,1,42.7499986953736,2|0,0:2|0:0,0:0:0:0:
218,223,44947,6,0,L|214:210,3,14.2499995651245,2|8|10|8,1:2|0:0|0:0|0:0,0:0:0:0:
58,143,45255,2,0,L|63:157,3,14.2499995651245,10|8|10|8,0:0|0:0|0:0|0:0,0:0:0:0:
160,44,45563,5,10,0:0:0:0:
155,79,45639,1,8,0:0:0:0:
150,114,45716,1,8,0:0:0:0:
145,149,45793,1,8,0:0:0:0:
140,185,45870,1,10,0:0:0:0:
135,220,45947,1,8,0:0:0:0:
130,255,46024,1,8,0:0:0:0:
125,290,46101,1,8,0:0:0:0:
120,326,46178,6,0,L|190:311,1,47.5,4|0,1:1|0:0,0:0:0:0:
238,242,46332,2,0,L|286:295,1,47.5,2|0,0:0|0:0,0:0:0:0:
369,302,46486,2,0,L|346:370,1,47.5,10|0,0:0|0:0,0:0:0:0:
512,384,46640,2,0,L|485:260,1,113.999996520996,2|0,0:0|1:2,0:0:0:0:
451,16,46947,2,0,P|428:23|414:42,1,47.5,2|0,0:0|0:0,0:0:0:0:
467,142,47101,2,0,P|490:135|505:117,1,47.5,10|0,0:0|0:0,0:0:0:0:
331,35,47255,2,0,P|275:10|213:19,1,113.999996520996,2|0,0:0|1:2,0:0:0:0:
81,179,47563,6,0,P|106:167|122:143,1,47.5,2|0,0:0|0:0,0:0:0:0:
110,10,47717,1,10,0:0:0:0:
83,0,47794,1,2,0:0:0:0:
50,5,47871,1,2,0:0:0:0:
22,33,47947,1,2,0:0:0:0:
21,76,48024,2,0,P|45:87|62:116,1,47.5,2|0,1:2|0:0,0:0:0:0:
155,231,48178,5,2,0:0:0:0:
151,246,48254,1,2,0:0:0:0:
148,261,48331,1,10,0:0:0:0:
144,277,48408,1,2,0:0:0:0:
141,292,48485,1,2,0:0:0:0:
137,308,48562,1,2,0:0:0:0:
134,323,48640,6,0,L|193:310,1,47.5,2|0,1:2|0:0,0:0:0:0:
264,365,48794,2,0,L|282:306,1,47.5,2|0,0:0|0:0,0:0:0:0:
365,273,48947,2,0,L|324:227,1,47.5,10|0,0:0|0:0,0:0:0:0:
329,141,49101,2,0,L|269:153,1,47.5,2|0,0:0|0:0,0:0:0:0:
73,172,49255,5,2,1:2:0:0:
59,165,49332,1,2,0:0:0:0:
45,147,49409,1,2,0:0:0:0:
37,118,49486,1,2,0:0:0:0:
46,76,49563,1,10,0:0:0:0:
79,40,49640,1,2,0:0:0:0:
131,29,49717,1,2,0:0:0:0:
184,48,49794,1,2,0:0:0:0:
212,105,49871,6,0,L|199:163,1,47.5,2|0,1:2|0:0,0:0:0:0:
284,259,50024,2,0,L|271:201,1,47.5,2|0,0:0|0:0,0:0:0:0:
162,258,50178,1,10,0:0:0:0:
365,273,50332,2,0,L|339:154,1,113.999996520996,2|0,0:0|1:2,0:0:0:0:
463,306,50640,2,0,L|450:364,1,47.5,2|0,0:0|0:0,0:0:0:0:
491,165,50794,2,0,B|495:99|424:81|388:102|388:102|418:123|416:164,1,199.499993911743,10|0,0:0|0:0,0:0:0:0:
507,36,51101,6,0,L|513:4,2,28.4999991302491,2|2|2,0:0|0:0|0:0,0:0:0:0:
341,161,51563,2,0,L|347:192,2,28.4999991302491,2|2|2,0:0|0:0|0:0,0:0:0:0:
252,53,52024,6,0,L|256:29,5,14.2499995651245,10|8|10|8|10|8,0:0|0:0|0:0|0:0|0:0|0:0,0:0:0:0:
129,131,52486,2,0,L|133:154,5,14.2499995651245,10|8|8|8|10|8,0:0|0:0|0:0|0:0|0:0|0:0,0:0:0:0:
246,224,52947,6,0,L|241:247,3,14.2499995651245,2|0|0|0,1:2|1:2|1:2|1:2,0:0:0:0:
176,353,53255,2,0,L|180:372,6,14.2499995651245,2|0|0|0|0|0|0,1:2|1:2|1:2|1:2|1:2|1:2|1:2,0:0:0:0:
49,260,53563,6,0,P|19:265|-5:301,1,56.9999982604981,6|0,1:1|0:0,0:0:0:0:
40,384,53717,2,0,P|70:379|94:343,1,56.9999982604981
157,273,53871,5,2,0:0:0:0:
184,234,53947,1,2,0:0:0:0:
177,188,54024,1,6,1:2:0:0:
141,157,54101,1,2,0:0:0:0:
95,157,54178,1,2,0:0:0:0:
62,139,54255,1,2,0:0:0:0:
46,110,54332,1,2,0:0:0:0:
51,75,54409,1,2,0:0:0:0:
79,56,54486,5,6,1:2:0:0:
89,69,54563,1,2,0:0:0:0:
107,84,54640,1,2,0:0:0:0:
142,93,54717,1,2,0:0:0:0:
182,86,54794,1,2,0:0:0:0:
217,55,54871,1,2,0:0:0:0:
257,27,54947,1,6,1:2:0:0:
308,22,55024,1,2,0:0:0:0:
357,43,55101,1,2,0:0:0:0:
382,97,55178,1,2,0:0:0:0:
373,157,55255,1,2,0:0:0:0:
322,192,55332,1,2,0:0:0:0:
262,197,55409,5,6,1:2:0:0:
209,152,55485,1,2,0:0:0:0:
140,158,55562,1,2,0:0:0:0:
96,209,55639,1,2,0:0:0:0:
101,277,55716,1,6,1:2:0:0:
154,322,55793,1,2,0:0:0:0:
222,317,55870,1,2,0:0:0:0:
267,265,55947,1,2,0:0:0:0:
262,197,56024,6,0,L|247:128,1,56.9999982604981,6|0,1:2|0:0,0:0:0:0:
432,37,56178,2,0,L|417:106,1,56.9999982604981,0|0,1:2|0:0,0:0:0:0:
446,305,56332,1,0,1:2:0:0:
467,309,56408,1,2,0:0:0:0:
489,304,56485,1,4,1:2:0:0:
505,289,56562,1,2,0:0:0:0:
511,266,56640,5,2,1:2:0:0:
490,310,56716,1,2,1:2:0:0:
448,336,56793,1,2,1:2:0:0:
399,333,56870,1,2,1:2:0:0:
360,303,56947,1,6,1:2:0:0:
344,257,57024,1,2,1:2:0:0:
357,209,57101,1,2,1:2:0:0:
395,178,57178,1,2,1:2:0:0:
444,173,57255,1,6,1:2:0:0:
256,192,57332,12,2,58332,0:0:0:0:
107,316,58486,6,0,P|102:296|93:281,2,38,6|2|2,0:0|0:0|0:0,0:0:0:0:
216,235,60332,2,0,P|220:215|230:200,1,38,2|2,0:0|0:0,0:0:0:0:
80,168,61409,1,2,0:0:0:0:
80,168,61563,1,2,0:0:0:0:
80,168,62178,5,2,0:0:0:0:
135,116,62486,1,2,0:0:0:0:
29,55,62794,1,2,0:0:0:0:
13,129,63101,1,2,0:0:0:0:
105,47,63409,1,2,0:0:0:0:
105,47,64024,5,2,0:0:0:0:
177,103,64332,1,2,0:0:0:0:
254,57,64640,6,0,P|261:75|265:95,2,38,2|2|2,0:0|0:0|0:0,0:0:0:0:
303,188,66486,2,0,P|315:172|330:159,2,38,2|2|2,0:0|0:0|0:0,0:0:0:0:
382,88,67563,2,0,P|362:85|352:80,2,19,2|2|2,0:0|0:0|0:0,0:0:0:0:
487,30,68178,5,2,0:0:0:0:
487,30,68255,1,2,0:0:0:0:
487,30,68332,2,0,P|424:93|403:196,1,190,2|2,0:0|0:0,0:0:0:0:
306,359,69563,2,0,P|383:321|501:315,1,190,2|2,0:0|0:0,0:0:0:0:
218,205,70794,5,2,0:0:0:0:
222,208,71255,1,2,0:0:0:0:
222,208,71409,1,2,0:0:0:0:
78,383,72024,5,2,0:0:0:0:
23,331,72332,1,2,0:0:0:0:
129,270,72640,1,2,0:0:0:0:
145,344,72947,1,2,0:0:0:0:
53,262,73255,1,2,0:0:0:0:
53,262,73871,5,2,0:0:0:0:
23,331,74178,1,2,0:0:0:0:
236,362,74486,1,2,0:0:0:0:
206,293,74793,1,2,0:0:0:0:
419,262,75102,1,2,0:0:0:0:
389,331,75409,1,2,0:0:0:0:
272,60,75717,5,2,0:0:0:0:
272,60,76332,6,0,L|280:99,2,38,2|2|2,0:0|0:0|0:0,0:0:0:0:
403,161,77409,5,2,0:0:0:0:
403,161,77486,1,2,0:0:0:0:
403,161,77563,2,0,L|395:195,3,28.4999991302491,2|2|2|2,0:0|0:0|0:0|0:0,0:0:0:0:
504,321,77871,2,0,L|494:274,3,47.5,2|2|2|2,0:0|0:0|0:0|0:0,0:0:0:0:
387,358,78178,5,4,1:2:0:0:
354,378,78255,1,0,0:0:0:0:
316,372,78332,1,0,0:0:0:0:
291,342,78409,1,0,0:0:0:0:
295,302,78486,2,0,L|306:251,1,47.5,0|0,0:2|0:0,0:0:0:0:
212,123,78640,5,4,1:2:0:0:
205,158,78717,1,0,0:0:0:0:
198,193,78794,1,0,0:0:0:0:
191,228,78870,1,0,0:0:0:0:
184,263,78947,2,0,L|122:250,1,47.5,0|0,0:2|0:0,0:0:0:0:
31,148,79101,5,4,1:2:0:0:
42,179,79178,1,0,0:0:0:0:
68,191,79255,1,0,0:0:0:0:
99,186,79332,1,0,0:0:0:0:
119,168,79409,2,0,L|128:121,1,47.5,0|0,0:2|0:0,0:0:0:0:
217,32,79564,5,4,1:2:0:0:
252,39,79640,1,0,0:0:0:0:
287,46,79717,1,0,0:0:0:0:
322,53,79794,1,0,0:0:0:0:
357,60,79871,2,0,L|344:122,1,47.5,0|0,0:2|0:0,0:0:0:0:
472,183,80024,5,4,1:2:0:0:
472,183,80101,1,0,0:0:0:0:
472,183,80178,2,0,L|459:126,1,47.5
359,209,80332,1,4,1:2:0:0:
359,209,80409,1,0,0:0:0:0:
359,209,80486,2,0,L|372:266,1,47.5
490,339,80640,5,4,1:1:0:0:
475,358,80717,1,0,3:0:0:0:
454,376,80794,1,0,3:0:0:0:
416,381,80871,1,0,3:0:0:0:
373,373,80947,1,8,1:2:0:0:
337,338,81024,1,0,3:0:0:0:
299,303,81101,1,2,3:2:0:0:
247,291,81178,1,0,3:0:0:0:
195,308,81255,5,2,1:2:0:0:
205,287,81332,1,0,3:2:0:0:
209,257,81409,1,0,3:2:0:0:
197,221,81486,1,0,3:2:0:0:
156,195,81563,1,8,1:2:0:0:
102,195,81640,1,0,3:2:0:0:
54,226,81717,1,0,3:2:0:0:
41,283,81794,1,0,3:2:0:0:
66,338,81871,6,0,B|130:323|130:323|135:319|135:319|211:303,1,132.999995941162,2|2,1:2|3:0,0:0:0:0:
313,226,82101,1,0,3:2:0:0:
325,251,82178,2,0,B|260:236|260:236|255:232|255:232|179:216,1,132.999995941162,10|2,1:2|3:0,0:0:0:0:
78,139,82409,1,0,3:2:0:0:
66,164,82486,2,0,B|131:149|131:149|136:145|136:145|212:129,1,132.999995941162,2|0,1:2|3:2,0:0:0:0:
324,90,82794,2,0,L|254:75,1,66.4999979705811,12|0,1:2|3:2,0:0:0:0:
48,49,82947,1,0,3:2:0:0:
48,49,83024,1,0,3:2:0:0:
48,49,83102,5,6,1:2:0:0:
83,27,83178,1,0,3:2:0:0:
124,28,83255,1,0,3:2:0:0:
158,50,83332,1,0,3:2:0:0:
176,87,83409,1,8,1:2:0:0:
171,128,83486,1,0,3:2:0:0:
145,160,83563,1,0,3:2:0:0:
106,173,83640,1,0,3:2:0:0:
66,164,83717,5,2,1:2:0:0:
69,183,83793,1,0,3:2:0:0:
73,202,83870,1,0,3:2:0:0:
76,221,83947,1,0,3:2:0:0:
117,245,84025,5,10,1:2:0:0:
112,270,84101,1,0,3:2:0:0:
107,296,84178,1,0,3:2:0:0:
103,321,84255,1,0,3:2:0:0:
77,379,84333,5,2,1:2:0:0:
99,346,84409,1,0,3:2:0:0:
134,329,84486,1,0,3:2:0:0:
174,330,84563,1,0,3:2:0:0:
208,350,84641,5,10,1:2:0:0:
216,301,84717,1,0,3:2:0:0:
253,269,84794,1,0,3:2:0:0:
302,265,84871,1,0,3:2:0:0:
342,293,84948,5,2,1:2:0:0:
350,239,85024,1,0,3:2:0:0:
391,203,85101,1,0,3:2:0:0:
445,199,85178,1,0,3:2:0:0:
489,230,85255,5,10,1:2:0:0:
450,262,85332,1,0,3:2:0:0:
396,268,85409,1,0,3:2:0:0:
350,239,85486,1,0,3:2:0:0:
333,188,85563,5,6,1:2:0:0:
346,178,85640,1,0,3:2:0:0:
356,159,85717,1,0,3:2:0:0:
354,129,85794,1,0,3:2:0:0:
333,98,85871,1,8,1:2:0:0:
293,81,85947,1,0,3:2:0:0:
249,83,86024,1,0,3:2:0:0:
213,114,86101,1,0,3:2:0:0:
204,162,86178,1,2,1:2:0:0:
226,211,86255,1,0,3:2:0:0:
275,240,86332,1,0,3:2:0:0:
320,284,86409,1,0,3:2:0:0:
315,348,86486,1,10,1:2:0:0:
258,384,86563,1,0,3:2:0:0:
197,360,86640,1,0,3:2:0:0:
177,298,86717,1,0,3:2:0:0:
211,245,86794,5,6,1:2:0:0:
219,257,86871,1,0,3:2:0:0:
235,268,86947,1,0,3:2:0:0:
265,275,87024,1,0,3:2:0:0:
314,266,87101,1,8,1:2:0:0:
358,229,87178,1,0,3:2:0:0:
360,169,87255,2,0,P|318:172|284:187,1,66.4999979705811,2|2,3:2|3:2,0:0:0:0:
105,219,87409,5,6,1:2:0:0:
89,210,87486,1,0,3:2:0:0:
73,194,87563,1,0,3:2:0:0:
64,156,87640,1,0,3:2:0:0:
72,112,87717,1,8,1:2:0:0:
109,74,87794,1,0,1:2:0:0:
165,64,87871,2,0,P|171:99|194:125,1,66.4999979705811,0|0,1:2|1:2,0:0:0:0:
360,169,88024,5,4,1:1:0:0:
371,173,88101,1,0,3:2:0:0:
394,172,88178,1,0,3:2:0:0:
429,154,88255,1,0,3:2:0:0:
447,112,88332,1,8,1:2:0:0:
426,62,88409,1,0,3:2:0:0:
372,38,88486,1,0,3:2:0:0:
314,58,88563,1,0,3:2:0:0:
291,116,88640,5,2,1:2:0:0:
280,132,88717,1,0,3:2:0:0:
256,144,88794,1,0,3:2:0:0:
223,153,88871,1,0,3:2:0:0:
185,150,88947,1,8,1:2:0:0:
144,125,89024,1,0,3:2:0:0:
127,80,89101,1,0,3:2:0:0:
139,30,89178,1,0,3:2:0:0:
181,0,89255,5,2,1:2:0:0:
195,7,89332,1,0,3:2:0:0:
204,19,89409,1,0,3:2:0:0:
209,32,89486,1,0,3:2:0:0:
206,47,89563,5,8,1:2:0:0:
253,29,89640,1,0,3:2:0:0:
306,26,89717,1,0,3:2:0:0:
356,49,89794,1,0,3:2:0:0:
395,87,89871,1,2,1:2:0:0:
420,128,89947,1,0,3:2:0:0:
452,143,90024,1,0,3:2:0:0:
480,146,90101,1,0,3:2:0:0:
496,136,90178,2,0,L|487:94,3,38,8|0|0|0,1:2|3:2|3:2|3:2,0:0:0:0:
291,109,90486,5,6,1:2:0:0:
280,121,90563,1,0,3:2:0:0:
272,144,90640,1,0,3:2:0:0:
274,182,90717,1,0,3:2:0:0:
296,214,90794,1,8,1:2:0:0:
339,233,90871,1,0,3:2:0:0:
387,228,90947,1,2,3:2:0:0:
410,233,91024,1,0,3:2:0:0:
425,245,91101,1,2,1:2:0:0:
439,264,91178,1,0,3:2:0:0:
447,292,91255,1,0,3:2:0:0:
443,328,91332,1,0,3:2:0:0:
413,360,91409,1,10,1:2:0:0:
359,369,91486,1,0,3:2:0:0:
309,342,91563,1,0,3:2:0:0:
296,313,91640,1,0,3:2:0:0:
296,295,91717,5,6,1:2:0:0:
276,274,91793,1,0,3:2:0:0:
250,263,91870,1,0,3:2:0:0:
222,262,91947,1,0,3:2:0:0:
195,272,92025,5,14,1:2:0:0:
227,276,92101,1,0,3:2:0:0:
261,270,92178,1,0,3:2:0:0:
288,251,92255,1,0,3:2:0:0:
307,222,92333,5,6,1:2:0:0:
273,240,92409,1,0,3:2:0:0:
244,270,92486,1,0,3:2:0:0:
231,307,92563,1,0,3:2:0:0:
233,349,92640,5,6,1:2:0:0:
252,307,92716,1,0,0:0:0:0:
259,257,92793,1,0,0:0:0:0:
246,212,92870,1,0,0:0:0:0:
215,172,92947,6,0,P|190:150|142:139,2,69.6666687927247,6|0|0,1:1|0:0|0:0,0:0:0:0:
336,80,93255,2,0,P|361:58|409:47,2,69.6666687927247,8|8|8,0:0|0:0|0:0,0:0:0:0:
149,219,93563,5,2,1:2:0:0:
82,188,93665,1,0,0:0:0:0:
69,117,93768,1,8,0:0:0:0:
103,67,93871,1,8,0:0:0:0:
157,50,93973,1,8,0:0:0:0:
202,70,94076,1,8,0:0:0:0:
221,98,94178,5,2,1:2:0:0:
245,75,94281,1,8,0:0:0:0:
287,63,94383,1,8,0:0:0:0:
336,80,94486,1,10,0:2:0:0:
365,124,94588,1,8,0:0:0:0:
361,183,94691,1,8,0:0:0:0:
309,222,94794,1,10,1:2:0:0:
261,278,94896,1,8,0:0:0:0:
275,351,94999,1,8,0:0:0:0:
340,384,95101,1,10,0:2:0:0:
396,373,95204,1,8,0:0:0:0:
425,343,95306,1,8,0:0:0:0:
433,315,95409,5,6,1:1:0:0:
415,332,95512,1,0,0:0:0:0:
383,343,95614,1,0,0:0:0:0:
338,348,95717,1,8,0:2:0:0:
292,327,95819,1,8,0:0:0:0:
261,278,95922,1,8,0:0:0:0:
262,209,96024,1,10,1:2:0:0:
308,153,96127,1,0,0:0:0:0:
384,142,96229,1,0,0:0:0:0:
447,185,96332,1,8,0:2:0:0:
461,232,96435,1,8,0:0:0:0:
459,265,96537,1,8,0:0:0:0:
448,289,96640,5,10,1:2:0:0:
425,269,96742,1,0,0:0:0:0:
380,252,96845,1,8,0:2:0:0:
323,255,96947,1,8,0:2:0:0:
271,291,97050,1,8,0:0:0:0:
224,349,97153,1,8,0:0:0:0:
155,378,97255,1,6,1:2:0:0:
82,359,97358,1,0,1:0:0:0:
37,302,97460,1,0,1:0:0:0:
36,227,97563,1,0,1:0:0:0:
83,166,97665,1,0,1:0:0:0:
161,151,97768,1,0,1:0:0:0:
230,190,97871,6,0,P|224:167|219:140,3,47.5,4|0|0|0,1:1|3:0|3:0|3:0,0:0:0:0:
271,291,98178,2,0,P|248:284|222:275,3,47.5,8|0|0|0,1:2|3:0|3:0|3:0,0:0:0:0:
378,305,98486,2,0,P|361:321|340:339,3,47.5,0|0|0|0,1:2|3:0|3:0|3:0,0:0:0:0:
443,219,98794,2,0,P|448:241|453:268,1,47.5,10|0,1:2|3:0,0:0:0:0:
340,173,98947,6,0,P|344:149|350:126,3,47.5,0|0|0|0,0:2|3:0|1:0|0:0,0:0:0:0:
319,30,99255,1,0,3:0:0:0:
319,30,99332,1,0,3:0:0:0:
319,30,99409,2,0,P|341:21|364:15,1,47.5,10|0,1:2|3:0,0:0:0:0:
223,113,99563,1,0,3:0:0:0:
223,113,99640,1,0,3:0:0:0:
223,113,99717,2,0,P|200:104|177:98,1,47.5,2|0,1:2|3:0,0:0:0:0:
100,34,99870,1,0,3:0:0:0:
100,34,99947,1,0,3:0:0:0:
100,34,100024,2,0,P|81:49|64:66,1,47.5,8|0,1:2|3:0,0:0:0:0:
5,167,100178,1,0,3:0:0:0:
8,177,100255,1,0,3:0:0:0:
11,187,100333,5,6,1:2:0:0:
30,157,100409,1,0,3:0:0:0:
62,142,100486,1,0,3:0:0:0:
97,144,100563,1,0,3:0:0:0:
125,165,100640,1,8,1:2:0:0:
140,197,100717,1,0,3:0:0:0:
136,232,100794,1,0,3:0:0:0:
115,260,100871,1,0,3:0:0:0:
83,273,100948,5,6,1:2:0:0:
100,241,101024,1,0,3:0:0:0:
136,232,101101,1,0,3:0:0:0:
175,250,101178,1,0,3:0:0:0:
194,293,101255,1,10,1:2:0:0:
223,337,101332,1,0,3:0:0:0:
275,348,101409,1,0,3:0:0:0:
326,331,101486,1,0,3:0:0:0:
354,283,101563,6,0,L|335:184,1,99.7499969558717,2|0,3:2|0:0,0:0:0:0:
348,168,102178,2,0,L|367:267,1,99.7499969558717,2|0,3:2|0:0,0:0:0:0:
380,251,102794,6,0,L|372:217,1,28.4999991302491,6|0,0:0|0:0,0:0:0:0:
391,101,102947,2,0,L|377:37,5,56.9999982604981,2|10|2|10|2|10,0:0|0:0|0:0|0:0|0:0|0:0,0:0:0:0:
487,74,103871,2,0,L|459:68,1,28.4999991302491,2|0,0:0|0:0,0:0:0:0:
310,18,104024,6,0,L|282:23,1,28.4999991302491,10|0,0:0|0:0,0:0:0:0:
112,170,104178,1,2,0:0:0:0:
84,164,104254,1,2,0:0:0:0:
70,141,104331,1,10,0:0:0:0:
146,92,104486,5,2,0:0:0:0:
228,132,104640,1,10,0:0:0:0:
241,109,104717,1,2,0:0:0:0:
233,82,104793,1,2,0:0:0:0:
97,22,104947,5,10,0:0:0:0:
106,10,105023,1,0,0:0:0:0:
115,0,105100,1,0,0:0:0:0:
129,0,105177,1,0,0:0:0:0:
143,1,105255,6,0,L|133:44,1,28.4999991302491,14|0,1:2|0:0,0:0:0:0:
70,141,105409,2,0,L|60:98,1,28.4999991302491
67,150,105563,2,0,L|57:107,1,28.4999991302491,0|0,1:2|0:0,0:0:0:0:
64,159,105717,2,0,L|54:116,1,28.4999991302491
61,168,105870,2,0,L|51:125,1,28.4999991302491,0|0,1:2|0:0,0:0:0:0:
58,177,106024,2,0,L|48:134,1,28.4999991302491
55,186,106178,2,0,L|45:143,1,28.4999991302491,0|0,1:2|0:0,0:0:0:0:
154,227,106332,2,0,L|144:270,1,28.4999991302491
37,374,106486,5,8,1:2:0:0:
64,368,106562,1,8,0:0:0:0:
92,362,106639,1,8,0:0:0:0:
120,356,106716,1,8,0:0:0:0:
148,350,106794,6,0,L|178:343,6,19,8|8|8|8|8|8|8,1:2|0:0|0:0|0:0|0:0|0:0|0:0,0:0:0:0:
238,293,107101,2,0,L|263:309,6,19,8|8|8|8|8|8|8,1:2|0:0|0:0|0:0|0:0|0:0|0:0,0:0:0:0:
338,331,107409,6,0,L|334:356,10,15.8333333333333,8|0|0|8|0|0|8|0|0|8|0,1:2|0:0|0:0|0:0|0:0|0:0|0:0|0:0|0:0|0:0|0:0,0:0:0:0:
349,361,107717,6,0,L|361:305,1,47.5,4|0,1:2|0:0,0:0:0:0:
276,228,107871,2,0,L|330:210,1,56.9999982604981,2|0,0:0|0:0,0:0:0:0:
475,275,108024,2,0,L|432:236,1,56.9999982604981,10|0,0:0|0:0,0:0:0:0:
416,80,108178,2,0,L|404:135,1,56.9999982604981,2|0,0:0|0:0,0:0:0:0:
274,241,108332,6,0,L|328:223,1,56.9999982604981,2|0,1:2|0:0,0:0:0:0:
272,134,108486,2,0,L|283:78,1,56.9999982604981,2|0,0:0|0:0,0:0:0:0:
178,82,108640,2,0,L|135:43,1,56.9999982604981,10|0,0:0|0:0,0:0:0:0:
85,137,108794,2,0,L|30:154,1,56.9999982604981,2|0,0:0|0:0,0:0:0:0:
276,228,108947,6,0,L|330:210,1,56.9999982604981,2|0,1:2|0:0,0:0:0:0:
470,97,109101,1,2,0:0:0:0:
470,97,109178,1,2,0:0:0:0:
470,97,109255,2,0,L|415:79,1,56.9999982604981,10|0,0:0|0:0,0:0:0:0:
232,31,109409,6,0,L|178:49,1,56.9999982604981,2|0,0:0|0:0,0:0:0:0:
38,162,109563,1,0,1:2:0:0:
38,162,109640,1,2,0:0:0:0:
38,162,109717,2,0,L|93:180,1,56.9999982604981,2|0,0:0|0:0,0:0:0:0:
182,321,109871,5,10,0:0:0:0:
136,350,109947,1,2,0:0:0:0:
88,325,110024,1,2,0:0:0:0:
86,271,110101,1,2,0:0:0:0:
133,243,110178,6,0,P|162:244|198:254,1,56.9999982604981,2|0,1:2|0:0,0:0:0:0:
255,346,110332,2,0,P|270:321|297:295,1,56.9999982604981,2|0,0:0|0:0,0:0:0:0:
405,291,110486,2,0,P|390:265|381:229,1,56.9999982604981,10|0,0:0|0:0,0:0:0:0:
432,133,110640,2,0,P|402:132|366:122,1,56.9999982604981,2|0,0:0|0:0,0:0:0:0:
136,253,110794,6,0,P|165:254|201:264,1,56.9999982604981,2|0,1:2|0:0,0:0:0:0:
258,356,110948,2,0,P|273:331|300:305,1,56.9999982604981,2|0,0:0|0:0,0:0:0:0:
408,301,111102,2,0,P|393:275|384:239,1,56.9999982604981,10|0,0:0|0:0,0:0:0:0:
435,143,111256,2,0,P|405:142|369:132,1,56.9999982604981,2|0,0:0|0:0,0:0:0:0:
247,58,111409,6,0,P|283:47|332:24,2,75.9999976806641,2|2|2,1:2|0:0|0:0,0:0:0:0:
56,122,111717,5,2,1:2:0:0:
88,74,111819,1,2,0:0:0:0:
145,79,111922,1,2,0:0:0:0:
21,115,112024,5,2,1:2:0:0:
73,39,112127,1,2,1:2:0:0:
169,46,112229,1,2,1:2:0:0:
185,199,112332,5,2,1:2:0:0:
158,230,112435,1,2,1:2:0:0:
119,229,112537,1,2,1:2:0:0:
125,150,112640,6,0,L|115:120,3,28.4999991302491,2|2|10|10,1:2|0:0|0:0|0:0,0:0:0:0:
247,58,112947,2,0,L|237:88,3,28.4999991302491,10|2|10|10,0:0|0:0|0:0|0:0,0:0:0:0:
316,157,113255,5,10,0:0:0:0:
325,165,113332,1,2,0:0:0:0:
337,169,113409,1,10,0:0:0:0:
352,168,113486,1,10,0:0:0:0:
367,159,113563,1,10,0:0:0:0:
378,140,113640,1,2,0:0:0:0:
375,116,113717,1,10,0:0:0:0:
354,98,113794,1,10,0:0:0:0:
322,89,113871,1,10,0:0:0:0:
281,107,113947,1,2,0:0:0:0:
261,151,114024,1,10,0:0:0:0:
273,200,114101,1,10,0:0:0:0:
317,231,114178,1,10,0:0:0:0:
365,268,114255,1,2,0:0:0:0:
376,330,114332,1,10,0:0:0:0:
334,379,114409,1,10,0:0:0:0:
270,373,114486,5,10,0:0:0:0:
240,306,114563,1,2,0:0:0:0:
271,235,114640,1,10,0:0:0:0:
343,203,114717,1,10,0:0:0:0:
399,147,114794,1,10,0:0:0:0:
387,70,114871,1,2,0:0:0:0:
321,27,114947,1,10,0:0:0:0:
246,46,115024,1,10,0:0:0:0:
216,116,115101,1,12,1:2:0:0:
216,116,115563,6,0,L|225:161,1,28.4999991302491,0|0,1:2|1:2,0:0:0:0:
333,267,115717,6,0,B|359:277|395:259|395:259|400:259|400:259|397:255|397:255|380:216|348:202,1,142.500005435944,4|0,1:2|0:0,0:0:0:0:
144,262,115947,2,0,B|122:279|119:320|119:320|116:324|116:324|121:323|121:323|163:328|191:307,1,142.500005435944,4|0,1:2|0:0,0:0:0:0:
221,143,116178,2,0,L|216:116,1,28.4999991302491,4|0,1:2|0:0,0:0:0:0:
88,0,116332,6,0,B|58:-2|15:14|-19:117|65:204|187:137|178:134|195:48|253:15|352:16|434:93|395:197|355:209|355:209|360:172|323:101|233:115|195:186|229:254|283:261|283:261|329:262|353:304|348:358|286:378|236:367|229:321|229:321|251:334|286:329,1,1140.00004348755,4|0,1:1|0:0,0:0:0:0:
