osu file format v14

[General]
AudioFilename: audio.mp3
AudioLeadIn: 0
PreviewTime: 77563
Countdown: 0
SampleSet: Soft
StackLeniency: 0
Mode: 0
LetterboxInBreaks: 0
WidescreenStoryboard: 0

[Editor]
Bookmarks: 1871,2486,6794,21563,36332,42486,46178,53563,57871,58332,58486,78178,79332,80640,91717,92947,97871,102794,107717,112640,113871,115101,116332,118794
DistanceSpacing: 0.34
BeatDivisor: 3
GridSize: 32
TimelineZoom: 3.599999

[Metadata]
Title:Ring ! Run ! Nyan!!
TitleUnicode:Ring!Run!Nyan!!
Artist:MisomyL
ArtistUnicode:MisomyL
Creator:TNTlealu
Version:Naughty ! Wayward ! Catgirls~!!
Source:SOUND VOLTEX III GRAVITY WARS コナステ
Tags:bongo light_u light Crysisters Pado gazimal Matsuyuki Ame RK657 dahkjdas Sweets ImWater Dailycare -Hitomi L1gHT_u SDVX VIVID WAVE Konasute Version! Original Song Contest INFINITE BLASTER rhythm video game electronic instrumental Arcades
BeatmapID:3584741
BeatmapSetID:1752046

[Difficulty]
HPDrainRate:6
CircleSize:4
OverallDifficulty:9.4
ApproachRate:9.7
SliderMultiplier:1.9
SliderTickRate:1

[Events]
//Background and Video events
0,0,"catgirl.jpg",0,0
//Break Periods
//Storyboard Layer 0 (Background)
//Storyboard Layer 1 (Fail)
//Storyboard Layer 2 (Pass)
//Storyboard Layer 3 (Foreground)
//Storyboard Layer 4 (Overlay)
//Storyboard Sound Samples

[TimingPoints]
1256,307.692307692308,4,2,1,40,1,0
1871,307.692307692308,4,2,1,40,1,0
1871,-50,4,2,1,40,0,0
2024,-142.857142857143,4,2,1,40,0,0
6178,-41.6666666666667,4,2,1,40,0,0
6486,-111.111111111111,4,2,1,40,0,0
6794,-50,4,2,1,60,0,0
6947,-90.9090909090909,4,2,1,60,0,0
9255,-58.8235294117647,4,2,1,60,0,0
9717,-50,4,2,1,60,0,0
10178,-43.4782608695652,4,2,1,60,0,0
10640,-45.4545454545455,4,2,1,60,0,0
11871,-62.5,4,2,1,60,0,0
12024,-100,4,2,1,60,0,0
12486,-62.5,4,2,1,60,0,0
12640,-45.4545454545455,4,2,1,60,0,0
13101,-62.5,4,2,1,60,0,0
13255,-100,4,2,1,60,0,0
13717,-62.5,4,2,1,60,0,0
13871,-45.4545454545455,4,2,1,60,0,0
14486,-76.9230769230769,4,2,1,60,0,0
14640,-40,4,2,1,60,0,0
14947,-76.9230769230769,4,2,1,60,0,0
15101,-52.6315789473684,4,2,1,60,0,0
16024,-45.4545454545455,4,2,2,40,0,0
16332,-111.111111111111,4,2,1,60,0,0
16640,-50,4,2,1,60,0,0
16794,-90.9090909090909,4,2,1,60,0,0
17871,-58.8235294117647,4,2,1,60,0,0
18332,-55.5555555555556,4,2,1,60,0,0
19101,-90.9090909090909,4,2,1,60,0,0
19409,-71.4285714285714,4,2,1,60,0,0
19717,-90.9090909090909,4,2,1,60,0,0
20024,-71.4285714285714,4,2,1,60,0,0
20947,-41.6666666666667,4,2,1,50,0,0
21255,-86.9565217391304,4,2,1,50,0,0
21563,-50,4,2,1,60,0,0
21717,-71.4285714285714,4,2,1,60,0,0
24024,-50,4,2,1,60,0,0
24486,-43.4782608695652,4,2,1,60,0,0
24947,-38.4615384615385,4,2,1,60,0,0
25409,-34.4827586206897,4,2,1,60,0,0
26486,-45.4545454545455,4,2,1,60,0,0
26640,-62.5,4,2,1,60,0,0
26794,-100,4,2,1,60,0,0
27255,-62.5,4,2,1,60,0,0
27409,-45.4545454545455,4,2,1,60,0,0
27871,-62.5,4,2,1,60,0,0
28024,-100,4,2,1,60,0,0
28486,-62.5,4,2,1,60,0,0
28640,-45.4545454545455,4,2,1,60,0,0
29255,-76.9230769230769,4,2,1,60,0,0
29409,-45.4545454545455,4,2,1,60,0,0
29717,-76.9230769230769,4,2,1,60,0,0
29871,-52.6315789473684,4,2,1,60,0,0
30794,-52.6315789473684,4,2,1,50,0,0
31101,-83.3333333333333,4,2,2,50,0,0
31409,-83.3333333333333,4,2,1,60,0,0
31563,-66.6666666666667,4,2,1,60,0,0
31717,-47.6190476190476,4,2,1,60,0,0
31871,-33.3333333333333,4,2,1,60,0,0
32332,-83.3333333333333,4,2,1,60,0,0
32486,-47.6190476190476,4,2,1,60,0,0
32640,-41.6666666666667,4,2,1,60,0,0
32947,-66.6666666666667,4,2,1,60,0,0
33101,-47.6190476190476,4,2,1,60,0,0
33255,-41.6666666666667,4,2,1,60,0,0
33563,-66.6666666666667,4,2,1,60,0,0
33717,-45.4545454545455,4,2,1,60,0,0
35101,-66.6666666666667,4,2,1,60,0,0
36332,-100,4,2,1,60,0,0
36640,-100,4,2,2,60,0,0
43101,-83.3333333333333,4,2,2,60,0,0
43409,-100,4,2,2,60,0,0
44947,-100,4,2,2,40,0,0
45563,-100,4,2,2,50,0,0
46178,-66.6666666666667,4,2,1,60,0,0
46486,-55.5555555555556,4,2,1,60,0,0
46947,-66.6666666666667,4,2,1,60,0,0
47255,-50,4,2,1,60,0,0
47563,-66.6666666666667,4,2,1,60,0,0
48024,-55.5555555555556,4,2,1,60,0,0
50332,-45.4545454545455,4,2,1,60,0,0
51101,-200,4,2,1,20,0,0
52024,-100,4,2,2,20,0,0
53255,-100,4,2,1,20,0,0
53563,-100,4,2,1,60,0,0
56024,-76.9230769230769,4,2,1,60,0,0
57871,-100,4,2,1,60,0,0
58486,-200,4,2,19,50,0,0
59101,-200,4,2,14,50,0,0
59717,-200,4,2,18,50,0,0
60332,-200,4,2,19,50,0,0
60947,-200,4,2,16,50,0,0
61409,-200,4,2,17,50,0,0
62178,-200,4,2,22,50,0,0
62486,-200,4,2,23,50,0,0
62794,-200,4,2,14,50,0,0
63101,-200,4,2,13,50,0,0
63409,-200,4,2,14,50,0,0
64024,-200,4,2,9,50,0,0
64332,-200,4,2,15,50,0,0
64640,-200,4,2,14,50,0,0
65255,-200,4,2,13,50,0,0
65871,-200,4,2,12,50,0,0
66178,-200,4,2,1,50,0,0
66486,-200,4,2,10,30,0,0
66794,-200,4,2,11,30,0,0
67101,-200,4,2,12,30,0,0
67563,-200,4,2,13,30,0,0
67640,-200,4,2,12,30,0,0
67717,-200,4,2,11,30,0,0
68178,-200,4,2,10,30,0,0
68255,-200,4,2,11,30,0,0
68332,-200,4,2,12,30,0,0
68947,-200,4,2,15,30,0,0
69563,-200,4,2,18,30,0,0
70178,-200,4,2,19,30,0,0
70794,-200,4,2,16,30,0,0
71255,-200,4,2,17,30,0,0
72024,-200,4,2,16,30,0,0
72332,-200,4,2,15,30,0,0
72640,-200,4,2,14,30,0,0
72947,-200,4,2,13,30,0,0
73255,-200,4,2,14,30,0,0
73871,-200,4,2,12,30,0,0
74178,-200,4,2,14,30,0,0
74486,-200,4,2,17,30,0,0
74794,-200,4,2,14,30,0,0
75102,-200,4,2,17,30,0,0
75409,-200,4,2,18,30,0,0
75717,-200,4,2,19,30,0,0
76332,-200,4,2,17,30,0,0
76640,-200,4,2,18,30,0,0
76947,-200,4,2,20,30,0,0
77409,-200,4,2,21,30,0,0
77486,-200,4,2,20,30,0,0
77563,-200,4,2,19,30,0,0
77640,-200,4,2,20,30,0,0
77717,-200,4,2,19,30,0,0
77794,-200,4,2,20,30,0,0
77871,-100,4,2,1,30,0,0
78178,-100,4,2,1,60,0,0
80640,-100,4,2,1,80,0,1
92024,-90.9090909090909,4,2,1,80,0,1
92332,-71.4285714285714,4,2,1,80,0,1
92640,-58.8235294117647,4,2,1,80,0,1
92947,-100,4,2,2,50,0,0
97255,-100,4,2,1,50,0,0
97871,-100,4,2,1,80,0,1
99871,-71.4285714285714,4,2,1,80,0,1
100178,-55.5555555555556,4,2,1,80,0,1
101563,-58.8235294117647,4,2,1,40,0,1
102178,-76.9230769230769,4,2,1,40,0,1
102794,-100,4,2,1,40,0,0
102947,-100,4,2,2,40,0,0
105563,-76.9230769230769,4,2,2,40,0,0
105871,-62.5,4,2,2,40,0,0
106178,-52.6315789473684,4,2,2,40,0,0
106794,-52.6315789473684,4,2,2,25,0,0
106947,-52.6315789473684,4,2,2,30,0,0
107101,-52.6315789473684,4,2,2,35,0,0
107255,-52.6315789473684,4,2,2,40,0,0
107409,-52.6315789473684,4,2,2,45,0,0
107563,-52.6315789473684,4,2,2,50,0,0
107717,-50,4,2,1,70,0,1
107871,-76.9230769230769,4,2,1,70,0,1
108947,-52.6315789473684,4,2,1,70,0,1
112640,-100,4,2,2,20,0,0
112947,-100,4,2,2,25,0,0
113255,-100,4,2,2,30,0,0
113563,-100,4,2,2,35,0,0
113871,-100,4,2,2,40,0,0
114178,-100,4,2,2,45,0,0
114486,-100,4,2,2,50,0,0
114794,-100,4,2,2,55,0,0
115101,-50,4,2,2,60,0,0
115563,-50,4,2,1,60,0,0
116332,-200,4,2,1,60,0,0

[Colours]
Combo1 : 222,104,247
Combo2 : 255,142,142
Combo3 : 79,170,238
Combo4 : 244,89,113

[HitObjects]
492,63,1256,5,2,0:0:0:0:
479,61,1332,1,2,0:0:0:0:
463,65,1409,1,2,0:0:0:0:
450,79,1486,1,2,0:0:0:0:
440,110,1563,1,2,0:0:0:0:
407,144,1640,1,2,0:0:0:0:
359,149,1717,1,2,0:0:0:0:
319,121,1794,1,2,0:0:0:0:
300,74,1871,6,0,B|303:41|291:14|291:14|304:39|332:44,1,95,6|0,0:0|0:0,0:0:0:0:
243,133,2024,6,0,L|207:122,1,33.2499989852906,2|0,0:0|0:0,0:0:0:0:
243,133,2178,2,0,L|207:122,1,33.2499989852906,2|0,0:0|0:0,0:0:0:0:
243,133,2332,2,0,L|207:122,1,33.2499989852906,2|0,0:0|0:0,0:0:0:0:
112,201,2486,6,0,L|148:190,1,33.2499989852906,2|0,0:0|0:0,0:0:0:0:
243,133,2640,6,0,L|207:122,1,33.2499989852906,2|0,0:0|0:0,0:0:0:0:
243,133,2794,2,0,L|207:122,1,33.2499989852906,2|0,0:0|0:0,0:0:0:0:
243,133,2948,2,0,L|207:122,1,33.2499989852906,2|0,0:0|0:0,0:0:0:0:
112,201,3101,6,0,L|148:190,1,33.2499989852906,2|0,3:0|0:0,0:0:0:0:
243,133,3255,2,0,L|207:122,1,33.2499989852906,2|0,0:0|0:0,0:0:0:0:
139,307,3409,6,0,L|175:296,1,33.2499989852906,2|0,0:0|0:0,0:0:0:0:
270,239,3563,2,0,L|234:228,1,33.2499989852906,2|0,0:0|0:0,0:0:0:0:
26,293,3717,5,2,0:0:0:0:
33,310,3793,1,2,0:0:0:0:
40,329,3870,1,2,0:0:0:0:
45,348,3947,1,2,0:0:0:0:
52,378,4024,5,2,0:0:0:0:
73,345,4100,1,2,0:0:0:0:
102,321,4177,1,2,0:0:0:0:
139,307,4254,1,2,0:0:0:0:
173,312,4332,5,6,0:0:0:0:
184,281,4408,1,2,0:0:0:0:
205,255,4485,1,2,0:0:0:0:
233,238,4562,1,2,0:0:0:0:
265,229,4639,1,2,0:0:0:0:
298,232,4716,1,2,0:0:0:0:
329,246,4793,1,2,0:0:0:0:
353,266,4870,1,2,0:0:0:0:
368,293,4947,5,2,3:0:0:0:
361,256,5023,1,2,0:0:0:0:
354,220,5100,1,2,0:0:0:0:
347,183,5177,1,2,0:0:0:0:
340,147,5254,1,2,0:0:0:0:
333,110,5331,1,2,0:0:0:0:
326,74,5408,1,2,0:0:0:0:
319,37,5485,1,2,0:0:0:0:
341,5,5563,5,2,3:0:0:0:
396,57,5640,1,2,0:0:0:0:
406,133,5717,1,2,0:0:0:0:
364,197,5794,1,2,0:0:0:0:
291,219,5871,1,2,0:0:0:0:
221,189,5948,1,2,0:0:0:0:
186,121,6025,1,2,0:0:0:0:
203,47,6102,1,2,0:0:0:0:
264,0,6178,6,0,B|295:37|286:82|286:82|207:8|97:34|97:34|117:52|124:80,1,341.999989562989,8|0,2:1|0:0,0:0:0:0:
95,144,6486,6,0,B|70:156|53:176|53:176|38:134|58:91,1,128.249996086121,2|0,0:0|0:0,0:0:0:0:
186,121,6794,6,0,P|180:168|186:214,1,95,4|0,1:1|0:0,0:0:0:0:
191,311,6947,6,0,P|216:304|237:288,1,52.2500015945435,2|0,0:0|0:0,0:0:0:0:
307,176,7101,2,0,P|300:201|303:227,1,52.2500015945435,10|0,0:0|0:0,0:0:0:0:
365,344,7255,2,0,P|346:325|322:315,1,52.2500015945435,2|0,0:0|0:0,0:0:0:0:
376,123,7409,6,0,P|384:149|390:173,1,52.2500015945435,2|0,1:2|0:0,0:0:0:0:
385,113,7563,2,0,P|393:139|399:163,1,52.2500015945435,2|0,0:0|0:0,0:0:0:0:
485,345,7717,2,0,P|490:319|499:294,1,52.2500015945435,10|0,0:0|0:0,0:0:0:0:
476,335,7871,2,0,P|481:309|490:284,1,52.2500015945435,2|0,0:0|0:0,0:0:0:0:
453,74,8024,6,0,P|437:52|415:39,1,52.2500015945435,2|0,1:2|0:0,0:0:0:0:
307,176,8178,2,0,P|304:149|298:124,1,52.2500015945435,2|0,0:0|0:0,0:0:0:0:
183,20,8332,2,0,P|176:44|179:70,1,52.2500015945435,10|0,0:0|0:0,0:0:0:0:
298,227,8486,2,0,P|300:200|306:175,1,52.2500015945435,2|0,0:0|0:0,0:0:0:0:
44,109,8640,6,0,P|57:131|66:155,1,52.2500015945435,2|0,1:2|0:0,0:0:0:0:
83,299,8794,2,0,P|95:276|111:255,1,52.2500015945435,2|0,0:0|0:0,0:0:0:0:
223,168,8947,2,0,P|196:168|171:164,1,52.2500015945435,10|0,0:0|0:0,0:0:0:0:
0,32,9101,6,0,P|25:27|51:28,1,52.2500015945435,2|0,0:0|0:0,0:0:0:0:
179,70,9255,6,0,L|344:49,1,161.500003080368,2|2,1:2|0:0,0:0:0:0:
339,49,9486,1,2,0:0:0:0:
339,49,9563,1,10,0:0:0:0:
179,70,9717,6,0,B|255:9|255:9|361:59,1,190,2|2,0:0|1:2,0:0:0:0:
339,49,9947,1,2,0:0:0:0:
339,49,10024,1,2,0:0:0:0:
179,70,10178,6,0,B|235:52|249:-8|249:-8|283:42|346:51,1,218.500004167557,10|2,0:0|0:0,0:0:0:0:
339,49,10409,1,2,0:0:0:0:
339,49,10486,1,2,1:2:0:0:
179,70,10640,6,0,B|199:23|199:23|257:26|306:10|306:10|344:56,1,209.000006378174,2|10,0:0|0:0,0:0:0:0:
339,49,10871,1,2,0:0:0:0:
339,49,10947,1,2,0:0:0:0:
497,223,11101,5,2,1:2:0:0:
454,185,11178,1,2,0:0:0:0:
398,183,11255,1,2,0:0:0:0:
354,218,11332,1,2,0:0:0:0:
340,252,11409,1,10,0:0:0:0:
310,275,11486,1,2,0:0:0:0:
287,278,11563,1,2,0:0:0:0:
268,265,11640,1,2,0:0:0:0:
266,243,11717,6,0,L|292:361,1,104.500003189087,6|0,1:2|0:0,0:0:0:0:
192,282,11871,2,0,L|208:356,1,76
116,320,12024,2,0,L|126:366,1,47.5,8|0,0:0|0:0,0:0:0:0:
126,366,12178,1,2,0:0:0:0:
126,366,12255,1,2,0:0:0:0:
126,366,12332,6,0,L|115:319,1,47.5,2|0,1:2|0:0,0:0:0:0:
208,356,12486,2,0,L|192:282,1,76
288,345,12640,2,0,L|266:243,1,104.500003189087,8|0,0:0|0:0,0:0:0:0:
348,149,12794,5,2,0:0:0:0:
348,149,12871,1,2,0:0:0:0:
347,149,12947,2,0,P|295:144|258:108,1,104.500003189087,2|0,1:2|0:0,0:0:0:0:
203,25,13101,2,0,P|167:38|137:61,1,76
74,149,13255,2,0,P|50:145|28:135,1,47.5,8|0,0:0|0:0,0:0:0:0:
28,135,13409,1,2,0:0:0:0:
28,135,13486,1,2,0:0:0:0:
28,135,13563,6,0,P|50:145|74:149,1,47.5,2|0,1:2|0:0,0:0:0:0:
137,61,13717,2,0,P|167:38|203:25,1,76
258,109,13871,2,0,P|295:144|347:149,1,104.500003189087,8|0,0:0|0:0,0:0:0:0:
439,51,14024,5,2,0:0:0:0:
439,51,14101,1,2,0:0:0:0:
439,51,14178,2,0,L|425:258,1,209.000006378174,2|2,1:2|0:0,0:0:0:0:
425,259,14409,1,2,0:0:0:0:
424,259,14486,2,0,P|452:245|476:226,1,61.7499971733095,10|0,0:0|0:0,0:0:0:0:
512,84,14640,6,0,B|514:161|440:160|437:153|434:145|354:137|354:215,1,237.5,2|2,0:0|1:2,0:0:0:0:
354,215,14871,1,2,0:0:0:0:
354,215,14947,2,0,P|348:245|331:270,1,61.7499971733095,2|0,0:0|0:0,0:0:0:0:
275,373,15101,2,0,P|232:360|201:326,1,90.2499975900651,10|0,0:0|0:0,0:0:0:0:
114,229,15255,5,2,0:0:0:0:
102,212,15332,1,2,0:0:0:0:
107,191,15409,1,2,1:2:0:0:
131,166,15486,1,2,0:0:0:0:
160,133,15563,1,2,0:0:0:0:
148,84,15639,1,2,0:0:0:0:
100,52,15716,5,8,0:0:0:0:
123,111,15793,1,2,0:0:0:0:
182,136,15870,1,2,0:0:0:0:
242,110,15947,1,2,0:0:0:0:
282,42,16024,6,0,P|405:40|315:120,1,313.500009567261,10|0,1:1|0:0,0:0:0:0:
253,172,16332,6,0,B|230:151|194:147|194:147|227:139|242:109,1,128.249996086121,10|0,1:0|0:0,0:0:0:0:
318,122,16640,6,0,P|334:168|323:217,1,95,6|0,1:2|0:0,0:0:0:0:
335,288,16794,2,0,P|356:303|374:322,1,52.2500015945435,2|0,0:0|0:0,0:0:0:0:
303,366,16947,2,0,P|279:376|253:382,1,52.2500015945435,10|0,0:0|0:0,0:0:0:0:
249,299,17101,2,0,P|254:272|262:247,1,52.2500015945435,2|0,0:0|0:0,0:0:0:0:
352,44,17255,6,0,P|378:59|396:77,1,52.2500015945435,2|0,1:2|0:0,0:0:0:0:
458,249,17409,2,0,P|463:224|473:199,1,52.2500015945435,2|0,0:0|0:0,0:0:0:0:
512,89,17563,2,0,P|498:95|477:110,1,52.2500015945435,10|0,0:0|0:0,0:0:0:0:
325,212,17717,2,0,P|306:188|283:174,1,52.2500015945435
121,39,17871,6,0,L|151:197,1,161.500003080368,2|2,1:2|0:0,0:0:0:0:
151,197,18101,1,2,0:0:0:0:
151,197,18178,1,10,0:0:0:0:
121,39,18332,6,0,B|111:73|111:73|158:165|158:165|149:217,1,170.999994781494,2|2,0:0|1:2,0:0:0:0:
151,197,18563,1,2,0:0:0:0:
151,197,18640,1,2,0:0:0:0:
252,304,18794,5,10,0:0:0:0:
209,279,18871,1,2,0:0:0:0:
157,303,18947,1,2,0:0:0:0:
118,284,19024,1,2,0:0:0:0:
87,299,19101,6,0,P|63:297|35:289,1,52.2500015945435,2|0,1:2|0:0,0:0:0:0:
151,197,19255,2,0,P|148:171|141:145,1,52.2500015945435,2|0,0:0|0:0,0:0:0:0:
87,299,19409,2,0,P|58:312|22:321,1,66.4999979705811,10|0,0:0|0:0,0:0:0:0:
151,197,19563,2,0,P|168:164|179:128,1,66.4999979705811,2|0,0:0|0:0,0:0:0:0:
127,13,19717,6,0,P|129:38|135:64,1,52.2500015945435,2|0,1:2|0:0,0:0:0:0:
248,180,19871,2,0,P|259:147|262:110,1,52.2500015945435,2|0,0:0|0:0,0:0:0:0:
403,32,20024,2,0,P|391:61|383:96,1,66.4999979705811,10|0,0:0|0:0,0:0:0:0:
262,244,20178,2,0,P|257:211|247:179,1,66.4999979705811,2|0,0:0|0:0,0:0:0:0:
473,228,20332,6,0,P|440:236|412:253,1,66.4999979705811,2|0,1:2|0:0,0:0:0:0:
320,357,20486,1,2,0:0:0:0:
320,357,20563,1,2,0:0:0:0:
320,357,20640,2,0,P|224:329|125:316,1,199.499993911743,8|0,0:0|0:0,0:0:0:0:
59,359,20947,6,0,B|22:324|-13:269|-9:211|36:150|100:136|135:166|151:206|128:239,1,341.999989562989,8|0,3:0|0:0,0:0:0:0:
125,316,21255,6,0,B|167:320|191:357|191:357|200:316|246:296,1,163.875003125668,4|0,3:0|0:0,0:0:0:0:
255,206,21563,6,0,B|264:188|264:188|212:205|212:205|239:241,1,95,4|0,1:1|0:0,0:0:0:0:
329,268,21717,6,0,L|317:333,1,66.4999979705811,2|0,0:0|0:0,0:0:0:0:
414,244,21871,2,0,L|402:309,1,66.4999979705811,10|0,0:0|0:0,0:0:0:0:
493,219,22024,2,0,L|481:284,1,66.4999979705811,2|0,0:0|0:0,0:0:0:0:
317,333,22178,6,0,L|328:267,1,66.4999979705811,2|0,1:2|0:0,0:0:0:0:
402,309,22332,2,0,L|413:243,1,66.4999979705811,2|0,0:0|0:0,0:0:0:0:
504,153,22486,2,0,L|492:218,1,66.4999979705811,10|0,0:0|0:0,0:0:0:0:
425,178,22640,2,0,L|413:243,1,66.4999979705811,2|0,0:0|0:0,0:0:0:0:
264,12,22794,6,0,P|294:24|317:47,1,66.4999979705811,2|0,1:2|0:0,0:0:0:0:
309,184,22947,2,0,P|321:153|345:130,1,66.4999979705811,2|0,0:0|0:0,0:0:0:0:
467,49,23101,2,0,L|382:72,1,66.4999979705811,10|0,0:0|0:0,0:0:0:0:
481,58,23255,2,0,L|396:81,1,66.4999979705811,2|0,0:0|0:0,0:0:0:0:
252,116,23409,6,0,P|221:103|198:80,1,66.4999979705811,2|0,1:2|0:0,0:0:0:0:
70,21,23563,2,0,P|89:47|102:78,1,66.4999979705811,2|0,0:0|0:0,0:0:0:0:
23,204,23717,2,0,P|47:181|78:169,1,66.4999979705811,10|0,0:0|0:0,0:0:0:0:
176,184,23871,2,0,P|183:216|186:249,1,66.4999979705811,2|0,0:0|0:0,0:0:0:0:
93,356,24024,6,0,B|64:318|64:318|202:350,1,190,6|2,1:2|0:0,0:0:0:0:
202,350,24255,1,2,0:0:0:0:
202,350,24332,1,2,0:0:0:0:
93,356,24486,6,0,B|88:331|50:315|50:315|235:358,1,218.500004167557,6|2,1:2|0:2,0:0:0:0:
202,350,24717,1,2,0:0:0:0:
202,350,24794,1,2,0:0:0:0:
93,356,24947,6,0,B|75:320|39:312|39:312|78:289|125:313|124:323|128:333|161:358|219:350,1,246.999988693238,6|2,1:2|0:0,0:0:0:0:
202,350,25178,1,2,0:0:0:0:
202,350,25255,1,2,0:2:0:0:
93,356,25409,6,0,B|49:360|29:311|29:311|77:321|108:304|115:300|120:296|140:315|138:323|135:330|147:360|216:348,1,275.500008407593,6|2,1:2|0:0,0:0:0:0:
202,350,25640,1,2,0:0:0:0:
202,350,25717,1,2,0:0:0:0:
328,108,25871,5,2,1:2:0:0:
290,151,25948,1,2,0:0:0:0:
288,207,26025,1,2,0:0:0:0:
322,251,26102,1,2,0:0:0:0:
357,265,26179,1,10,0:0:0:0:
380,295,26256,1,2,0:0:0:0:
383,318,26333,1,2,0:0:0:0:
370,337,26410,1,2,0:0:0:0:
348,339,26486,6,0,P|323:300|364:232,1,104.500003189087,6|0,1:2|0:0,0:0:0:0:
478,149,26640,2,0,P|468:182|431:192,1,76
328,108,26794,2,0,L|332:60,1,47.5,8|0,0:0|0:0,0:0:0:0:
332,60,26947,1,2,0:0:0:0:
332,60,27024,1,2,0:0:0:0:
332,60,27101,6,0,L|328:108,1,47.5,2|0,1:2|0:0,0:0:0:0:
430,191,27255,2,0,P|466:183|477:148,1,76
339,247,27409,2,0,P|322:294|347:338,1,104.500003189087,8|0,0:0|0:0,0:0:0:0:
177,263,27563,1,2,0:0:0:0:
177,263,27640,1,2,0:0:0:0:
176,262,27717,6,0,P|136:231|125:181,1,104.500003189087,2|0,1:2|0:0,0:0:0:0:
186,27,27871,2,0,P|184:64|165:96,1,76
27,123,28024,2,0,P|46:109|69:103,1,47.5,8|0,0:0|0:0,0:0:0:0:
69,103,28178,1,2,0:0:0:0:
69,103,28255,1,2,0:0:0:0:
69,103,28332,6,0,P|46:109|26:123,1,47.5,2|0,1:2|0:0,0:0:0:0:
165,96,28486,2,0,P|184:63|185:26,1,76
125,181,28640,2,0,P|135:231|176:262,1,104.500003189087,8|0,0:0|0:0,0:0:0:0:
347,318,28794,1,2,0:0:0:0:
347,318,28871,1,2,0:0:0:0:
347,318,28947,6,0,B|293:280|242:323|245:333|245:342|191:382|139:341,1,209.000006378174,2|2,1:2|0:0,0:0:0:0:
156,351,29178,1,2,0:0:0:0:
156,351,29255,2,0,L|173:281,1,61.7499971733095,10|0,0:0|0:0,0:0:0:0:
264,148,29409,6,0,B|280:114|280:114|211:151|211:151|253:243,1,209.000006378174,2|2,0:0|1:2,0:0:0:0:
249,235,29640,1,2,0:0:0:0:
249,235,29717,2,0,L|329:214,1,61.7499971733095,2|0,0:0|0:0,0:0:0:0:
391,245,29871,2,0,L|467:337,1,90.2499975900651,10|0,0:0|0:0,0:0:0:0:
283,380,30024,5,2,0:0:0:0:
295,363,30101,1,2,0:0:0:0:
290,342,30178,1,2,1:2:0:0:
266,317,30255,1,2,0:0:0:0:
237,284,30332,1,2,0:0:0:0:
249,235,30408,1,2,0:0:0:0:
297,203,30485,5,8,0:0:0:0:
274,262,30562,1,2,0:0:0:0:
215,287,30639,1,2,0:0:0:0:
155,261,30716,1,2,0:0:0:0:
124,185,30794,6,0,B|108:176|116:137|116:137|164:138|193:159|193:159|199:124|237:92|237:92|270:112|267:134,1,270.749992770195,8|0,1:0|0:0,0:0:0:0:
297,203,31101,2,0,B|342:185|353:142|353:142|360:185|395:216,1,170.999994781494,8|0,1:0|0:0,0:0:0:0:
475,185,31409,6,0,P|491:196|479:180,1,56.9999982604981,6|0,1:2|0:0,0:0:0:0:
454,282,31563,2,0,P|452:307|446:282,1,71.2500027179719,2|0,0:0|0:0,0:0:0:0:
353,331,31717,2,0,P|331:360|343:326,1,99.7499969558717,10|0,0:0|0:0,0:0:0:0:
228,247,31871,2,0,P|180:265|217:234,1,142.500005435944,2|0,0:0|0:0,0:0:0:0:
369,152,32024,6,0,B|358:156|343:136|366:111|399:104|428:131|429:161|412:196|374:216|316:205|286:107|225:153,1,285.000010871888,6|0,1:2|0:0,0:0:0:0:
157,164,32255,1,2,1:2:0:0:
157,164,32332,2,0,P|139:142|133:114,1,56.9999982604981
231,0,32486,2,0,P|237:48|204:81,1,99.7499969558717,2|0,1:2|0:0,0:0:0:0:
41,136,32640,6,0,P|104:233|124:344,1,227.999993041992,6|0,1:2|0:0,0:0:0:0:
18,361,32871,1,2,1:2:0:0:
18,361,32947,2,0,P|13:327|52:332,1,71.2500027179719
217,234,33101,2,0,P|263:245|281:290,1,99.7499969558717,2|0,1:2|0:0,0:0:0:0:
124,342,33255,6,0,B|149:365|149:365|214:358|214:358|235:333|235:333|297:327|297:327|322:348,1,227.999993041992,6|0,1:2|0:0,0:0:0:0:
417,324,33486,1,2,1:2:0:0:
417,324,33563,2,0,B|397:338|397:338|391:384,1,71.2500027179719
281,290,33717,2,0,B|310:277|310:277|320:185,1,104.500003189087,2|0,1:2|0:0,0:0:0:0:
500,83,33871,5,6,1:2:0:0:
466,36,33947,1,2,0:0:0:0:
411,8,34024,1,2,0:0:0:0:
355,8,34101,1,2,0:0:0:0:
326,37,34178,1,10,0:0:0:0:
306,60,34255,1,2,0:0:0:0:
275,65,34332,1,2,0:0:0:0:
257,50,34409,1,2,0:0:0:0:
264,28,34486,5,2,1:2:0:0:
290,29,34563,1,2,0:0:0:0:
304,43,34640,1,2,0:0:0:0:
299,72,34717,1,2,0:0:0:0:
270,99,34794,1,10,0:0:0:0:
235,142,34870,1,2,0:0:0:0:
246,200,34947,1,2,0:0:0:0:
302,226,35024,1,2,0:0:0:0:
356,202,35101,6,0,P|385:184|397:137,1,71.2500027179719,6|0,1:2|0:0,0:0:0:0:
504,86,35255,2,0,P|492:119|503:152,1,71.2500027179719,2|0,1:2|0:0,0:0:0:0:
508,272,35409,2,0,P|480:250|443:244,1,71.2500027179719,2|0,1:2|0:0,0:0:0:0:
333,347,35563,2,0,P|363:356|370:325,1,71.2500027179719,2|0,1:2|0:0,0:0:0:0:
302,226,35717,5,2,1:2:0:0:
261,204,35793,1,0,1:2:0:0:
226,203,35870,1,0,1:2:0:0:
196,217,35947,1,0,1:2:0:0:
180,235,36024,1,2,1:2:0:0:
160,236,36101,1,0,1:2:0:0:
148,222,36178,1,0,1:2:0:0:
152,205,36255,1,0,1:2:0:0:
165,195,36332,6,0,L|152:321,1,126.666666666667,6|0,1:1|0:0,0:0:0:0:
74,293,36640,1,10,0:0:0:0:
221,373,36742,1,10,0:0:0:0:
226,203,36845,1,10,0:0:0:0:
53,360,36947,6,0,L|38:234,1,126.666666666667,2|0,1:2|0:0,0:0:0:0:
33,41,37255,1,10,0:0:0:0:
141,105,37358,1,8,0:0:0:0:
0,140,37460,1,8,0:0:0:0:
157,26,37563,6,0,B|223:32|223:32|230:37|230:37|281:42,1,126.666666666667,2|0,1:2|0:0,0:0:0:0:
494,97,37871,1,10,0:0:0:0:
390,20,37973,1,8,0:0:0:0:
425,205,38076,1,10,0:0:0:0:
323,127,38178,6,0,B|274:137|249:129|249:129|277:147|283:168,1,126.666666666667,2|2,1:2|0:0,0:0:0:0:
435,374,38486,1,10,0:0:0:0:
336,243,38588,1,8,0:0:0:0:
486,285,38691,1,10,0:0:0:0:
333,347,38794,6,0,P|282:313|206:319,1,126.666666666667,2|0,1:2|0:0,0:0:0:0:
86,379,39101,1,10,0:0:0:0:
209,242,39204,1,8,0:0:0:0:
32,215,39306,1,10,0:0:0:0:
189,380,39409,6,0,P|250:382|291:336,1,126.666666666667,2|2,1:2|0:0,0:0:0:0:
286,167,39717,2,0,P|291:198|308:228,1,63.3333333333333,10|10,0:0|0:0,0:0:0:0:
422,293,39922,1,10,0:0:0:0:
507,114,40024,5,2,1:2:0:0:
466,45,40127,1,0,0:0:0:0:
401,21,40229,1,2,0:0:0:0:
351,22,40332,1,8,0:0:0:0:
314,43,40435,1,8,0:0:0:0:
302,61,40537,1,10,0:0:0:0:
298,76,40640,5,2,1:2:0:0:
322,72,40742,1,8,0:0:0:0:
358,83,40845,1,8,0:0:0:0:
390,115,40947,1,10,0:0:0:0:
410,165,41050,1,8,0:0:0:0:
396,230,41153,1,8,0:0:0:0:
338,277,41255,6,0,P|282:248|219:247,1,126.666666666667,6|0,1:2|0:0,0:0:0:0:
41,292,41563,1,10,0:0:0:0:
173,180,41665,1,10,0:0:0:0:
202,345,41768,1,10,0:0:0:0:
88,208,41871,6,0,B|99:158|99:158|98:151|98:151|114:84,1,126.666666666667,2|0,1:2|0:0,0:0:0:0:
309,48,42178,1,10,0:0:0:0:
192,1,42281,1,8,0:0:0:0:
272,159,42383,1,8,0:0:0:0:
114,84,42486,6,0,B|59:114|59:114|88:171,1,126.666666666667,2|0,1:2|0:0,0:0:0:0:
202,345,42794,1,10,0:0:0:0:
173,180,42896,1,8,0:0:0:0:
41,292,42999,1,10,0:0:0:0:
246,84,43101,6,0,B|285:64|321:84|315:97|352:118|388:96,1,151.999995361328,2|2,1:2|0:0,0:0:0:0:
469,49,43409,1,10,0:0:0:0:
507,232,43511,1,10,0:0:0:0:
367,178,43614,1,10,0:0:0:0:
395,333,43717,5,2,1:2:0:0:
345,375,43819,1,0,0:0:0:0:
289,371,43922,1,0,0:0:0:0:
262,336,44024,1,10,0:0:0:0:
257,297,44127,1,8,0:0:0:0:
267,274,44229,1,8,0:0:0:0:
299,281,44332,5,2,1:2:0:0:
305,254,44435,1,0,0:0:0:0:
299,220,44537,1,0,0:0:0:0:
265,187,44640,1,10,0:0:0:0:
214,182,44742,1,8,0:0:0:0:
171,217,44845,1,8,0:0:0:0:
166,276,44947,6,0,L|186:332,3,47.5,2|8|10|8,1:2|0:0|0:0|0:0,0:0:0:0:
57,204,45255,2,0,L|72:159,3,47.5,10|8|10|8,0:0|0:0|0:0|0:0,0:0:0:0:
71,361,45563,5,10,0:0:0:0:
85,328,45639,1,8,0:0:0:0:
114,308,45716,1,8,0:0:0:0:
149,305,45793,1,8,0:0:0:0:
181,320,45871,5,10,0:0:0:0:
217,361,45947,1,8,0:0:0:0:
273,366,46024,1,8,0:0:0:0:
316,331,46101,1,8,0:0:0:0:
323,276,46178,6,0,P|308:244|310:209,1,71.2500027179719,4|0,1:1|0:0,0:0:0:0:
418,71,46332,2,0,P|412:106|394:136,1,71.2500027179719,2|0,0:0|0:0,0:0:0:0:
238,167,46486,2,0,B|234:148|220:128|220:128|242:143|259:143,1,85.4999973907472,10|0,0:0|0:0,0:0:0:0:
489,247,46640,2,0,B|518:255|522:300|522:300|476:224|411:212|411:212|415:239|385:266,1,256.499992172241,2|0,0:0|0:0,0:0:0:0:
323,276,46947,6,0,P|290:262|254:257,1,71.2500027179719,2|0,0:0|0:0,0:0:0:0:
117,88,47101,2,0,P|142:112|158:144,1,71.2500027179719,10|0,0:0|0:0,0:0:0:0:
124,353,47255,2,0,B|95:296|35:274|35:274|114:258|165:230|165:230|150:274,1,285,2|0,0:0|0:0,0:0:0:0:
124,352,47563,6,0,P|156:338|193:333,1,71.2500027179719,2|0,0:0|0:0,0:0:0:0:
323,276,47717,5,10,0:0:0:0:
352,302,47794,1,2,0:0:0:0:
416,332,47871,1,2,0:0:0:0:
441,303,47948,1,2,0:0:0:0:
489,247,48024,6,0,P|475:204|465:147,1,85.4999973907472,2|0,1:2|0:0,0:0:0:0:
470,76,48178,1,2,0:0:0:0:
444,86,48255,1,2,0:0:0:0:
417,97,48332,1,10,0:0:0:0:
391,107,48409,1,2,0:0:0:0:
364,118,48486,1,2,0:0:0:0:
337,128,48562,1,2,0:0:0:0:
311,142,48640,6,0,B|269:140|269:140|232:116,1,85.4999973907472,2|0,1:2|0:0,0:0:0:0:
414,14,48794,2,0,B|427:53|427:53|417:96,1,85.4999973907472,2|0,0:0|0:0,0:0:0:0:
381,234,48947,2,0,P|382:255|389:229,1,85.4999973907472,10|0,0:0|0:0,0:0:0:0:
232,116,49101,2,0,P|214:94|219:112,1,85.4999973907472,2|0,0:0|0:0,0:0:0:0:
66,255,49255,5,2,1:2:0:0:
81,255,49332,1,2,0:0:0:0:
98,262,49409,1,2,0:0:0:0:
116,282,49486,1,2,0:0:0:0:
139,315,49563,1,10,0:0:0:0:
179,337,49640,1,2,0:0:0:0:
235,330,49717,1,2,0:0:0:0:
271,281,49794,1,2,0:0:0:0:
263,230,49871,6,0,P|305:236|337:264,1,85.4999973907472,2|0,1:2|0:0,0:0:0:0:
490,202,50024,2,0,P|482:247|455:276,1,85.4999973907472,2|0,0:0|0:0,0:0:0:0:
366,353,50178,2,0,P|390:377|395:343,1,85.4999973907472,10|0,0:0|0:0,0:0:0:0:
306,99,50332,2,0,B|353:105|363:159|363:159|334:123|270:117|270:117|267:109|267:109|229:107|202:136|202:136|230:140|246:152,1,313.500009567261,2|0,0:0|0:0,0:0:0:0:
179,337,50640,5,2,0:0:0:0:
138,279,50717,1,0,0:0:0:0:
95,219,50794,2,0,B|112:185|91:156|91:156|37:81|37:81|107:26|107:26|76:55|84:125,1,313.500009567261,10|0,0:0|0:0,0:0:0:0:
0,384,51101,6,0,L|-14:332,2,47.5,2|2|2,0:0|0:0|0:0,0:0:0:0:
191,291,51563,2,0,L|179:337,2,47.5,2|2|2,0:0|0:0|0:0,0:0:0:0:
352,384,52024,6,0,L|338:332,5,47.5,10|8|10|8|10|8,0:0|0:0|0:0|0:0|0:0|0:0,0:0:0:0:
487,231,52486,2,0,L|475:277,5,47.5,10|8|8|8|10|8,0:0|0:0|0:0|0:0|0:0|0:0,0:0:0:0:
344,104,52947,5,2,1:2:0:0:
355,101,53023,1,0,1:2:0:0:
367,98,53100,1,0,1:2:0:0:
378,95,53177,1,0,1:2:0:0:
390,92,53254,1,2,1:2:0:0:
401,89,53331,1,0,1:2:0:0:
413,86,53408,1,0,1:2:0:0:
424,84,53485,1,0,1:2:0:0:
436,81,53564,5,6,1:1:0:0:
395,24,53640,1,0,0:0:0:0:
327,9,53717,1,0,0:0:0:0:
267,44,53794,1,0,0:0:0:0:
245,110,53871,1,2,0:0:0:0:
274,173,53948,1,2,0:0:0:0:
337,201,54024,5,6,1:2:0:0:
392,159,54100,1,2,0:0:0:0:
461,170,54177,1,2,0:0:0:0:
499,228,54254,1,2,0:0:0:0:
484,295,54331,1,2,0:0:0:0:
424,330,54408,1,2,0:0:0:0:
356,312,54487,5,6,1:2:0:0:
350,293,54563,1,2,0:0:0:0:
346,275,54640,1,2,0:0:0:0:
345,257,54717,1,2,0:0:0:0:
346,239,54794,1,2,0:0:0:0:
349,221,54871,1,2,0:0:0:0:
381,185,54948,5,6,1:2:0:0:
411,148,55024,1,2,0:0:0:0:
417,102,55101,1,2,0:0:0:0:
396,60,55178,1,2,0:0:0:0:
356,36,55255,1,2,0:0:0:0:
310,37,55332,1,2,0:0:0:0:
258,71,55410,5,6,1:2:0:0:
302,125,55486,1,2,0:0:0:0:
371,134,55563,1,2,0:0:0:0:
427,93,55640,1,2,0:0:0:0:
439,24,55718,5,6,1:2:0:0:
370,39,55794,1,2,0:0:0:0:
327,94,55871,1,2,0:0:0:0:
330,164,55948,1,2,0:0:0:0:
377,216,56024,6,0,L|459:196,1,61.7499971733095,6|0,1:2|0:0,0:0:0:0:
333,326,56178,2,0,L|415:306,1,61.7499971733095,0|0,1:2|0:0,0:0:0:0:
195,204,56332,2,0,L|277:184,1,61.7499971733095,0|2,1:2|0:0,0:0:0:0:
126,384,56486,2,0,L|208:364,1,61.7499971733095,4|2,1:2|0:0,0:0:0:0:
18,188,56640,5,2,1:2:0:0:
44,203,56716,1,2,1:2:0:0:
66,224,56793,1,2,1:2:0:0:
82,251,56870,1,2,1:2:0:0:
90,280,56948,5,6,1:2:0:0:
119,240,57024,1,2,1:2:0:0:
159,211,57101,1,2,1:2:0:0:
204,193,57178,1,2,1:2:0:0:
254,189,57255,6,0,B|284:214|281:252|281:252|293:190|338:161|349:194|392:160|402:95|352:32|276:35|256:105,1,370.499983039857,6|0,1:2|0:0,0:0:0:0:
108,94,57871,2,0,B|153:77|197:113|197:113|177:56|215:10,1,190,2|0,0:0|0:0,0:0:0:0:
131,180,58332,1,2,0:0:0:0:
131,180,58409,1,2,0:0:0:0:
131,180,58486,6,0,B|61:183|21:220|21:220|41:189|42:148,1,190,6|2,0:0|0:0,0:0:0:0:
256,146,59717,2,0,B|216:108|216:58|258:27|258:27|251:63|272:85,1,190,2|2,0:0|0:0,0:0:0:0:
483,209,60947,1,2,0:0:0:0:
344,95,61409,1,2,0:0:0:0:
344,95,61563,1,2,0:0:0:0:
484,125,62178,5,2,0:0:0:0:
385,201,62486,1,2,0:0:0:0:
348,286,62794,1,2,0:0:0:0:
350,370,63101,1,2,0:0:0:0:
473,263,63409,6,0,B|428:281|425:337|425:337|395:288|334:284,1,190,2|2,0:0|0:0,0:0:0:0:
156,256,64332,1,2,0:0:0:0:
248,383,64640,2,0,P|249:288|272:196,1,190,2|2,0:0|0:0,0:0:0:0:
272,196,65871,5,2,0:0:0:0:
174,26,66486,1,2,0:0:0:0:
32,136,66794,1,2,0:0:0:0:
14,54,67101,2,0,P|83:64|116:124,1,142.5,2|2,0:0|0:0,0:0:0:0:
92,199,67640,1,2,0:0:0:0:
92,199,67717,2,0,P|123:163|164:140,1,95,2|0,0:0|0:0,0:0:0:0:
334,88,68178,2,0,L|325:67,1,23.75,2|2,0:0|0:0,0:0:0:0:
389,13,68332,6,0,L|353:220,1,190,2|2,0:0|0:0,0:0:0:0:
157,292,69563,2,0,P|267:305|332:353,1,190,2|2,0:0|0:0,0:0:0:0:
494,371,70794,1,2,0:0:0:0:
356,199,71255,1,2,0:0:0:0:
356,199,71409,1,2,0:0:0:0:
467,43,72024,5,2,0:0:0:0:
346,112,72332,1,2,0:0:0:0:
241,121,72640,1,2,0:0:0:0:
158,87,72947,1,2,0:0:0:0:
111,23,73255,6,0,P|138:83|166:214,1,190,2|2,0:0|0:0,0:0:0:0:
30,320,74178,1,2,0:0:0:0:
0,146,74486,2,0,P|46:154|82:184,1,95,2|2,0:0|0:0,0:0:0:0:
259,256,75101,2,0,P|214:271|178:301,1,95,2|2,0:0|0:0,0:0:0:0:
99,372,75717,6,0,P|95:277|82:183,1,190,2|2,0:0|0:0,0:0:0:0:
187,59,76640,1,2,0:0:0:0:
298,181,76947,6,0,B|332:210|379:178|366:159|414:133|463:173,1,166.25,2|2,0:0|0:0,0:0:0:0:
488,231,77563,6,0,L|479:276,3,23.75,2|2|2|2,0:0|0:0|0:0|0:0,0:0:0:0:
375,324,77871,2,0,L|358:265,3,47.5,2|2|2|2,0:0|0:0|0:0|0:0,0:0:0:0:
318,110,78178,5,4,1:2:0:0:
270,75,78254,1,0,0:0:0:0:
213,86,78331,1,0,0:0:0:0:
182,135,78408,1,0,0:0:0:0:
196,191,78485,1,0,0:0:0:0:
421,99,78640,5,4,1:2:0:0:
398,141,78716,1,0,0:0:0:0:
381,185,78793,1,0,0:0:0:0:
369,231,78870,1,0,0:0:0:0:
361,277,78947,1,0,0:0:0:0:
76,350,79101,5,4,1:2:0:0:
107,316,79177,1,0,0:0:0:0:
123,273,79254,1,0,0:0:0:0:
162,297,79332,1,0,0:0:0:0:
206,306,79409,1,0,0:0:0:0:
456,70,79563,5,4,1:2:0:0:
421,99,79639,1,0,0:0:0:0:
398,138,79716,1,0,0:0:0:0:
363,109,79794,1,0,0:0:0:0:
321,93,79871,1,0,0:0:0:0:
26,49,80024,5,4,1:2:0:0:
38,56,80101,1,0,0:0:0:0:
51,67,80178,2,0,P|64:86|73:108,1,47.5
262,161,80332,5,12,1:1:0:0:
240,170,80409,1,0,0:0:0:0:
220,185,80486,2,0,P|196:214|181:247,1,47.5
7,361,80640,5,4,1:1:0:0:
0,291,80716,1,0,3:0:0:0:
29,239,80794,1,0,3:0:0:0:
72,212,80870,1,0,3:0:0:0:
113,203,80947,1,8,1:2:0:0:
148,209,81024,1,0,3:0:0:0:
172,220,81101,1,2,3:2:0:0:
188,231,81178,1,0,3:0:0:0:
204,246,81255,5,2,1:2:0:0:
219,270,81332,1,0,3:2:0:0:
234,306,81409,1,0,3:2:0:0:
257,346,81486,1,0,3:2:0:0:
310,374,81563,1,8,1:2:0:0:
369,373,81640,1,0,3:2:0:0:
425,338,81717,1,0,3:2:0:0:
450,287,81794,1,0,3:2:0:0:
448,223,81871,5,2,1:2:0:0:
417,186,81947,1,0,3:2:0:0:
410,140,82024,1,2,3:0:0:0:
428,97,82101,1,0,3:2:0:0:
466,68,82178,5,10,1:2:0:0:
447,112,82254,1,0,3:2:0:0:
410,140,82331,1,2,3:0:0:0:
362,143,82408,1,0,3:2:0:0:
324,132,82486,5,2,1:2:0:0:
370,123,82562,1,0,3:2:0:0:
414,139,82639,1,0,3:2:0:0:
442,177,82716,1,0,3:2:0:0:
448,223,82794,5,12,1:2:0:0:
411,193,82870,1,0,3:2:0:0:
364,192,82947,1,0,3:2:0:0:
326,219,83024,1,0,3:2:0:0:
312,263,83101,5,6,1:2:0:0:
285,199,83177,1,0,3:2:0:0:
228,169,83254,1,0,3:2:0:0:
180,172,83331,1,0,3:2:0:0:
146,192,83408,1,8,1:2:0:0:
130,212,83485,1,0,3:2:0:0:
123,224,83563,1,0,3:2:0:0:
119,233,83639,1,0,3:2:0:0:
117,241,83717,5,2,1:2:0:0:
167,234,83793,1,0,3:2:0:0:
216,255,83870,1,0,3:2:0:0:
245,297,83947,1,0,3:2:0:0:
245,351,84024,5,10,1:2:0:0:
204,317,84101,1,0,3:2:0:0:
151,311,84178,1,0,3:2:0:0:
104,335,84255,1,0,3:2:0:0:
78,381,84332,5,2,1:2:0:0:
62,326,84408,1,0,3:2:0:0:
47,271,84485,1,0,3:2:0:0:
32,216,84562,1,0,3:2:0:0:
18,160,84640,5,10,1:2:0:0:
72,138,84716,1,0,3:2:0:0:
130,149,84793,1,0,3:2:0:0:
173,189,84870,1,0,3:2:0:0:
188,246,84947,5,2,1:2:0:0:
206,215,85024,1,0,3:2:0:0:
235,195,85101,1,0,3:2:0:0:
270,189,85178,1,0,3:2:0:0:
304,199,85255,5,10,1:2:0:0:
316,154,85331,1,0,3:2:0:0:
349,120,85408,1,0,3:2:0:0:
394,106,85485,1,0,3:2:0:0:
440,116,85563,5,6,1:2:0:0:
423,182,85639,1,0,3:2:0:0:
386,230,85716,1,0,3:2:0:0:
331,246,85793,1,0,3:2:0:0:
285,242,85870,1,8,1:2:0:0:
259,230,85947,1,0,3:2:0:0:
243,218,86024,1,0,3:2:0:0:
232,207,86101,1,0,3:2:0:0:
228,197,86178,5,2,1:2:0:0:
199,238,86254,1,0,3:2:0:0:
148,252,86331,1,0,3:2:0:0:
103,229,86408,1,0,3:2:0:0:
83,184,86486,5,10,1:2:0:0:
133,212,86562,1,0,3:2:0:0:
164,259,86639,1,0,3:2:0:0:
171,317,86717,1,0,3:2:0:0:
155,372,86794,5,6,1:2:0:0:
99,339,86870,1,0,3:2:0:0:
66,294,86947,1,0,3:2:0:0:
61,245,87024,1,0,3:2:0:0:
66,207,87101,1,8,1:2:0:0:
83,184,87178,1,0,3:2:0:0:
94,163,87255,1,2,3:2:0:0:
90,147,87332,1,2,3:2:0:0:
80,137,87409,5,6,1:2:0:0:
147,122,87486,1,0,3:2:0:0:
207,147,87563,1,0,3:2:0:0:
239,197,87640,1,0,3:2:0:0:
271,241,87716,1,8,1:2:0:0:
315,259,87793,1,0,1:2:0:0:
352,253,87870,1,0,1:2:0:0:
375,238,87947,1,0,1:2:0:0:
386,212,88024,5,4,1:1:0:0:
367,211,88101,1,0,3:2:0:0:
342,202,88178,1,0,3:2:0:0:
311,181,88255,1,0,3:2:0:0:
291,143,88332,1,8,1:2:0:0:
290,91,88409,1,0,3:2:0:0:
324,42,88486,1,0,3:2:0:0:
388,20,88563,1,0,3:2:0:0:
450,48,88640,5,2,1:2:0:0:
449,74,88717,1,0,3:2:0:0:
440,104,88794,1,0,3:2:0:0:
416,134,88871,1,0,3:2:0:0:
379,158,88947,1,8,1:2:0:0:
328,161,89024,1,0,3:2:0:0:
275,138,89101,1,0,3:2:0:0:
243,84,89178,1,0,3:2:0:0:
247,18,89255,5,2,1:2:0:0:
267,27,89332,1,0,3:2:0:0:
290,43,89409,1,0,3:2:0:0:
313,73,89486,1,0,3:2:0:0:
325,113,89563,1,8,1:2:0:0:
316,162,89640,1,0,3:2:0:0:
282,212,89717,1,0,3:2:0:0:
220,233,89794,1,0,3:2:0:0:
153,215,89871,5,2,1:2:0:0:
159,193,89947,1,0,3:2:0:0:
172,170,90024,1,0,3:2:0:0:
195,147,90101,1,0,3:2:0:0:
234,129,90178,1,8,1:2:0:0:
286,125,90255,1,0,3:2:0:0:
341,146,90332,1,0,3:2:0:0:
379,197,90409,1,0,3:2:0:0:
387,267,90486,5,6,1:2:0:0:
323,237,90563,1,0,3:2:0:0:
289,178,90640,1,0,3:2:0:0:
286,125,90717,1,0,3:2:0:0:
305,79,90794,1,8,1:2:0:0:
336,51,90871,1,0,3:2:0:0:
367,37,90947,1,2,3:2:0:0:
392,31,91024,1,0,3:2:0:0:
415,32,91101,5,2,1:2:0:0:
395,22,91178,1,0,3:2:0:0:
368,14,91255,1,0,3:2:0:0:
337,13,91332,1,0,3:2:0:0:
297,24,91409,1,10,1:2:0:0:
255,47,91486,1,0,3:2:0:0:
221,91,91563,1,0,3:2:0:0:
206,152,91640,1,0,3:2:0:0:
223,221,91718,5,6,1:2:0:0:
269,221,91794,1,0,3:2:0:0:
308,194,91871,1,0,3:2:0:0:
324,150,91948,1,0,3:2:0:0:
314,106,92024,6,0,L|227:93,2,69.6666687927247,14|0|0,1:2|0:0|0:0,0:0:0:0:
399,96,92332,2,0,L|367:13,2,88.6666639607748,6|0|0,1:2|0:0|0:0,0:0:0:0:
444,175,92640,2,0,L|512:91,2,107.666668720245,6|0|0,1:2|1:0|1:0,0:0:0:0:
418,265,92947,5,6,1:1:0:0:
356,209,93050,1,0,0:0:0:0:
276,196,93153,1,0,0:0:0:0:
208,229,93255,1,8,0:0:0:0:
183,283,93358,1,8,0:0:0:0:
155,325,93460,1,8,0:0:0:0:
109,350,93563,1,2,1:2:0:0:
68,345,93665,1,0,0:0:0:0:
46,323,93768,1,8,0:0:0:0:
44,297,93871,1,8,0:0:0:0:
57,277,93973,1,8,0:0:0:0:
73,269,94076,1,8,0:0:0:0:
91,273,94178,5,2,1:2:0:0:
108,287,94281,1,8,0:0:0:0:
127,309,94383,1,8,0:0:0:0:
145,337,94486,1,10,0:2:0:0:
171,361,94588,1,8,0:0:0:0:
209,381,94691,1,8,0:0:0:0:
261,383,94794,1,10,1:2:0:0:
315,362,94896,1,8,0:0:0:0:
352,317,94999,1,8,0:0:0:0:
365,257,95101,1,10,0:2:0:0:
347,197,95204,1,8,0:0:0:0:
287,150,95306,1,8,0:0:0:0:
209,132,95409,5,6,1:1:0:0:
258,191,95512,1,0,0:0:0:0:
331,216,95614,1,0,0:0:0:0:
395,203,95717,1,8,0:2:0:0:
444,164,95819,1,8,0:0:0:0:
468,115,95922,1,8,0:0:0:0:
472,73,96024,5,10,1:2:0:0:
434,70,96127,1,0,0:0:0:0:
381,79,96229,1,0,0:0:0:0:
331,102,96332,1,8,0:2:0:0:
283,144,96435,1,8,0:0:0:0:
252,204,96537,1,8,0:0:0:0:
244,276,96640,5,10,1:2:0:0:
224,203,96742,1,0,0:0:0:0:
164,162,96845,1,8,0:2:0:0:
96,158,96947,1,8,0:2:0:0:
47,183,97050,1,8,0:0:0:0:
21,221,97153,1,8,0:0:0:0:
12,251,97255,5,6,1:2:0:0:
27,227,97358,1,0,1:0:0:0:
61,213,97460,1,0,1:0:0:0:
107,212,97563,1,0,1:0:0:0:
156,244,97665,1,0,1:0:0:0:
169,308,97768,1,0,1:0:0:0:
125,368,97871,5,4,1:1:0:0:
159,361,97947,1,0,3:0:0:0:
194,354,98024,1,0,3:0:0:0:
229,347,98101,1,0,3:0:0:0:
250,315,98178,5,8,1:2:0:0:
285,322,98255,1,0,3:0:0:0:
320,329,98332,1,0,3:0:0:0:
354,336,98408,1,0,3:0:0:0:
373,370,98486,5,0,1:2:0:0:
407,363,98562,1,0,3:0:0:0:
442,356,98639,1,0,3:0:0:0:
477,349,98716,1,0,3:0:0:0:
512,340,98794,2,0,L|501:293,1,47.5,10|0,1:2|3:0,0:0:0:0:
506,102,98947,5,2,3:2:0:0:
463,45,99024,1,0,3:0:0:0:
400,29,99101,1,0,1:2:0:0:
347,49,99178,1,0,3:0:0:0:
319,93,99255,1,0,3:0:0:0:
313,133,99332,1,0,3:0:0:0:
320,163,99409,5,10,1:2:0:0:
320,163,99486,1,0,3:0:0:0:
320,163,99563,2,0,L|337:106,1,47.5,0|0,3:0|3:0,0:0:0:0:
186,47,99717,5,2,1:2:0:0:
186,47,99794,1,0,3:0:0:0:
186,47,99871,2,0,L|210:129,1,66.4999979705811,0|0,3:0|3:0,0:0:0:0:
57,222,100024,5,8,1:2:0:0:
57,222,100101,1,0,3:0:0:0:
57,222,100178,2,0,L|81:140,1,85.4999973907472,0|0,3:0|3:0,0:0:0:0:
186,46,100332,5,6,1:2:0:0:
239,6,100408,1,0,3:0:0:0:
307,0,100485,1,0,3:0:0:0:
368,27,100562,1,0,3:0:0:0:
405,83,100639,1,8,1:2:0:0:
409,151,100716,1,0,3:0:0:0:
377,210,100793,1,0,3:0:0:0:
319,244,100870,1,0,3:0:0:0:
250,244,100947,5,6,1:2:0:0:
214,166,101023,1,0,3:0:0:0:
137,130,101100,1,0,3:0:0:0:
56,150,101177,1,0,3:0:0:0:
6,215,101254,5,10,1:2:0:0:
5,298,101331,1,0,3:0:0:0:
56,363,101408,1,0,3:0:0:0:
136,384,101485,1,0,3:0:0:0:
223,362,101563,6,0,B|285:298|294:220|190:191|177:91|273:11|273:11|376:77|323:165,1,565.250010781288,2|0,3:2|0:0,0:0:0:0:
139,222,102178,6,0,B|85:240|88:302|88:302|173:200|260:198|260:198|299:260|370:227,1,432.249980213166,2|0,0:0|0:0,0:0:0:0:
408,160,102794,5,6,0:0:0:0:
459,251,102947,1,2,0:0:0:0:
459,251,103101,1,10,0:0:0:0:
459,251,103255,1,2,0:0:0:0:
512,98,103409,5,10,0:0:0:0:
459,251,103563,1,2,0:0:0:0:
459,251,103717,1,10,0:0:0:0:
459,251,103871,1,2,0:0:0:0:
308,316,104024,5,10,0:0:0:0:
459,251,104178,1,2,0:0:0:0:
459,251,104255,1,2,0:0:0:0:
459,251,104332,1,10,0:0:0:0:
511,105,104486,5,2,0:0:0:0:
459,251,104640,1,10,0:0:0:0:
459,251,104717,1,2,0:0:0:0:
459,251,104794,1,2,0:0:0:0:
359,67,104947,1,10,0:0:0:0:
324,59,105023,1,0,0:0:0:0:
289,52,105100,1,0,0:0:0:0:
254,44,105177,1,0,0:0:0:0:
219,37,105255,6,0,L|242:104,1,47.5,14|0,1:2|0:0,0:0:0:0:
269,178,105409,2,0,L|312:138,1,47.5
364,5,105563,6,0,L|357:82,1,61.7499971733095,0|0,1:2|0:0,0:0:0:0:
459,251,105717,2,0,L|434:182,1,61.7499971733095
512,21,105871,6,0,L|443:96,1,76,0|0,1:2|0:0,0:0:0:0:
309,242,106024,2,0,L|257:160,1,76
75,23,106178,6,0,L|40:123,1,90.2499975900651,0|0,1:2|0:0,0:0:0:0:
103,321,106332,2,0,L|165:228,1,90.2499975900651
289,52,106486,5,8,1:2:0:0:
309,242,106640,2,0,L|313:301,1,45.1249987950325,8|0,0:0|0:0,0:0:0:0:
309,242,106717,2,0,L|313:301,1,45.1249987950325,8|0,0:0|0:0,0:0:0:0:
309,242,106794,2,0,L|313:301,1,45.1249987950325,8|8,1:2|0:0,0:0:0:0:
175,91,106947,5,8,0:0:0:0:
437,192,107101,2,0,L|485:213,1,45.1249987950325,8|8,1:2|0:0,0:0:0:0:
437,192,107178,2,0,L|485:213,1,45.1249987950325,8|8,0:0|0:0,0:0:0:0:
437,192,107255,2,0,L|485:213,1,45.1249987950325,8|8,0:0|0:0,0:0:0:0:
207,332,107409,2,0,L|200:353,14,22.5624993975163,8|8|8|8|8|8|8|8|8|8|8|8|8|8|8,1:2|0:0|0:0|0:0|0:0|0:0|0:0|0:0|0:0|0:0|0:0|0:0|0:0|0:0|0:0,0:0:0:0:
156,257,107717,6,0,L|61:229,1,95,4|0,1:2|0:0,0:0:0:0:
20,51,107871,6,0,L|36:122,1,61.7499971733095,2|0,0:0|0:0,0:0:0:0:
112,82,108024,2,0,L|128:153,1,61.7499971733095,10|0,0:0|0:0,0:0:0:0:
204,113,108178,2,0,L|220:184,1,61.7499971733095,2|0,0:0|0:0,0:0:0:0:
112,82,108332,6,0,L|128:153,1,61.7499971733095,2|0,1:2|0:0,0:0:0:0:
204,113,108485,2,0,L|220:184,1,61.7499971733095,2|0,0:0|0:0,0:0:0:0:
296,361,108640,2,0,L|280:290,1,61.7499971733095,10|0,0:0|0:0,0:0:0:0:
204,330,108793,2,0,L|188:259,1,61.7499971733095,2|0,0:0|0:0,0:0:0:0:
498,145,108947,6,0,B|412:132|440:224|336:205,1,180.49999518013,2|2,1:2|0:0,0:0:0:0:
340,206,109178,1,2,0:0:0:0:
340,206,109255,1,10,0:0:0:0:
498,145,109409,6,0,B|448:145|448:145|376:206|376:206|321:206,1,180.49999518013,2|0,0:0|1:2,0:0:0:0:
340,206,109640,1,2,0:0:0:0:
340,206,109717,1,2,0:0:0:0:
498,145,109871,5,10,0:0:0:0:
452,145,109947,1,2,0:0:0:0:
417,171,110024,1,2,0:0:0:0:
382,200,110101,1,2,0:0:0:0:
339,205,110178,6,0,P|309:174|306:130,1,90.2499975900651,2|0,1:2|0:0,0:0:0:0:
417,15,110332,2,0,P|411:59|383:93,1,90.2499975900651,2|0,0:0|0:0,0:0:0:0:
159,211,110486,2,0,P|115:202|92:165,1,90.2499975900651,10|0,0:0|0:0,0:0:0:0:
134,16,110640,2,0,P|175:34|195:77,1,90.2499975900651,2|0,0:0|0:0,0:0:0:0:
2,216,110794,6,0,B|-1:178|-1:178|19:239,1,90.2499975900651,2|0,1:2|0:0,0:0:0:0:
149,350,110947,2,0,B|145:387|145:387|166:327,1,90.2499975900651,2|0,0:0|0:0,0:0:0:0:
230,169,111101,2,0,P|245:212|233:255,1,90.2499975900651,10|0,0:0|0:0,0:0:0:0:
18,346,111255,2,0,P|42:308|83:292,1,90.2499975900651,2|0,0:0|0:0,0:0:0:0:
376,305,111409,6,0,P|365:359|310:358,1,120.333330120087,2|2,1:2|0:0,0:0:0:0:
233,253,111614,1,2,0:0:0:0:
421,86,111717,6,0,B|364:94|364:94|360:98|360:98|304:107,1,120.333330120087,2|2,1:2|0:0,0:0:0:0:
22,155,111922,1,2,0:0:0:0:
152,41,112024,5,2,1:2:0:0:
206,96,112127,1,2,1:2:0:0:
230,169,112229,1,2,1:2:0:0:
119,219,112332,5,2,1:2:0:0:
123,182,112435,1,2,1:2:0:0:
150,155,112537,1,2,1:2:0:0:
271,41,112640,5,2,1:2:0:0:
278,34,112717,1,2,0:0:0:0:
287,26,112794,1,10,0:0:0:0:
299,19,112871,1,10,0:0:0:0:
316,12,112947,1,10,0:0:0:0:
337,8,113024,1,2,0:0:0:0:
363,9,113101,1,10,0:0:0:0:
393,19,113178,1,10,0:0:0:0:
423,38,113255,1,10,0:0:0:0:
445,68,113332,1,2,0:0:0:0:
457,105,113409,1,10,0:0:0:0:
453,148,113486,1,10,0:0:0:0:
435,186,113563,1,10,0:0:0:0:
404,217,113640,1,2,0:0:0:0:
359,230,113717,1,10,0:0:0:0:
311,223,113794,1,10,0:0:0:0:
270,196,113871,1,10,0:0:0:0:
229,167,113947,1,2,0:0:0:0:
179,154,114024,1,10,0:0:0:0:
127,162,114101,1,10,0:0:0:0:
78,194,114178,1,10,0:0:0:0:
49,247,114255,1,2,0:0:0:0:
49,309,114332,1,10,0:0:0:0:
87,362,114409,1,10,0:0:0:0:
150,384,114486,1,10,0:0:0:0:
217,368,114563,1,2,0:0:0:0:
260,312,114640,1,10,0:0:0:0:
262,243,114717,1,10,0:0:0:0:
220,183,114794,1,10,0:0:0:0:
186,115,114871,1,2,0:0:0:0:
205,38,114947,1,10,0:0:0:0:
281,0,115024,1,10,0:0:0:0:
377,36,115101,6,0,B|491:168|363:230|363:230|290:109|457:63,1,475,12|0,1:2|0:0,0:0:0:0:
482,308,115563,1,0,1:2:0:0:
401,339,115640,1,0,1:2:0:0:
319,368,115717,6,0,B|238:392|243:263|150:304,1,190,4|0,1:2|0:0,0:0:0:0:
172,379,115947,2,0,B|255:390|230:264|328:289,1,190,4|0,1:2|0:0,0:0:0:0:
482,308,116178,1,4,1:2:0:0:
52,163,116332,6,0,B|139:131|173:240|254:200|254:200|222:126|246:62|285:24|285:24|341:53|366:95|362:149|362:149|410:113|462:116|462:116|479:173|444:198,1,760,4|0,1:1|0:0,0:0:0:0:
