osu file format v14

[General]
AudioFilename: audio.mp3
AudioLeadIn: 0
PreviewTime: 77563
Countdown: 0
SampleSet: Soft
StackLeniency: 0.4
Mode: 0
LetterboxInBreaks: 0
WidescreenStoryboard: 1

[Editor]
Bookmarks: 1871,2486,6794,21563,36332,42486,46178,53563,57871,58332,58486,78178,79332,80640,91717,92947,97871,102794,107717,112640,113871,115101,116332,118794
DistanceSpacing: 0.7
BeatDivisor: 4
GridSize: 32
TimelineZoom: 3.599999

[Metadata]
Title:Ring ! Run ! Nyan!!
TitleUnicode:Ring!Run!Nyan!!
Artist:MisomyL
ArtistUnicode:MisomyL
Creator:TNTlealu
Version:L1gHT's Light Nyansane~!!
Source:SOUND VOLTEX III GRAVITY WARS コナステ
Tags:bongo light_u light Crysisters Pado gazimal Matsuyuki Ame RK657 dahkjdas Sweets ImWater Dailycare -Hitomi L1gHT_u SDVX VIVID WAVE Konasute Version! Original Song Contest INFINITE BLASTER rhythm video game electronic instrumental Arcades
BeatmapID:3657068
BeatmapSetID:1752046

[Difficulty]
HPDrainRate:4.8
CircleSize:3.6
OverallDifficulty:8
ApproachRate:9
SliderMultiplier:1.74
SliderTickRate:1

[Events]
//Background and Video events
0,0,"catgirl.jpg",0,0
//Break Periods
//Storyboard Layer 0 (Background)
//Storyboard Layer 1 (Fail)
//Storyboard Layer 2 (Pass)
//Storyboard Layer 3 (Foreground)
//Storyboard Layer 4 (Overlay)
//Storyboard Sound Samples

[TimingPoints]
1256,307.692307692308,4,2,1,40,1,0
1871,307.692307692308,4,2,1,40,1,0
1871,-250.000000000001,4,2,1,40,0,0
3101,-142.857142857143,4,2,1,40,0,0
3409,-200,4,2,1,40,0,0
3717,-333.333333333333,4,2,1,40,0,0
4024,-142.857142857143,4,2,1,40,0,0
4332,-142.857142857143,4,2,1,40,0,0
6486,-111.111111111111,4,2,1,40,0,0
6794,-90.9090909090908,4,2,1,60,0,0
16024,-90.9090909090908,4,2,2,40,0,0
16332,-90.9090909090908,4,2,1,60,0,0
17716,-90.9090909090908,4,2,1,60,0,0
17871,-90.9090909090908,4,2,1,60,0,0
20947,-90.9090909090908,4,2,1,50,0,0
21563,-83.3333333333333,4,2,1,60,0,0
24100,-83.3333333333333,4,2,1,60,0,0
24177,-83.3333333333333,4,2,1,60,0,0
24562,-83.3333333333333,4,2,1,60,0,0
24639,-83.3333333333333,4,2,1,60,0,0
25023,-83.3333333333333,4,2,1,60,0,0
25100,-83.3333333333333,4,2,1,60,0,0
25485,-83.3333333333333,4,2,1,60,0,0
25562,-83.3333333333333,4,2,1,60,0,0
30794,-83.3333333333333,4,2,1,50,0,0
31101,-83.3333333333333,4,2,2,50,0,0
31409,-83.3333333333333,4,2,1,60,0,0
36332,-111.111111111111,4,2,1,60,0,0
36640,-111.111111111111,4,2,2,60,0,0
44947,-111.111111111111,4,2,2,40,0,0
45563,-111.111111111111,4,2,2,50,0,0
46178,-100,4,2,1,60,0,0
51101,-100,4,2,1,20,0,0
52024,-100,4,2,2,20,0,0
52947,-83.3333333333333,4,2,2,20,0,0
53255,-83.3333333333333,4,2,1,20,0,0
53563,-90.9090909090909,4,2,1,60,0,0
58486,-90.9090909090909,4,2,19,50,0,0
59101,-90.9090909090909,4,2,14,50,0,0
59717,-90.9090909090909,4,2,18,50,0,0
60332,-90.9090909090909,4,2,19,50,0,0
60947,-90.9090909090909,4,2,16,50,0,0
61409,-90.9090909090909,4,2,17,50,0,0
62178,-90.9090909090909,4,2,22,50,0,0
62486,-90.9090909090909,4,2,23,50,0,0
62794,-90.9090909090909,4,2,14,50,0,0
63101,-90.9090909090909,4,2,13,50,0,0
63409,-90.9090909090909,4,2,14,50,0,0
64024,-90.9090909090909,4,2,9,50,0,0
64332,-90.9090909090909,4,2,15,50,0,0
64640,-90.9090909090909,4,2,14,50,0,0
65255,-90.9090909090909,4,2,13,50,0,0
65871,-90.9090909090909,4,2,12,50,0,0
66178,-90.9090909090909,4,2,1,50,0,0
66486,-90.9090909090909,4,2,10,30,0,0
66794,-90.9090909090909,4,2,11,30,0,0
67101,-90.9090909090909,4,2,12,30,0,0
67563,-90.9090909090909,4,2,13,30,0,0
67640,-90.9090909090909,4,2,12,30,0,0
67717,-90.9090909090909,4,2,11,30,0,0
68178,-90.9090909090909,4,2,10,30,0,0
68255,-90.9090909090909,4,2,11,30,0,0
68332,-90.9090909090909,4,2,12,30,0,0
68947,-90.9090909090909,4,2,15,30,0,0
69563,-90.9090909090909,4,2,18,30,0,0
70178,-90.9090909090909,4,2,19,30,0,0
70794,-90.9090909090909,4,2,16,30,0,0
71255,-90.9090909090909,4,2,17,30,0,0
72024,-90.9090909090909,4,2,16,30,0,0
72332,-90.9090909090909,4,2,15,30,0,0
72640,-90.9090909090909,4,2,14,30,0,0
72947,-90.9090909090909,4,2,13,30,0,0
73255,-90.9090909090909,4,2,14,30,0,0
73871,-90.9090909090909,4,2,12,30,0,0
74178,-90.9090909090909,4,2,14,30,0,0
74486,-90.9090909090909,4,2,17,30,0,0
74794,-90.9090909090909,4,2,14,30,0,0
75102,-90.9090909090909,4,2,17,30,0,0
75409,-90.9090909090909,4,2,18,30,0,0
75717,-90.9090909090909,4,2,19,30,0,0
76332,-90.9090909090909,4,2,17,30,0,0
76640,-90.9090909090909,4,2,18,30,0,0
76947,-90.9090909090909,4,2,20,30,0,0
77409,-90.9090909090909,4,2,21,30,0,0
77486,-90.9090909090909,4,2,20,30,0,0
77563,-90.9090909090909,4,2,19,30,0,0
77640,-90.9090909090909,4,2,20,30,0,0
77717,-90.9090909090909,4,2,19,30,0,0
77794,-90.9090909090909,4,2,20,30,0,0
77871,-90.9090909090909,4,2,1,30,0,0
78178,-90.9090909090909,4,2,1,60,0,0
80640,-83.3333333333333,4,2,1,80,0,0
92947,-100,4,2,2,50,0,0
97255,-83.3333333333333,4,2,1,50,0,0
97871,-83.3333333333333,4,2,1,80,0,0
101563,-83.3333333333333,4,2,1,40,0,0
102794,-111.111111111111,4,2,1,40,0,0
102948,-111.111111111111,4,2,2,40,0,0
106794,-111.111111111111,4,2,2,25,0,0
106947,-111.111111111111,4,2,2,30,0,0
107101,-111.111111111111,4,2,2,35,0,0
107255,-111.111111111111,4,2,2,40,0,0
107409,-111.111111111111,4,2,2,45,0,0
107563,-111.111111111111,4,2,2,50,0,0
107717,-83.3333333333333,4,2,1,70,0,0
112640,-125,4,2,2,20,0,0
112947,-111.111111111111,4,2,2,25,0,0
113255,-100,4,2,2,30,0,0
113563,-90.9090909090909,4,2,2,35,0,0
113871,-83.3333333333333,4,2,2,40,0,0
114178,-76.9230769230769,4,2,2,45,0,0
114486,-71.4285714285714,4,2,2,50,0,0
114794,-71.4285714285714,4,2,2,55,0,0
115101,-71.4285714285714,4,2,2,60,0,0
115563,-71.4285714285714,4,2,1,60,0,0

[Colours]
Combo1 : 222,104,247
Combo2 : 255,142,142
Combo3 : 79,170,238
Combo4 : 244,89,113

[HitObjects]
76,81,1256,6,0,L|122:87,3,43.5,2|2|2|2,0:0|0:0|0:0|0:0,0:0:0:0:
200,136,1563,2,0,L|246:130,3,43.5,2|2|2|2,0:0|0:0|0:0|0:0,0:0:0:0:
321,78,1871,5,6,0:0:0:0:
337,78,2024,1,2,0:0:0:0:
352,83,2178,2,0,P|373:90|392:105,1,34.8,2|2,0:0|0:0,0:0:0:0:
449,146,2486,5,2,0:0:0:0:
465,146,2639,1,2,0:0:0:0:
480,141,2793,2,0,P|501:133|520:119,1,34.8,2|2,0:0|0:0,0:0:0:0:
487,5,3101,6,0,P|465:33|456:62,1,60.8999981414796,2|2,3:0|0:0,0:0:0:0:
449,146,3409,6,0,P|469:172|477:199,1,43.5,2|2,0:0|0:0,0:0:0:0:
428,266,3717,6,0,P|424:276|425:288,3,13.0499996017456,2|2|2|2,0:0|0:0|0:0|0:0,0:0:0:0:
473,181,4024,6,0,P|463:162|451:150,3,30.4499990707398,2|2|2|2,0:0|0:0|0:0|0:0,0:0:0:0:
457,56,4332,6,0,P|468:28|488:5,1,60.8999981414796,6|2,0:0|0:0,0:0:0:0:
375,119,4640,1,2,0:0:0:0:
366,135,4794,1,2,0:0:0:0:
287,63,4947,6,0,P|276:34|256:11,1,60.8999981414796,2|2,3:0|0:0,0:0:0:0:
366,135,5255,1,2,0:0:0:0:
375,151,5409,1,2,0:0:0:0:
471,146,5563,6,0,P|489:120|514:103,1,60.8999981414796,2|2,3:0|0:0,0:0:0:0:
375,151,5871,1,2,0:0:0:0:
366,167,6025,1,2,0:0:0:0:
287,256,6178,5,8,2:1:0:0:
128,127,6486,2,0,P|197:135|231:196,1,117.449996415711,2|0,0:0|0:0,0:0:0:0:
287,256,6794,6,0,P|251:297|176:311,1,95.7000029205323,4|2,1:1|0:0,0:0:0:0:
372,325,7101,2,0,P|408:366|483:380,1,95.7000029205323,10|2,0:0|0:0,0:0:0:0:
287,256,7409,2,0,P|251:215|176:201,1,95.7000029205323,2|2,1:2|0:0,0:0:0:0:
372,325,7717,2,0,P|408:284|483:270,1,95.7000029205323,10|2,0:0|0:0,0:0:0:0:
366,167,8024,6,0,P|365:124|389:58,1,95.7000029205323,2|2,1:2|0:0,0:0:0:0:
227,2,8332,2,0,P|273:16|321:16,1,95.7000029205323,10|2,0:0|0:0,0:0:0:0:
170,61,8640,2,0,P|171:104|147:170,1,95.7000029205323,2|2,1:2|0:0,0:0:0:0:
308,225,8947,2,0,P|262:211|215:212,1,95.7000029205323,10|2,0:0|0:0,0:0:0:0:
101,278,9255,5,2,1:2:0:0:
184,361,9409,2,0,L|239:353,2,47.8500014602662,2|2|10,0:0|0:0|0:0,0:0:0:0:
106,257,9717,5,2,0:0:0:0:
164,358,9871,2,0,L|219:364,2,47.8500014602662,2|2|2,1:2|0:0|0:0,0:0:0:0:
116,238,10178,5,10,0:0:0:0:
146,350,10332,2,0,L|197:370,2,47.8500014602662,2|2|2,0:0|0:0|1:2,0:0:0:0:
130,222,10640,5,2,0:0:0:0:
130,338,10794,2,0,L|174:370,2,47.8500014602662,10|2|2,0:0|0:0|0:0,0:0:0:0:
147,210,11101,6,0,L|205:214,3,47.8500014602662,2|2|2|2,1:2|0:0|0:0|0:0,0:0:0:0:
276,166,11409,2,0,L|334:162,3,47.8500014602662,10|2|2|2,0:0|0:0|0:0|0:0,0:0:0:0:
418,201,11717,6,0,P|436:254|343:345,1,191.400005841065,6|8,1:2|0:0,0:0:0:0:
246,352,12178,1,2,0:0:0:0:
232,347,12255,1,2,0:0:0:0:
220,342,12332,2,0,P|221:277|282:159,1,191.400005841065,2|8,1:2|0:0,0:0:0:0:
394,183,12794,1,2,0:0:0:0:
407,191,12871,1,2,0:0:0:0:
418,201,12948,2,0,P|353:200|235:139,1,191.400005841065,2|8,1:2|0:0,0:0:0:0:
90,189,13409,1,2,0:0:0:0:
74,188,13486,1,2,0:0:0:0:
60,185,13563,2,0,P|116:153|249:147,1,191.400005841065,2|8,1:2|0:0,0:0:0:0:
372,155,14024,5,2,0:0:0:0:
372,155,14101,1,2,0:0:0:0:
372,155,14178,1,2,1:2:0:0:
461,95,14332,2,0,L|448:-7,1,95.7000029205323,2|10,0:0|0:0,0:0:0:0:
473,189,14640,5,2,0:0:0:0:
372,155,14794,2,0,L|359:53,1,95.7000029205323,2|2,1:2|0:0,0:0:0:0:
391,252,15101,5,10,0:0:0:0:
473,189,15255,2,0,L|460:87,1,95.7000029205323,2|2,0:0|1:2,0:0:0:0:
460,94,15486,1,2,0:0:0:0:
460,94,15563,1,2,0:0:0:0:
460,94,15640,1,2,0:0:0:0:
460,94,15717,2,0,L|363:83,1,95.7000029205323,8|2,0:0|0:0,0:0:0:0:
276,72,16024,5,10,1:1:0:0:
216,359,16332,5,10,1:0:0:0:
216,359,16640,6,0,L|112:347,1,95.7000029205323,6|2,1:2|0:0,0:0:0:0:
265,278,16947,2,0,L|369:266,1,95.7000029205323,10|2,0:0|0:0,0:0:0:0:
216,197,17255,2,0,L|112:185,1,95.7000029205323,2|2,1:2|0:0,0:0:0:0:
265,116,17563,2,0,L|369:104,1,95.7000029205323,10|0,0:0|0:0,0:0:0:0:
454,164,17871,5,2,1:2:0:0:
360,105,18024,2,0,L|372:48,2,47.8500014602662,2|2|10,0:0|0:0|0:0,0:0:0:0:
453,179,18332,5,2,0:0:0:0:
376,96,18485,2,0,L|402:44,2,47.8500014602662,2|2|2,1:2|0:0|0:0,0:0:0:0:
454,164,18794,5,10,0:0:0:0:
453,179,18871,1,2,0:0:0:0:
449,191,18947,2,0,L|414:246,1,47.8500014602662,2|2,0:0|0:0,0:0:0:0:
335,299,19101,6,0,L|233:283,1,95.7000029205323,2|2,1:2|0:0,0:0:0:0:
94,235,19409,2,0,L|196:219,1,95.7000029205323,10|2,0:0|0:0,0:0:0:0:
335,171,19717,2,0,L|233:155,1,95.7000029205323,2|2,1:2|0:0,0:0:0:0:
94,107,20024,2,0,L|196:91,1,95.7000029205323,10|2,0:0|0:0,0:0:0:0:
294,24,20332,5,2,1:2:0:0:
196,100,20486,1,2,0:0:0:0:
196,100,20563,1,2,0:0:0:0:
196,100,20640,2,0,P|224:172|240:327,2,191.400005841065,8|8|4,0:0|3:0|3:0,0:0:0:0:
34,22,21563,6,0,P|20:90|45:160,1,104.399996813965,4|2,1:1|0:0,0:0:0:0:
99,200,21871,2,0,P|113:268|88:338,1,104.399996813965,10|2,0:0|0:0,0:0:0:0:
15,342,22178,2,0,P|65:305|120:304,1,104.399996813965,2|2,1:2|0:0,0:0:0:0:
211,340,22486,2,0,P|261:332|301:299,1,104.399996813965,10|2,0:0|0:0,0:0:0:0:
352,224,22794,6,0,P|390:279|387:329,1,104.399996813965,2|2,1:2|0:0,0:0:0:0:
310,152,23102,2,0,P|376:146|418:174,1,104.399996813965,10|2,0:0|0:0,0:0:0:0:
226,152,23409,2,0,P|254:91|299:69,1,104.399996813965,2|2,1:2|0:0,0:0:0:0:
184,224,23717,2,0,P|146:168|149:118,1,104.399996813965,10|2,0:0|0:0,0:0:0:0:
211,340,24024,6,0,L|234:278,4,52.1999984069825,6|0|2|2|2,1:2|0:0|0:0|0:0|0:0,0:0:0:0:
79,335,24486,2,0,L|127:353,4,52.1999984069825,6|0|2|2|2,1:2|0:0|0:2|0:0|0:0,0:0:0:0:
83,202,24947,2,0,L|65:251,4,52.1999984069825,6|0|2|2|2,1:2|0:0|0:0|0:0|0:2,0:0:0:0:
215,206,25409,2,0,L|166:187,4,52.1999984069825,6|0|2|2|2,1:2|0:0|0:0|0:0|0:0,0:0:0:0:
377,213,25871,5,2,1:2:0:0:
408,214,25947,1,2,0:0:0:0:
438,208,26024,1,2,0:0:0:0:
467,195,26101,1,2,0:0:0:0:
491,177,26178,2,0,L|490:110,3,52.1999984069825,10|2|2|2,0:0|0:0|0:0|0:0,0:0:0:0:
446,35,26486,6,0,B|394:9|394:9|234:36,1,208.79999362793,6|8,1:2|0:0,0:0:0:0:
199,135,26947,1,2,0:0:0:0:
191,152,27024,1,2,0:0:0:0:
188,170,27101,2,0,B|227:127|227:127|387:98,1,208.79999362793,2|8,1:2|0:0,0:0:0:0:
454,179,27563,1,2,0:0:0:0:
467,191,27640,1,2,0:0:0:0:
476,207,27717,2,0,B|424:180|424:180|264:211,1,208.79999362793,2|8,1:2|0:0,0:0:0:0:
236,315,28178,1,2,0:0:0:0:
228,332,28255,1,2,0:0:0:0:
225,350,28332,2,0,B|263:306|263:306|422:274,1,208.79999362793,2|8,1:2|0:0,0:0:0:0:
499,306,28794,5,2,0:0:0:0:
499,306,28871,1,2,0:0:0:0:
499,306,28947,2,0,P|465:351|407:366,1,104.399996813965,2|2,1:2|0:0,0:0:0:0:
326,376,29255,1,10,0:0:0:0:
225,350,29409,5,2,0:0:0:0:
132,380,29563,2,0,P|83:361|54:319,1,104.399996813965,2|2,1:2|0:0,0:0:0:0:
15,231,29871,2,0,P|6:180|28:133,1,104.399996813965,10|2,0:0|0:0,0:0:0:0:
111,52,30178,6,0,L|166:67,3,52.1999984069825,2|2|2|2,1:2|0:0|0:0|0:0,0:0:0:0:
251,117,30486,2,0,L|306:102,3,52.1999984069825,8|2|2|2,0:0|0:0|0:0|0:0,0:0:0:0:
399,52,30794,5,8,1:0:0:0:
474,299,31101,5,8,1:0:0:0:
255,384,31409,6,0,L|267:272,1,104.399996813965,6|2,1:2|0:0,0:0:0:0:
225,69,31717,2,0,L|237:181,1,104.399996813965,10|2,0:0|0:0,0:0:0:0:
158,256,32024,5,6,1:2:0:0:
349,197,32255,5,2,1:2:0:0:
225,69,32486,5,2,1:2:0:0:
266,280,32640,1,6,1:2:0:0:
121,141,32871,5,2,1:2:0:0:
347,83,33101,5,2,1:2:0:0:
266,280,33255,1,6,1:2:0:0:
349,197,33486,5,2,1:2:0:0:
121,141,33717,5,2,1:2:0:0:
266,280,33871,2,0,P|258:310|244:331,3,52.1999984069825,6|2|2|2,1:2|0:0|0:0|0:0,0:0:0:0:
167,368,34178,2,0,P|137:376|111:374,3,52.1999984069825,10|2|2|2,0:0|0:0|0:0|0:0,0:0:0:0:
20,332,34486,6,0,P|11:302|13:276,3,52.1999984069825,2|2|2|2,1:2|0:0|0:0|0:0,0:0:0:0:
0,196,34794,2,0,P|21:174|44:162,3,52.1999984069825,10|2|2|2,0:0|0:0|0:0|0:0,0:0:0:0:
121,141,35101,5,6,1:2:0:0:
226,169,35255,1,2,1:2:0:0:
331,197,35409,1,2,1:2:0:0:
436,225,35563,1,2,1:2:0:0:
499,139,35717,6,0,L|495:83,3,52.1999984069825,2|0|0|0,1:2|1:2|1:2|1:2,0:0:0:0:
409,53,36024,2,0,L|413:-3,3,52.1999984069825,2|0|0|0,1:2|1:2|1:2|1:2,0:0:0:0:
405,142,36332,5,6,1:1:0:0:
405,142,36640,2,0,L|341:146,2,52.1999984069825,10|10|10,0:0|0:0|0:0,0:0:0:0:
499,139,36947,1,2,1:2:0:0:
363,229,37255,6,0,L|299:233,2,52.1999984069825,10|8|8,0:0|0:0|0:0,0:0:0:0:
457,226,37562,1,2,1:2:0:0:
321,316,37871,6,0,L|257:320,2,52.1999984069825,10|8|10,0:0|0:0|0:0,0:0:0:0:
415,313,38178,1,2,1:2:0:0:
216,235,38486,6,0,L|152:239,2,52.1999984069825,10|8|10,0:0|0:0|0:0,0:0:0:0:
310,232,38793,1,2,1:2:0:0:
111,154,39101,6,0,L|47:158,2,52.1999984069825,10|8|10,0:0|0:0|0:0,0:0:0:0:
205,151,39408,1,2,1:2:0:0:
337,70,39717,6,0,L|401:74,2,52.1999984069825,10|10|10,0:0|0:0|0:0,0:0:0:0:
243,67,40024,1,2,1:2:0:0:
111,154,40332,6,0,L|47:158,2,52.1999984069825,8|8|10,0:0|0:0|0:0,0:0:0:0:
197,204,40640,2,0,L|250:201,2,52.1999984069825,2|8|8,1:2|0:0|0:0,0:0:0:0:
126,277,40947,2,0,L|73:280,2,52.1999984069825,10|8|8,0:0|0:0|0:0,0:0:0:0:
215,327,41255,1,6,1:2:0:0:
385,287,41563,6,0,L|437:290,2,52.1999984069825,10|10|10,0:0|0:0|0:0,0:0:0:0:
292,275,41871,1,2,1:2:0:0:
444,206,42178,6,0,L|496:209,2,52.1999984069825,10|8|8,0:0|0:0|0:0,0:0:0:0:
351,194,42486,1,2,1:2:0:0:
252,112,42794,6,0,L|200:115,2,52.1999984069825,10|8|10,0:0|0:0|0:0,0:0:0:0:
345,100,43101,1,2,1:2:0:0:
175,206,43409,6,0,L|123:209,2,52.1999984069825,10|10|10,0:0|0:0|0:0,0:0:0:0:
268,194,43716,1,2,1:2:0:0:
98,300,44024,6,0,L|46:303,2,52.1999984069825,10|8|8,0:0|0:0|0:0,0:0:0:0:
191,288,44331,1,2,1:2:0:0:
27,133,44640,6,0,L|79:130,2,52.1999984069825,10|8|8,0:0|0:0|0:0,0:0:0:0:
18,34,44947,5,2,1:2:0:0:
31,42,45050,2,0,L|91:22,1,52.1999984069825,8|8,0:0|0:0,0:0:0:0:
173,28,45255,5,10,0:2:0:0:
186,20,45358,2,0,L|246:40,1,52.1999984069825,8|8,0:0|0:0,0:0:0:0:
326,85,45563,6,0,L|371:75,3,39.1499988052369,10|8|8|8,1:2|0:0|0:0|0:0,0:0:0:0:
254,153,45871,2,0,L|202:141,3,39.1499988052369,10|8|8|8,1:2|0:0|0:0|0:0,0:0:0:0:
320,226,46178,6,0,P|331:278|316:325,1,87,4|2,1:1|0:0,0:0:0:0:
215,375,46486,2,0,P|207:332|218:290,1,87,10|2,0:0|0:0,0:0:0:0:
329,218,46794,6,0,P|340:270|325:317,1,87,0|2,1:2|0:0,0:0:0:0:
204,384,47101,2,0,P|196:341|207:299,1,87,10|2,0:0|0:0,0:0:0:0:
339,210,47409,6,0,P|382:157|324:71,1,174,0|10,1:2|0:0,0:0:0:0:
235,66,47871,1,2,0:0:0:0:
235,66,47947,1,2,0:0:0:0:
235,66,48024,2,0,L|138:86,1,87,2|2,1:2|0:0,0:0:0:0:
22,162,48332,2,0,L|107:179,1,87,10|2,0:0|0:0,0:0:0:0:
206,251,48640,6,0,P|204:314|177:349,1,87,2|2,1:2|0:0,0:0:0:0:
19,356,48947,2,0,P|70:344|106:348,1,87,10|2,0:0|0:0,0:0:0:0:
271,379,49255,2,0,L|321:369,3,43.5,2|2|2|2,1:2|0:0|0:0|0:0,0:0:0:0:
404,337,49563,2,0,L|454:347,3,43.5,10|2|2|2,0:0|0:0|0:0|0:0,0:0:0:0:
508,263,49871,6,0,B|524:225|524:225|506:82,1,174,2|10,1:2|0:0,0:0:0:0:
496,0,50332,1,2,0:0:0:0:
496,0,50409,1,0,0:0:0:0:
496,0,50486,2,0,L|398:23,1,87,0|2,1:2|0:0,0:0:0:0:
314,57,50794,2,0,B|226:65|226:65|131:40,1,174,10|2,0:0|0:0,0:0:0:0:
31,182,51563,5,2,0:0:0:0:
118,331,52024,5,10,0:0:0:0:
283,330,52486,5,10,0:0:0:0:
361,178,52947,6,0,L|344:123,3,52.1999984069825,2|0|0|0,1:2|1:2|1:2|1:2,0:0:0:0:
421,62,53255,2,0,L|428:36,6,26.0999992034912,2|0|0|0|0|0|0,1:2|1:2|1:2|1:2|1:2|1:2|1:2,0:0:0:0:
494,140,53563,6,0,L|477:351,1,191.400005841065,6|2,1:1|0:0,0:0:0:0:
476,343,53947,1,2,0:0:0:0:
470,353,54024,2,0,P|417:377|295:330,1,191.400005841065,6|2,1:2|0:0,0:0:0:0:
297,322,54409,1,2,0:0:0:0:
298,311,54486,2,0,P|307:251|325:107,1,191.400005841065,6|2,1:2|0:0,0:0:0:0:
323,110,54871,1,2,0:0:0:0:
322,99,54947,2,0,P|273:66|128:103,1,191.400005841065,6|2,1:2|0:0,0:0:0:0:
65,206,55409,6,0,L|75:256,3,47.8500014602662,6|2|2|2,1:2|0:0|0:0|0:0,0:0:0:0:
151,318,55717,2,0,L|141:368,3,47.8500014602662,6|2|2|2,1:2|0:0|0:0|0:0,0:0:0:0:
228,234,56024,5,6,1:2:0:0:
228,234,56178,1,0,1:2:0:0:
357,317,56332,5,0,1:2:0:0:
357,317,56486,1,4,1:2:0:0:
465,223,56640,5,2,1:2:0:0:
465,223,56717,1,2,1:2:0:0:
465,223,56794,1,2,1:2:0:0:
465,223,56871,1,2,1:2:0:0:
465,223,56947,2,0,L|457:172,3,47.8500014602662,6|2|2|2,1:2|1:2|1:2|1:2,0:0:0:0:
482,316,57255,6,0,P|436:337|271:161,1,334.950010221863,6|0,1:2|0:0,0:0:0:0:
279,43,57871,2,0,B|338:113|269:170|269:170|212:103|269:44,1,287.100008761597,2|2,0:0|0:0,0:0:0:0:
275,34,58409,1,2,0:0:0:0:
283,27,58486,1,6,0:0:0:0:
141,269,59101,5,2,0:0:0:0:
318,198,59717,1,2,0:0:0:0:
117,101,60332,1,2,0:0:0:0:
395,38,60947,1,2,0:0:0:0:
444,267,61409,5,2,0:0:0:0:
444,267,61563,1,2,0:0:0:0:
223,320,62178,5,2,0:0:0:0:
76,290,62486,5,2,0:0:0:0:
239,186,62794,5,2,0:0:0:0:
386,156,63102,5,2,0:0:0:0:
183,61,63409,5,2,0:0:0:0:
62,142,64024,5,2,0:0:0:0:
197,281,64332,1,2,0:0:0:0:
301,85,64640,1,2,0:0:0:0:
69,253,65255,1,2,0:0:0:0:
359,340,65871,1,2,0:0:0:0:
445,64,66486,5,2,0:0:0:0:
431,162,66794,1,2,0:0:0:0:
417,260,67101,1,2,0:0:0:0:
453,72,67563,1,2,0:0:0:0:
453,72,67640,1,2,0:0:0:0:
453,72,67717,1,2,0:0:0:0:
425,268,68178,1,2,0:0:0:0:
425,268,68255,1,2,0:0:0:0:
425,268,68332,1,2,0:0:0:0:
209,74,68947,5,2,0:0:0:0:
139,321,69563,1,2,0:0:0:0:
327,136,70178,1,2,0:0:0:0:
70,57,70794,1,2,0:0:0:0:
212,216,71255,5,2,0:0:0:0:
212,216,71409,1,2,0:0:0:0:
163,372,72024,5,2,0:0:0:0:
310,342,72332,5,2,0:0:0:0:
147,238,72640,5,2,0:0:0:0:
0,208,72948,5,2,0:0:0:0:
203,113,73255,5,2,0:0:0:0:
163,372,73871,5,2,0:0:0:0:
147,238,74178,1,2,0:0:0:0:
302,214,74486,1,2,0:0:0:0:
203,113,74794,1,2,0:0:0:0:
313,224,75101,1,2,0:0:0:0:
127,242,75409,1,2,0:0:0:0:
256,192,75717,12,10,77871,0:0:0:0:
103,75,78178,6,0,P|162:125|150:239,1,191.400005841065,4|0,1:2|0:0,0:0:0:0:
7,242,78640,2,0,P|72:201|177:247,1,191.400005841065,4|0,1:2|0:0,0:0:0:0:
136,384,79101,2,0,P|117:309|193:223,1,191.400005841065,4|0,1:2|0:0,0:0:0:0:
310,305,79563,2,0,P|233:299|175:201,1,191.400005841065,4|0,1:2|0:0,0:0:0:0:
288,115,80024,2,0,P|263:176|166:198,1,143.550004380798,4|0,1:2|0:0,0:0:0:0:
155,213,80332,2,0,P|227:206|300:213,1,143.550004380798,12|0,1:1|0:0,0:0:0:0:
411,237,80640,6,0,B|453:198|453:198|416:43,1,208.79999362793,4|8,1:1|1:2,0:0:0:0:
305,15,81101,1,2,3:2:0:0:
305,15,81178,1,0,3:0:0:0:
305,15,81255,2,0,L|195:-1,1,104.399996813965,2|0,1:2|3:2,0:0:0:0:
46,99,81563,2,0,L|156:83,1,104.399996813965,8|0,1:2|3:2,0:0:0:0:
189,178,81871,6,0,L|176:232,3,52.1999984069825,2|0|2|0,1:2|3:2|3:0|3:2,0:0:0:0:
102,285,82178,2,0,L|142:323,3,52.1999984069825,10|0|2|0,1:2|3:2|3:0|3:2,0:0:0:0:
208,384,82486,2,0,L|261:368,3,52.1999984069825,2|0|0|0,1:2|3:2|3:2|3:2,0:0:0:0:
353,379,82794,2,0,L|366:325,3,52.1999984069825,12|0|0|0,1:2|3:2|3:2|3:2,0:0:0:0:
446,259,83101,6,0,B|421:121|421:121|492:73,1,208.79999362793,6|8,1:2|1:2,0:0:0:0:
477,82,83717,2,0,L|288:67,1,156.599995220947,2|0,1:2|3:2,0:0:0:0:
312,51,84024,2,0,L|227:172,1,104.399996813965,10|2,1:2|0:2,0:0:0:0:
241,168,84255,1,2,3:2:0:0:
236,199,84332,2,0,B|131:226|131:226|29:146,1,208.79999362793,2|10,1:2|1:2,0:0:0:0:
52,164,84947,6,0,L|241:179,1,156.599995220947,2|0,1:2|3:2,0:0:0:0:
217,195,85254,2,0,L|301:73,1,104.399996813965,10|2,1:2|0:2,0:0:0:0:
288,78,85485,1,2,3:2:0:0:
293,47,85562,2,0,B|398:20|398:20|500:100,1,208.79999362793,2|10,1:2|1:2,0:0:0:0:
477,82,86178,6,0,L|288:67,1,156.599995220947,2|0,1:2|3:2,0:0:0:0:
312,51,86485,2,0,L|227:172,1,104.399996813965,10|2,1:2|0:2,0:0:0:0:
241,168,86716,1,2,3:2:0:0:
236,199,86793,2,0,B|131:226|131:226|29:146,1,208.79999362793,2|10,1:2|1:2,0:0:0:0:
44,67,87255,5,2,3:2:0:0:
44,67,87332,1,2,3:2:0:0:
44,67,87409,2,0,B|90:44|90:44|151:59,1,104.399996813965,6|0,1:2|3:2,0:0:0:0:
149,153,87717,2,0,B|103:176|103:176|42:161,1,104.399996813965,8|0,1:2|1:2,0:0:0:0:
141,56,88024,6,0,L|161:295,1,208.79999362793,4|8,1:1|1:2,0:0:0:0:
84,368,88486,1,0,3:2:0:0:
84,368,88563,1,0,3:2:0:0:
84,368,88640,2,0,P|39:329|37:267,1,104.399996813965,2|0,1:2|3:2,0:0:0:0:
158,264,88947,2,0,L|269:292,1,104.399996813965,8|0,1:2|3:2,0:0:0:0:
413,331,89255,6,0,B|431:190|431:190|381:249,1,208.79999362793,2|8,1:2|1:2,0:0:0:0:
267,297,89717,1,0,3:2:0:0:
267,297,89794,1,0,3:2:0:0:
267,297,89871,2,0,B|249:156|249:156|299:215,1,208.79999362793,2|8,1:2|1:2,0:0:0:0:
362,129,90332,5,0,3:2:0:0:
362,129,90409,1,0,3:2:0:0:
362,129,90486,2,0,P|323:53|180:48,1,208.79999362793,6|8,1:2|1:2,0:0:0:0:
128,87,90947,1,2,3:2:0:0:
45,2,91101,2,0,B|91:38|91:38|102:191,1,208.79999362793,2|10,1:2|1:2,0:0:0:0:
101,188,91486,1,0,3:2:0:0:
101,188,91563,1,0,3:2:0:0:
29,308,91717,6,0,L|49:361,3,52.1999984069825,6|0|0|0,1:2|3:2|3:2|3:2,0:0:0:0:
140,357,92024,2,0,L|160:304,3,52.1999984069825,14|0|0|0,1:2|3:2|3:2|3:2,0:0:0:0:
251,310,92332,2,0,L|271:363,3,52.1999984069825,6|0|0|0,1:2|3:2|3:2|3:2,0:0:0:0:
364,363,92640,2,0,L|384:310,3,52.1999984069825,6|0|0|0,1:2|0:0|0:0|0:0,0:0:0:0:
469,253,92947,6,0,P|467:189|432:124,1,116,6|0,1:1|0:0,0:0:0:0:
359,100,93255,2,0,L|284:113,2,58,8|8|8,0:0|0:0|0:0,0:0:0:0:
195,153,93563,6,0,P|197:89|232:24,1,116,2|8,1:2|0:0,0:0:0:0:
305,0,93871,2,0,L|380:13,2,58,8|8|8,0:0|0:0|0:0,0:0:0:0:
218,42,94178,6,0,L|162:55,2,58,2|8|8,1:2|0:0|0:0,0:0:0:0:
88,105,94486,2,0,L|31:92,2,58,10|8|8,0:2|0:0|0:0,0:0:0:0:
195,153,94794,2,0,L|251:165,2,58,10|8|8,1:2|0:0|0:0,0:0:0:0:
366,216,95102,2,0,L|422:203,2,58,10|8|8,0:2|0:0|0:0,0:0:0:0:
484,120,95409,6,0,P|452:180|467:309,1,174,6|8,1:1|0:2,0:0:0:0:
457,331,95819,1,8,0:0:0:0:
419,358,95922,1,8,0:0:0:0:
372,356,96024,6,0,P|312:324|183:339,1,174,10|8,1:2|0:2,0:0:0:0:
171,351,96434,1,8,0:0:0:0:
125,372,96537,1,8,0:0:0:0:
82,365,96640,6,0,P|56:303|98:192,1,174,10|8,1:2|0:2,0:0:0:0:
121,183,97050,1,8,0:0:0:0:
169,178,97153,1,8,0:0:0:0:
209,200,97255,6,0,L|197:272,2,69.5999978759766,6|0|0,1:2|1:0|1:0,0:0:0:0:
292,118,97563,2,0,L|280:49,2,69.5999978759766,0|0|0,1:0|1:0|1:0,0:0:0:0:
362,201,97871,6,0,L|481:179,1,104.399996813965,4|0,1:1|3:0,0:0:0:0:
300,288,98178,2,0,L|181:266,1,104.399996813965,8|0,1:2|3:0,0:0:0:0:
398,384,98486,2,0,L|380:277,1,104.399996813965,0|0,1:2|3:0,0:0:0:0:
286,204,98794,2,0,L|304:97,1,104.399996813965,10|2,1:2|3:2,0:0:0:0:
303,101,99024,1,0,3:0:0:0:
303,101,99101,1,0,1:2:0:0:
233,37,99255,1,0,3:0:0:0:
121,42,99409,6,0,L|140:110,3,52.1999984069825,10|0|0|0,1:2|3:0|3:0|3:0,0:0:0:0:
208,147,99717,2,0,L|190:215,3,52.1999984069825,2|0|0|0,1:2|3:0|3:0|3:0,0:0:0:0:
230,281,100024,2,0,L|180:331,3,52.1999984069825,8|0|0|0,1:2|3:0|3:0|3:0,0:0:0:0:
125,375,100332,5,6,1:2:0:0:
112,372,100408,1,0,3:0:0:0:
99,370,100485,1,0,3:0:0:0:
86,367,100562,1,0,3:0:0:0:
73,365,100640,2,0,L|96:253,1,104.399996813965,8|0,1:2|3:0,0:0:0:0:
195,197,100948,5,6,1:2:0:0:
207,194,101024,1,0,3:0:0:0:
220,192,101101,1,0,3:0:0:0:
233,189,101178,1,0,3:0:0:0:
246,187,101256,2,0,L|223:74,1,104.399996813965,10|0,1:2|3:0,0:0:0:0:
125,12,101563,5,2,3:2:0:0:
393,229,102178,5,2,0:0:0:0:
73,365,102794,5,6,0:0:0:0:
73,365,102948,1,2,0:0:0:0:
116,281,103101,5,10,0:0:0:0:
129,299,103255,1,2,0:0:0:0:
224,256,103409,5,10,0:0:0:0:
220,306,103563,1,2,0:0:0:0:
324,288,103717,5,10,0:0:0:0:
270,379,103871,1,2,0:0:0:0:
409,345,104024,6,0,L|511:308,1,78.2999976104737,10|2,0:0|0:0,0:0:0:0:
482,318,104255,1,2,0:0:0:0:
482,318,104332,1,10,0:0:0:0:
324,288,104486,6,0,L|222:251,1,78.2999976104737,2|10,0:0|0:0,0:0:0:0:
250,261,104717,1,2,0:0:0:0:
250,261,104794,1,2,0:0:0:0:
392,208,104947,2,0,L|444:203,2,39.1499988052369,10|0|0,0:0|0:0|0:0,0:0:0:0:
313,133,105255,5,14,1:2:0:0:
313,133,105409,1,0,0:0:0:0:
229,83,105562,5,0,1:2:0:0:
227,107,105716,1,0,0:0:0:0:
126,113,105870,5,0,1:2:0:0:
157,158,106024,1,0,0:0:0:0:
71,196,106178,5,0,1:2:0:0:
173,254,106332,1,0,0:0:0:0:
106,347,106486,6,0,L|64:335,4,39.1499988052369,8|8|8|8|8,1:2|0:0|0:0|0:0|1:2,0:0:0:0:
237,373,106947,2,0,L|274:362,4,39.1499988052369,8|8|8|8|8,0:0|0:0|1:2|0:0|0:0,0:0:0:0:
387,312,107409,5,8,1:2:0:0:
384,302,107485,1,8,0:0:0:0:
381,293,107562,1,8,0:0:0:0:
378,283,107639,1,8,0:0:0:0:
375,274,107717,6,0,L|386:155,1,104.399996813965,4|2,1:2|0:0,0:0:0:0:
487,27,108024,2,0,L|496:130,1,104.399996813965,10|2,0:0|0:0,0:0:0:0:
384,170,108332,2,0,L|260:148,1,104.399996813965,2|2,1:2|0:0,0:0:0:0:
181,83,108640,2,0,L|57:105,1,104.399996813965,10|2,0:0|0:0,0:0:0:0:
6,203,108947,6,0,L|24:253,4,52.1999984069825,2|0|2|2|10,1:2|0:0|0:0|0:0|0:0,0:0:0:0:
38,339,109409,2,0,L|90:348,4,52.1999984069825,2|0|0|2|2,0:0|0:0|1:2|0:0|0:0,0:0:0:0:
175,383,109871,6,0,L|209:342,3,52.1999984069825,10|2|2|2,0:0|0:0|0:0|0:0,0:0:0:0:
225,327,110178,6,0,L|336:339,1,104.399996813965,2|2,1:2|0:0,0:0:0:0:
446,295,110486,2,0,L|423:189,1,104.399996813965,10|2,0:0|0:0,0:0:0:0:
339,139,110794,2,0,L|362:33,1,104.399996813965,2|2,1:2|0:0,0:0:0:0:
423,192,111101,2,0,L|446:295,1,104.399996813965,10|2,0:0|0:0,0:0:0:0:
373,366,111409,5,2,1:2:0:0:
361,370,111512,2,0,L|275:358,1,69.5999978759766,2|2,0:0|0:0,0:0:0:0:
225,300,111717,5,2,1:2:0:0:
213,296,111820,2,0,L|127:308,1,69.5999978759766,2|2,0:0|0:0,0:0:0:0:
39,288,112024,6,0,L|54:211,2,69.5999978759766,2|2|2,1:2|1:2|1:2,0:0:0:0:
144,305,112332,2,0,L|158:374,2,69.5999978759766,2|2|2,1:2|1:2|1:2,0:0:0:0:
195,214,112640,6,0,L|174:169,3,34.8,2|2|10|10,1:2|0:0|0:0|0:0,0:0:0:0:
255,130,112947,6,0,L|283:89,3,39.1499988052369,10|2|10|10,0:0|0:0|0:0|0:0,0:0:0:0:
357,139,113255,6,0,L|406:143,3,43.5,10|2|10|10,0:0|0:0|0:0|0:0,0:0:0:0:
400,231,113563,6,0,L|421:276,3,47.8500014602662,10|2|10|10,0:0|0:0|0:0|0:0,0:0:0:0:
341,314,113871,6,0,L|311:356,3,52.1999984069825,10|2|10|10,0:0|0:0|0:0|0:0,0:0:0:0:
239,304,114178,6,0,L|181:298,3,56.5499974113466,10|2|10|10,0:0|0:0|0:0|0:0,0:0:0:0:
196,210,114486,6,0,L|166:147,3,60.8999981414796,10|2|10|10,0:0|0:0|0:0|0:0,0:0:0:0:
296,206,114794,5,10,0:0:0:0:
296,206,114871,1,2,0:0:0:0:
296,206,114947,1,10,0:0:0:0:
296,206,115024,1,10,0:0:0:0:
296,206,115101,1,12,1:2:0:0:
435,77,115563,5,0,1:2:0:0:
435,77,115640,1,0,1:2:0:0:
435,77,115717,1,4,1:2:0:0:
251,17,115947,5,4,1:2:0:0:
113,147,116178,5,4,1:2:0:0:
296,206,116332,1,4,1:1:0:0:
256,192,116409,12,0,118794,0:0:0:0:
