osu file format v14

[General]
AudioFilename: audio.mp3
AudioLeadIn: 0
PreviewTime: 77563
Countdown: 0
SampleSet: Soft
StackLeniency: 0.2
Mode: 0
LetterboxInBreaks: 0
WidescreenStoryboard: 1

[Editor]
Bookmarks: 1871,2486,6794,21563,36332,42486,46178,53563,57871,58332,58486,78178,79332,80640,91717,92947,97871,102794,107717,112640,113871,115101,116332,118794
DistanceSpacing: 1
BeatDivisor: 4
GridSize: 32
TimelineZoom: 3.599999

[Metadata]
Title:Ring ! Run ! Nyan!!
TitleUnicode:Ring!Run!Nyan!!
Artist:MisomyL
ArtistUnicode:MisomyL
Creator:TNTlealu
Version:Extra~!!
Source:SOUND VOLTEX III GRAVITY WARS コナステ
Tags:bongo light_u light Crysisters Pado gazimal Matsuyuki Ame RK657 dahkjdas Sweets ImWater Dailycare -Hitomi L1gHT_u SDVX VIVID WAVE Konasute Version! Original Song Contest INFINITE BLASTER rhythm video game electronic instrumental Arcades
BeatmapID:3686417
BeatmapSetID:1752046

[Difficulty]
HPDrainRate:5
CircleSize:3.9
OverallDifficulty:8.5
ApproachRate:9.2
SliderMultiplier:1.8
SliderTickRate:1

[Events]
//Background and Video events
0,0,"catgirl.jpg",0,0
//Break Periods
//Storyboard Layer 0 (Background)
//Storyboard Layer 1 (Fail)
//Storyboard Layer 2 (Pass)
//Storyboard Layer 3 (Foreground)
//Storyboard Layer 4 (Overlay)
//Storyboard Sound Samples

[TimingPoints]
1256,307.692307692308,4,2,1,40,1,0
1871,307.692307692308,4,2,1,40,1,0
6794,-100,4,2,1,60,0,0
16024,-100,4,2,2,40,0,0
16332,-100,4,2,1,60,0,0
20947,-100,4,2,1,50,0,0
21563,-100,4,2,1,60,0,0
30794,-100,4,2,1,50,0,0
31101,-100,4,2,2,50,0,0
31409,-100,4,2,1,60,0,0
31717,-100,4,2,1,60,0,0
36640,-100,4,2,2,60,0,0
44947,-100,4,2,2,40,0,0
45563,-100,4,2,2,50,0,0
46178,-100,4,2,1,60,0,0
46486,-100,4,2,1,60,0,0
51101,-100,4,2,1,20,0,0
52024,-100,4,2,2,20,0,0
53255,-100,4,2,1,20,0,0
53563,-100,4,2,1,60,0,0
58486,-100,4,2,19,50,0,0
59101,-100,4,2,14,50,0,0
59717,-100,4,2,18,50,0,0
60332,-100,4,2,19,50,0,0
60947,-100,4,2,16,50,0,0
61409,-100,4,2,17,50,0,0
62178,-100,4,2,22,50,0,0
62486,-100,4,2,23,50,0,0
62794,-100,4,2,14,50,0,0
63101,-100,4,2,13,50,0,0
63409,-100,4,2,14,50,0,0
64024,-100,4,2,9,50,0,0
64332,-100,4,2,15,50,0,0
64640,-100,4,2,14,50,0,0
65255,-100,4,2,13,50,0,0
65871,-100,4,2,12,50,0,0
66178,-100,4,2,1,50,0,0
66486,-100,4,2,10,30,0,0
66794,-100,4,2,11,30,0,0
67101,-100,4,2,12,30,0,0
67563,-100,4,2,13,30,0,0
67640,-100,4,2,12,30,0,0
67717,-100,4,2,11,30,0,0
68178,-100,4,2,10,30,0,0
68255,-100,4,2,11,30,0,0
68332,-100,4,2,12,30,0,0
68947,-100,4,2,15,30,0,0
69563,-100,4,2,18,30,0,0
70178,-100,4,2,19,30,0,0
70794,-100,4,2,16,30,0,0
71255,-100,4,2,17,30,0,0
72024,-100,4,2,16,30,0,0
72332,-100,4,2,15,30,0,0
72640,-100,4,2,14,30,0,0
72947,-100,4,2,13,30,0,0
73255,-100,4,2,14,30,0,0
73871,-100,4,2,12,30,0,0
74178,-100,4,2,14,30,0,0
74486,-100,4,2,17,30,0,0
74794,-100,4,2,14,30,0,0
75101,-100,4,2,17,30,0,0
75409,-100,4,2,18,30,0,0
75717,-100,4,2,19,30,0,0
76332,-100,4,2,17,30,0,0
76640,-100,4,2,18,30,0,0
76947,-100,4,2,20,30,0,0
77409,-100,4,2,21,30,0,0
77486,-100,4,2,20,30,0,0
77563,-100,4,2,19,30,0,0
77639,-100,4,2,20,30,0,0
77716,-100,4,2,19,30,0,0
77793,-100,4,2,20,30,0,0
77870,-100,4,2,1,30,0,0
78178,-100,4,2,1,60,0,0
80640,-100,4,2,1,80,0,0
92947,-100,4,2,2,50,0,0
93255,-100,4,2,2,50,0,0
97255,-100,4,2,1,50,0,0
97871,-100,4,2,1,80,0,0
98178,-100,4,2,1,80,0,0
101563,-100,4,2,1,40,0,0
102947,-100,4,2,2,40,0,0
103101,-100,4,2,2,40,0,0
106794,-100,4,2,2,25,0,0
106947,-100,4,2,2,30,0,0
107101,-100,4,2,2,35,0,0
107255,-100,4,2,2,40,0,0
107409,-100,4,2,2,45,0,0
107563,-100,4,2,2,50,0,0
107717,-100,4,2,1,70,0,0
108024,-100,4,2,1,70,0,0
112640,-100,4,2,2,20,0,0
112793,-100,4,2,2,20,0,0
112947,-100,4,2,2,25,0,0
113255,-100,4,2,2,30,0,0
113563,-100,4,2,2,35,0,0
113871,-100,4,2,2,40,0,0
114178,-100,4,2,2,45,0,0
114486,-100,4,2,2,50,0,0
114794,-100,4,2,2,55,0,0
115101,-100,4,2,2,60,0,0
115563,-100,4,2,1,60,0,0

[Colours]
Combo1 : 222,104,247
Combo2 : 255,142,142
Combo3 : 79,170,238
Combo4 : 244,89,113

[HitObjects]
15,76,1256,5,2,0:0:0:0:
49,74,1332,1,2,0:0:0:0:
80,86,1409,1,2,0:0:0:0:
104,110,1486,1,2,0:0:0:0:
120,139,1563,5,2,0:0:0:0:
160,157,1640,1,2,0:0:0:0:
202,144,1717,1,2,0:0:0:0:
224,106,1794,1,2,0:0:0:0:
217,63,1871,5,6,0:0:0:0:
284,173,2024,1,2,0:0:0:0:
284,173,2178,1,2,0:0:0:0:
284,173,2332,1,2,0:0:0:0:
408,192,2486,5,2,0:0:0:0:
284,173,2640,1,2,0:0:0:0:
284,173,2794,1,2,0:0:0:0:
284,173,2947,1,2,0:0:0:0:
217,63,3101,5,2,3:0:0:0:
284,173,3255,1,2,0:0:0:0:
207,280,3409,5,2,0:0:0:0:
284,173,3563,1,2,0:0:0:0:
408,192,3717,5,2,0:0:0:0:
444,217,3794,1,2,0:0:0:0:
461,258,3871,1,2,0:0:0:0:
454,302,3947,1,2,0:0:0:0:
425,335,4024,1,2,0:0:0:0:
382,348,4101,1,2,0:0:0:0:
339,336,4178,1,2,0:0:0:0:
309,303,4255,1,2,0:0:0:0:
301,260,4332,6,0,L|351:274,3,45,6|2|2|2,0:0|0:0|0:0|0:0,0:0:0:0:
284,173,4640,2,0,L|234:186,3,45,2|2|2|2,0:0|0:0|0:0|0:0,0:0:0:0:
163,267,4947,6,0,L|212:280,3,45,2|2|2|2,3:0|0:0|0:0|0:0,0:0:0:0:
130,132,5255,2,0,L|80:145,3,45,2|2|2|2,0:0|0:0|0:0|0:0,0:0:0:0:
259,15,5563,5,2,3:0:0:0:
250,59,5640,1,2,0:0:0:0:
241,103,5717,1,2,0:0:0:0:
232,147,5794,1,2,0:0:0:0:
223,191,5871,5,2,0:0:0:0:
214,235,5947,1,2,0:0:0:0:
206,279,6024,1,2,0:0:0:0:
197,323,6101,1,2,0:0:0:0:
188,368,6178,5,8,2:1:0:0:
130,132,6486,1,2,0:0:0:0:
392,337,6794,5,4,1:1:0:0:
438,239,6947,1,2,0:0:0:0:
438,239,7101,1,10,0:0:0:0:
438,239,7255,1,2,0:0:0:0:
392,337,7409,5,2,1:2:0:0:
348,206,7563,1,2,0:0:0:0:
348,206,7717,1,10,0:0:0:0:
348,206,7871,1,2,0:0:0:0:
392,337,8024,5,2,1:2:0:0:
254,236,8178,1,2,0:0:0:0:
254,236,8332,1,10,0:0:0:0:
254,236,8486,1,2,0:0:0:0:
392,337,8640,5,2,1:2:0:0:
199,334,8794,1,2,0:0:0:0:
199,334,8947,1,10,0:0:0:0:
199,334,9101,1,2,0:0:0:0:
392,337,9255,5,2,1:2:0:0:
199,334,9409,1,2,0:0:0:0:
199,334,9486,1,2,0:0:0:0:
199,334,9563,1,10,0:0:0:0:
392,337,9717,5,2,0:0:0:0:
254,236,9871,1,2,1:2:0:0:
254,236,9947,1,2,0:0:0:0:
254,236,10024,1,2,0:0:0:0:
392,337,10178,5,10,0:0:0:0:
348,206,10332,1,2,0:0:0:0:
348,206,10409,1,2,0:0:0:0:
348,206,10486,1,2,1:2:0:0:
392,337,10640,5,2,0:0:0:0:
438,239,10794,1,10,0:0:0:0:
438,239,10871,1,2,0:0:0:0:
438,239,10947,1,2,0:0:0:0:
392,337,11101,5,2,1:2:0:0:
370,341,11178,1,2,0:0:0:0:
348,346,11255,1,2,0:0:0:0:
326,351,11332,1,2,0:0:0:0:
292,343,11409,5,10,0:0:0:0:
270,347,11486,1,2,0:0:0:0:
248,352,11563,1,2,0:0:0:0:
226,357,11640,1,2,0:0:0:0:
201,379,11717,6,0,L|228:201,1,180,6|8,1:2|0:0,0:0:0:0:
73,169,12178,1,2,0:0:0:0:
73,169,12255,1,2,0:0:0:0:
73,169,12332,2,0,L|100:346,1,180,2|8,1:2|0:0,0:0:0:0:
201,379,12794,1,2,0:0:0:0:
201,379,12871,1,2,0:0:0:0:
201,379,12947,6,0,L|228:201,1,180,2|8,1:2|0:0,0:0:0:0:
73,169,13409,1,2,0:0:0:0:
73,169,13486,1,2,0:0:0:0:
73,169,13563,2,0,L|100:346,1,180,2|8,1:2|0:0,0:0:0:0:
201,379,14024,1,2,0:0:0:0:
201,379,14101,1,2,0:0:0:0:
201,379,14178,6,0,L|213:298,1,45,2|0,1:2|0:0,0:0:0:0:
228,201,14332,1,2,0:0:0:0:
228,201,14409,1,2,0:0:0:0:
228,201,14486,6,0,L|215:281,1,45,10|0,0:0|0:0,0:0:0:0:
100,346,14640,2,0,L|89:277,1,45,2|0,0:0|0:0,0:0:0:0:
73,169,14794,1,2,1:2:0:0:
73,169,14871,1,2,0:0:0:0:
73,169,14947,6,0,L|83:237,1,45,2|0,0:0|0:0,0:0:0:0:
201,379,15101,2,0,L|213:298,1,45,10|0,0:0|0:0,0:0:0:0:
158,151,15255,1,2,0:0:0:0:
158,151,15332,1,2,0:0:0:0:
158,151,15409,5,2,1:2:0:0:
192,122,15486,1,2,0:0:0:0:
236,117,15563,1,2,0:0:0:0:
276,136,15640,1,2,0:0:0:0:
300,173,15717,5,8,0:0:0:0:
335,201,15794,1,2,0:0:0:0:
379,206,15871,1,2,0:0:0:0:
418,185,15947,1,2,0:0:0:0:
440,147,16024,5,10,1:1:0:0:
207,334,16332,1,10,1:0:0:0:
27,101,16640,5,6,1:2:0:0:
68,193,16794,1,2,0:0:0:0:
158,151,16947,1,10,0:0:0:0:
118,62,17101,1,2,0:0:0:0:
54,200,17255,5,2,1:2:0:0:
162,169,17409,1,2,0:0:0:0:
131,62,17563,1,10,0:0:0:0:
24,91,17717,1,0,0:0:0:0:
129,254,17871,5,2,1:2:0:0:
224,90,18024,1,2,0:0:0:0:
224,90,18101,1,2,0:0:0:0:
224,90,18178,1,10,0:0:0:0:
129,254,18332,5,2,0:0:0:0:
24,91,18486,1,2,1:2:0:0:
24,91,18563,1,2,0:0:0:0:
24,91,18640,1,2,0:0:0:0:
224,90,18794,5,10,0:0:0:0:
256,98,18871,1,2,0:0:0:0:
289,107,18947,1,2,0:0:0:0:
321,116,19024,1,2,0:0:0:0:
354,124,19101,5,2,1:2:0:0:
448,208,19255,1,2,0:0:0:0:
397,324,19409,1,10,0:0:0:0:
271,310,19563,1,2,0:0:0:0:
245,187,19717,5,2,1:2:0:0:
271,310,19871,1,2,0:0:0:0:
397,324,20024,1,10,0:0:0:0:
448,208,20178,1,2,0:0:0:0:
354,124,20332,5,2,1:2:0:0:
393,29,20486,1,2,0:0:0:0:
393,29,20563,1,2,0:0:0:0:
393,29,20640,2,0,B|321:18|334:69|259:56,1,135,8|0,0:0|0:0,0:0:0:0:
196,24,20947,5,8,3:0:0:0:
333,205,21255,1,4,3:0:0:0:
66,293,21563,5,4,1:1:0:0:
55,226,21717,1,2,0:0:0:0:
44,159,21871,1,10,0:0:0:0:
66,293,22024,5,2,0:0:0:0:
60,259,22101,1,0,0:0:0:0:
55,226,22178,1,2,1:2:0:0:
49,193,22255,1,0,0:0:0:0:
44,159,22332,1,2,0:0:0:0:
66,293,22486,5,10,0:0:0:0:
136,106,22640,2,0,L|146:172,2,45,2|0|2,0:0|0:0|1:2,0:0:0:0:
44,159,22947,5,2,0:0:0:0:
159,246,23101,1,10,0:0:0:0:
229,130,23255,5,2,0:0:0:0:
234,163,23332,1,0,0:0:0:0:
239,196,23409,1,2,1:2:0:0:
245,229,23486,1,0,0:0:0:0:
250,263,23563,1,2,0:0:0:0:
146,172,23717,5,10,0:0:0:0:
335,213,23871,1,2,0:0:0:0:
273,32,24024,5,6,1:2:0:0:
337,138,24178,2,0,L|389:127,2,45,2|2|2,0:0|0:0|0:0,0:0:0:0:
273,32,24486,5,6,1:2:0:0:
424,195,24640,1,2,0:2:0:0:
379,204,24717,1,2,0:0:0:0:
335,213,24794,1,2,0:0:0:0:
415,338,24947,5,6,1:2:0:0:
268,339,25101,2,0,L|274:295,2,45,2|2|2,0:0|0:0|0:2,0:0:0:0:
415,338,25409,5,6,1:2:0:0:
200,262,25563,1,2,0:0:0:0:
194,306,25640,1,2,0:0:0:0:
189,351,25717,1,2,0:0:0:0:
334,384,25871,5,2,1:2:0:0:
339,350,25947,1,2,0:0:0:0:
344,317,26024,1,2,0:0:0:0:
350,284,26101,1,2,0:0:0:0:
368,254,26178,5,10,0:0:0:0:
362,224,26255,1,2,0:0:0:0:
357,194,26332,1,2,0:0:0:0:
352,165,26409,1,2,0:0:0:0:
359,134,26486,6,0,P|276:111|207:163,1,180,6|8,1:2|0:0,0:0:0:0:
62,307,26947,1,2,0:0:0:0:
62,307,27024,1,2,0:0:0:0:
61,307,27101,2,0,P|82:301|101:289,1,45,2|0,1:2|0:0,0:0:0:0:
112,162,27255,5,0,0:0:0:0:
200,262,27409,1,8,0:0:0:0:
63,88,27563,1,2,0:0:0:0:
63,88,27640,1,2,0:0:0:0:
63,88,27717,6,0,B|35:114|-1:136|-1:136|26:174|46:224,1,180,2|8,1:2|0:0,0:0:0:0:
156,365,28178,1,2,0:0:0:0:
156,365,28255,1,2,0:0:0:0:
155,365,28332,2,0,P|176:357|197:351,1,45,2|0,1:2|0:0,0:0:0:0:
369,260,28486,5,0,0:0:0:0:
319,384,28640,1,8,0:0:0:0:
279,246,28794,1,2,0:0:0:0:
279,246,28871,1,2,0:0:0:0:
279,246,28947,6,0,L|268:321,1,45,2|0,1:2|0:0,0:0:0:0:
429,381,29101,1,2,0:0:0:0:
429,381,29178,1,2,0:0:0:0:
429,381,29255,6,0,L|418:306,1,45,10|0,0:0|0:0,0:0:0:0:
369,260,29409,2,0,L|358:185,1,45,2|0,0:0|0:0,0:0:0:0:
512,318,29563,1,2,1:2:0:0:
512,318,29640,1,2,0:0:0:0:
512,318,29717,6,0,L|501:243,1,45,2|0,0:0|0:0,0:0:0:0:
452,197,29871,2,0,L|441:122,1,45,10|0,0:0|0:0,0:0:0:0:
486,27,30024,1,2,0:0:0:0:
486,27,30101,1,2,0:0:0:0:
486,27,30178,5,2,1:2:0:0:
451,17,30255,1,2,0:0:0:0:
415,21,30332,1,2,0:0:0:0:
384,37,30409,1,2,0:0:0:0:
361,65,30486,5,8,0:0:0:0:
337,102,30563,1,2,0:0:0:0:
296,120,30640,1,2,0:0:0:0:
252,112,30717,1,2,0:0:0:0:
220,82,30794,5,8,1:0:0:0:
0,227,31101,1,8,1:0:0:0:
88,52,31409,5,6,1:2:0:0:
96,141,31563,1,2,0:0:0:0:
105,231,31717,1,10,0:0:0:0:
113,320,31871,1,2,0:0:0:0:
184,80,32024,5,6,1:2:0:0:
209,348,32255,1,2,1:2:0:0:
192,169,32486,1,2,1:2:0:0:
303,373,32640,5,6,1:2:0:0:
278,105,32871,1,2,1:2:0:0:
295,284,33101,1,2,1:2:0:0:
364,41,33255,5,6,1:2:0:0:
389,309,33486,1,2,1:2:0:0:
372,130,33717,1,2,1:2:0:0:
273,24,33871,6,0,L|208:6,3,45,6|2|2|2,1:2|0:0|0:0|0:0,0:0:0:0:
158,154,34178,2,0,L|223:136,3,45,10|2|2|2,0:0|0:0|0:0|0:0,0:0:0:0:
43,41,34486,5,2,1:2:0:0:
75,70,34563,1,2,0:0:0:0:
79,113,34640,1,2,0:0:0:0:
50,147,34717,1,2,0:0:0:0:
6,150,34794,5,10,0:0:0:0:
36,117,34871,1,2,0:0:0:0:
74,92,34947,1,2,0:0:0:0:
115,75,35024,1,2,0:0:0:0:
160,67,35101,5,6,1:2:0:0:
96,213,35255,1,2,1:2:0:0:
268,208,35409,1,2,1:2:0:0:
203,353,35563,1,2,1:2:0:0:
54,272,35717,5,2,1:2:0:0:
31,247,35794,1,0,1:2:0:0:
21,215,35871,1,0,1:2:0:0:
26,182,35947,1,0,1:2:0:0:
45,155,36024,1,2,1:2:0:0:
75,139,36101,1,0,1:2:0:0:
108,138,36178,1,0,1:2:0:0:
138,151,36255,1,0,1:2:0:0:
160,177,36332,5,6,1:1:0:0:
209,295,36640,6,0,L|201:355,2,60,10|10|10,0:0|0:0|0:0,0:0:0:0:
292,193,36947,1,2,1:2:0:0:
292,193,37255,2,0,L|347:170,2,60,10|8|8,0:0|0:0|0:0,0:0:0:0:
160,177,37563,1,2,1:2:0:0:
160,177,37871,2,0,L|113:139,2,60,10|8|10,0:0|0:0|0:0,0:0:0:0:
209,295,38178,1,2,1:2:0:0:
298,352,38486,6,0,P|323:336|352:330,1,60,10|8,0:0|0:0,0:0:0:0:
440,354,38691,1,10,0:0:0:0:
440,354,38794,2,0,L|456:217,1,120,2|0,1:2|0:0,0:0:0:0:
489,75,39101,6,0,P|464:91|435:97,1,60,10|8,0:0|0:0,0:0:0:0:
351,62,39306,1,10,0:0:0:0:
351,62,39409,2,0,L|214:35,1,120,2|2,1:2|0:0,0:0:0:0:
85,44,39717,1,10,0:0:0:0:
94,63,39819,1,10,0:0:0:0:
101,82,39922,1,10,0:0:0:0:
110,108,40024,6,0,L|85:250,2,120,2|2|8,1:2|0:0|0:0,0:0:0:0:
199,161,40640,2,0,L|187:232,2,60,2|8|8,1:2|0:0|0:0,0:0:0:0:
98,285,40947,2,0,L|89:226,2,60,10|8|8,0:0|0:0|0:0,0:0:0:0:
201,374,41255,5,6,1:2:0:0:
303,262,41563,6,0,L|314:353,2,60,10|10|10,0:0|0:0|0:0,0:0:0:0:
396,212,41871,1,2,1:2:0:0:
396,212,42178,2,0,L|407:303,2,60,10|8|8,0:0|0:0|0:0,0:0:0:0:
496,164,42486,1,2,1:2:0:0:
496,164,42794,2,0,L|507:255,2,60,10|8|10,0:0|0:0|0:0,0:0:0:0:
478,56,43101,1,2,1:2:0:0:
467,31,43409,6,0,P|445:51|419:66,1,60,10|10,0:0|0:0,0:0:0:0:
339,95,43614,1,10,0:0:0:0:
172,45,43717,6,0,P|180:73|197:98,1,60,2|0,1:2|0:0,0:0:0:0:
215,216,43922,2,0,P|235:194|248:167,1,60,0|10,0:0|0:0,0:0:0:0:
339,95,44127,2,0,P|309:87|280:90,1,60,8|8,0:0|0:0,0:0:0:0:
146,162,44332,6,0,L|69:145,1,60,2|0,1:2|0:0,0:0:0:0:
16,260,44537,2,0,L|93:243,1,60,0|10,0:0|0:0,0:0:0:0:
146,358,44742,2,0,L|69:341,1,60,8|8,0:0|0:0,0:0:0:0:
16,260,44947,5,2,1:2:0:0:
146,358,45101,1,10,0:0:0:0:
146,162,45255,1,10,0:0:0:0:
146,358,45409,1,10,0:0:0:0:
307,163,45563,6,0,L|287:231,3,45,10|8|8|8,0:0|0:0|0:0|0:0,0:0:0:0:
414,299,45871,2,0,L|426:343,3,45,10|8|8|8,0:0|0:0|0:0|0:0,0:0:0:0:
452,101,46178,5,4,1:1:0:0:
362,88,46332,1,2,0:0:0:0:
273,75,46486,1,10,0:0:0:0:
145,161,46640,6,0,P|128:120|145:73,1,90,2|0,0:0|1:2,0:0:0:0:
294,206,46947,1,2,0:0:0:0:
140,78,47101,1,10,0:0:0:0:
32,278,47255,2,0,B|125:302|106:223|213:245,1,180,2|2,0:0|0:0,0:0:0:0:
294,206,47717,5,10,0:0:0:0:
296,228,47794,1,2,0:0:0:0:
298,250,47871,1,2,0:0:0:0:
300,273,47947,1,2,0:0:0:0:
303,295,48024,1,2,1:2:0:0:
383,126,48178,5,2,0:0:0:0:
387,165,48255,1,2,0:0:0:0:
390,205,48332,1,10,0:0:0:0:
393,243,48409,1,2,0:0:0:0:
397,282,48486,1,2,0:0:0:0:
400,322,48563,1,2,0:0:0:0:
404,361,48640,5,2,1:2:0:0:
303,295,48794,1,2,0:0:0:0:
512,213,48947,1,10,0:0:0:0:
336,61,49101,1,2,0:0:0:0:
207,261,49255,5,2,1:2:0:0:
180,236,49332,1,2,0:0:0:0:
144,229,49409,1,2,0:0:0:0:
109,242,49486,1,2,0:0:0:0:
83,267,49563,5,10,0:0:0:0:
91,222,49640,1,2,0:0:0:0:
97,177,49717,1,2,0:0:0:0:
104,133,49794,1,2,0:0:0:0:
111,88,49871,5,2,1:2:0:0:
4,202,50024,1,2,0:0:0:0:
146,319,50178,1,10,0:0:0:0:
231,106,50332,6,0,B|297:115|276:162|370:174,1,135,2|0,0:0|0:0,0:0:0:0:
346,169,50640,1,2,0:0:0:0:
492,40,50794,2,0,P|467:124|448:214,1,180,10|2,0:0|0:0,0:0:0:0:
448,214,51563,5,2,0:0:0:0:
448,214,52024,1,10,0:0:0:0:
448,214,52486,1,10,0:0:0:0:
448,214,52947,6,0,L|460:275,3,45,2|0|0|0,1:2|1:2|1:2|1:2,0:0:0:0:
352,136,53255,2,0,L|360:91,3,45,2|0|0|0,1:2|1:2|1:2|1:2,0:0:0:0:
253,253,53563,5,6,1:1:0:0:
224,267,53640,1,0,0:0:0:0:
192,267,53717,1,0,0:0:0:0:
163,254,53794,1,0,0:0:0:0:
142,230,53871,1,2,0:0:0:0:
133,199,53947,1,2,0:0:0:0:
139,168,54024,5,6,1:2:0:0:
162,205,54101,1,2,0:0:0:0:
160,249,54178,1,2,0:0:0:0:
134,285,54255,1,2,0:0:0:0:
92,299,54332,1,2,0:0:0:0:
49,287,54409,1,2,0:0:0:0:
21,253,54486,5,6,1:2:0:0:
53,253,54563,1,2,0:0:0:0:
84,260,54640,1,2,0:0:0:0:
113,273,54717,1,2,0:0:0:0:
139,292,54794,1,2,0:0:0:0:
161,316,54871,1,2,0:0:0:0:
176,343,54947,5,6,1:2:0:0:
208,312,55024,1,2,0:0:0:0:
245,286,55101,1,2,0:0:0:0:
287,269,55178,1,2,0:0:0:0:
331,260,55255,1,2,0:0:0:0:
376,259,55332,1,2,0:0:0:0:
420,267,55409,5,6,1:2:0:0:
404,282,55486,1,2,0:0:0:0:
389,299,55563,1,2,0:0:0:0:
377,318,55640,1,2,0:0:0:0:
366,338,55717,5,6,1:2:0:0:
353,294,55794,1,2,0:0:0:0:
338,252,55871,1,2,0:0:0:0:
320,210,55947,1,2,0:0:0:0:
300,170,56024,5,6,1:2:0:0:
369,76,56178,1,0,1:2:0:0:
262,67,56332,5,0,1:2:0:0:
398,172,56486,1,4,1:2:0:0:
244,230,56640,5,2,1:2:0:0:
216,222,56717,1,2,1:2:0:0:
189,216,56794,1,2,1:2:0:0:
162,209,56871,1,2,1:2:0:0:
134,204,56947,1,6,1:2:0:0:
106,198,57024,1,2,1:2:0:0:
79,193,57101,1,2,1:2:0:0:
51,189,57178,1,2,1:2:0:0:
23,185,57255,5,6,1:2:0:0:
281,103,57871,1,2,0:0:0:0:
353,368,58332,1,2,0:0:0:0:
353,368,58409,1,2,0:0:0:0:
353,368,58486,5,6,0:0:0:0:
443,263,59101,1,2,0:0:0:0:
296,116,59717,5,2,0:0:0:0:
207,273,60332,1,2,0:0:0:0:
54,91,60947,5,2,0:0:0:0:
95,264,61409,1,2,0:0:0:0:
95,264,61563,1,2,0:0:0:0:
238,49,62178,5,2,0:0:0:0:
278,120,62486,1,2,0:0:0:0:
169,197,62794,1,2,0:0:0:0:
196,115,63101,1,2,0:0:0:0:
106,41,63409,5,2,0:0:0:0:
371,233,64024,1,2,0:0:0:0:
306,158,64332,1,2,0:0:0:0:
427,48,64640,5,2,0:0:0:0:
371,233,65255,1,2,0:0:0:0:
221,66,65871,1,2,0:0:0:0:
92,242,66486,5,2,0:0:0:0:
0,290,66794,1,2,0:0:0:0:
27,141,67101,5,2,0:0:0:0:
141,352,67563,2,0,L|152:297,2,45,2|2|2,0:0|0:0|0:0,0:0:0:0:
259,145,68178,2,0,L|271:202,2,45,2|2|2,0:0|0:0|0:0,0:0:0:0:
351,349,68947,1,2,0:0:0:0:
410,203,69563,5,2,0:0:0:0:
197,316,70178,1,2,0:0:0:0:
229,93,70794,5,2,0:0:0:0:
36,177,71255,1,2,0:0:0:0:
36,177,71409,1,2,0:0:0:0:
133,35,72024,5,2,0:0:0:0:
154,115,72332,1,2,0:0:0:0:
235,204,72640,1,2,0:0:0:0:
254,125,72947,1,2,0:0:0:0:
96,204,73255,5,2,0:0:0:0:
232,313,73871,1,2,0:0:0:0:
232,313,74178,1,2,0:0:0:0:
379,180,74486,5,2,0:0:0:0:
331,376,74794,1,2,0:0:0:0:
424,302,75101,1,2,0:0:0:0:
264,193,75409,1,2,0:0:0:0:
475,52,75717,5,2,0:0:0:0:
189,94,76332,1,2,0:0:0:0:
264,193,76640,1,2,0:0:0:0:
56,51,76947,5,2,0:0:0:0:
264,193,77563,2,0,L|255:238,7,45,2|2|2|2|2|2|2|2,0:0|0:0|0:0|0:0|0:0|0:0|0:0|0:0,0:0:0:0:
268,177,78178,5,4,1:2:0:0:
77,288,78640,1,4,1:2:0:0:
146,27,79101,1,4,1:2:0:0:
407,97,79563,1,4,1:2:0:0:
337,357,80024,5,4,1:2:0:0:
77,288,80332,1,12,1:1:0:0:
337,357,80640,6,0,L|349:294,5,45,4|0|0|0|8|0,1:1|3:0|3:0|3:0|1:2|3:0,0:0:0:0:
235,229,81101,2,0,L|246:287,1,45,2|0,3:2|3:0,0:0:0:0:
406,223,81255,2,0,L|418:161,3,45,2|0|0|0,1:2|3:2|3:2|3:2,0:0:0:0:
292,70,81563,2,0,L|304:132,3,45,8|0|0|0,1:2|3:2|3:2|3:2,0:0:0:0:
140,130,81871,5,2,1:2:0:0:
135,174,81947,1,0,3:2:0:0:
109,209,82024,1,2,3:0:0:0:
68,226,82101,1,0,3:2:0:0:
26,222,82178,5,10,1:2:0:0:
66,204,82255,1,0,3:2:0:0:
109,209,82332,1,2,3:0:0:0:
145,236,82409,1,0,3:2:0:0:
161,277,82486,5,2,1:2:0:0:
125,251,82563,1,0,3:2:0:0:
109,209,82640,1,0,3:2:0:0:
113,166,82717,1,0,3:2:0:0:
140,129,82794,6,0,P|143:106|142:84,1,45,12|0,1:2|3:2,0:0:0:0:
56,49,82947,2,0,P|50:70|51:93,1,45,0|0,3:2|3:2,0:0:0:0:
209,180,83101,6,0,P|277:157|385:132,1,180,6|8,1:2|1:2,0:0:0:0:
248,65,83563,1,0,3:2:0:0:
446,263,83717,5,2,1:2:0:0:
471,148,83871,1,0,3:2:0:0:
358,322,84024,5,10,1:2:0:0:
305,150,84178,1,0,3:2:0:0:
16,84,84332,5,2,1:2:0:0:
53,248,84486,1,0,3:2:0:0:
179,29,84640,5,10,1:2:0:0:
155,301,84794,1,0,3:2:0:0:
320,231,84947,5,2,1:2:0:0:
124,132,85101,1,0,3:2:0:0:
381,117,85255,5,10,1:2:0:0:
53,248,85409,1,0,3:2:0:0:
306,366,85563,6,0,L|313:311,7,45,6|0|0|0|8|0|0|0,1:2|3:2|3:2|3:2|1:2|3:2|3:2|3:2,0:0:0:0:
233,214,86178,6,0,L|240:269,3,45,2|0|0|0,1:2|3:2|3:2|3:2,0:0:0:0:
146,305,86486,2,0,L|139:360,3,45,10|0|0|0,1:2|3:2|3:2|3:2,0:0:0:0:
53,248,86794,6,0,L|43:139,1,90,6|0,1:2|3:2,0:0:0:0:
128,15,87101,1,8,1:2:0:0:
301,142,87255,1,2,3:2:0:0:
301,142,87332,1,2,3:2:0:0:
300,142,87409,6,0,P|255:136|219:110,1,90,6|0,1:2|3:2,0:0:0:0:
438,69,87717,2,0,P|422:125|409:215,1,135,8|0,1:2|1:2,0:0:0:0:
474,275,88024,5,4,1:1:0:0:
445,292,88101,1,0,3:2:0:0:
420,315,88178,1,0,3:2:0:0:
400,342,88255,1,0,3:2:0:0:
386,373,88332,5,8,1:2:0:0:
349,347,88409,1,0,3:2:0:0:
309,328,88486,1,0,3:2:0:0:
266,316,88563,1,0,3:2:0:0:
220,312,88640,5,2,1:2:0:0:
229,332,88717,1,0,3:2:0:0:
240,351,88794,1,0,3:2:0:0:
255,369,88871,1,0,3:2:0:0:
271,384,88947,5,8,1:2:0:0:
276,339,89024,1,0,3:2:0:0:
282,294,89101,1,0,3:2:0:0:
289,250,89178,1,0,3:2:0:0:
296,205,89255,6,0,P|304:185|314:165,3,45,2|0|0|0,1:2|3:2|3:2|3:2,0:0:0:0:
321,81,89563,2,0,P|342:84|364:90,3,45,8|0|0|0,1:2|3:2|3:2|3:2,0:0:0:0:
226,59,89871,2,0,P|226:81|223:103,3,45,2|0|0|0,1:2|3:2|3:2|3:2,0:0:0:0:
218,182,90178,2,0,P|196:186|174:187,3,45,8|0|0|0,1:2|3:2|3:2|3:2,0:0:0:0:
31,179,90486,5,6,1:2:0:0:
38,200,90563,1,0,3:2:0:0:
46,221,90640,1,0,3:2:0:0:
53,242,90717,1,0,3:2:0:0:
59,264,90794,1,8,1:2:0:0:
66,285,90871,1,0,3:2:0:0:
72,307,90947,1,2,3:2:0:0:
78,329,91024,1,0,3:2:0:0:
83,351,91101,5,2,1:2:0:0:
110,322,91178,1,0,3:2:0:0:
141,298,91255,1,0,3:2:0:0:
175,278,91332,1,0,3:2:0:0:
211,263,91409,1,10,1:2:0:0:
249,254,91486,1,0,3:2:0:0:
289,250,91563,1,0,3:2:0:0:
328,252,91640,1,0,3:2:0:0:
367,259,91717,6,0,B|438:292|438:292|412:230,1,135,6|0,1:2|3:2,0:0:0:0:
367,179,92024,2,0,B|431:134|431:134|364:125,1,135,14|0,1:2|3:2,0:0:0:0:
288,171,92332,2,0,B|281:93|281:93|240:146,1,135,6|0,1:2|3:2,0:0:0:0:
234,230,92640,2,0,B|163:197|163:197|189:259,1,135,6|0,1:2|0:0,0:0:0:0:
275,311,92947,6,0,P|330:288|388:273,1,120,6|0,1:1|0:0,0:0:0:0:
458,228,93255,1,8,0:0:0:0:
468,207,93358,1,8,0:0:0:0:
457,187,93460,1,8,0:0:0:0:
373,126,93563,6,0,P|367:155|365:185,2,60,2|0|8,1:2|0:0|0:0,0:0:0:0:
482,99,93871,2,0,P|480:69|473:39,2,60,8|8|8,0:0|0:0|0:0,0:0:0:0:
362,38,94178,6,0,P|306:56|284:109,1,120,2|8,1:2|0:0,0:0:0:0:
211,120,94486,2,0,P|233:173|289:190,1,120,10|8,0:2|0:0,0:0:0:0:
301,269,94794,2,0,P|352:241|364:184,1,120,10|8,1:2|0:0,0:0:0:0:
285,110,95101,6,0,P|280:80|263:56,2,60,10|8|8,0:2|0:0|0:0,0:0:0:0:
93,69,95409,5,6,1:1:0:0:
103,90,95512,1,0,0:0:0:0:
112,113,95614,1,0,0:0:0:0:
119,135,95717,1,8,0:2:0:0:
126,158,95819,1,8,0:0:0:0:
132,181,95922,1,8,0:0:0:0:
196,231,96024,5,10,1:2:0:0:
186,252,96127,1,0,0:0:0:0:
177,275,96229,1,0,0:0:0:0:
170,297,96332,1,8,0:2:0:0:
163,320,96435,1,8,0:0:0:0:
157,343,96537,1,8,0:0:0:0:
92,384,96640,6,0,L|28:371,2,60,10|0|8,1:2|0:0|0:2,0:0:0:0:
239,338,96947,2,0,L|303:325,2,60,8|8|8,0:2|0:0|0:0,0:0:0:0:
77,277,97255,6,0,L|73:303,14,22.5,6|0|0|0|0|0|0|0|0|0|0|0|0|0|0,1:2|0:0|0:0|0:0|0:0|0:0|0:0|0:0|1:0|0:0|0:0|0:0|0:0|0:0|0:0,0:0:0:0:
42,190,97871,5,4,1:1:0:0:
86,199,97947,1,0,3:0:0:0:
130,208,98024,1,0,3:0:0:0:
174,217,98101,1,0,3:0:0:0:
208,241,98178,5,8,1:2:0:0:
252,232,98255,1,0,3:0:0:0:
296,223,98332,1,0,3:0:0:0:
340,214,98409,1,0,3:0:0:0:
386,231,98486,5,0,1:2:0:0:
428,217,98563,1,0,3:0:0:0:
458,184,98640,1,0,3:0:0:0:
467,140,98717,1,0,3:0:0:0:
454,98,98794,1,10,1:2:0:0:
422,68,98871,1,0,3:0:0:0:
378,57,98947,1,2,3:2:0:0:
336,70,99024,1,0,3:0:0:0:
305,102,99101,6,0,L|303:165,3,45,0|0|0|0,1:2|3:0|3:0|3:0,0:0:0:0:
206,92,99409,2,0,L|204:47,3,45,10|0|0|0,1:2|3:0|3:0|3:0,0:0:0:0:
122,161,99717,2,0,L|123:205,3,45,2|0|0|0,1:2|3:0|3:0|3:0,0:0:0:0:
33,77,100024,2,0,L|31:32,3,45,8|0|0|0,1:2|3:0|3:0|3:0,0:0:0:0:
0,253,100332,5,6,1:2:0:0:
44,258,100409,1,0,3:0:0:0:
83,280,100486,1,0,3:0:0:0:
112,314,100563,1,0,3:0:0:0:
125,357,100640,5,8,1:2:0:0:
154,323,100717,1,0,3:0:0:0:
193,301,100794,1,0,3:0:0:0:
237,296,100871,1,0,3:0:0:0:
280,307,100947,5,6,1:2:0:0:
289,263,101024,1,0,3:0:0:0:
318,229,101101,1,0,3:0:0:0:
360,214,101178,1,0,3:0:0:0:
405,216,101255,5,10,1:2:0:0:
479,210,101332,1,0,3:0:0:0:
499,137,101409,1,0,3:0:0:0:
435,96,101486,1,0,3:0:0:0:
376,144,101563,1,2,3:2:0:0:
256,192,101640,12,0,102717,0:0:0:0:
402,217,102794,5,6,0:0:0:0:
447,92,102947,1,2,0:0:0:0:
447,92,103101,1,10,0:0:0:0:
447,92,103255,1,2,0:0:0:0:
402,217,103409,5,10,0:0:0:0:
308,31,103563,1,2,0:0:0:0:
308,31,103717,1,10,0:0:0:0:
308,31,103871,1,2,0:0:0:0:
402,217,104024,5,10,0:0:0:0:
447,92,104178,1,2,0:0:0:0:
447,92,104255,1,2,0:0:0:0:
447,92,104332,1,10,0:0:0:0:
402,217,104486,5,2,0:0:0:0:
308,31,104640,1,10,0:0:0:0:
308,31,104717,1,2,0:0:0:0:
308,31,104794,1,2,0:0:0:0:
183,211,104947,5,10,0:0:0:0:
147,183,105024,1,0,0:0:0:0:
107,163,105101,1,0,0:0:0:0:
63,151,105178,1,0,0:0:0:0:
19,146,105255,5,14,1:2:0:0:
53,241,105409,1,0,0:0:0:0:
112,74,105563,5,0,1:2:0:0:
53,241,105717,1,0,0:0:0:0:
215,106,105871,5,0,1:2:0:0:
53,241,106024,1,0,0:0:0:0:
283,197,106178,5,0,1:2:0:0:
53,241,106332,1,0,0:0:0:0:
297,329,106486,5,8,1:2:0:0:
53,241,106640,1,8,0:0:0:0:
53,241,106717,1,8,0:0:0:0:
53,241,106794,1,8,1:2:0:0:
151,384,106947,5,8,0:0:0:0:
215,106,107101,1,8,1:2:0:0:
215,106,107178,1,8,0:0:0:0:
215,106,107255,1,8,0:0:0:0:
429,290,107409,6,0,L|423:316,6,22.5,8|8|8|8|8|8|8,1:2|0:0|0:0|0:0|0:0|0:0|0:0,0:0:0:0:
350,271,107717,5,4,1:2:0:0:
210,180,107871,1,2,0:0:0:0:
300,40,108024,1,10,0:0:0:0:
439,131,108178,1,2,0:0:0:0:
277,46,108332,5,2,1:2:0:0:
432,109,108486,1,2,0:0:0:0:
371,264,108640,1,10,0:0:0:0:
217,201,108794,1,2,0:0:0:0:
422,93,108947,5,2,1:2:0:0:
269,301,109101,1,2,0:0:0:0:
269,301,109178,1,2,0:0:0:0:
269,301,109255,1,10,0:0:0:0:
422,93,109409,5,2,0:0:0:0:
175,62,109563,1,0,1:2:0:0:
175,62,109640,1,2,0:0:0:0:
175,62,109717,1,2,0:0:0:0:
53,303,109871,5,10,0:0:0:0:
47,269,109947,1,2,0:0:0:0:
42,236,110024,1,2,0:0:0:0:
37,203,110101,1,2,0:0:0:0:
31,169,110178,5,2,1:2:0:0:
147,274,110332,1,2,0:0:0:0:
0,380,110486,5,10,0:0:0:0:
147,152,110640,1,2,0:0:0:0:
295,381,110794,5,2,1:2:0:0:
147,274,110947,1,2,0:0:0:0:
432,296,111101,5,10,0:0:0:0:
284,189,111255,1,2,0:0:0:0:
465,66,111409,5,2,1:2:0:0:
445,88,111512,1,2,0:0:0:0:
420,105,111614,1,2,0:0:0:0:
351,129,111717,5,2,1:2:0:0:
314,112,111819,1,2,0:0:0:0:
276,101,111922,1,2,0:0:0:0:
205,67,112024,5,2,1:2:0:0:
169,115,112127,1,2,1:2:0:0:
112,133,112229,1,2,1:2:0:0:
53,120,112332,1,2,1:2:0:0:
22,67,112435,1,2,1:2:0:0:
66,106,112537,1,2,1:2:0:0:
58,161,112640,6,0,L|46:211,3,45,2|2|10|10,1:2|0:0|0:0|0:0,0:0:0:0:
173,242,112947,2,0,L|162:198,3,45,10|2|10|10,0:0|0:0|0:0|0:0,0:0:0:0:
81,381,113255,5,10,0:0:0:0:
102,362,113332,1,2,0:0:0:0:
125,347,113409,1,10,0:0:0:0:
150,334,113486,1,10,0:0:0:0:
177,326,113563,1,10,0:0:0:0:
205,320,113640,1,2,0:0:0:0:
233,319,113717,1,10,0:0:0:0:
261,321,113794,1,10,0:0:0:0:
288,327,113871,5,10,0:0:0:0:
328,346,113947,1,2,0:0:0:0:
372,342,114024,1,10,0:0:0:0:
408,317,114101,1,10,0:0:0:0:
427,276,114178,1,10,0:0:0:0:
423,232,114255,1,2,0:0:0:0:
398,196,114332,1,10,0:0:0:0:
357,177,114409,1,10,0:0:0:0:
313,182,114486,5,10,0:0:0:0:
262,160,114563,1,2,0:0:0:0:
233,113,114640,1,10,0:0:0:0:
236,58,114717,1,10,0:0:0:0:
271,15,114794,1,10,0:0:0:0:
324,0,114871,1,2,0:0:0:0:
376,18,114947,1,10,0:0:0:0:
408,64,115024,1,10,0:0:0:0:
408,119,115101,5,12,1:2:0:0:
152,247,115563,5,0,1:2:0:0:
152,247,115640,1,0,1:2:0:0:
152,247,115717,1,4,1:2:0:0:
408,119,115947,1,4,1:2:0:0:
121,65,116178,1,4,1:2:0:0:
408,317,116332,5,4,1:1:0:0:
256,192,116409,12,0,118794,0:0:0:0:
