osu file format v14

[General]
AudioFilename: audio.mp3
AudioLeadIn: 0
PreviewTime: 32106
Countdown: 0
SampleSet: Soft
StackLeniency: 0.7
Mode: 3
LetterboxInBreaks: 0
SpecialStyle: 0
WidescreenStoryboard: 0

[Editor]
DistanceSpacing: 1
BeatDivisor: 8
GridSize: 32
TimelineZoom: 3.499998

[Metadata]
Title:Mukishitsu Sekai ni Irodori o
TitleUnicode:無機質世界に彩を
Artist:MisomyL
ArtistUnicode:みそみぃる
Creator:[Ping]
Version:Coloring Book
Source:THE BMS OF FIGHTERS XVII -VISION THE RETRO FUTURE-
Tags:redraw the colorless world monotory featured artist fa mappers' guild mg mpg electronic instrumental BOFXVII REC_montage_until_21XXXX AESTORIA Arcaea Xnery JooF12 Damaree
BeatmapID:3718740
BeatmapSetID:1812783

[Difficulty]
HPDrainRate:9
CircleSize:4
OverallDifficulty:8.5
ApproachRate:5
SliderMultiplier:1.4
SliderTickRate:1

[Events]
//Background and Video events
0,0,"mukishitsu.jpg",0,0
//Break Periods
//Storyboard Layer 0 (Background)
//Storyboard Layer 1 (Fail)
//Storyboard Layer 2 (Pass)
//Storyboard Layer 3 (Foreground)
//Storyboard Layer 4 (Overlay)
//Storyboard Sound Samples

[TimingPoints]
18945,387.096774193548,4,2,1,30,1,0
32880,-100,4,2,1,30,0,1
50493,-100,4,2,1,30,0,0
51461,-100,4,2,1,30,0,1
63848,-100,4,2,1,30,0,0
110686,-100,4,2,1,30,0,1
122686,-100,4,2,1,30,0,0
126041,-100,4,2,1,30,0,1
135074,-100,4,2,1,30,0,0

[HitObjects]
320,192,18170,5,0,0:0:0:0:
320,192,18267,1,0,0:0:0:0:
192,192,18364,1,0,0:0:0:0:
192,192,18461,1,0,0:0:0:0:
320,192,18557,1,0,0:0:0:0:
448,192,18557,1,0,0:0:0:0:
320,192,18654,1,0,0:0:0:0:
448,192,18654,1,0,0:0:0:0:
64,192,18751,1,0,0:0:0:0:
192,192,18751,1,0,0:0:0:0:
64,192,18848,1,0,0:0:0:0:
192,192,18848,1,0,0:0:0:0:
448,192,18945,1,0,0:0:0:0:
320,192,18945,1,0,0:0:0:0:
192,192,19041,1,0,0:0:0:0:
448,192,19138,1,0,0:0:0:0:
320,192,19235,1,0,0:0:0:0:
64,192,19235,1,0,0:0:0:0:
192,192,19332,1,0,0:0:0:0:
320,192,19428,1,0,0:0:0:0:
448,192,19525,1,0,0:0:0:0:
192,192,19622,1,0,0:0:0:0:
448,192,19719,1,0,0:0:0:0:
192,192,19767,1,0,0:0:0:0:
320,192,19767,1,0,0:0:0:0:
64,192,19815,1,0,0:0:0:0:
320,192,19912,1,0,0:0:0:0:
192,192,20009,1,0,0:0:0:0:
448,192,20106,1,0,0:0:0:0:
320,192,20203,1,0,0:0:0:0:
192,192,20299,1,0,0:0:0:0:
192,192,20396,1,0,0:0:0:0:
448,192,20396,1,0,0:0:0:0:
320,192,20493,1,0,0:0:0:0:
448,192,20493,1,0,0:0:0:0:
192,192,20590,1,0,0:0:0:0:
448,192,20686,1,0,0:0:0:0:
320,192,20783,1,0,0:0:0:0:
64,192,20783,1,0,0:0:0:0:
192,192,20880,1,0,0:0:0:0:
320,192,20977,1,0,0:0:0:0:
448,192,21074,1,0,0:0:0:0:
192,192,21170,1,0,0:0:0:0:
448,192,21267,1,0,0:0:0:0:
64,192,21364,1,0,0:0:0:0:
192,192,21461,1,0,0:0:0:0:
320,192,21557,1,0,0:0:0:0:
64,192,21654,1,0,0:0:0:0:
320,192,21703,1,0,0:0:0:0:
192,192,21703,1,0,0:0:0:0:
448,192,21751,1,0,0:0:0:0:
192,192,21848,1,0,0:0:0:0:
192,192,21945,1,0,0:0:0:0:
448,192,21945,1,0,0:0:0:0:
320,192,22041,1,0,0:0:0:0:
448,192,22041,1,0,0:0:0:0:
192,192,22138,1,0,0:0:0:0:
448,192,22235,1,0,0:0:0:0:
320,192,22332,1,0,0:0:0:0:
64,192,22332,1,0,0:0:0:0:
192,192,22428,1,0,0:0:0:0:
320,192,22525,1,0,0:0:0:0:
448,192,22622,1,0,0:0:0:0:
192,192,22719,1,0,0:0:0:0:
448,192,22815,1,0,0:0:0:0:
192,192,22864,1,0,0:0:0:0:
320,192,22864,1,0,0:0:0:0:
64,192,22912,1,0,0:0:0:0:
320,192,23009,1,0,0:0:0:0:
192,192,23106,1,0,0:0:0:0:
320,192,23203,1,0,0:0:0:0:
448,192,23203,1,0,0:0:0:0:
64,192,23299,1,0,0:0:0:0:
320,192,23299,1,0,0:0:0:0:
192,192,23396,1,0,0:0:0:0:
64,192,23396,1,0,0:0:0:0:
192,192,23493,1,0,0:0:0:0:
448,192,23493,1,0,0:0:0:0:
320,192,23590,1,0,0:0:0:0:
448,192,23590,1,0,0:0:0:0:
192,192,23686,1,0,0:0:0:0:
448,192,23783,1,0,0:0:0:0:
320,192,23880,1,0,0:0:0:0:
64,192,23880,1,0,0:0:0:0:
192,192,23977,1,0,0:0:0:0:
320,192,24074,1,0,0:0:0:0:
448,192,24170,1,0,0:0:0:0:
192,192,24267,1,0,0:0:0:0:
64,192,24267,1,0,0:0:0:0:
320,192,24364,1,0,0:0:0:0:
448,192,24364,1,0,0:0:0:0:
64,192,24412,1,0,0:0:0:0:
448,192,24461,1,0,0:0:0:0:
320,192,24557,1,0,0:0:0:0:
64,192,24557,1,0,0:0:0:0:
192,192,24654,1,0,0:0:0:0:
448,192,24751,1,0,0:0:0:0:
64,192,24848,1,0,0:0:0:0:
448,192,24848,1,0,0:0:0:0:
64,192,24944,1,0,0:0:0:0:
320,192,24944,1,0,0:0:0:0:
192,192,25041,1,0,0:0:0:0:
320,192,25041,1,0,0:0:0:0:
192,192,25138,1,0,0:0:0:0:
448,192,25138,1,0,0:0:0:0:
320,192,25235,1,0,0:0:0:0:
448,192,25332,1,0,0:0:0:0:
64,192,25428,1,0,0:0:0:0:
320,192,25525,1,0,0:0:0:0:
192,192,25622,1,0,0:0:0:0:
64,192,25719,1,0,0:0:0:0:
192,192,25815,1,0,0:0:0:0:
64,192,25912,1,0,0:0:0:0:
320,192,26009,1,0,0:0:0:0:
192,192,26106,1,0,0:0:0:0:
448,192,26203,1,0,0:0:0:0:
192,192,26299,1,0,0:0:0:0:
320,192,26396,1,0,0:0:0:0:
64,192,26493,1,0,0:0:0:0:
320,192,26590,1,0,0:0:0:0:
448,192,26686,1,0,0:0:0:0:
320,192,26783,1,0,0:0:0:0:
448,192,26880,1,0,0:0:0:0:
64,192,26977,1,0,0:0:0:0:
320,192,27074,1,0,0:0:0:0:
192,192,27170,1,0,0:0:0:0:
64,192,27267,1,0,0:0:0:0:
192,192,27364,1,0,0:0:0:0:
64,192,27461,1,0,0:0:0:0:
320,192,27557,1,0,0:0:0:0:
192,192,27654,1,0,0:0:0:0:
448,192,27751,1,0,0:0:0:0:
320,192,27799,1,0,0:0:0:0:
192,192,27848,1,0,0:0:0:0:
448,192,27944,1,0,0:0:0:0:
192,192,28041,1,0,0:0:0:0:
320,192,28090,1,0,0:0:0:0:
448,192,28138,1,0,0:0:0:0:
192,192,28186,1,0,0:0:0:0:
64,192,28235,1,0,0:0:0:0:
192,192,32396,1,0,0:0:0:0:
320,192,32444,1,0,0:0:0:0:
320,192,32541,1,0,0:0:0:0:
320,192,32638,1,0,0:0:0:0:
192,192,32686,1,0,0:0:0:0:
64,192,32686,1,0,0:0:0:0:
192,192,32783,1,0,0:0:0:0:
64,192,32783,1,0,0:0:0:0:
448,192,32880,1,0,0:0:0:0:
192,192,32880,1,0,0:0:0:0:
64,192,32880,1,0,0:0:0:0:
320,192,32977,1,0,0:0:0:0:
448,192,33025,1,0,0:0:0:0:
192,192,33074,1,0,0:0:0:0:
192,192,33170,1,0,0:0:0:0:
64,192,33170,1,0,0:0:0:0:
320,192,33267,1,0,0:0:0:0:
448,192,33315,1,0,0:0:0:0:
192,192,33364,1,0,0:0:0:0:
64,192,33461,1,0,0:0:0:0:
192,192,33461,1,0,0:0:0:0:
320,192,33557,1,0,0:0:0:0:
448,192,33606,1,0,0:0:0:0:
192,192,33654,1,0,0:0:0:0:
64,192,33751,1,0,0:0:0:0:
192,192,33751,1,0,0:0:0:0:
320,192,33848,1,0,0:0:0:0:
448,192,33896,1,0,0:0:0:0:
192,192,33944,1,0,0:0:0:0:
192,192,34041,1,0,0:0:0:0:
448,192,34041,1,0,0:0:0:0:
320,192,34041,1,0,0:0:0:0:
64,192,34428,1,0,0:0:0:0:
192,192,34428,1,0,0:0:0:0:
320,192,34525,1,0,0:0:0:0:
448,192,34574,1,0,0:0:0:0:
192,192,34622,1,0,0:0:0:0:
64,192,34719,1,0,0:0:0:0:
192,192,34719,1,0,0:0:0:0:
320,192,34815,1,0,0:0:0:0:
448,192,34864,1,0,0:0:0:0:
192,192,34912,1,0,0:0:0:0:
64,192,35009,1,0,0:0:0:0:
192,192,35009,1,0,0:0:0:0:
320,192,35106,1,0,0:0:0:0:
448,192,35154,1,0,0:0:0:0:
192,192,35203,1,0,0:0:0:0:
64,192,35299,1,0,0:0:0:0:
192,192,35299,1,0,0:0:0:0:
320,192,35396,1,0,0:0:0:0:
448,192,35444,1,0,0:0:0:0:
192,192,35493,1,0,0:0:0:0:
192,192,35590,1,0,0:0:0:0:
448,192,35590,1,0,0:0:0:0:
320,192,35590,1,0,0:0:0:0:
64,192,35638,1,0,0:0:0:0:
448,192,35686,1,0,0:0:0:0:
320,192,35783,1,0,0:0:0:0:
192,192,35783,1,0,0:0:0:0:
64,192,35880,1,0,0:0:0:0:
320,192,35880,1,0,0:0:0:0:
64,192,35977,1,0,0:0:0:0:
192,192,35977,1,0,0:0:0:0:
320,192,36074,1,0,0:0:0:0:
448,192,36122,1,0,0:0:0:0:
192,192,36170,1,0,0:0:0:0:
192,192,36267,1,0,0:0:0:0:
64,192,36267,1,0,0:0:0:0:
320,192,36364,1,0,0:0:0:0:
448,192,36412,1,0,0:0:0:0:
192,192,36461,1,0,0:0:0:0:
192,192,36557,1,0,0:0:0:0:
64,192,36557,1,0,0:0:0:0:
320,192,36654,1,0,0:0:0:0:
448,192,36703,1,0,0:0:0:0:
192,192,36751,1,0,0:0:0:0:
192,192,36848,1,0,0:0:0:0:
64,192,36848,1,0,0:0:0:0:
320,192,36944,1,0,0:0:0:0:
448,192,36993,1,0,0:0:0:0:
192,192,37041,1,0,0:0:0:0:
192,192,37138,1,0,0:0:0:0:
320,192,37138,1,0,0:0:0:0:
448,192,37138,1,0,0:0:0:0:
64,192,37186,1,0,0:0:0:0:
320,192,37235,1,0,0:0:0:0:
192,192,37332,1,0,0:0:0:0:
64,192,37380,1,0,0:0:0:0:
320,192,37428,1,0,0:0:0:0:
192,192,37525,1,0,0:0:0:0:
64,192,37525,1,0,0:0:0:0:
320,192,37622,1,0,0:0:0:0:
448,192,37670,1,0,0:0:0:0:
192,192,37719,1,0,0:0:0:0:
192,192,37815,1,0,0:0:0:0:
64,192,37815,1,0,0:0:0:0:
320,192,37912,1,0,0:0:0:0:
448,192,37961,1,0,0:0:0:0:
192,192,38009,1,0,0:0:0:0:
64,192,38106,1,0,0:0:0:0:
192,192,38106,1,0,0:0:0:0:
320,192,38203,1,0,0:0:0:0:
448,192,38251,1,0,0:0:0:0:
192,192,38299,1,0,0:0:0:0:
64,192,38396,1,0,0:0:0:0:
192,192,38396,1,0,0:0:0:0:
320,192,38493,1,0,0:0:0:0:
448,192,38541,1,0,0:0:0:0:
192,192,38590,1,0,0:0:0:0:
192,192,38686,1,0,0:0:0:0:
448,192,38686,1,0,0:0:0:0:
320,192,38686,1,0,0:0:0:0:
64,192,38735,1,0,0:0:0:0:
448,192,38783,1,0,0:0:0:0:
448,192,38880,1,0,0:0:0:0:
448,192,38977,1,0,0:0:0:0:
64,192,39074,1,0,0:0:0:0:
192,192,39074,1,0,0:0:0:0:
320,192,39170,1,0,0:0:0:0:
448,192,39219,1,0,0:0:0:0:
192,192,39267,1,0,0:0:0:0:
320,192,39364,1,0,0:0:0:0:
192,192,39364,1,0,0:0:0:0:
448,192,39461,1,0,0:0:0:0:
192,192,39509,1,0,0:0:0:0:
320,192,39557,1,0,0:0:0:0:
320,192,39654,1,0,0:0:0:0:
448,192,39654,1,0,0:0:0:0:
192,192,39751,1,0,0:0:0:0:
64,192,39799,1,0,0:0:0:0:
448,192,39848,1,0,0:0:0:0:
64,192,39944,1,0,0:0:0:0:
448,192,39944,1,0,0:0:0:0:
320,192,40041,1,0,0:0:0:0:
64,192,40090,1,0,0:0:0:0:
192,192,40138,1,0,0:0:0:0:
320,192,40235,1,0,0:0:0:0:
448,192,40235,1,0,0:0:0:0:
192,192,40235,1,0,0:0:0:0:
64,192,40283,1,0,0:0:0:0:
320,192,40332,1,0,0:0:0:0:
192,192,40428,1,0,0:0:0:0:
64,192,40477,1,0,0:0:0:0:
320,192,40525,1,0,0:0:0:0:
64,192,40622,1,0,0:0:0:0:
192,192,40622,1,0,0:0:0:0:
320,192,40719,1,0,0:0:0:0:
448,192,40767,1,0,0:0:0:0:
192,192,40815,1,0,0:0:0:0:
320,192,40912,1,0,0:0:0:0:
192,192,40912,1,0,0:0:0:0:
448,192,41009,1,0,0:0:0:0:
192,192,41057,1,0,0:0:0:0:
320,192,41106,1,0,0:0:0:0:
320,192,41203,1,0,0:0:0:0:
448,192,41203,1,0,0:0:0:0:
192,192,41299,1,0,0:0:0:0:
64,192,41348,1,0,0:0:0:0:
448,192,41396,1,0,0:0:0:0:
64,192,41493,1,0,0:0:0:0:
448,192,41493,1,0,0:0:0:0:
320,192,41590,1,0,0:0:0:0:
64,192,41638,1,0,0:0:0:0:
192,192,41686,1,0,0:0:0:0:
320,192,41783,1,0,0:0:0:0:
448,192,41783,1,0,0:0:0:0:
192,192,41783,1,0,0:0:0:0:
64,192,41832,1,0,0:0:0:0:
448,192,41880,1,0,0:0:0:0:
320,192,41977,1,0,0:0:0:0:
192,192,41977,1,0,0:0:0:0:
64,192,42074,1,0,0:0:0:0:
320,192,42074,1,0,0:0:0:0:
64,192,42170,1,0,0:0:0:0:
192,192,42170,1,0,0:0:0:0:
320,192,42267,1,0,0:0:0:0:
448,192,42315,1,0,0:0:0:0:
192,192,42364,1,0,0:0:0:0:
320,192,42461,1,0,0:0:0:0:
192,192,42461,1,0,0:0:0:0:
448,192,42557,1,0,0:0:0:0:
192,192,42606,1,0,0:0:0:0:
320,192,42654,1,0,0:0:0:0:
320,192,42751,1,0,0:0:0:0:
448,192,42751,1,0,0:0:0:0:
192,192,42848,1,0,0:0:0:0:
64,192,42896,1,0,0:0:0:0:
448,192,42944,1,0,0:0:0:0:
64,192,43041,1,0,0:0:0:0:
448,192,43041,1,0,0:0:0:0:
320,192,43138,1,0,0:0:0:0:
64,192,43186,1,0,0:0:0:0:
192,192,43235,1,0,0:0:0:0:
320,192,43332,1,0,0:0:0:0:
448,192,43332,1,0,0:0:0:0:
192,192,43332,1,0,0:0:0:0:
64,192,43380,1,0,0:0:0:0:
320,192,43428,1,0,0:0:0:0:
192,192,43525,1,0,0:0:0:0:
64,192,43574,1,0,0:0:0:0:
320,192,43622,1,0,0:0:0:0:
64,192,43719,1,0,0:0:0:0:
192,192,43719,1,0,0:0:0:0:
320,192,43815,1,0,0:0:0:0:
448,192,43864,1,0,0:0:0:0:
192,192,43912,1,0,0:0:0:0:
320,192,44009,1,0,0:0:0:0:
192,192,44009,1,0,0:0:0:0:
448,192,44106,1,0,0:0:0:0:
192,192,44154,1,0,0:0:0:0:
320,192,44203,1,0,0:0:0:0:
320,192,44299,1,0,0:0:0:0:
448,192,44299,1,0,0:0:0:0:
192,192,44396,1,0,0:0:0:0:
64,192,44444,1,0,0:0:0:0:
448,192,44493,1,0,0:0:0:0:
64,192,44590,1,0,0:0:0:0:
448,192,44590,1,0,0:0:0:0:
320,192,44686,1,0,0:0:0:0:
64,192,44735,1,0,0:0:0:0:
192,192,44783,1,0,0:0:0:0:
320,192,44880,1,0,0:0:0:0:
448,192,44880,1,0,0:0:0:0:
192,192,44880,1,0,0:0:0:0:
64,192,44928,1,0,0:0:0:0:
448,192,44977,1,0,0:0:0:0:
448,192,45074,1,0,0:0:0:0:
448,192,45170,1,0,0:0:0:0:
64,192,45267,1,0,0:0:0:0:
192,192,45267,1,0,0:0:0:0:
320,192,45364,1,0,0:0:0:0:
192,192,45428,1,0,0:0:0:0:
448,192,45461,1,0,0:0:0:0:
320,192,45493,1,0,0:0:0:0:
192,192,45557,1,0,0:0:0:0:
64,192,45557,1,0,0:0:0:0:
320,192,45654,1,0,0:0:0:0:
192,192,45719,1,0,0:0:0:0:
448,192,45751,1,0,0:0:0:0:
320,192,45783,1,0,0:0:0:0:
64,192,45848,1,0,0:0:0:0:
192,192,45848,1,0,0:0:0:0:
320,192,45944,1,0,0:0:0:0:
192,192,46009,1,0,0:0:0:0:
448,192,46041,1,0,0:0:0:0:
320,192,46074,1,0,0:0:0:0:
192,192,46138,1,0,0:0:0:0:
64,192,46138,1,0,0:0:0:0:
320,192,46235,1,0,0:0:0:0:
64,192,46267,1,0,0:0:0:0:
448,192,46299,1,0,0:0:0:0:
192,192,46332,1,0,0:0:0:0:
192,192,46428,1,0,0:0:0:0:
448,192,46428,1,0,0:0:0:0:
320,192,46428,1,0,0:0:0:0:
64,192,46477,1,0,0:0:0:0:
320,192,46525,1,0,0:0:0:0:
192,192,46622,1,0,0:0:0:0:
64,192,46670,1,0,0:0:0:0:
320,192,46719,1,0,0:0:0:0:
64,192,46815,1,0,0:0:0:0:
192,192,46815,1,0,0:0:0:0:
320,192,46912,1,0,0:0:0:0:
192,192,46977,1,0,0:0:0:0:
448,192,47009,1,0,0:0:0:0:
320,192,47041,1,0,0:0:0:0:
192,192,47106,1,0,0:0:0:0:
64,192,47106,1,0,0:0:0:0:
320,192,47203,1,0,0:0:0:0:
192,192,47267,1,0,0:0:0:0:
448,192,47299,1,0,0:0:0:0:
320,192,47332,1,0,0:0:0:0:
64,192,47396,1,0,0:0:0:0:
192,192,47396,1,0,0:0:0:0:
320,192,47493,1,0,0:0:0:0:
192,192,47557,1,0,0:0:0:0:
448,192,47590,1,0,0:0:0:0:
320,192,47622,1,0,0:0:0:0:
192,192,47686,1,0,0:0:0:0:
64,192,47686,1,0,0:0:0:0:
320,192,47783,1,0,0:0:0:0:
64,192,47815,1,0,0:0:0:0:
448,192,47848,1,0,0:0:0:0:
192,192,47880,1,0,0:0:0:0:
192,192,47977,1,0,0:0:0:0:
448,192,47977,1,0,0:0:0:0:
320,192,47977,1,0,0:0:0:0:
64,192,48025,1,0,0:0:0:0:
448,192,48074,1,0,0:0:0:0:
192,192,48170,1,0,0:0:0:0:
320,192,48170,1,0,0:0:0:0:
64,192,48267,1,0,0:0:0:0:
320,192,48267,1,0,0:0:0:0:
64,192,48364,1,0,0:0:0:0:
192,192,48364,1,0,0:0:0:0:
448,192,48461,1,0,0:0:0:0:
320,192,48525,1,0,0:0:0:0:
192,192,48557,1,0,0:0:0:0:
448,192,48590,1,0,0:0:0:0:
192,192,48654,1,0,0:0:0:0:
64,192,48654,1,0,0:0:0:0:
448,192,48751,1,0,0:0:0:0:
320,192,48815,1,0,0:0:0:0:
192,192,48848,1,0,0:0:0:0:
448,192,48880,1,0,0:0:0:0:
64,192,48944,1,0,0:0:0:0:
192,192,48944,1,0,0:0:0:0:
448,192,49041,1,0,0:0:0:0:
320,192,49106,1,0,0:0:0:0:
192,192,49138,1,0,0:0:0:0:
448,192,49170,1,0,0:0:0:0:
192,192,49235,1,0,0:0:0:0:
64,192,49235,1,0,0:0:0:0:
448,192,49332,1,0,0:0:0:0:
64,192,49364,1,0,0:0:0:0:
320,192,49396,1,0,0:0:0:0:
192,192,49428,1,0,0:0:0:0:
192,192,49525,1,0,0:0:0:0:
320,192,49525,1,0,0:0:0:0:
448,192,49525,1,0,0:0:0:0:
64,192,49574,1,0,0:0:0:0:
320,192,49622,1,0,0:0:0:0:
192,192,49719,1,0,0:0:0:0:
64,192,49767,1,0,0:0:0:0:
320,192,49815,1,0,0:0:0:0:
64,192,49912,1,0,0:0:0:0:
192,192,49912,1,0,0:0:0:0:
320,192,50009,1,0,0:0:0:0:
448,192,50074,1,0,0:0:0:0:
64,192,50106,1,0,0:0:0:0:
320,192,50138,1,0,0:0:0:0:
64,192,50203,1,0,0:0:0:0:
192,192,50203,1,0,0:0:0:0:
320,192,50299,1,0,0:0:0:0:
448,192,50364,1,0,0:0:0:0:
64,192,50396,1,0,0:0:0:0:
320,192,50428,1,0,0:0:0:0:
64,192,50493,1,0,0:0:0:0:
192,192,50493,1,0,0:0:0:0:
320,192,50590,1,0,0:0:0:0:
448,192,50654,1,0,0:0:0:0:
320,192,50719,1,0,0:0:0:0:
320,192,50880,1,0,0:0:0:0:
448,192,50944,1,0,0:0:0:0:
320,192,51009,1,0,0:0:0:0:
192,192,51074,1,0,0:0:0:0:
64,192,51074,1,0,0:0:0:0:
64,192,51138,1,0,0:0:0:0:
192,192,51203,1,0,0:0:0:0:
448,192,51267,1,0,0:0:0:0:
320,192,51267,1,0,0:0:0:0:
448,192,51332,1,0,0:0:0:0:
320,192,51396,1,0,0:0:0:0:
64,192,51461,1,0,0:0:0:0:
192,192,51461,1,0,0:0:0:0:
448,192,51461,1,0,0:0:0:0:
64,192,51557,1,0,0:0:0:0:
192,192,51654,1,0,0:0:0:0:
448,192,51751,1,0,0:0:0:0:
320,192,51751,1,0,0:0:0:0:
64,192,51848,1,0,0:0:0:0:
192,192,51944,1,0,0:0:0:0:
320,192,51944,1,0,0:0:0:0:
448,192,52041,1,0,0:0:0:0:
320,192,52138,1,0,0:0:0:0:
448,192,52235,1,0,0:0:0:0:
192,192,52235,1,0,0:0:0:0:
64,192,52332,1,0,0:0:0:0:
320,192,52428,1,0,0:0:0:0:
192,192,52525,1,0,0:0:0:0:
448,192,52525,1,0,0:0:0:0:
64,192,52622,1,0,0:0:0:0:
192,192,52622,1,0,0:0:0:0:
320,192,52622,1,0,0:0:0:0:
192,192,52719,1,0,0:0:0:0:
320,192,52719,1,0,0:0:0:0:
64,192,52815,1,0,0:0:0:0:
320,192,52912,1,0,0:0:0:0:
64,192,53009,1,0,0:0:0:0:
192,192,53009,1,0,0:0:0:0:
64,192,53106,1,0,0:0:0:0:
192,192,53203,1,0,0:0:0:0:
320,192,53299,1,0,0:0:0:0:
448,192,53299,1,0,0:0:0:0:
64,192,53396,1,0,0:0:0:0:
192,192,53493,1,0,0:0:0:0:
320,192,53493,1,0,0:0:0:0:
448,192,53590,1,0,0:0:0:0:
320,192,53686,1,0,0:0:0:0:
448,192,53783,1,0,0:0:0:0:
192,192,53783,1,0,0:0:0:0:
64,192,53880,1,0,0:0:0:0:
320,192,53977,1,0,0:0:0:0:
64,192,54074,1,0,0:0:0:0:
192,192,54074,1,0,0:0:0:0:
448,192,54170,1,0,0:0:0:0:
320,192,54170,1,0,0:0:0:0:
64,192,54170,1,0,0:0:0:0:
64,192,54267,1,0,0:0:0:0:
320,192,54267,1,0,0:0:0:0:
448,192,54364,1,0,0:0:0:0:
192,192,54461,1,0,0:0:0:0:
64,192,54461,1,0,0:0:0:0:
64,192,54557,1,0,0:0:0:0:
448,192,54557,1,0,0:0:0:0:
320,192,54654,1,0,0:0:0:0:
192,192,54751,1,0,0:0:0:0:
320,192,54848,1,0,0:0:0:0:
448,192,54848,1,0,0:0:0:0:
64,192,54944,1,0,0:0:0:0:
192,192,55041,1,0,0:0:0:0:
320,192,55041,1,0,0:0:0:0:
448,192,55138,1,0,0:0:0:0:
320,192,55235,1,0,0:0:0:0:
448,192,55332,1,0,0:0:0:0:
192,192,55332,1,0,0:0:0:0:
64,192,55428,1,0,0:0:0:0:
320,192,55525,1,0,0:0:0:0:
192,192,55622,1,0,0:0:0:0:
448,192,55622,1,0,0:0:0:0:
192,192,55719,1,0,0:0:0:0:
64,192,55719,1,0,0:0:0:0:
320,192,55719,1,0,0:0:0:0:
192,192,55815,1,0,0:0:0:0:
448,192,55815,1,0,0:0:0:0:
448,192,55912,1,0,0:0:0:0:
320,192,56009,1,0,0:0:0:0:
64,192,56106,1,0,0:0:0:0:
192,192,56106,1,0,0:0:0:0:
64,192,56203,1,0,0:0:0:0:
192,192,56299,1,0,0:0:0:0:
320,192,56396,1,0,0:0:0:0:
448,192,56396,1,0,0:0:0:0:
64,192,56493,1,0,0:0:0:0:
192,192,56590,1,0,0:0:0:0:
320,192,56590,1,0,0:0:0:0:
448,192,56686,1,0,0:0:0:0:
320,192,56783,1,0,0:0:0:0:
448,192,56880,1,0,0:0:0:0:
192,192,56880,1,0,0:0:0:0:
64,192,56977,1,0,0:0:0:0:
320,192,57074,1,0,0:0:0:0:
64,192,57170,1,0,0:0:0:0:
192,192,57170,1,0,0:0:0:0:
320,192,57267,1,0,0:0:0:0:
448,192,57267,1,0,0:0:0:0:
64,192,57267,1,0,0:0:0:0:
448,192,57364,1,0,0:0:0:0:
320,192,57364,1,0,0:0:0:0:
320,192,57461,1,0,0:0:0:0:
64,192,57461,1,0,0:0:0:0:
192,192,57557,1,0,0:0:0:0:
448,192,57557,1,0,0:0:0:0:
64,192,57654,1,0,0:0:0:0:
448,192,57654,1,0,0:0:0:0:
320,192,57654,1,0,0:0:0:0:
64,192,57751,1,0,0:0:0:0:
320,192,57815,1,0,0:0:0:0:
192,192,57880,1,0,0:0:0:0:
320,192,57944,1,0,0:0:0:0:
448,192,57944,1,0,0:0:0:0:
64,192,58041,1,0,0:0:0:0:
192,192,58138,1,0,0:0:0:0:
448,192,58138,1,0,0:0:0:0:
64,192,58235,1,0,0:0:0:0:
320,192,58299,1,0,0:0:0:0:
448,192,58364,1,0,0:0:0:0:
64,192,58428,1,0,0:0:0:0:
192,192,58428,1,0,0:0:0:0:
320,192,58525,1,0,0:0:0:0:
192,192,58590,1,0,0:0:0:0:
448,192,58654,1,0,0:0:0:0:
64,192,58719,1,0,0:0:0:0:
320,192,58719,1,0,0:0:0:0:
64,192,58815,1,0,0:0:0:0:
192,192,58815,1,0,0:0:0:0:
448,192,58815,1,0,0:0:0:0:
64,192,58912,1,0,0:0:0:0:
448,192,58912,1,0,0:0:0:0:
320,192,59009,1,0,0:0:0:0:
192,192,59106,1,0,0:0:0:0:
64,192,59203,1,0,0:0:0:0:
448,192,59203,1,0,0:0:0:0:
64,192,59299,1,0,0:0:0:0:
192,192,59396,1,0,0:0:0:0:
320,192,59493,1,0,0:0:0:0:
448,192,59493,1,0,0:0:0:0:
320,192,59590,1,0,0:0:0:0:
64,192,59686,1,0,0:0:0:0:
448,192,59686,1,0,0:0:0:0:
192,192,59783,1,0,0:0:0:0:
192,192,59880,1,0,0:0:0:0:
320,192,59977,1,0,0:0:0:0:
448,192,59977,1,0,0:0:0:0:
192,192,60074,1,0,0:0:0:0:
320,192,60170,1,0,0:0:0:0:
192,192,60267,1,0,0:0:0:0:
64,192,60267,1,0,0:0:0:0:
64,192,60364,1,0,0:0:0:0:
192,192,60364,1,0,0:0:0:0:
448,192,60364,1,0,0:0:0:0:
448,192,60461,1,0,0:0:0:0:
64,192,60461,1,0,0:0:0:0:
192,192,60557,1,0,0:0:0:0:
320,192,60654,1,0,0:0:0:0:
448,192,60654,1,0,0:0:0:0:
64,192,60751,1,0,0:0:0:0:
320,192,60751,1,0,0:0:0:0:
64,192,60848,1,0,0:0:0:0:
320,192,60912,1,0,0:0:0:0:
192,192,60977,1,0,0:0:0:0:
320,192,61041,1,0,0:0:0:0:
448,192,61041,1,0,0:0:0:0:
64,192,61138,1,0,0:0:0:0:
320,192,61235,1,0,0:0:0:0:
192,192,61235,1,0,0:0:0:0:
64,192,61332,1,0,0:0:0:0:
448,192,61396,1,0,0:0:0:0:
192,192,61461,1,0,0:0:0:0:
448,192,61525,1,0,0:0:0:0:
320,192,61525,1,0,0:0:0:0:
64,192,61622,1,0,0:0:0:0:
320,192,61686,1,0,0:0:0:0:
448,192,61751,1,0,0:0:0:0:
64,192,61815,1,0,0:0:0:0:
192,192,61815,1,0,0:0:0:0:
320,192,61912,1,0,0:0:0:0:
448,192,61912,1,0,0:0:0:0:
192,192,61912,1,0,0:0:0:0:
64,192,61961,1,0,0:0:0:0:
320,192,62009,1,0,0:0:0:0:
448,192,62009,1,0,0:0:0:0:
192,192,62106,1,0,0:0:0:0:
64,192,62154,1,0,0:0:0:0:
320,192,62203,1,0,0:0:0:0:
64,192,62299,1,0,0:0:0:0:
192,192,62299,1,0,0:0:0:0:
64,192,62396,1,0,0:0:0:0:
320,192,62461,1,0,0:0:0:0:
64,192,62493,1,0,0:0:0:0:
192,192,62525,1,0,0:0:0:0:
448,192,62590,1,0,0:0:0:0:
320,192,62590,1,0,0:0:0:0:
448,192,62686,1,0,0:0:0:0:
64,192,62751,1,0,0:0:0:0:
448,192,62783,1,0,0:0:0:0:
320,192,62815,1,0,0:0:0:0:
192,192,62880,1,0,0:0:0:0:
64,192,62880,1,0,0:0:0:0:
448,192,62977,1,0,0:0:0:0:
192,192,62977,1,0,0:0:0:0:
320,192,63041,1,0,0:0:0:0:
64,192,63074,1,0,0:0:0:0:
320,192,63170,1,0,0:0:0:0:
448,192,63170,1,0,0:0:0:0:
64,192,63267,1,0,0:0:0:0:
320,192,63267,1,0,0:0:0:0:
192,192,63332,1,0,0:0:0:0:
64,192,63396,1,0,0:0:0:0:
320,192,63461,1,0,0:0:0:0:
448,192,63461,1,0,0:0:0:0:
192,192,63525,1,0,0:0:0:0:
320,192,63590,1,0,0:0:0:0:
192,192,63654,1,0,0:0:0:0:
448,192,63719,1,0,0:0:0:0:
320,192,63751,1,0,0:0:0:0:
192,192,63783,1,0,0:0:0:0:
64,192,63815,1,0,0:0:0:0:
448,192,63848,1,0,0:0:0:0:
64,192,64815,1,0,0:0:0:0:
192,192,65009,1,0,0:0:0:0:
192,192,65203,1,0,0:0:0:0:
320,192,65396,1,0,0:0:0:0:
192,192,66751,1,0,0:0:0:0:
320,192,66848,1,0,0:0:0:0:
448,192,66944,1,0,0:0:0:0:
320,192,67912,1,0,0:0:0:0:
192,192,68106,1,0,0:0:0:0:
448,192,68299,1,0,0:0:0:0:
320,192,68493,1,0,0:0:0:0:
192,192,69267,1,0,0:0:0:0:
320,192,69848,1,0,0:0:0:0:
448,192,70041,1,0,0:0:0:0:
64,192,70041,1,0,0:0:0:0:
64,192,70235,1,0,0:0:0:0:
448,192,70332,1,0,0:0:0:0:
64,192,70815,1,0,0:0:0:0:
64,192,71396,1,0,0:0:0:0:
64,192,71977,1,0,0:0:0:0:
64,192,72557,1,0,0:0:0:0:
448,192,73138,1,0,0:0:0:0:
64,192,73138,1,0,0:0:0:0:
448,192,73428,1,0,0:0:0:0:
64,192,73719,1,0,0:0:0:0:
64,192,74299,1,0,0:0:0:0:
64,192,74880,1,0,0:0:0:0:
64,192,75461,1,0,0:0:0:0:
192,192,75751,1,0,0:0:0:0:
320,192,75783,1,0,0:0:0:0:
64,192,75848,1,0,0:0:0:0:
192,192,75880,1,0,0:0:0:0:
448,192,75944,1,0,0:0:0:0:
64,192,76041,1,0,0:0:0:0:
192,192,76090,1,0,0:0:0:0:
64,192,76138,1,0,0:0:0:0:
320,192,76235,128,0,76299:0:0:0:0:
448,192,76235,128,0,76299:0:0:0:0:
448,192,76525,1,0,0:0:0:0:
64,192,80880,128,0,80977:0:0:0:0:
192,192,81654,128,0,81751:0:0:0:0:
64,192,82428,1,0,0:0:0:0:
192,192,82477,1,0,0:0:0:0:
448,192,82525,128,0,82622:0:0:0:0:
64,192,82719,1,0,0:0:0:0:
320,192,83977,128,0,84074:0:0:0:0:
192,192,85332,128,0,85428:0:0:0:0:
448,192,85525,1,0,0:0:0:0:
64,192,85574,128,0,85670:0:0:0:0:
448,192,85815,1,0,0:0:0:0:
192,192,87074,128,0,87170:0:0:0:0:
320,192,87461,128,0,87557:0:0:0:0:
64,192,87848,128,0,87944:0:0:0:0:
448,192,88235,128,0,88332:0:0:0:0:
64,192,88622,1,0,0:0:0:0:
320,192,88670,128,0,88767:0:0:0:0:
64,192,88912,1,0,0:0:0:0:
192,192,90170,128,0,90267:0:0:0:0:
320,192,91525,128,0,91622:0:0:0:0:
448,192,91719,1,0,0:0:0:0:
64,192,91767,128,0,91864:0:0:0:0:
448,192,92009,1,0,0:0:0:0:
320,192,94041,128,0,94428:0:0:0:0:
192,192,94428,128,0,94815:0:0:0:0:
448,192,94815,1,0,0:0:0:0:
64,192,94815,128,0,95396:0:0:0:0:
320,192,95009,1,0,0:0:0:0:
448,192,95106,1,0,0:0:0:0:
192,192,95106,1,0,0:0:0:0:
320,192,95203,1,0,0:0:0:0:
448,192,95396,1,0,0:0:0:0:
64,192,95493,1,0,0:0:0:0:
448,192,95590,1,0,0:0:0:0:
320,192,95783,128,0,95977:0:0:0:0:
64,192,95880,1,0,0:0:0:0:
448,192,95977,128,0,96170:0:0:0:0:
64,192,96170,1,0,0:0:0:0:
192,192,96170,1,0,0:0:0:0:
192,192,96267,1,0,0:0:0:0:
64,192,96364,1,0,0:0:0:0:
320,192,96364,1,0,0:0:0:0:
448,192,96364,1,0,0:0:0:0:
64,192,96557,1,0,0:0:0:0:
320,192,96654,1,0,0:0:0:0:
448,192,96654,1,0,0:0:0:0:
192,192,96751,1,0,0:0:0:0:
448,192,96848,1,0,0:0:0:0:
64,192,96944,1,0,0:0:0:0:
320,192,97041,1,0,0:0:0:0:
448,192,97138,1,0,0:0:0:0:
320,192,97235,1,0,0:0:0:0:
448,192,97332,1,0,0:0:0:0:
192,192,97428,1,0,0:0:0:0:
320,192,97525,1,0,0:0:0:0:
64,192,97622,1,0,0:0:0:0:
192,192,97719,1,0,0:0:0:0:
448,192,97815,1,0,0:0:0:0:
320,192,97912,1,0,0:0:0:0:
64,192,97912,128,0,99074:0:0:0:0:
320,192,98203,1,0,0:0:0:0:
192,192,99267,1,0,0:0:0:0:
64,192,99267,1,0,0:0:0:0:
64,192,99364,1,0,0:0:0:0:
192,192,99461,1,0,0:0:0:0:
320,192,99461,1,0,0:0:0:0:
448,192,99461,1,0,0:0:0:0:
192,192,99654,1,0,0:0:0:0:
320,192,99751,1,0,0:0:0:0:
448,192,99751,1,0,0:0:0:0:
64,192,99848,1,0,0:0:0:0:
448,192,99944,1,0,0:0:0:0:
192,192,100041,1,0,0:0:0:0:
320,192,100138,1,0,0:0:0:0:
448,192,100235,1,0,0:0:0:0:
320,192,100332,1,0,0:0:0:0:
448,192,100428,1,0,0:0:0:0:
192,192,100525,1,0,0:0:0:0:
320,192,100622,1,0,0:0:0:0:
64,192,100719,1,0,0:0:0:0:
192,192,100815,1,0,0:0:0:0:
320,192,100912,1,0,0:0:0:0:
64,192,101009,1,0,0:0:0:0:
448,192,101009,128,0,101203:0:0:0:0:
320,192,101203,1,0,0:0:0:0:
64,192,101299,1,0,0:0:0:0:
448,192,101299,1,0,0:0:0:0:
192,192,101396,1,0,0:0:0:0:
448,192,101493,1,0,0:0:0:0:
320,192,101590,1,0,0:0:0:0:
64,192,101686,1,0,0:0:0:0:
192,192,101783,1,0,0:0:0:0:
64,192,101880,1,0,0:0:0:0:
192,192,101977,1,0,0:0:0:0:
320,192,102074,1,0,0:0:0:0:
448,192,102170,1,0,0:0:0:0:
192,192,102267,1,0,0:0:0:0:
320,192,102364,1,0,0:0:0:0:
64,192,102412,1,0,0:0:0:0:
320,192,102461,1,0,0:0:0:0:
192,192,102509,1,0,0:0:0:0:
64,192,102557,1,0,0:0:0:0:
320,192,102557,1,0,0:0:0:0:
448,192,102557,1,0,0:0:0:0:
64,192,102751,1,0,0:0:0:0:
448,192,102848,1,0,0:0:0:0:
320,192,102848,1,0,0:0:0:0:
192,192,102944,1,0,0:0:0:0:
448,192,103041,1,0,0:0:0:0:
64,192,103138,1,0,0:0:0:0:
320,192,103235,1,0,0:0:0:0:
448,192,103332,1,0,0:0:0:0:
320,192,103428,1,0,0:0:0:0:
448,192,103525,1,0,0:0:0:0:
192,192,103622,1,0,0:0:0:0:
320,192,103719,1,0,0:0:0:0:
64,192,103815,1,0,0:0:0:0:
192,192,103912,1,0,0:0:0:0:
448,192,104009,1,0,0:0:0:0:
192,192,104106,1,0,0:0:0:0:
64,192,104106,128,0,104299:0:0:0:0:
320,192,104299,1,0,0:0:0:0:
64,192,104396,1,0,0:0:0:0:
448,192,104396,1,0,0:0:0:0:
320,192,104493,1,0,0:0:0:0:
192,192,104590,1,0,0:0:0:0:
448,192,104686,1,0,0:0:0:0:
192,192,104783,1,0,0:0:0:0:
448,192,104880,1,0,0:0:0:0:
320,192,104977,1,0,0:0:0:0:
448,192,105074,1,0,0:0:0:0:
320,192,105170,1,0,0:0:0:0:
64,192,105267,1,0,0:0:0:0:
192,192,105364,1,0,0:0:0:0:
320,192,105461,1,0,0:0:0:0:
64,192,105557,1,0,0:0:0:0:
320,192,105654,1,0,0:0:0:0:
448,192,105654,1,0,0:0:0:0:
64,192,105654,1,0,0:0:0:0:
192,192,105751,1,0,0:0:0:0:
64,192,105848,1,0,0:0:0:0:
320,192,105944,1,0,0:0:0:0:
448,192,105944,1,0,0:0:0:0:
192,192,106041,1,0,0:0:0:0:
448,192,106138,1,0,0:0:0:0:
320,192,106235,1,0,0:0:0:0:
64,192,106235,1,0,0:0:0:0:
192,192,106332,1,0,0:0:0:0:
320,192,106332,1,0,0:0:0:0:
192,192,106428,1,0,0:0:0:0:
448,192,106428,1,0,0:0:0:0:
320,192,106525,1,0,0:0:0:0:
448,192,106525,1,0,0:0:0:0:
64,192,106622,1,0,0:0:0:0:
192,192,106622,1,0,0:0:0:0:
64,192,106719,1,0,0:0:0:0:
192,192,106719,1,0,0:0:0:0:
448,192,106815,1,0,0:0:0:0:
320,192,106864,1,0,0:0:0:0:
192,192,106912,1,0,0:0:0:0:
448,192,106961,1,0,0:0:0:0:
192,192,107009,1,0,0:0:0:0:
64,192,107057,1,0,0:0:0:0:
320,192,107106,1,0,0:0:0:0:
448,192,107154,1,0,0:0:0:0:
192,192,107203,1,0,0:0:0:0:
64,192,107203,1,0,0:0:0:0:
320,192,107590,1,0,0:0:0:0:
448,192,107638,1,0,0:0:0:0:
192,192,107686,1,0,0:0:0:0:
64,192,107735,1,0,0:0:0:0:
192,192,107783,1,0,0:0:0:0:
192,192,107880,1,0,0:0:0:0:
448,192,107928,1,0,0:0:0:0:
64,192,107977,1,0,0:0:0:0:
320,192,108074,1,0,0:0:0:0:
320,192,108170,1,0,0:0:0:0:
320,192,108267,1,0,0:0:0:0:
192,192,108315,1,0,0:0:0:0:
448,192,108364,1,0,0:0:0:0:
320,192,108412,1,0,0:0:0:0:
64,192,108461,1,0,0:0:0:0:
64,192,108557,1,0,0:0:0:0:
64,192,108654,1,0,0:0:0:0:
448,192,108751,1,0,0:0:0:0:
320,192,108848,1,0,0:0:0:0:
448,192,108944,1,0,0:0:0:0:
192,192,109041,1,0,0:0:0:0:
320,192,109138,1,0,0:0:0:0:
192,192,109235,1,0,0:0:0:0:
448,192,109332,1,0,0:0:0:0:
64,192,109428,1,0,0:0:0:0:
448,192,109525,1,0,0:0:0:0:
320,192,109525,128,0,109622:0:0:0:0:
192,192,109622,128,0,109719:0:0:0:0:
320,192,109719,128,0,109815:0:0:0:0:
64,192,109815,1,0,0:0:0:0:
192,192,109864,1,0,0:0:0:0:
448,192,109912,128,0,110009:0:0:0:0:
320,192,110009,128,0,110106:0:0:0:0:
64,192,110106,1,0,0:0:0:0:
192,192,110106,128,0,110203:0:0:0:0:
448,192,110203,128,0,110299:0:0:0:0:
320,192,110203,1,0,0:0:0:0:
64,192,110299,128,0,110590:0:0:0:0:
320,192,110493,1,0,0:0:0:0:
192,192,110590,1,0,0:0:0:0:
64,192,110686,1,0,0:0:0:0:
320,192,110686,1,0,0:0:0:0:
448,192,110686,1,0,0:0:0:0:
448,192,110783,1,0,0:0:0:0:
320,192,110880,1,0,0:0:0:0:
192,192,110977,1,0,0:0:0:0:
192,192,111074,1,0,0:0:0:0:
448,192,111074,1,0,0:0:0:0:
320,192,111170,1,0,0:0:0:0:
64,192,111267,1,0,0:0:0:0:
192,192,111364,1,0,0:0:0:0:
64,192,111461,1,0,0:0:0:0:
320,192,111461,1,0,0:0:0:0:
448,192,111461,1,0,0:0:0:0:
192,192,111557,1,0,0:0:0:0:
320,192,111654,1,0,0:0:0:0:
448,192,111654,1,0,0:0:0:0:
448,192,111751,1,0,0:0:0:0:
320,192,111751,1,0,0:0:0:0:
64,192,111848,1,0,0:0:0:0:
192,192,111848,1,0,0:0:0:0:
64,192,111944,1,0,0:0:0:0:
320,192,112041,1,0,0:0:0:0:
192,192,112138,1,0,0:0:0:0:
320,192,112235,1,0,0:0:0:0:
448,192,112235,1,0,0:0:0:0:
64,192,112235,1,0,0:0:0:0:
64,192,112332,1,0,0:0:0:0:
320,192,112428,1,0,0:0:0:0:
448,192,112428,1,0,0:0:0:0:
320,192,112525,1,0,0:0:0:0:
192,192,112525,1,0,0:0:0:0:
448,192,112622,1,0,0:0:0:0:
192,192,112622,1,0,0:0:0:0:
192,192,112719,1,0,0:0:0:0:
448,192,112719,1,0,0:0:0:0:
64,192,112815,1,0,0:0:0:0:
320,192,112912,1,0,0:0:0:0:
192,192,112912,1,0,0:0:0:0:
320,192,113009,1,0,0:0:0:0:
192,192,113009,1,0,0:0:0:0:
64,192,113009,1,0,0:0:0:0:
448,192,113106,1,0,0:0:0:0:
64,192,113203,1,0,0:0:0:0:
192,192,113203,1,0,0:0:0:0:
192,192,113299,1,0,0:0:0:0:
448,192,113299,1,0,0:0:0:0:
64,192,113396,1,0,0:0:0:0:
320,192,113396,1,0,0:0:0:0:
448,192,113493,1,0,0:0:0:0:
64,192,113590,1,0,0:0:0:0:
192,192,113590,1,0,0:0:0:0:
320,192,113686,1,0,0:0:0:0:
64,192,113783,1,0,0:0:0:0:
192,192,113783,1,0,0:0:0:0:
448,192,113783,1,0,0:0:0:0:
64,192,113880,1,0,0:0:0:0:
320,192,113977,1,0,0:0:0:0:
448,192,113977,1,0,0:0:0:0:
192,192,114074,1,0,0:0:0:0:
320,192,114074,1,0,0:0:0:0:
64,192,114170,1,0,0:0:0:0:
192,192,114267,1,0,0:0:0:0:
320,192,114267,1,0,0:0:0:0:
320,192,114364,1,0,0:0:0:0:
448,192,114364,1,0,0:0:0:0:
64,192,114461,1,0,0:0:0:0:
320,192,114557,1,0,0:0:0:0:
448,192,114557,1,0,0:0:0:0:
192,192,114557,1,0,0:0:0:0:
64,192,114654,1,0,0:0:0:0:
448,192,114751,1,0,0:0:0:0:
64,192,114751,1,0,0:0:0:0:
320,192,114848,1,0,0:0:0:0:
192,192,114896,1,0,0:0:0:0:
320,192,114944,1,0,0:0:0:0:
448,192,114944,1,0,0:0:0:0:
64,192,114944,1,0,0:0:0:0:
448,192,115041,1,0,0:0:0:0:
192,192,115138,1,0,0:0:0:0:
320,192,115186,1,0,0:0:0:0:
192,192,115235,1,0,0:0:0:0:
64,192,115235,1,0,0:0:0:0:
448,192,115235,1,0,0:0:0:0:
64,192,115332,1,0,0:0:0:0:
320,192,115428,1,0,0:0:0:0:
64,192,115477,1,0,0:0:0:0:
320,192,115525,1,0,0:0:0:0:
192,192,115525,1,0,0:0:0:0:
448,192,115525,1,0,0:0:0:0:
448,192,115622,1,0,0:0:0:0:
192,192,115719,1,0,0:0:0:0:
448,192,115767,1,0,0:0:0:0:
192,192,115815,1,0,0:0:0:0:
64,192,115815,1,0,0:0:0:0:
320,192,115815,1,0,0:0:0:0:
64,192,115912,1,0,0:0:0:0:
320,192,116009,1,0,0:0:0:0:
192,192,116057,1,0,0:0:0:0:
320,192,116106,1,0,0:0:0:0:
448,192,116106,1,0,0:0:0:0:
64,192,116106,1,0,0:0:0:0:
448,192,116203,1,0,0:0:0:0:
64,192,116299,1,0,0:0:0:0:
192,192,116299,1,0,0:0:0:0:
192,192,116396,1,0,0:0:0:0:
320,192,116396,1,0,0:0:0:0:
320,192,116493,1,0,0:0:0:0:
448,192,116493,1,0,0:0:0:0:
64,192,116493,1,0,0:0:0:0:
64,192,116590,1,0,0:0:0:0:
192,192,116686,1,0,0:0:0:0:
320,192,116783,1,0,0:0:0:0:
64,192,116880,1,0,0:0:0:0:
192,192,116880,1,0,0:0:0:0:
448,192,116880,1,0,0:0:0:0:
192,192,116977,1,0,0:0:0:0:
320,192,116977,1,0,0:0:0:0:
448,192,117074,1,0,0:0:0:0:
192,192,117170,1,0,0:0:0:0:
320,192,117170,1,0,0:0:0:0:
64,192,117267,1,0,0:0:0:0:
64,192,117364,1,0,0:0:0:0:
320,192,117364,1,0,0:0:0:0:
320,192,117461,1,0,0:0:0:0:
192,192,117557,1,0,0:0:0:0:
64,192,117654,1,0,0:0:0:0:
320,192,117654,1,0,0:0:0:0:
448,192,117654,1,0,0:0:0:0:
448,192,117783,1,0,0:0:0:0:
64,192,117848,1,0,0:0:0:0:
192,192,117848,1,0,0:0:0:0:
448,192,117912,1,0,0:0:0:0:
192,192,117944,1,0,0:0:0:0:
64,192,118041,1,0,0:0:0:0:
320,192,118041,1,0,0:0:0:0:
448,192,118041,1,0,0:0:0:0:
320,192,118138,1,0,0:0:0:0:
64,192,118235,1,0,0:0:0:0:
192,192,118332,1,0,0:0:0:0:
448,192,118428,1,0,0:0:0:0:
320,192,118428,1,0,0:0:0:0:
64,192,118428,1,0,0:0:0:0:
448,192,118525,1,0,0:0:0:0:
320,192,118622,1,0,0:0:0:0:
192,192,118719,1,0,0:0:0:0:
448,192,118815,1,0,0:0:0:0:
64,192,118815,1,0,0:0:0:0:
64,192,118912,1,0,0:0:0:0:
448,192,118912,1,0,0:0:0:0:
320,192,119009,1,0,0:0:0:0:
64,192,119106,1,0,0:0:0:0:
192,192,119106,1,0,0:0:0:0:
192,192,119203,1,0,0:0:0:0:
320,192,119203,1,0,0:0:0:0:
448,192,119203,1,0,0:0:0:0:
64,192,119299,1,0,0:0:0:0:
64,192,119396,1,0,0:0:0:0:
320,192,119396,1,0,0:0:0:0:
320,192,119493,1,0,0:0:0:0:
448,192,119590,1,0,0:0:0:0:
64,192,119590,1,0,0:0:0:0:
192,192,119686,1,0,0:0:0:0:
64,192,119783,1,0,0:0:0:0:
448,192,119880,1,0,0:0:0:0:
320,192,119880,1,0,0:0:0:0:
448,192,119977,1,0,0:0:0:0:
192,192,119977,1,0,0:0:0:0:
64,192,119977,1,0,0:0:0:0:
192,192,120074,1,0,0:0:0:0:
448,192,120170,1,0,0:0:0:0:
64,192,120170,1,0,0:0:0:0:
320,192,120267,1,0,0:0:0:0:
64,192,120364,1,0,0:0:0:0:
448,192,120364,1,0,0:0:0:0:
64,192,120461,1,0,0:0:0:0:
192,192,120557,1,0,0:0:0:0:
320,192,120654,1,0,0:0:0:0:
64,192,120751,1,0,0:0:0:0:
192,192,120751,1,0,0:0:0:0:
448,192,120751,1,0,0:0:0:0:
320,192,120848,1,0,0:0:0:0:
64,192,120944,1,0,0:0:0:0:
320,192,120944,1,0,0:0:0:0:
64,192,121041,1,0,0:0:0:0:
320,192,121138,1,0,0:0:0:0:
448,192,121138,1,0,0:0:0:0:
192,192,121235,1,0,0:0:0:0:
320,192,121332,1,0,0:0:0:0:
448,192,121332,1,0,0:0:0:0:
64,192,121428,1,0,0:0:0:0:
320,192,121428,1,0,0:0:0:0:
64,192,121525,1,0,0:0:0:0:
192,192,121525,1,0,0:0:0:0:
448,192,121525,1,0,0:0:0:0:
192,192,121622,1,0,0:0:0:0:
320,192,121719,1,0,0:0:0:0:
64,192,121719,1,0,0:0:0:0:
192,192,121815,1,0,0:0:0:0:
320,192,121815,1,0,0:0:0:0:
448,192,121912,1,0,0:0:0:0:
64,192,121912,1,0,0:0:0:0:
192,192,121912,1,0,0:0:0:0:
448,192,122009,1,0,0:0:0:0:
64,192,122203,1,0,0:0:0:0:
192,192,122203,1,0,0:0:0:0:
320,192,122203,1,0,0:0:0:0:
320,192,122299,1,0,0:0:0:0:
64,192,122493,1,0,0:0:0:0:
192,192,122493,1,0,0:0:0:0:
448,192,122590,1,0,0:0:0:0:
192,192,122590,1,0,0:0:0:0:
64,192,122686,1,0,0:0:0:0:
320,192,122686,1,0,0:0:0:0:
448,192,122686,1,0,0:0:0:0:
320,192,122977,1,0,0:0:0:0:
192,192,123074,1,0,0:0:0:0:
320,192,123170,1,0,0:0:0:0:
192,192,123267,1,0,0:0:0:0:
448,192,123364,1,0,0:0:0:0:
192,192,123461,1,0,0:0:0:0:
64,192,123461,1,0,0:0:0:0:
448,192,123557,1,0,0:0:0:0:
320,192,123654,1,0,0:0:0:0:
64,192,123654,1,0,0:0:0:0:
320,192,123751,1,0,0:0:0:0:
192,192,123848,1,0,0:0:0:0:
448,192,123848,1,0,0:0:0:0:
448,192,123944,1,0,0:0:0:0:
64,192,124041,1,0,0:0:0:0:
192,192,124041,1,0,0:0:0:0:
64,192,124138,1,0,0:0:0:0:
320,192,124138,1,0,0:0:0:0:
320,192,124235,1,0,0:0:0:0:
448,192,124235,1,0,0:0:0:0:
192,192,124332,1,0,0:0:0:0:
448,192,124428,1,0,0:0:0:0:
192,192,124525,1,0,0:0:0:0:
320,192,124525,1,0,0:0:0:0:
192,192,124622,1,0,0:0:0:0:
448,192,124622,1,0,0:0:0:0:
64,192,124719,1,0,0:0:0:0:
320,192,124815,1,0,0:0:0:0:
448,192,124815,1,0,0:0:0:0:
192,192,124912,1,0,0:0:0:0:
64,192,125009,1,0,0:0:0:0:
320,192,125009,1,0,0:0:0:0:
448,192,125057,1,0,0:0:0:0:
64,192,125106,1,0,0:0:0:0:
320,192,125154,1,0,0:0:0:0:
192,192,125203,1,0,0:0:0:0:
448,192,125251,1,0,0:0:0:0:
320,192,125299,1,0,0:0:0:0:
64,192,125299,1,0,0:0:0:0:
192,192,125348,1,0,0:0:0:0:
320,192,125396,1,0,0:0:0:0:
448,192,125444,1,0,0:0:0:0:
192,192,125493,1,0,0:0:0:0:
64,192,125541,1,0,0:0:0:0:
448,192,125590,1,0,0:0:0:0:
320,192,125590,1,0,0:0:0:0:
192,192,125638,1,0,0:0:0:0:
448,192,125686,1,0,0:0:0:0:
320,192,125735,1,0,0:0:0:0:
64,192,126041,1,0,0:0:0:0:
448,192,126041,1,0,0:0:0:0:
320,192,126041,1,0,0:0:0:0:
192,192,126090,1,0,0:0:0:0:
64,192,126138,1,0,0:0:0:0:
192,192,126299,1,0,0:0:0:0:
448,192,126299,1,0,0:0:0:0:
64,192,126299,1,0,0:0:0:0:
320,192,126348,1,0,0:0:0:0:
192,192,126396,1,0,0:0:0:0:
192,192,126557,1,0,0:0:0:0:
448,192,126557,1,0,0:0:0:0:
320,192,126557,1,0,0:0:0:0:
64,192,126606,1,0,0:0:0:0:
320,192,126654,1,0,0:0:0:0:
192,192,126815,1,0,0:0:0:0:
64,192,126815,1,0,0:0:0:0:
448,192,126815,1,0,0:0:0:0:
320,192,126863,1,0,0:0:0:0:
448,192,126912,1,0,0:0:0:0:
192,192,127074,1,0,0:0:0:0:
320,192,127074,1,0,0:0:0:0:
448,192,127074,1,0,0:0:0:0:
64,192,127123,1,0,0:0:0:0:
320,192,127170,1,0,0:0:0:0:
64,192,127332,1,0,0:0:0:0:
448,192,127332,1,0,0:0:0:0:
192,192,127332,1,0,0:0:0:0:
320,192,127380,1,0,0:0:0:0:
64,192,127428,1,0,0:0:0:0:
192,192,127477,1,0,0:0:0:0:
320,192,127525,1,0,0:0:0:0:
448,192,127525,1,0,0:0:0:0:
64,192,127622,1,0,0:0:0:0:
320,192,127622,1,0,0:0:0:0:
448,192,127622,1,0,0:0:0:0:
192,192,127719,1,0,0:0:0:0:
64,192,127815,1,0,0:0:0:0:
320,192,127815,1,0,0:0:0:0:
64,192,127912,1,0,0:0:0:0:
320,192,127912,1,0,0:0:0:0:
448,192,127912,1,0,0:0:0:0:
448,192,128009,1,0,0:0:0:0:
320,192,128057,1,0,0:0:0:0:
64,192,128106,1,0,0:0:0:0:
192,192,128106,1,0,0:0:0:0:
192,192,128203,1,0,0:0:0:0:
448,192,128203,1,0,0:0:0:0:
64,192,128299,1,0,0:0:0:0:
320,192,128299,1,0,0:0:0:0:
320,192,128396,1,0,0:0:0:0:
64,192,128493,1,0,0:0:0:0:
192,192,128493,1,0,0:0:0:0:
448,192,128493,1,0,0:0:0:0:
64,192,128590,1,0,0:0:0:0:
192,192,128590,1,0,0:0:0:0:
320,192,128686,1,0,0:0:0:0:
448,192,128686,1,0,0:0:0:0:
64,192,128751,1,0,0:0:0:0:
320,192,128783,1,0,0:0:0:0:
448,192,128783,1,0,0:0:0:0:
192,192,128815,1,0,0:0:0:0:
448,192,128880,1,0,0:0:0:0:
64,192,128880,1,0,0:0:0:0:
320,192,128880,1,0,0:0:0:0:
64,192,128977,1,0,0:0:0:0:
320,192,129074,1,0,0:0:0:0:
448,192,129170,1,0,0:0:0:0:
64,192,129170,1,0,0:0:0:0:
192,192,129267,1,0,0:0:0:0:
320,192,129364,1,0,0:0:0:0:
64,192,129461,1,0,0:0:0:0:
192,192,129461,1,0,0:0:0:0:
448,192,129461,1,0,0:0:0:0:
320,192,129557,1,0,0:0:0:0:
64,192,129654,1,0,0:0:0:0:
192,192,129751,1,0,0:0:0:0:
320,192,129751,1,0,0:0:0:0:
192,192,129848,1,0,0:0:0:0:
320,192,129944,1,0,0:0:0:0:
448,192,130041,1,0,0:0:0:0:
64,192,130041,1,0,0:0:0:0:
320,192,130138,1,0,0:0:0:0:
448,192,130235,1,0,0:0:0:0:
192,192,130235,1,0,0:0:0:0:
192,192,130332,1,0,0:0:0:0:
320,192,130332,1,0,0:0:0:0:
64,192,130428,1,0,0:0:0:0:
320,192,130428,1,0,0:0:0:0:
448,192,130428,1,0,0:0:0:0:
192,192,130525,1,0,0:0:0:0:
448,192,130622,1,0,0:0:0:0:
192,192,130719,1,0,0:0:0:0:
320,192,130719,1,0,0:0:0:0:
448,192,130815,1,0,0:0:0:0:
192,192,130912,1,0,0:0:0:0:
64,192,131009,1,0,0:0:0:0:
320,192,131009,1,0,0:0:0:0:
448,192,131009,1,0,0:0:0:0:
192,192,131106,1,0,0:0:0:0:
320,192,131203,1,0,0:0:0:0:
64,192,131299,1,0,0:0:0:0:
448,192,131299,1,0,0:0:0:0:
64,192,131396,1,0,0:0:0:0:
192,192,131493,1,0,0:0:0:0:
320,192,131590,1,0,0:0:0:0:
448,192,131590,1,0,0:0:0:0:
320,192,131686,1,0,0:0:0:0:
448,192,131686,1,0,0:0:0:0:
64,192,131783,1,0,0:0:0:0:
192,192,131783,1,0,0:0:0:0:
448,192,131848,1,0,0:0:0:0:
64,192,131880,1,0,0:0:0:0:
192,192,131880,1,0,0:0:0:0:
320,192,131912,1,0,0:0:0:0:
448,192,131977,1,0,0:0:0:0:
64,192,131977,1,0,0:0:0:0:
192,192,131977,1,0,0:0:0:0:
320,192,132170,1,0,0:0:0:0:
448,192,132170,1,0,0:0:0:0:
192,192,132267,1,0,0:0:0:0:
448,192,132267,1,0,0:0:0:0:
64,192,132267,1,0,0:0:0:0:
320,192,132364,1,0,0:0:0:0:
192,192,132461,1,0,0:0:0:0:
64,192,132461,1,0,0:0:0:0:
64,192,132557,1,0,0:0:0:0:
320,192,132557,1,0,0:0:0:0:
448,192,132557,1,0,0:0:0:0:
192,192,132654,1,0,0:0:0:0:
320,192,132751,1,0,0:0:0:0:
448,192,132751,1,0,0:0:0:0:
64,192,132848,1,0,0:0:0:0:
448,192,132848,1,0,0:0:0:0:
320,192,132848,1,0,0:0:0:0:
192,192,132944,1,0,0:0:0:0:
64,192,133041,1,0,0:0:0:0:
448,192,133041,1,0,0:0:0:0:
64,192,133138,1,0,0:0:0:0:
192,192,133138,1,0,0:0:0:0:
448,192,133138,1,0,0:0:0:0:
320,192,133235,1,0,0:0:0:0:
64,192,133332,1,0,0:0:0:0:
192,192,133332,1,0,0:0:0:0:
448,192,133332,1,0,0:0:0:0:
192,192,133428,1,0,0:0:0:0:
320,192,133428,1,0,0:0:0:0:
320,192,133525,1,0,0:0:0:0:
448,192,133525,1,0,0:0:0:0:
64,192,133525,1,0,0:0:0:0:
64,192,133622,1,0,0:0:0:0:
192,192,133670,1,0,0:0:0:0:
320,192,133719,1,0,0:0:0:0:
448,192,133719,1,0,0:0:0:0:
64,192,133815,1,0,0:0:0:0:
320,192,133815,1,0,0:0:0:0:
64,192,133912,1,0,0:0:0:0:
192,192,133961,1,0,0:0:0:0:
320,192,134009,1,0,0:0:0:0:
448,192,134009,1,0,0:0:0:0:
64,192,134106,1,0,0:0:0:0:
320,192,134106,1,0,0:0:0:0:
448,192,134106,1,0,0:0:0:0:
64,192,134203,1,0,0:0:0:0:
448,192,134299,1,0,0:0:0:0:
192,192,134364,1,0,0:0:0:0:
448,192,134428,1,0,0:0:0:0:
192,192,134493,1,0,0:0:0:0:
448,192,134557,1,0,0:0:0:0:
192,192,134622,1,0,0:0:0:0:
448,192,134686,1,0,0:0:0:0:
320,192,134751,1,0,0:0:0:0:
448,192,134815,1,0,0:0:0:0:
320,192,134880,1,0,0:0:0:0:
448,192,134944,1,0,0:0:0:0:
320,192,135009,1,0,0:0:0:0:
192,192,135074,1,0,0:0:0:0:
64,192,135074,128,0,136380:0:0:0:0:
320,192,136235,1,0,0:0:0:0:
64,192,136461,1,0,0:0:0:0:
192,192,136541,1,0,0:0:0:0:
64,192,136622,1,0,0:0:0:0:
448,192,136751,1,0,0:0:0:0:
320,192,136880,1,0,0:0:0:0:
192,192,137009,1,0,0:0:0:0:
320,192,137138,1,0,0:0:0:0:
192,192,137267,1,0,0:0:0:0:
64,192,137396,1,0,0:0:0:0:
192,192,137493,1,0,0:0:0:0:
320,192,137590,1,0,0:0:0:0:
448,192,137686,1,0,0:0:0:0:
64,192,137783,1,0,0:0:0:0:
320,192,137912,1,0,0:0:0:0:
448,192,138041,1,0,0:0:0:0:
64,192,138170,1,0,0:0:0:0:
192,192,138170,128,0,138944:0:0:0:0:
448,192,138751,1,0,0:0:0:0:
64,192,138944,1,0,0:0:0:0:
320,192,139235,1,0,0:0:0:0:
448,192,139525,1,0,0:0:0:0:
192,192,139719,128,0,140493:0:0:0:0:
320,192,140493,128,0,141267:0:0:0:0:
192,192,141267,1,0,0:0:0:0:
64,192,141267,128,0,144170:0:0:0:0:
192,192,141848,1,0,0:0:0:0:
192,192,142428,1,0,0:0:0:0:
448,192,142815,1,0,0:0:0:0:
192,192,143009,1,0,0:0:0:0:
192,192,143590,1,0,0:0:0:0:
192,192,144170,1,0,0:0:0:0:
64,192,144267,1,0,0:0:0:0:
320,192,144315,1,0,0:0:0:0:
448,192,144364,1,0,0:0:0:0:
192,192,144751,1,0,0:0:0:0:
192,192,145332,1,0,0:0:0:0:
192,192,145912,1,0,0:0:0:0:
192,192,146493,1,0,0:0:0:0:
192,192,147074,1,0,0:0:0:0:
