osu file format v14

[General]
AudioFilename: audio.mp3
AudioLeadIn: 0
PreviewTime: 104885
Countdown: 0
SampleSet: Soft
StackLeniency: 0.7
Mode: 3
LetterboxInBreaks: 0
SpecialStyle: 0
WidescreenStoryboard: 1

[Editor]
Bookmarks: 14361,19577,25058,37579,43828,45405,47488,48531,50093,53228,56352,59485,62612,66538,68103,71233,74363,77493,89991,96247,98598,99392,105666,121318,122884,127579,130709,136969,140099,143229
DistanceSpacing: 0.9
BeatDivisor: 4
GridSize: 8
TimelineZoom: 1.100001

[Metadata]
Title:Amnehilesie
TitleUnicode:Amnéhilesie
Artist:MisomyL
ArtistUnicode:MisomyL
Creator:Neko-Pan
Version:Advanced
Source:G2R2018 Climax
Tags:Go Back 2 Your Roots 2018 Curious Contentious Circus la soletude instrumental electronic ​jumpstreams jacks Hydria Nihilese MisoilePunch fa featured artist みそみぃる Amnesia the bms of fighters BOFU
BeatmapID:2977858
BeatmapSetID:1440359

[Difficulty]
HPDrainRate:7.6
CircleSize:4
OverallDifficulty:7.4
ApproachRate:5
SliderMultiplier:1.4
SliderTickRate:1

[Events]
//Background and Video events
0,0,"awa.jpg",0,0
//Break Periods
//Storyboard Layer 0 (Background)
//Storyboard Layer 1 (Fail)
//Storyboard Layer 2 (Pass)
//Storyboard Layer 3 (Foreground)
//Storyboard Layer 4 (Overlay)
//Storyboard Sound Samples

[TimingPoints]
3980,260.869565217391,5,2,1,10,1,0
14414,-100,4,2,1,30,0,0
23545,260.869565217391,6,2,1,30,1,0
25110,-100,4,2,1,15,0,0
37631,-100,4,2,1,30,0,0
47675,-100,4,2,1,25,0,0
48588,-100,4,2,1,30,0,0
50153,-100,4,2,1,40,0,0
53284,-100,4,2,1,30,0,0
56414,-100,4,2,1,40,0,0
59544,-100,4,2,1,30,0,0
62675,260.869565217391,5,2,1,40,1,0
63066,-100,4,2,1,30,0,0
63979,-100,4,2,1,40,0,0
64370,-100,4,2,1,30,0,0
65283,-100,4,2,1,40,0,0
65675,-100,4,2,1,30,0,0
66588,260.869565217391,6,2,1,30,1,0
67370,-100,4,2,1,40,0,0
68153,-100,4,2,1,50,0,0
68218,-100,4,2,1,25,0,0
68935,-100,4,2,1,50,0,0
69001,-100,4,2,1,25,0,0
69718,-100,4,2,1,50,0,0
69783,-100,4,2,1,25,0,0
70501,-100,4,2,1,40,0,0
71283,-100,4,2,1,30,0,0
76761,-100,4,2,1,15,0,0
89283,-100,4,2,1,25,0,0
90066,-100,4,2,1,50,0,0
90327,-100,4,2,1,15,0,0
90848,-100,4,2,1,20,0,0
91631,-100,4,2,1,50,0,0
91892,-100,4,2,1,30,0,0
93196,-100,4,2,1,50,0,0
93457,-100,4,2,1,30,0,0
94761,-100,4,2,1,50,0,0
95022,-100,4,2,1,30,0,0
96327,-100,4,2,1,25,0,0
98674,-100,4,2,1,50,0,0
105718,-100,4,2,1,40,0,1
111196,-100,4,2,1,50,0,1
111979,-100,4,2,1,40,0,1
116674,-100,4,2,1,50,0,1
118501,-100,4,2,1,40,0,1
121109,-100,4,2,1,50,0,1
122935,-100,4,2,1,40,0,1
123718,-100,4,2,1,50,0,1
124501,-100,4,2,1,40,0,1
127631,-100,4,2,1,45,0,1
129196,-100,4,2,1,50,0,1
137022,-100,4,2,1,40,0,1
140153,-100,4,2,1,50,0,1
143283,-100,4,2,1,30,0,0

[HitObjects]
448,192,3980,5,0,0:0:0:0:
320,192,4110,1,0,0:0:0:0:
320,192,4371,1,0,0:0:0:0:
448,192,4762,1,0,0:0:0:0:
192,192,5023,1,0,0:0:0:0:
448,192,5284,1,0,0:0:0:0:
320,192,5414,1,0,0:0:0:0:
320,192,5675,1,0,0:0:0:0:
448,192,6066,1,0,0:0:0:0:
192,192,6327,1,0,0:0:0:0:
320,192,6588,1,0,0:0:0:0:
192,192,6719,1,0,0:0:0:0:
192,192,6979,1,0,0:0:0:0:
320,192,7371,1,0,0:0:0:0:
64,192,7632,1,0,0:0:0:0:
192,192,7893,1,0,0:0:0:0:
64,192,8023,1,0,0:0:0:0:
64,192,8284,1,0,0:0:0:0:
448,192,8675,1,0,0:0:0:0:
192,192,8936,1,0,0:0:0:0:
448,192,9197,1,0,0:0:0:0:
320,192,9327,1,0,0:0:0:0:
320,192,9588,1,0,0:0:0:0:
64,192,9979,1,0,0:0:0:0:
448,192,10240,1,0,0:0:0:0:
192,192,10501,1,0,0:0:0:0:
320,192,10632,1,0,0:0:0:0:
320,192,10893,1,0,0:0:0:0:
192,192,11284,1,0,0:0:0:0:
320,192,11545,1,0,0:0:0:0:
64,192,11806,1,0,0:0:0:0:
192,192,11936,1,0,0:0:0:0:
192,192,12197,1,0,0:0:0:0:
448,192,12588,1,0,0:0:0:0:
64,192,12849,1,0,0:0:0:0:
448,192,13110,1,0,0:0:0:0:
320,192,13501,1,0,0:0:0:0:
192,192,13893,1,0,0:0:0:0:
64,192,13893,1,0,0:0:0:0:
320,192,14023,1,0,0:0:0:0:
448,192,14153,1,0,0:0:0:0:
320,192,14284,1,0,0:0:0:0:
192,192,14414,1,0,0:0:0:70:bell.ogg
64,192,14414,1,0,0:0:0:90:kick.ogg
448,192,14675,1,0,0:0:0:90:kick.ogg
192,192,14675,1,0,0:0:0:0:
320,192,14936,1,0,0:0:0:90:kick.ogg
448,192,14936,1,0,0:0:0:0:
192,192,15197,1,0,0:0:0:90:kick.ogg
320,192,15197,1,0,0:0:0:0:
64,192,15458,1,0,0:0:0:70:bell.ogg
448,192,15458,1,0,0:0:0:90:kick.ogg
64,192,15719,1,0,0:0:0:70:bell.ogg
192,192,15719,1,0,0:0:0:90:kick.ogg
448,192,15979,1,0,0:0:0:90:kick.ogg
192,192,15979,1,0,0:0:0:0:
448,192,16240,1,0,0:0:0:90:kick.ogg
320,192,16240,1,0,0:0:0:0:
320,192,16501,1,0,0:0:0:90:kick.ogg
192,192,16501,1,0,0:0:0:0:
64,192,16762,1,0,0:0:0:70:bell.ogg
448,192,16762,1,0,0:0:0:90:kick.ogg
192,192,17023,1,0,0:0:0:70:bell.ogg
64,192,17023,1,0,0:0:0:90:kick.ogg
192,192,17284,1,0,0:0:0:90:kick.ogg
448,192,17284,1,0,0:0:0:0:
320,192,17545,1,0,0:0:0:90:kick.ogg
448,192,17545,1,0,0:0:0:0:
192,192,17806,1,0,0:0:0:90:kick.ogg
320,192,17806,1,0,0:0:0:0:
448,192,18066,1,0,0:0:0:70:bell.ogg
64,192,18066,1,0,0:0:0:90:kick.ogg
64,192,18327,1,0,0:0:0:70:bell.ogg
192,192,18327,1,0,0:0:0:90:kick.ogg
448,192,18588,1,0,0:0:0:90:kick.ogg
192,192,18588,1,0,0:0:0:0:
448,192,18849,1,0,0:0:0:90:kick.ogg
320,192,18849,1,0,0:0:0:0:
192,192,19110,1,0,0:0:0:90:kick.ogg
448,192,19110,1,0,0:0:0:0:
64,192,19371,1,0,0:0:0:70:bell.ogg
320,192,19371,1,0,0:0:0:90:kick.ogg
320,192,19632,1,0,0:0:0:70:bell.ogg
192,192,19632,1,0,0:0:0:90:kick.ogg
64,192,19762,1,0,0:0:0:90:kick.ogg
448,192,19893,1,0,0:0:0:90:kick.ogg
320,192,20023,1,0,0:0:0:90:kick.ogg
192,192,20153,1,0,0:0:0:90:kick.ogg
64,192,20284,1,0,0:0:0:90:kick.ogg
192,192,20414,1,0,0:0:0:90:kick.ogg
320,192,20545,1,0,0:0:0:90:kick.ogg
64,192,20675,1,0,0:0:0:70:bell.ogg
448,192,20675,1,0,0:0:0:90:kick.ogg
192,192,20806,1,0,0:0:0:90:kick.ogg
320,192,20936,1,0,0:0:0:70:bell.ogg
448,192,20936,1,0,0:0:0:90:kick.ogg
192,192,21066,1,0,0:0:0:90:kick.ogg
64,192,21197,1,0,0:0:0:90:kick.ogg
448,192,21327,1,0,0:0:0:90:kick.ogg
320,192,21458,1,0,0:0:0:90:kick.ogg
192,192,21588,1,0,0:0:0:90:kick.ogg
64,192,21719,1,0,0:0:0:90:kick.ogg
192,192,21849,1,0,0:0:0:90:kick.ogg
320,192,21979,1,0,0:0:0:70:bell.ogg
64,192,21979,1,0,0:0:0:90:kick.ogg
448,192,22110,1,0,0:0:0:90:kick.ogg
192,192,22240,1,0,0:0:0:70:bell.ogg
320,192,22240,1,0,0:0:0:90:kick.ogg
64,192,22371,1,0,0:0:0:90:kick.ogg
192,192,22501,1,0,0:0:0:90:kick.ogg
320,192,22632,1,0,0:0:0:90:kick.ogg
448,192,22762,1,0,0:0:0:90:kick.ogg
320,192,22893,1,0,0:0:0:90:kick.ogg
192,192,23023,1,0,0:0:0:90:kick.ogg
64,192,23153,1,0,0:0:0:90:kick.ogg
320,192,23284,1,0,0:0:0:70:bell.ogg
448,192,23284,1,0,0:0:0:90:kick.ogg
192,192,23414,1,0,0:0:0:90:kick.ogg
64,192,23545,1,0,0:0:0:60:snare.ogg
320,192,23545,1,0,0:0:0:70:bell.ogg
448,192,23545,1,0,0:0:0:90:kick.ogg
192,192,23936,1,0,0:0:0:60:snare.ogg
64,192,23936,1,0,0:0:0:90:kick.ogg
448,192,23936,1,0,0:0:0:0:
320,192,24327,1,0,0:0:0:60:snare.ogg
64,192,24327,128,0,25110:0:0:0:90:kick.ogg
192,192,24327,128,0,25110:0:0:0:0:
320,192,25110,1,0,0:0:0:20:clock.ogg
448,192,25371,1,0,0:0:0:0:
320,192,25631,1,0,0:0:0:0:
64,192,25892,1,0,0:0:0:20:clock.ogg
192,192,26153,1,0,0:0:0:0:
320,192,26414,1,0,0:0:0:0:
64,192,26675,1,0,0:0:0:40:clock.ogg
192,192,26936,1,0,0:0:0:0:
320,192,27197,1,0,0:0:0:0:
448,192,27458,1,0,0:0:0:50:clock.ogg
320,192,27979,1,0,0:0:0:0:
64,192,28240,1,0,0:0:0:60:clock.ogg
192,192,28501,1,0,0:0:0:0:
320,192,28762,1,0,0:0:0:0:
64,192,29023,1,0,0:0:0:60:clock.ogg
320,192,29284,1,0,0:0:0:0:
448,192,29544,1,0,0:0:0:0:
192,192,29805,1,0,0:0:0:60:clock.ogg
320,192,30066,1,0,0:0:0:0:
192,192,30327,1,0,0:0:0:0:
64,192,30588,1,0,0:0:0:60:clock.ogg
448,192,30588,1,0,0:0:0:0:
64,192,30849,1,0,0:0:0:0:
448,192,30849,1,0,0:0:0:0:
64,192,31371,1,0,0:0:0:60:clock.ogg
192,192,31631,1,0,0:0:0:0:
320,192,31892,1,0,0:0:0:0:
192,192,32153,1,0,0:0:0:60:clock.ogg
320,192,32414,1,0,0:0:0:0:
448,192,32675,1,0,0:0:0:0:
64,192,32936,1,0,0:0:0:60:clock.ogg
192,192,33197,1,0,0:0:0:0:
320,192,33458,1,0,0:0:0:0:
448,192,33718,1,0,0:0:0:60:clock.ogg
320,192,34240,1,0,0:0:0:0:
64,192,34501,1,0,0:0:0:60:clock.ogg
192,192,34762,1,0,0:0:0:0:
448,192,35023,1,0,0:0:0:0:
192,192,35284,1,0,0:0:0:60:clock.ogg
320,192,35544,1,0,0:0:0:0:
448,192,35805,1,0,0:0:0:0:
64,192,36066,1,0,0:0:0:60:clock.ogg
192,192,36327,1,0,0:0:0:0:
320,192,36588,1,0,0:0:0:0:
448,192,36849,128,0,37631:0:0:0:60:clock.ogg
64,192,37631,1,0,0:0:0:70:bell.ogg
192,192,37631,1,0,0:0:0:90:kick.ogg
320,192,37631,1,0,0:0:0:0:
192,192,37892,1,0,0:0:0:0:
320,192,38023,1,0,0:0:0:0:
64,192,38153,1,0,0:0:0:90:kick.ogg
448,192,38153,1,0,0:0:0:0:
192,192,38284,1,0,0:0:0:0:
320,192,38414,1,0,0:0:0:70:bell.ogg
448,192,38414,1,0,0:0:0:90:kick.ogg
192,192,38675,1,0,0:0:0:0:
320,192,38936,1,0,0:0:0:90:kick.ogg
448,192,38936,1,0,0:0:0:0:
192,192,39197,1,0,0:0:0:90:kick.ogg
64,192,39197,1,0,0:0:0:70:bell.ogg
64,192,39458,1,0,0:0:0:0:
320,192,39718,1,0,0:0:0:90:kick.ogg
192,192,39718,1,0,0:0:0:0:
64,192,39979,1,0,0:0:0:70:bell.ogg
448,192,39979,1,0,0:0:0:90:kick.ogg
192,192,40240,1,0,0:0:0:0:
64,192,40501,1,0,0:0:0:90:kick.ogg
448,192,40501,1,0,0:0:0:0:
320,192,40631,1,0,0:0:0:0:
192,192,40762,1,0,0:0:0:70:bell.ogg
448,192,40762,1,0,0:0:0:90:kick.ogg
320,192,41023,1,0,0:0:0:0:
64,192,41153,1,0,0:0:0:0:
320,192,41284,1,0,0:0:0:90:kick.ogg
448,192,41284,1,0,0:0:0:0:
192,192,41414,1,0,0:0:0:0:
448,192,41544,1,0,0:0:0:70:bell.ogg
64,192,41544,1,0,0:0:0:90:kick.ogg
320,192,41805,1,0,0:0:0:0:
192,192,42066,1,0,0:0:0:90:kick.ogg
448,192,42066,1,0,0:0:0:0:
320,192,42327,1,0,0:0:0:70:bell.ogg
64,192,42327,1,0,0:0:0:90:kick.ogg
192,192,42588,1,0,0:0:0:0:
320,192,42718,1,0,0:0:0:0:
64,192,42849,1,0,0:0:0:90:kick.ogg
448,192,42849,1,0,0:0:0:0:
192,192,42979,1,0,0:0:0:0:
320,192,43110,1,0,0:0:0:70:bell.ogg
64,192,43110,1,0,0:0:0:90:kick.ogg
320,192,43371,1,0,0:0:0:0:
64,192,43631,1,0,0:0:0:90:kick.ogg
448,192,43631,1,0,0:0:0:0:
64,192,43892,128,0,44153:0:0:0:30:crash.wav
320,192,43892,128,0,44153:0:0:0:90:kick.ogg
192,192,44284,128,0,44544:0:0:0:30:crash.wav
320,192,44284,128,0,44544:0:0:0:90:kick.ogg
192,192,44675,128,0,44936:0:0:0:30:crash.wav
448,192,44675,128,0,44936:0:0:0:90:kick.ogg
64,192,45066,128,0,45327:0:0:0:30:crash.wav
320,192,45066,128,0,45327:0:0:0:90:kick.ogg
64,192,45458,1,0,0:0:0:30:crash.wav
448,192,45458,1,0,0:0:0:70:bell.ogg
192,192,45458,1,0,0:0:0:90:kick.ogg
320,192,45718,1,0,0:0:0:0:
64,192,45979,1,0,0:0:0:90:kick.ogg
192,192,45979,1,0,0:0:0:0:
320,192,46240,1,0,0:0:0:70:bell.ogg
448,192,46240,1,0,0:0:0:90:kick.ogg
448,192,46501,1,0,0:0:0:0:
320,192,46762,1,0,0:0:0:90:kick.ogg
64,192,46762,1,0,0:0:0:0:
192,192,46892,1,0,0:0:0:0:
448,192,47023,1,0,0:0:0:70:bell.ogg
64,192,47023,1,0,0:0:0:90:kick.ogg
192,192,47284,1,0,0:0:0:0:
448,192,47414,1,0,0:0:0:0:
320,192,47544,1,0,0:0:0:90:kick.ogg
64,192,47544,1,0,0:0:0:0:
192,192,47675,1,0,0:0:0:0:
448,192,47805,1,0,0:0:0:0:
320,192,48066,1,0,0:0:0:0:
192,192,48327,1,0,0:0:0:0:
64,192,48588,1,0,0:0:0:20:crash2.ogg
448,192,48588,1,0,0:0:0:70:bell.ogg
320,192,48588,1,0,0:0:0:90:kick.ogg
64,192,49110,1,0,0:0:0:90:kick.ogg
448,192,49110,1,0,0:0:0:0:
320,192,49240,1,0,0:0:0:0:
448,192,49371,1,0,0:0:0:70:bell.ogg
192,192,49371,1,0,0:0:0:90:kick.ogg
320,192,49501,1,0,0:0:0:90:kick.ogg
192,192,49631,1,0,0:0:0:90:kick.ogg
64,192,49762,1,0,0:0:0:90:kick.ogg
448,192,49892,1,0,0:0:0:90:kick.ogg
192,192,49958,1,0,0:0:0:90:kick.ogg
320,192,50023,1,0,0:0:0:90:kick.ogg
448,192,50088,1,0,0:0:0:90:kick.ogg
192,192,50153,1,0,0:0:0:30:crash.wav
64,192,50153,1,0,0:0:0:90:kick.ogg
64,192,50284,1,0,0:0:0:60:snare.ogg
320,192,50544,1,0,0:0:0:30:crash.wav
448,192,50544,1,0,0:0:0:90:kick.ogg
320,192,50675,1,0,0:0:0:60:snare.ogg
192,192,50936,1,0,0:0:0:30:crash.wav
448,192,50936,1,0,0:0:0:90:kick.ogg
192,192,51066,1,0,0:0:0:60:snare.ogg
64,192,51327,1,0,0:0:0:30:crash.wav
448,192,51327,1,0,0:0:0:90:kick.ogg
448,192,51458,1,0,0:0:0:60:snare.ogg
64,192,51718,1,0,0:0:0:30:crash.wav
320,192,51718,1,0,0:0:0:90:kick.ogg
64,192,51849,1,0,0:0:0:60:snare.ogg
192,192,52110,1,0,0:0:0:30:crash.wav
320,192,52110,1,0,0:0:0:90:kick.ogg
320,192,52240,1,0,0:0:0:60:snare.ogg
192,192,52501,1,0,0:0:0:30:crash.wav
448,192,52501,1,0,0:0:0:90:kick.ogg
192,192,52631,1,0,0:0:0:60:snare.ogg
448,192,52892,1,0,0:0:0:30:crash.wav
64,192,52892,1,0,0:0:0:90:kick.ogg
448,192,53023,1,0,0:0:0:60:snare.ogg
320,192,53284,1,0,0:0:0:70:bell.ogg
192,192,53284,1,0,0:0:0:90:kick.ogg
64,192,53544,1,0,0:0:0:90:kick.ogg
448,192,53544,1,0,0:0:0:0:
320,192,53805,1,0,0:0:0:60:snare.ogg
192,192,53805,1,0,0:0:0:90:kick.ogg
64,192,54066,1,0,0:0:0:70:bell.ogg
320,192,54066,1,0,0:0:0:90:kick.ogg
192,192,54327,1,0,0:0:0:90:kick.ogg
448,192,54327,1,0,0:0:0:0:
320,192,54588,1,0,0:0:0:60:snare.ogg
64,192,54588,1,0,0:0:0:90:kick.ogg
64,192,54849,1,0,0:0:0:70:bell.ogg
448,192,54849,1,0,0:0:0:90:kick.ogg
320,192,55110,1,0,0:0:0:90:kick.ogg
192,192,55110,1,0,0:0:0:0:
64,192,55371,1,0,0:0:0:60:snare.ogg
448,192,55371,1,0,0:0:0:90:kick.ogg
64,192,55631,1,0,0:0:0:70:bell.ogg
320,192,55631,1,0,0:0:0:90:kick.ogg
192,192,55762,1,0,0:0:0:90:kick.ogg
320,192,55892,1,0,0:0:0:90:kick.ogg
448,192,56023,1,0,0:0:0:90:kick.ogg
64,192,56153,1,0,0:0:0:60:snare.ogg
320,192,56218,1,0,0:0:0:90:kick.ogg
192,192,56284,1,0,0:0:0:90:kick.ogg
64,192,56349,1,0,0:0:0:90:kick.ogg
320,192,56414,1,0,0:0:0:30:crash.wav
448,192,56414,1,0,0:0:0:90:kick.ogg
448,192,56544,1,0,0:0:0:60:snare.ogg
192,192,56805,1,0,0:0:0:30:crash.wav
64,192,56805,1,0,0:0:0:90:kick.ogg
192,192,56936,1,0,0:0:0:60:snare.ogg
320,192,57197,1,0,0:0:0:30:crash.wav
64,192,57197,1,0,0:0:0:90:kick.ogg
320,192,57327,1,0,0:0:0:60:snare.ogg
448,192,57588,1,0,0:0:0:30:crash.wav
64,192,57588,1,0,0:0:0:90:kick.ogg
64,192,57718,1,0,0:0:0:60:snare.ogg
448,192,57979,1,0,0:0:0:30:crash.wav
192,192,57979,1,0,0:0:0:90:kick.ogg
448,192,58110,1,0,0:0:0:60:snare.ogg
320,192,58371,1,0,0:0:0:30:crash.wav
192,192,58371,1,0,0:0:0:90:kick.ogg
192,192,58501,1,0,0:0:0:60:snare.ogg
320,192,58762,1,0,0:0:0:30:crash.wav
64,192,58762,1,0,0:0:0:90:kick.ogg
320,192,58892,1,0,0:0:0:60:snare.ogg
64,192,59153,1,0,0:0:0:30:crash.wav
448,192,59153,1,0,0:0:0:90:kick.ogg
64,192,59284,1,0,0:0:0:60:snare.ogg
320,192,59544,1,0,0:0:0:70:bell.ogg
448,192,59544,1,0,0:0:0:90:kick.ogg
64,192,59805,1,0,0:0:0:90:kick.ogg
192,192,59805,1,0,0:0:0:0:
64,192,60066,1,0,0:0:0:60:snare.ogg
320,192,60066,1,0,0:0:0:90:kick.ogg
448,192,60197,1,0,0:0:0:90:kick.ogg
320,192,60327,1,0,0:0:0:70:bell.ogg
192,192,60327,1,0,0:0:0:90:kick.ogg
448,192,60588,1,0,0:0:0:90:kick.ogg
64,192,60588,1,0,0:0:0:0:
192,192,60849,1,0,0:0:0:60:snare.ogg
448,192,60849,1,0,0:0:0:90:kick.ogg
192,192,61110,1,0,0:0:0:70:bell.ogg
320,192,61110,1,0,0:0:0:90:kick.ogg
192,192,61371,1,0,0:0:0:90:kick.ogg
64,192,61371,1,0,0:0:0:0:
320,192,61501,1,0,0:0:0:90:kick.ogg
448,192,61631,1,0,0:0:0:60:snare.ogg
64,192,61762,1,0,0:0:0:90:kick.ogg
192,192,61892,1,0,0:0:0:70:bell.ogg
320,192,62023,1,0,0:0:0:90:kick.ogg
192,192,62153,1,0,0:0:0:90:kick.ogg
64,192,62284,1,0,0:0:0:90:kick.ogg
448,192,62414,1,0,0:0:0:60:snare.ogg
320,192,62479,1,0,0:0:0:90:kick.ogg
64,192,62544,1,0,0:0:0:90:kick.ogg
192,192,62610,1,0,0:0:0:90:kick.ogg
320,192,62675,1,0,0:0:0:30:crash.wav
448,192,62675,1,0,0:0:0:90:kick.ogg
448,192,62805,1,0,0:0:0:30:crash.wav
64,192,63066,1,0,0:0:0:0:
448,192,63196,1,0,0:0:0:0:
192,192,63327,1,0,0:0:0:0:
64,192,63457,1,0,0:0:0:0:
320,192,63588,1,0,0:0:0:0:
448,192,63718,1,0,0:0:0:0:
320,192,63848,1,0,0:0:0:0:
64,192,63979,1,0,0:0:0:30:crash.wav
192,192,63979,1,0,0:0:0:90:kick.ogg
64,192,64109,1,0,0:0:0:30:crash.wav
448,192,64370,1,0,0:0:0:0:
192,192,64501,1,0,0:0:0:0:
64,192,64631,1,0,0:0:0:0:
320,192,64761,1,0,0:0:0:0:
448,192,64892,1,0,0:0:0:0:
64,192,65022,1,0,0:0:0:0:
192,192,65153,1,0,0:0:0:0:
320,192,65283,1,0,0:0:0:30:crash.wav
448,192,65283,1,0,0:0:0:90:kick.ogg
320,192,65414,1,0,0:0:0:30:crash.wav
64,192,65675,1,0,0:0:0:0:
192,192,65805,1,0,0:0:0:0:
448,192,65935,1,0,0:0:0:0:
192,192,66066,1,0,0:0:0:0:
64,192,66196,1,0,0:0:0:0:
448,192,66327,1,0,0:0:0:0:
320,192,66457,1,0,0:0:0:0:
64,192,66588,1,0,0:0:0:30:crash.wav
192,192,66588,1,0,0:0:0:90:kick.ogg
320,192,66718,1,0,0:0:0:0:
448,192,66848,1,0,0:0:0:0:
64,192,66979,1,0,0:0:0:0:
448,192,67109,1,0,0:0:0:60:snare.ogg
192,192,67109,1,0,0:0:0:0:
320,192,67240,1,0,0:0:0:0:
448,192,67370,1,0,0:0:0:30:crash.wav
64,192,67370,1,0,0:0:0:90:kick.ogg
192,192,67501,1,0,0:0:0:90:kick.ogg
320,192,67631,1,0,0:0:0:90:kick.ogg
192,192,67761,1,0,0:0:0:90:kick.ogg
320,192,67892,1,0,0:0:0:90:kick.ogg
64,192,67957,1,0,0:0:0:90:kick.ogg
448,192,68022,1,0,0:0:0:90:kick.ogg
320,192,68088,1,0,0:0:0:90:kick.ogg
64,192,68153,1,0,0:0:0:100:clock.ogg
192,192,68153,1,0,0:0:0:90:kick.ogg
64,192,68674,1,0,0:0:0:0:
192,192,68805,1,0,0:0:0:0:
320,192,68935,1,0,0:0:0:100:clock.ogg
448,192,68935,1,0,0:0:0:70:bell.ogg
448,192,69196,1,0,0:0:0:0:
320,192,69457,1,0,0:0:0:0:
192,192,69718,1,0,0:0:0:100:clock.ogg
64,192,69718,1,0,0:0:0:0:
320,192,70501,128,0,70631:0:0:0:100:clock.ogg
448,192,70501,128,0,70631:0:0:0:20:crash.wav
320,192,70761,128,0,70892:0:0:0:20:crash.wav
448,192,70761,128,0,70892:0:0:0:0:
320,192,71022,128,0,71153:0:0:0:20:crash.wav
448,192,71022,128,0,71153:0:0:0:0:
64,192,71283,1,0,0:0:0:70:bell.ogg
192,192,71283,1,0,0:0:0:90:kick.ogg
448,192,71544,1,0,0:0:0:90:kick.ogg
64,192,71544,1,0,0:0:0:0:
320,192,71805,1,0,0:0:0:90:kick.ogg
192,192,71805,1,0,0:0:0:0:
448,192,72066,1,0,0:0:0:70:bell.ogg
192,192,72066,1,0,0:0:0:90:kick.ogg
320,192,72327,1,0,0:0:0:90:kick.ogg
64,192,72327,1,0,0:0:0:0:
192,192,72588,1,0,0:0:0:90:kick.ogg
320,192,72588,1,0,0:0:0:0:
448,192,72848,1,0,0:0:0:70:bell.ogg
64,192,72848,1,0,0:0:0:90:kick.ogg
320,192,72979,1,0,0:0:0:90:kick.ogg
192,192,73109,1,0,0:0:0:90:kick.ogg
64,192,73240,1,0,0:0:0:90:kick.ogg
192,192,73370,1,0,0:0:0:90:kick.ogg
320,192,73501,1,0,0:0:0:90:kick.ogg
448,192,73631,1,0,0:0:0:90:kick.ogg
320,192,73761,1,0,0:0:0:90:kick.ogg
192,192,73892,1,0,0:0:0:90:kick.ogg
320,192,73957,1,0,0:0:0:90:kick.ogg
64,192,74022,1,0,0:0:0:90:kick.ogg
448,192,74153,1,0,0:0:0:90:kick.ogg
192,192,74218,1,0,0:0:0:90:kick.ogg
320,192,74283,1,0,0:0:0:90:kick.ogg
192,192,74414,1,0,0:0:0:0:
64,192,74414,1,0,0:0:0:0:
64,192,76761,1,0,0:0:0:0:
192,192,77022,1,0,0:0:0:0:
320,192,77283,1,0,0:0:0:0:
448,192,77414,1,0,0:0:0:0:
64,192,77544,1,0,0:0:0:0:
192,192,77805,1,0,0:0:0:0:
320,192,78066,1,0,0:0:0:0:
320,192,78327,1,0,0:0:0:0:
448,192,78587,1,0,0:0:0:0:
192,192,78848,1,0,0:0:0:0:
64,192,78979,1,0,0:0:0:0:
448,192,79109,1,0,0:0:0:0:
320,192,79370,1,0,0:0:0:0:
64,192,79631,1,0,0:0:0:0:
192,192,79892,1,0,0:0:0:0:
64,192,80153,1,0,0:0:0:0:
192,192,80414,1,0,0:0:0:0:
320,192,80544,1,0,0:0:0:0:
448,192,80674,1,0,0:0:0:0:
320,192,80935,1,0,0:0:0:0:
192,192,81196,1,0,0:0:0:0:
448,192,81457,1,0,0:0:0:0:
192,192,81718,1,0,0:0:0:0:
64,192,81979,1,0,0:0:0:0:
320,192,82109,1,0,0:0:0:0:
192,192,82240,1,0,0:0:0:0:
448,192,82501,1,0,0:0:0:0:
192,192,82761,1,0,0:0:0:0:
64,192,83022,1,0,0:0:0:0:
320,192,83283,1,0,0:0:0:0:
192,192,83544,1,0,0:0:0:0:
320,192,83674,1,0,0:0:0:0:
64,192,83805,1,0,0:0:0:0:
448,192,84066,1,0,0:0:0:0:
192,192,84327,1,0,0:0:0:0:
320,192,84587,1,0,0:0:0:0:
192,192,84848,1,0,0:0:0:0:
448,192,85109,1,0,0:0:0:0:
64,192,85240,1,0,0:0:0:0:
192,192,85370,1,0,0:0:0:0:
320,192,85631,1,0,0:0:0:0:
64,192,85892,1,0,0:0:0:0:
320,192,86153,1,0,0:0:0:0:
192,192,86414,1,0,0:0:0:0:
64,192,86544,1,0,0:0:0:0:
192,192,86674,1,0,0:0:0:0:
320,192,86805,1,0,0:0:0:0:
448,192,86935,1,0,0:0:0:0:
320,192,87196,1,0,0:0:0:0:
64,192,87457,1,0,0:0:0:0:
448,192,87718,1,0,0:0:0:0:
320,192,87979,1,0,0:0:0:0:
192,192,88240,1,0,0:0:0:0:
64,192,88501,1,0,0:0:0:0:
320,192,88761,1,0,0:0:0:0:
448,192,89022,1,0,0:0:0:0:
320,192,89283,1,0,0:0:0:0:
192,192,89414,1,0,0:0:0:0:
64,192,89544,1,0,0:0:0:0:
192,192,89674,1,0,0:0:0:0:
320,192,89805,1,0,0:0:0:0:
448,192,89935,1,0,0:0:0:0:
64,192,90066,1,0,0:0:0:30:crash.wav
192,192,90066,1,0,0:0:0:90:kick.ogg
64,192,90196,1,0,0:0:0:30:crash.wav
448,192,90327,1,0,0:0:0:90:kick.ogg
320,192,90587,1,0,0:0:0:90:kick.ogg
192,192,90848,1,0,0:0:0:90:kick.ogg
64,192,91109,1,0,0:0:0:90:kick.ogg
448,192,91109,1,0,0:0:0:0:
192,192,91370,1,0,0:0:0:90:kick.ogg
64,192,91370,1,0,0:0:0:0:
320,192,91631,1,0,0:0:0:30:crash.wav
448,192,91631,1,0,0:0:0:90:kick.ogg
448,192,91761,1,0,0:0:0:30:crash.wav
192,192,91892,1,0,0:0:0:90:kick.ogg
64,192,91892,1,0,0:0:0:0:
64,192,92153,1,0,0:0:0:90:kick.ogg
448,192,92153,1,0,0:0:0:0:
192,192,92414,1,0,0:0:0:90:kick.ogg
320,192,92414,1,0,0:0:0:0:
320,192,92674,1,0,0:0:0:90:kick.ogg
448,192,92674,1,0,0:0:0:0:
64,192,92935,1,0,0:0:0:90:kick.ogg
448,192,92935,1,0,0:0:0:0:
192,192,93196,1,0,0:0:0:30:crash.wav
320,192,93196,1,0,0:0:0:90:kick.ogg
192,192,93327,1,0,0:0:0:30:crash.wav
64,192,93457,1,0,0:0:0:90:kick.ogg
448,192,93457,1,0,0:0:0:0:
192,192,93718,1,0,0:0:0:90:kick.ogg
64,192,93718,1,0,0:0:0:0:
448,192,93979,1,0,0:0:0:90:kick.ogg
320,192,93979,1,0,0:0:0:0:
320,192,94240,1,0,0:0:0:90:kick.ogg
192,192,94240,1,0,0:0:0:0:
192,192,94501,1,0,0:0:0:90:kick.ogg
64,192,94501,1,0,0:0:0:0:
448,192,94761,1,0,0:0:0:30:crash.wav
320,192,94761,1,0,0:0:0:90:kick.ogg
448,192,94892,1,0,0:0:0:30:crash.wav
192,192,95022,1,0,0:0:0:90:kick.ogg
64,192,95022,1,0,0:0:0:0:
320,192,95283,1,0,0:0:0:90:kick.ogg
192,192,95283,1,0,0:0:0:0:
192,192,95544,1,0,0:0:0:90:kick.ogg
448,192,95544,1,0,0:0:0:0:
320,192,95674,1,0,0:0:0:90:kick.ogg
64,192,95805,1,0,0:0:0:90:kick.ogg
192,192,95935,1,0,0:0:0:90:kick.ogg
448,192,96066,1,0,0:0:0:90:kick.ogg
64,192,96131,1,0,0:0:0:90:kick.ogg
320,192,96196,1,0,0:0:0:90:kick.ogg
448,192,96261,1,0,0:0:0:90:kick.ogg
64,192,96327,128,0,96587:0:0:0:0:
192,192,96327,128,0,96587:0:0:0:0:
64,192,96718,128,0,96979:0:0:0:0:
192,192,96718,128,0,96979:0:0:0:0:
64,192,97109,128,0,97370:0:0:0:0:
448,192,97109,128,0,97370:0:0:0:0:
64,192,97501,128,0,97761:0:0:0:0:
448,192,97501,128,0,97761:0:0:0:0:
320,192,97892,128,0,98153:0:0:0:0:
448,192,97892,128,0,98153:0:0:0:0:
320,192,98283,128,0,98544:0:0:0:0:
448,192,98283,128,0,98544:0:0:0:0:
64,192,98674,1,0,0:0:0:90:kick.ogg
192,192,98674,1,0,0:0:0:0:
64,192,98805,1,0,0:0:0:90:kick.ogg
320,192,98935,1,0,0:0:0:90:kick.ogg
448,192,98935,1,0,0:0:0:0:
448,192,99066,1,0,0:0:0:90:kick.ogg
192,192,99196,1,0,0:0:0:90:kick.ogg
64,192,99196,1,0,0:0:0:0:
192,192,99327,1,0,0:0:0:90:kick.ogg
320,192,99457,1,0,0:0:0:30:crash.wav
448,192,99457,1,0,0:0:0:90:kick.ogg
64,192,99457,1,0,0:0:0:0:
320,192,99587,1,0,0:0:0:90:kick.ogg
192,192,99848,1,0,0:0:0:90:kick.ogg
320,192,99848,1,0,0:0:0:0:
192,192,99979,1,0,0:0:0:90:kick.ogg
64,192,100240,1,0,0:0:0:90:kick.ogg
448,192,100240,1,0,0:0:0:0:
320,192,100501,1,0,0:0:0:90:kick.ogg
448,192,100501,1,0,0:0:0:0:
192,192,100761,1,0,0:0:0:90:kick.ogg
64,192,100761,1,0,0:0:0:0:
448,192,101022,1,0,0:0:0:30:crash.wav
320,192,101022,1,0,0:0:0:90:kick.ogg
448,192,101153,1,0,0:0:0:90:kick.ogg
192,192,101414,1,0,0:0:0:90:kick.ogg
448,192,101414,1,0,0:0:0:0:
192,192,101544,1,0,0:0:0:90:kick.ogg
320,192,101805,1,0,0:0:0:90:kick.ogg
192,192,101805,1,0,0:0:0:0:
64,192,102066,1,0,0:0:0:90:kick.ogg
448,192,102066,1,0,0:0:0:0:
320,192,102327,1,0,0:0:0:90:kick.ogg
448,192,102327,1,0,0:0:0:0:
192,192,102587,1,0,0:0:0:30:crash.wav
320,192,102587,1,0,0:0:0:90:kick.ogg
192,192,102718,1,0,0:0:0:90:kick.ogg
64,192,102979,1,0,0:0:0:90:kick.ogg
448,192,102979,1,0,0:0:0:0:
64,192,103109,1,0,0:0:0:90:kick.ogg
192,192,103370,1,0,0:0:0:30:crash.wav
448,192,103370,1,0,0:0:0:90:kick.ogg
192,192,103631,1,0,0:0:0:90:kick.ogg
320,192,103631,1,0,0:0:0:0:
320,192,103892,1,0,0:0:0:90:kick.ogg
64,192,103892,1,0,0:0:0:0:
192,192,104153,1,0,0:0:0:20:crash.wav
448,192,104153,128,0,104674:0:0:0:90:kick.ogg
64,192,104935,1,0,0:0:0:30:crash.wav
448,192,104935,1,0,0:0:0:0:
192,192,105066,1,0,0:0:0:0:
320,192,105196,1,0,0:0:0:0:
192,192,105327,1,0,0:0:0:0:
320,192,105457,1,0,0:0:0:0:
448,192,105587,1,0,0:0:0:0:
64,192,105718,1,0,0:0:0:60:crash2.ogg
192,192,105718,1,0,0:0:0:90:kick.ogg
320,192,105848,1,0,0:0:0:0:
448,192,105979,1,0,0:0:0:90:kick.ogg
192,192,106109,1,0,0:0:0:0:
320,192,106240,1,0,0:0:0:90:kick.ogg
192,192,106370,1,0,0:0:0:0:
64,192,106501,1,0,0:0:0:90:kick.ogg
320,192,106631,1,0,0:0:0:0:
192,192,106761,1,0,0:0:0:70:bell.ogg
448,192,106761,1,0,0:0:0:90:kick.ogg
320,192,106892,1,0,0:0:0:0:
192,192,107022,1,0,0:0:0:70:bell.ogg
64,192,107022,1,0,0:0:0:90:kick.ogg
448,192,107153,1,0,0:0:0:0:
64,192,107283,1,0,0:0:0:90:kick.ogg
320,192,107414,1,0,0:0:0:0:
448,192,107544,1,0,0:0:0:90:kick.ogg
192,192,107674,1,0,0:0:0:0:
320,192,107805,1,0,0:0:0:90:kick.ogg
192,192,107935,1,0,0:0:0:0:
64,192,108066,1,0,0:0:0:90:kick.ogg
320,192,108196,1,0,0:0:0:0:
192,192,108327,1,0,0:0:0:70:bell.ogg
64,192,108327,1,0,0:0:0:90:kick.ogg
448,192,108457,1,0,0:0:0:0:
320,192,108587,1,0,0:0:0:70:bell.ogg
192,192,108587,1,0,0:0:0:90:kick.ogg
448,192,108718,1,0,0:0:0:0:
64,192,108848,1,0,0:0:0:90:kick.ogg
320,192,108979,1,0,0:0:0:0:
192,192,109109,1,0,0:0:0:90:kick.ogg
448,192,109240,1,0,0:0:0:0:
64,192,109370,1,0,0:0:0:90:kick.ogg
192,192,109501,1,0,0:0:0:0:
448,192,109631,1,0,0:0:0:90:kick.ogg
320,192,109761,1,0,0:0:0:0:
64,192,109892,1,0,0:0:0:70:bell.ogg
192,192,109892,1,0,0:0:0:90:kick.ogg
320,192,110022,1,0,0:0:0:0:
448,192,110153,1,0,0:0:0:70:bell.ogg
64,192,110153,1,0,0:0:0:90:kick.ogg
192,192,110283,1,0,0:0:0:0:
320,192,110414,1,0,0:0:0:90:kick.ogg
192,192,110544,1,0,0:0:0:0:
64,192,110674,1,0,0:0:0:90:kick.ogg
320,192,110805,1,0,0:0:0:0:
192,192,110935,1,0,0:0:0:90:kick.ogg
320,192,111066,1,0,0:0:0:0:
448,192,111196,1,0,0:0:0:90:kick.ogg
448,192,111327,1,0,0:0:0:90:kick.ogg
192,192,111457,1,0,0:0:0:70:bell.ogg
64,192,111457,1,0,0:0:0:90:kick.ogg
64,192,111587,1,0,0:0:0:90:kick.ogg
320,192,111718,1,0,0:0:0:70:bell.ogg
448,192,111718,1,0,0:0:0:90:kick.ogg
320,192,111848,1,0,0:0:0:90:kick.ogg
64,192,111979,1,0,0:0:0:90:kick.ogg
320,192,112109,1,0,0:0:0:0:
448,192,112240,1,0,0:0:0:90:kick.ogg
192,192,112370,1,0,0:0:0:0:
320,192,112501,1,0,0:0:0:90:kick.ogg
192,192,112631,1,0,0:0:0:0:
64,192,112761,1,0,0:0:0:90:kick.ogg
320,192,112892,1,0,0:0:0:0:
64,192,113022,1,0,0:0:0:70:bell.ogg
448,192,113022,1,0,0:0:0:90:kick.ogg
192,192,113153,1,0,0:0:0:0:
320,192,113283,1,0,0:0:0:70:bell.ogg
448,192,113283,1,0,0:0:0:90:kick.ogg
192,192,113414,1,0,0:0:0:0:
64,192,113544,1,0,0:0:0:90:kick.ogg
448,192,113674,1,0,0:0:0:0:
192,192,113805,1,0,0:0:0:90:kick.ogg
320,192,113935,1,0,0:0:0:0:
448,192,114066,1,0,0:0:0:90:kick.ogg
64,192,114196,1,0,0:0:0:0:
320,192,114327,1,0,0:0:0:90:kick.ogg
192,192,114457,1,0,0:0:0:0:
448,192,114587,1,0,0:0:0:70:bell.ogg
64,192,114587,1,0,0:0:0:90:kick.ogg
320,192,114718,1,0,0:0:0:0:
448,192,114848,1,0,0:0:0:70:bell.ogg
192,192,114848,1,0,0:0:0:90:kick.ogg
320,192,114979,1,0,0:0:0:0:
192,192,115109,1,0,0:0:0:90:kick.ogg
448,192,115240,1,0,0:0:0:0:
64,192,115370,1,0,0:0:0:90:kick.ogg
320,192,115501,1,0,0:0:0:0:
192,192,115631,1,0,0:0:0:90:kick.ogg
448,192,115761,1,0,0:0:0:0:
64,192,115892,1,0,0:0:0:90:kick.ogg
192,192,116022,1,0,0:0:0:0:
448,192,116153,1,0,0:0:0:70:bell.ogg
64,192,116153,1,0,0:0:0:90:kick.ogg
320,192,116283,1,0,0:0:0:0:
448,192,116414,1,0,0:0:0:70:bell.ogg
192,192,116414,1,0,0:0:0:90:kick.ogg
320,192,116544,1,0,0:0:0:0:
64,192,116674,1,0,0:0:0:90:kick.ogg
192,192,116674,1,0,0:0:0:0:
192,192,116805,1,0,0:0:0:60:snare.ogg
448,192,116935,1,0,0:0:0:90:kick.ogg
320,192,116935,1,0,0:0:0:0:
448,192,117066,1,0,0:0:0:60:snare.ogg
64,192,117196,1,0,0:0:0:90:kick.ogg
320,192,117196,1,0,0:0:0:0:
64,192,117327,1,0,0:0:0:60:snare.ogg
320,192,117457,1,0,0:0:0:90:kick.ogg
320,192,117587,1,0,0:0:0:60:snare.ogg
192,192,117718,1,0,0:0:0:70:bell.ogg
64,192,117718,1,0,0:0:0:90:kick.ogg
192,192,117848,1,0,0:0:0:90:kick.ogg
64,192,117848,1,0,0:0:0:0:
320,192,117979,1,0,0:0:0:70:bell.ogg
448,192,117979,1,0,0:0:0:90:kick.ogg
448,192,118109,1,0,0:0:0:90:kick.ogg
320,192,118109,1,0,0:0:0:0:
192,192,118240,1,0,0:0:0:20:crash.wav
64,192,118240,1,0,0:0:0:0:
64,192,118501,1,0,0:0:0:90:kick.ogg
192,192,118631,1,0,0:0:0:0:
320,192,118761,1,0,0:0:0:90:kick.ogg
192,192,118892,1,0,0:0:0:0:
448,192,119022,1,0,0:0:0:90:kick.ogg
320,192,119153,1,0,0:0:0:0:
192,192,119283,1,0,0:0:0:70:bell.ogg
64,192,119283,1,0,0:0:0:90:kick.ogg
320,192,119414,1,0,0:0:0:0:
448,192,119544,1,0,0:0:0:70:bell.ogg
64,192,119544,1,0,0:0:0:90:kick.ogg
192,192,119674,1,0,0:0:0:0:
320,192,119805,1,0,0:0:0:90:kick.ogg
192,192,119935,1,0,0:0:0:0:
64,192,120066,1,0,0:0:0:90:kick.ogg
448,192,120196,1,0,0:0:0:0:
192,192,120327,1,0,0:0:0:90:kick.ogg
320,192,120457,1,0,0:0:0:0:
192,192,120587,1,0,0:0:0:90:kick.ogg
64,192,120718,1,0,0:0:0:0:
320,192,120848,1,0,0:0:0:70:bell.ogg
448,192,120848,1,0,0:0:0:90:kick.ogg
192,192,120979,1,0,0:0:0:0:
64,192,121109,1,0,0:0:0:70:bell.ogg
448,192,121109,1,0,0:0:0:90:kick.ogg
320,192,121240,1,0,0:0:0:90:kick.ogg
192,192,121370,1,0,0:0:0:30:crash.wav
64,192,121370,1,0,0:0:0:90:kick.ogg
64,192,121501,1,0,0:0:0:60:snare.ogg
192,192,121761,1,0,0:0:0:30:crash.wav
448,192,121761,1,0,0:0:0:90:kick.ogg
448,192,121892,1,0,0:0:0:60:snare.ogg
320,192,122153,1,0,0:0:0:30:crash.wav
192,192,122153,1,0,0:0:0:90:kick.ogg
192,192,122283,1,0,0:0:0:60:snare.ogg
64,192,122544,1,0,0:0:0:30:crash.wav
320,192,122544,1,0,0:0:0:90:kick.ogg
320,192,122674,1,0,0:0:0:60:snare.ogg
64,192,122935,1,0,0:0:0:30:crash.wav
448,192,122935,1,0,0:0:0:90:kick.ogg
320,192,123066,1,0,0:0:0:0:
192,192,123196,1,0,0:0:0:90:kick.ogg
448,192,123327,1,0,0:0:0:0:
64,192,123457,1,0,0:0:0:90:kick.ogg
192,192,123587,1,0,0:0:0:0:
320,192,123718,1,0,0:0:0:30:crash.wav
448,192,123718,1,0,0:0:0:90:kick.ogg
320,192,123848,1,0,0:0:0:90:kick.ogg
64,192,123979,1,0,0:0:0:70:bell.ogg
192,192,123979,1,0,0:0:0:90:kick.ogg
64,192,124109,1,0,0:0:0:90:kick.ogg
448,192,124240,1,0,0:0:0:70:bell.ogg
320,192,124240,1,0,0:0:0:90:kick.ogg
448,192,124370,1,0,0:0:0:90:kick.ogg
192,192,124501,1,0,0:0:0:90:kick.ogg
320,192,124631,1,0,0:0:0:0:
448,192,124761,1,0,0:0:0:90:kick.ogg
64,192,124892,1,0,0:0:0:0:
320,192,125022,1,0,0:0:0:90:kick.ogg
192,192,125153,1,0,0:0:0:0:
448,192,125283,1,0,0:0:0:90:kick.ogg
320,192,125414,1,0,0:0:0:0:
192,192,125544,1,0,0:0:0:70:bell.ogg
64,192,125544,1,0,0:0:0:90:kick.ogg
320,192,125674,1,0,0:0:0:0:
448,192,125805,1,0,0:0:0:70:bell.ogg
64,192,125805,1,0,0:0:0:90:kick.ogg
192,192,125935,1,0,0:0:0:0:
448,192,126066,1,0,0:0:0:90:kick.ogg
448,192,126196,1,0,0:0:0:0:
320,192,126327,1,0,0:0:0:90:kick.ogg
320,192,126457,1,0,0:0:0:0:
192,192,126587,1,0,0:0:0:90:kick.ogg
192,192,126718,1,0,0:0:0:0:
64,192,126848,1,0,0:0:0:90:kick.ogg
64,192,126979,1,0,0:0:0:0:
192,192,127109,1,0,0:0:0:70:bell.ogg
448,192,127109,1,0,0:0:0:90:kick.ogg
192,192,127240,1,0,0:0:0:0:
320,192,127370,1,0,0:0:0:70:bell.ogg
64,192,127370,1,0,0:0:0:90:kick.ogg
320,192,127501,1,0,0:0:0:0:
192,192,127631,1,0,0:0:0:90:kick.ogg
64,192,127631,1,0,0:0:0:0:
192,192,127761,1,0,0:0:0:90:kick.ogg
320,192,127892,1,0,0:0:0:90:kick.ogg
448,192,127892,1,0,0:0:0:0:
320,192,128022,1,0,0:0:0:90:kick.ogg
64,192,128153,1,0,0:0:0:90:kick.ogg
448,192,128153,1,0,0:0:0:0:
64,192,128283,1,0,0:0:0:90:kick.ogg
448,192,128414,1,0,0:0:0:90:kick.ogg
192,192,128414,1,0,0:0:0:0:
448,192,128544,1,0,0:0:0:90:kick.ogg
320,192,128674,1,0,0:0:0:70:bell.ogg
64,192,128674,1,0,0:0:0:90:kick.ogg
320,192,128805,1,0,0:0:0:90:kick.ogg
64,192,128935,1,0,0:0:0:70:bell.ogg
192,192,128935,1,0,0:0:0:90:kick.ogg
64,192,129066,1,0,0:0:0:90:kick.ogg
448,192,129196,1,0,0:0:0:90:kick.ogg
192,192,129196,1,0,0:0:0:0:
448,192,129327,1,0,0:0:0:90:kick.ogg
192,192,129457,1,0,0:0:0:90:kick.ogg
320,192,129457,1,0,0:0:0:0:
192,192,129587,1,0,0:0:0:90:kick.ogg
64,192,129718,1,0,0:0:0:90:kick.ogg
448,192,129718,1,0,0:0:0:0:
320,192,129848,1,0,0:0:0:90:kick.ogg
192,192,129848,1,0,0:0:0:0:
448,192,129979,1,0,0:0:0:90:kick.ogg
64,192,129979,1,0,0:0:0:0:
320,192,130240,1,0,0:0:0:0:
192,192,130240,1,0,0:0:0:0:
320,192,130501,1,0,0:0:0:0:
448,192,130501,1,0,0:0:0:0:
448,192,130761,1,0,0:0:0:90:kick.ogg
192,192,130761,1,0,0:0:0:0:
320,192,130892,1,0,0:0:0:90:kick.ogg
64,192,130892,1,0,0:0:0:0:
64,192,131153,1,0,0:0:0:90:kick.ogg
320,192,131153,1,0,0:0:0:0:
448,192,131283,1,0,0:0:0:90:kick.ogg
192,192,131283,1,0,0:0:0:0:
192,192,131544,1,0,0:0:0:90:kick.ogg
64,192,131544,1,0,0:0:0:0:
64,192,131805,1,0,0:0:0:90:kick.ogg
192,192,131805,1,0,0:0:0:0:
64,192,132066,1,0,0:0:0:90:kick.ogg
192,192,132066,1,0,0:0:0:0:
320,192,132327,1,0,0:0:0:90:kick.ogg
64,192,132327,1,0,0:0:0:0:
448,192,132457,1,0,0:0:0:90:kick.ogg
192,192,132457,1,0,0:0:0:0:
448,192,132718,1,0,0:0:0:90:kick.ogg
192,192,132718,1,0,0:0:0:0:
320,192,132848,1,0,0:0:0:90:kick.ogg
64,192,132848,1,0,0:0:0:0:
320,192,133109,1,0,0:0:0:90:kick.ogg
448,192,133109,1,0,0:0:0:0:
320,192,133370,1,0,0:0:0:90:kick.ogg
448,192,133370,1,0,0:0:0:0:
320,192,133631,1,0,0:0:0:90:kick.ogg
448,192,133631,1,0,0:0:0:0:
64,192,133892,1,0,0:0:0:90:kick.ogg
192,192,133892,1,0,0:0:0:0:
320,192,134022,1,0,0:0:0:90:kick.ogg
448,192,134022,1,0,0:0:0:0:
320,192,134283,1,0,0:0:0:90:kick.ogg
448,192,134283,1,0,0:0:0:0:
192,192,134414,1,0,0:0:0:90:kick.ogg
64,192,134414,1,0,0:0:0:0:
192,192,134674,1,0,0:0:0:90:kick.ogg
320,192,134674,1,0,0:0:0:0:
192,192,134935,1,0,0:0:0:90:kick.ogg
320,192,134935,1,0,0:0:0:0:
192,192,135196,1,0,0:0:0:90:kick.ogg
320,192,135196,1,0,0:0:0:0:
448,192,135457,1,0,0:0:0:90:kick.ogg
320,192,135457,1,0,0:0:0:0:
192,192,135587,1,0,0:0:0:90:kick.ogg
64,192,135587,1,0,0:0:0:0:
64,192,135848,1,0,0:0:0:90:kick.ogg
192,192,135848,1,0,0:0:0:0:
320,192,135979,1,0,0:0:0:90:kick.ogg
448,192,135979,1,0,0:0:0:0:
64,192,136240,1,0,0:0:0:90:kick.ogg
448,192,136240,1,0,0:0:0:0:
64,192,136501,1,0,0:0:0:90:kick.ogg
448,192,136501,1,0,0:0:0:0:
64,192,136761,1,0,0:0:0:90:kick.ogg
448,192,136761,1,0,0:0:0:0:
64,192,137022,1,0,0:0:0:30:crash.wav
448,192,137022,1,0,0:0:0:90:kick.ogg
192,192,137153,1,0,0:0:0:0:
320,192,137283,1,0,0:0:0:90:kick.ogg
192,192,137414,1,0,0:0:0:0:
64,192,137544,1,0,0:0:0:90:kick.ogg
448,192,137674,1,0,0:0:0:0:
320,192,137805,1,0,0:0:0:90:kick.ogg
192,192,137935,1,0,0:0:0:0:
64,192,138066,1,0,0:0:0:70:bell.ogg
448,192,138066,1,0,0:0:0:90:kick.ogg
192,192,138196,1,0,0:0:0:0:
320,192,138327,1,0,0:0:0:70:bell.ogg
448,192,138327,1,0,0:0:0:90:kick.ogg
192,192,138457,1,0,0:0:0:0:
320,192,138587,1,0,0:0:0:90:kick.ogg
448,192,138718,1,0,0:0:0:0:
320,192,138848,1,0,0:0:0:90:kick.ogg
192,192,138979,1,0,0:0:0:0:
64,192,139109,1,0,0:0:0:90:kick.ogg
448,192,139240,1,0,0:0:0:0:
320,192,139370,1,0,0:0:0:90:kick.ogg
192,192,139501,1,0,0:0:0:0:
320,192,139631,1,0,0:0:0:70:bell.ogg
64,192,139631,1,0,0:0:0:90:kick.ogg
448,192,139761,1,0,0:0:0:0:
192,192,139892,1,0,0:0:0:70:bell.ogg
64,192,139892,1,0,0:0:0:90:kick.ogg
320,192,140022,1,0,0:0:0:0:
448,192,140153,1,0,0:0:0:90:kick.ogg
192,192,140153,1,0,0:0:0:0:
192,192,140283,1,0,0:0:0:90:kick.ogg
320,192,140414,1,0,0:0:0:90:kick.ogg
448,192,140414,1,0,0:0:0:0:
320,192,140544,1,0,0:0:0:90:kick.ogg
64,192,140674,1,0,0:0:0:90:kick.ogg
192,192,140674,1,0,0:0:0:0:
64,192,140805,1,0,0:0:0:90:kick.ogg
320,192,140935,1,0,0:0:0:90:kick.ogg
448,192,140935,1,0,0:0:0:0:
448,192,141066,1,0,0:0:0:90:kick.ogg
320,192,141196,1,0,0:0:0:70:bell.ogg
192,192,141196,1,0,0:0:0:90:kick.ogg
192,192,141327,1,0,0:0:0:90:kick.ogg
448,192,141457,1,0,0:0:0:70:bell.ogg
320,192,141457,1,0,0:0:0:90:kick.ogg
320,192,141587,1,0,0:0:0:90:kick.ogg
64,192,141718,128,0,143283:0:0:0:90:kick.ogg
320,192,142240,128,0,142501:0:0:0:90:kick.ogg
192,192,142501,128,0,143022:0:0:0:90:kick.ogg
320,192,143022,128,0,143283:0:0:0:90:kick.ogg
448,192,143283,128,0,146414:0:0:0:40:crash2.ogg
192,192,143283,1,0,0:0:0:0:
