osu file format v14

[General]
AudioFilename: audio.mp3
AudioLeadIn: 0
PreviewTime: 55487
Countdown: 0
SampleSet: Soft
StackLeniency: 0.7
Mode: 0
LetterboxInBreaks: 0
WidescreenStoryboard: 0

[Editor]
DistanceSpacing: 1
BeatDivisor: 4
GridSize: 4
TimelineZoom: 1

[Metadata]
Title:Rising Rainbow (TV Size)
TitleUnicode:ライジングレインボウ (TV Size)
Artist:Misokkasu
ArtistUnicode:ミソッカス
Creator:Suzuki_1112
Version:Normal
Source:食戟のソーマ
Tags:soma shokugeki opening anime food wars tv size no op2 single 1112deng _Yiiiii
BeatmapID:1191607
BeatmapSetID:563540

[Difficulty]
HPDrainRate:4
CircleSize:3
OverallDifficulty:4
ApproachRate:6
SliderMultiplier:1.2
SliderTickRate:1

[Events]
//Background and Video events
0,0,"psb.jpg",0,0
Video,0,"optc (1).flv"
//Break Periods
//Storyboard Layer 0 (Background)
//Storyboard Layer 1 (Fail)
//Storyboard Layer 2 (Pass)
//Storyboard Layer 3 (Foreground)
//Storyboard Sound Samples

[TimingPoints]
718,307.692307692308,4,2,1,100,1,0
718,-100,4,2,1,100,0,0
2564,-100,4,2,0,100,0,0
3487,-100,4,1,1,100,0,0
4718,-100,4,2,0,100,0,0
5641,-100,4,2,0,100,0,0
6871,-100,4,1,1,100,0,0
11179,-100,4,2,0,100,0,0
11794,-100,4,1,1,100,0,0
21641,-100,4,2,1,100,0,0
55487,-100,4,2,0,100,0,0
56102,-100,4,1,1,100,0,1
75179,-100,4,2,0,100,0,0
75794,-100,4,1,1,100,0,0

[Colours]
Combo1 : 255,192,0
Combo2 : 0,128,255
Combo3 : 255,255,0
Combo4 : 255,128,128

[HitObjects]
120,308,1948,5,4,1:0:0:0:
232,184,3487,6,0,P|176:152|104:160,2,120,2|2|2,1:0|1:0|1:0,0:0:0:0:
352,168,4410,1,4,1:0:0:0:
464,132,5641,6,0,P|484:80|424:8,1,120,2|2,0:0|0:0,0:0:0:0:
336,24,6256,2,0,P|310:76|330:131,1,120,2|2,0:0|0:0,0:0:0:0:
392,232,6871,5,4,0:0:0:0:
272,220,7179,2,0,L|296:300,2,60,2|0|2,0:0|0:0|0:0,0:0:0:0:
168,172,7794,1,2,0:0:0:0:
268,108,8102,2,0,P|332:88|386:111,1,120,2|0,0:0|0:0,0:0:0:0:
442,214,8718,2,0,P|388:233|316:193,1,120,2|0,0:0|0:0,0:0:0:0:
212,228,9333,6,0,L|304:56,1,180,4|4,0:0|0:0,0:0:0:0:
460,148,10256,6,0,L|375:306,1,180,4|4,0:0|0:0,0:0:0:0:
196,292,11179,2,0,P|176:212|240:108,1,180,2|0,0:0|0:0,0:0:0:0:
260,88,11794,6,0,P|316:72|400:116,1,120,4|8,0:0|0:0,0:0:0:0:
408,204,12410,2,0,P|432:188|480:192,2,60,2|2|8,0:0|0:0|0:0,0:0:0:0:
284,196,13025,2,0,L|320:336,1,120,2|8,0:0|0:0,0:0:0:0:
200,272,13641,2,0,L|170:155,1,120,2|8,0:0|0:0,0:0:0:0:
224,48,14256,6,0,B|280:52|280:52|348:100,1,120,2|8,0:0|0:0,0:0:0:0:
376,200,14871,2,0,L|356:284,1,60,0|2,0:0|0:0,0:0:0:0:
312,292,15179,1,8,0:0:0:0:
200,248,15487,2,0,P|136:236|72:288,1,120,0|8,0:0|0:0,0:0:0:0:
132,148,16102,2,0,P|189:161|242:134,1,120,2|8,0:0|0:0,0:0:0:0:
336,60,16718,6,0,B|324:116|324:116|348:188,1,120,4|8,0:0|0:0,0:0:0:0:
260,260,17333,2,0,L|176:236,1,60,2|2,0:0|0:0,0:0:0:0:
160,200,17641,1,8,0:0:0:0:
244,116,17948,2,0,P|328:84|388:112,2,120,2|8|2,0:0|0:0|0:0,0:0:0:0:
160,200,18871,1,8,0:0:0:0:
184,316,19179,6,0,P|252:344|328:328,1,120,4|8,0:0|0:0,0:0:0:0:
384,256,19794,2,0,P|330:230|270:231,1,120,2|8,0:0|0:0,0:0:0:0:
160,188,20410,2,0,L|196:48,2,120,2|8|2,0:0|0:0|0:0,0:0:0:0:
216,296,21333,1,2,0:0:0:0:
328,252,21641,6,0,P|376:268|472:216,1,120,4|8,0:0|0:0,0:0:0:0:
444,128,22256,2,0,P|387:109|330:126,1,120,2|8,0:0|0:0,0:0:0:0:
236,200,22871,2,0,P|208:116|236:56,2,120,2|8|0,0:0|0:0|0:0,0:0:0:0:
196,312,23794,1,8,0:0:0:0:
316,292,24102,2,0,L|440:312,1,120,2|8,0:0|0:0,0:0:0:0:
460,256,24564,1,2,0:0:0:0:
424,208,24718,2,0,L|305:188,1,120,0|8,0:0|0:0,0:0:0:0:
284,72,25333,2,0,P|220:92|196:172,1,120,2|8,0:0|0:0,0:0:0:0:
108,216,25948,2,0,L|172:236,1,60,2|2,0:0|0:0,0:0:0:0:
224,216,26256,2,0,L|296:232,1,60,8|2,0:0|0:0,0:0:0:0:
328,268,26564,6,0,P|372:200|356:112,1,120,2|8,0:0|0:0,0:0:0:0:
332,120,27025,1,2,0:0:0:0:
276,96,27179,2,0,L|112:96,1,120,0|8,0:0|0:0,0:0:0:0:
112,208,27794,2,0,L|276:208,1,120,2|8,0:0|0:0,0:0:0:0:
292,192,28256,1,2,0:0:0:0:
340,156,28410,2,0,P|376:204|452:224,1,120,2|8,0:0|0:0,0:0:0:0:
344,308,29025,6,0,L|192:324,1,120,2|8,0:0|0:0,0:0:0:0:
144,228,29641,2,0,L|124:148,2,60,0|2|8,0:0|0:0|0:0,0:0:0:0:
256,180,30256,2,0,L|270:238,2,60,2|2|8,0:0|0:0|0:0,0:0:0:0:
348,104,30871,2,0,L|368:180,1,60,2|2,0:0|0:0,0:0:0:0:
420,184,31179,2,0,L|436:252,1,60,8|8,0:0|0:0,0:0:0:0:
408,296,31487,6,0,P|340:296|284:348,1,120,4|8,0:0|0:0,0:0:0:0:
236,332,31948,1,2,0:0:0:0:
188,296,32102,2,0,B|172:240|172:240|192:168,1,120,2|8,0:0|0:0,0:0:0:0:
280,104,32718,2,0,B|293:161|293:161|280:224,1,120,2|8,0:0|0:0,0:0:0:0:
236,332,33333,2,0,L|396:332,1,120,2|8,0:0|0:0,0:0:0:0:
392,216,33948,6,0,B|404:160|404:160|392:84,1,120,2|8,0:0|0:0,0:0:0:0:
344,68,34410,1,2,0:0:0:0:
284,68,34564,2,0,L|112:68,1,120,2|8,0:0|0:0,0:0:0:0:
176,188,35179,2,0,P|200:260|168:324,1,120,2|8,0:0|0:0,0:0:0:0:
300,260,35794,2,0,L|284:196,1,60,2|2,0:0|0:0,0:0:0:0:
320,152,36102,2,0,L|340:80,1,60,8|2,0:0|0:0,0:0:0:0:
368,44,36410,6,0,P|300:64|220:24,1,120,4|8,0:0|0:0,0:0:0:0:
196,44,36871,1,2,0:0:0:0:
144,76,37025,2,0,P|124:152|144:224,1,120,2|8,0:0|0:0,0:0:0:0:
220,272,37641,2,0,P|236:204|212:136,1,120,2|8,0:0|0:0,0:0:0:0:
276,128,38102,1,2,0:0:0:0:
336,136,38256,2,0,L|420:164,1,60,2|2,0:0|0:0,0:0:0:0:
412,212,38564,1,8,0:0:0:0:
316,284,38871,6,0,P|248:264|192:328,1,120,2|8,0:0|0:0,0:0:0:0:
160,264,39333,1,2,0:0:0:0:
172,216,39487,1,2,0:0:0:0:
240,132,39794,2,0,P|208:84|124:88,2,120,8|2|8,0:0|0:0|0:0,0:0:0:0:
204,232,40718,2,0,P|252:240|300:224,1,60,8|8,0:0|0:0,0:0:0:0:
312,216,41025,2,0,P|344:208|384:220,1,60,8|4,3:0|3:0,0:0:0:0:
416,244,41333,6,0,P|428:152|296:72,1,240,4|2,0:0|0:0,0:0:0:0:
224,112,42256,2,0,P|184:128|144:136,1,60,2|8,0:0|0:0,0:0:0:0:
204,232,42718,2,0,P|231:220|260:211,1,60,2|8,0:0|0:0,0:0:0:0:
368,196,43179,2,0,P|408:252|484:264,1,120,8|8,0:0|0:0,0:0:0:0:
460,152,43794,6,0,P|408:68|348:68,1,120,2|8,0:0|0:0,0:0:0:0:
336,64,44256,2,0,P|284:92|184:84,1,120,8|2,0:0|0:0,0:0:0:0:
164,92,44718,2,0,P|140:96|96:120,1,60,8|8,0:0|0:0,0:0:0:0:
100,172,45025,6,0,P|88:244|128:316,1,120,2|8,0:0|0:0,0:0:0:0:
220,316,45641,2,0,P|272:324|300:312,1,60,2|2,3:0|3:0,3:0:0:0:
328,288,45948,2,0,P|357:285|386:294,1,60,8|4,3:0|3:0,3:0:0:0:
440,320,46256,6,0,P|452:256|424:164,1,120,4|8,0:0|0:0,0:0:0:0:
396,164,46718,1,2,0:0:0:0:
432,116,46871,2,0,P|420:76|416:40,1,60,8|2,0:0|0:0,0:0:0:0:
368,24,47179,1,0,0:0:0:0:
236,56,47487,6,0,P|204:76|152:80,1,60,8|2,0:0|0:0,0:0:0:0:
124,80,47794,2,0,P|76:68|52:44,1,60,8|2,0:0|0:0,0:0:0:0:
28,20,48102,2,0,B|56:76|56:76|8:168,1,120,8|8,0:0|0:0,0:0:0:0:
112,256,48718,6,0,P|152:264|188:252,1,60,12|2,0:0|0:0,0:0:0:0:
220,228,49025,2,0,P|256:216|304:232,1,60,8|2,0:0|0:0,0:0:0:0:
332,240,49333,2,0,P|352:188|352:148,2,60,8|8|2,0:0|0:0|0:0,0:0:0:0:
285,279,49794,2,0,P|213:255|121:283,1,120,4|2,0:0|0:0,0:0:0:0:
108,264,50256,2,0,P|96:184|120:108,1,120,8|2,0:0|0:0,0:0:0:0:
148,104,50718,1,2,0:0:0:0:
148,104,50871,2,0,P|192:116|240:112,1,60,8|2,0:0|0:0,0:0:0:0:
272,132,51179,6,0,L|364:84,2,60,8|8|2,0:0|0:0|0:0,0:0:0:0:
264,196,51641,2,0,L|356:216,2,60,8|8|2,0:0|0:0|0:0,0:0:0:0:
224,240,52102,2,0,L|288:304,2,60,8|8|2,0:0|0:0|0:0,0:0:0:0:
172,272,52564,2,0,L|196:332,2,60,8|8|2,0:0|0:0|0:0,0:0:0:0:
112,284,53025,2,0,L|104:356,2,60,8|8|2,0:0|0:0|0:0,0:0:0:0:
84,228,53487,1,8,0:0:0:0:
144,228,53641,6,0,P|216:204|280:216,1,120,4|8,0:0|0:0,0:0:0:0:
296,256,54102,2,0,P|360:280|432:272,1,120,4|8,0:0|0:0,0:0:0:0:
464,252,54564,2,0,P|464:176|432:104,1,120,4|8,0:0|0:0,0:0:0:0:
396,112,55025,2,0,P|344:152|272:176,1,120,4|8,0:0|0:0,0:0:0:0:
80,164,56102,6,0,P|112:224|112:312,1,120,4|8,0:0|0:0,0:0:0:0:
236,296,56718,2,0,P|296:316|340:308,2,60,2|2|8,0:0|0:0|0:0,0:0:0:0:
308,200,57333,2,0,L|476:172,1,120,0|8,0:0|0:0,0:0:0:0:
410,296,57948,2,0,L|291:315,1,120,2|8,0:0|0:0,0:0:0:0:
184,260,58564,6,0,L|160:92,1,120,2|8,0:0|0:0,0:0:0:0:
252,56,59179,1,2,0:0:0:0:
252,56,59333,2,0,L|268:152,1,60,2|8,0:0|0:0,0:0:0:0:
332,212,59794,2,0,P|400:244|472:208,2,120,2|8|2,0:0|0:0|0:0,0:0:0:0:
276,188,60564,1,2,0:0:0:0:
276,188,60718,2,0,L|200:204,1,60,8|8,0:0|0:0,0:0:0:0:
160,216,61025,6,0,P|152:156|92:92,1,120,2|8,0:0|0:0,0:0:0:0:
172,80,61487,2,0,L|256:84,1,60,8|2,0:0|0:0,0:0:0:0:
352,72,61948,2,0,B|372:128|372:128|344:200,2,120,8|2|8,0:0|0:0|0:0,0:0:0:0:
252,140,62871,2,0,P|216:156|116:152,1,120,2|8,0:0|0:0,0:0:0:0:
60,252,63487,2,0,P|108:300|200:312,2,120,2|8|2,0:0|0:0|0:0,0:0:0:0:
52,192,64256,1,2,0:0:0:0:
72,136,64410,1,8,0:0:0:0:
164,60,64718,2,0,B|224:48|224:48|296:68,1,120,2|8,0:0|0:0,0:0:0:0:
284,184,65333,2,0,P|240:192|196:176,1,60,8|8,0:0|0:0,0:0:0:0:
168,168,65641,2,0,P|128:164|72:192,1,60,8|8,0:0|0:0,0:0:0:0:
60,204,65948,6,0,P|92:264|172:272,1,120,4|8,0:0|0:0,0:0:0:0:
240,212,66564,2,0,P|316:240|328:308,1,120,2|8,0:0|0:0,0:0:0:0:
332,332,67025,2,0,P|408:308|440:228,1,120,2|0,0:0|0:0,0:0:0:0:
412,220,67487,1,8,0:0:0:0:
324,136,67794,6,0,P|328:68|392:20,1,120,2|8,0:0|0:0,0:0:0:0:
392,148,68410,2,0,L|236:176,1,120,2|8,0:0|0:0,0:0:0:0:
156,180,69025,2,0,L|76:148,2,60,2|2|8,0:0|0:0|0:0,0:0:0:0:
268,224,69641,2,0,P|280:260|264:340,1,120,2|8,0:0|0:0,0:0:0:0:
160,280,70256,2,0,L|80:284,1,60,2|2,0:0|0:0,0:0:0:0:
44,256,70564,1,8,0:0:0:0:
124,168,70871,6,0,P|132:124|228:80,1,120,4|8,0:0|0:0,0:0:0:0:
288,148,71487,2,0,P|352:180|380:180,2,60,2|2|8,0:0|0:0|0:0,0:0:0:0:
196,224,72102,2,0,L|236:344,1,120,2|8,0:0|0:0,0:0:0:0:
112,340,72718,2,0,L|74:226,1,120,2|8,0:0|0:0,0:0:0:0:
148,132,73333,6,0,P|232:104|276:128,1,120,2|8,0:0|0:0,0:0:0:0:
312,140,73794,2,0,P|332:224|296:296,1,120,0|2,0:0|0:0,0:0:0:0:
272,284,74256,1,8,0:0:0:0:
164,232,74564,6,0,L|132:168,2,60,2|2|8,0:0|0:0|0:0,0:0:0:0:
164,292,75025,1,8,0:0:0:0:
136,344,75179,6,0,B|184:312|240:340|240:340|336:340,1,180,2|0,0:0|0:0,0:0:0:0:
364,304,75794,6,0,P|372:228|324:152,1,120,4|8,0:0|0:0,0:0:0:0:
236,168,76410,2,0,L|132:192,2,60,2|2|8,0:0|0:0|0:0,0:0:0:0:
296,180,76871,1,2,0:0:0:0:
356,188,77025,2,0,P|260:224|236:284,1,120,2|8,0:0|0:0,0:0:0:0:
304,344,77641,2,0,P|362:336|407:297,1,120,2|8,0:0|0:0,0:0:0:0:
448,184,78256,6,0,P|464:120|428:52,1,120,2|8,0:0|0:0,0:0:0:0:
392,44,78718,2,0,L|240:44,1,120,0|2,0:0|0:0,0:0:0:0:
220,76,79179,1,8,0:0:0:0:
144,168,79487,2,0,B|116:216|116:216|156:304,1,120,2|8,0:0|0:0,0:0:0:0:
252,276,80102,2,0,B|228:331,2,60,2|2|8,0:0|0:0|0:0,0:0:0:0:
212,172,80718,6,0,P|292:160|372:196,1,120,4|8,0:0|0:0,0:0:0:0:
448,144,81333,2,0,L|444:208,2,60,2|2|8,0:0|0:0|0:0,0:0:0:0:
352,72,81948,2,0,P|288:76|200:68,1,120,4|8,0:0|0:0,0:0:0:0:
164,172,82564,2,0,P|224:168|284:172,1,120,2|8,0:0|0:0,0:0:0:0:
388,232,83179,6,0,P|396:276|388:360,1,120,4|8,0:0|0:0,0:0:0:0:
276,316,83794,2,0,L|208:320,2,60,2|2|8,0:0|0:0|0:0,0:0:0:0:
316,204,84410,2,0,L|392:196,2,60,2|0|8,0:0|0:0|0:0,0:0:0:0:
256,192,84871,1,2,0:0:0:0:
204,160,85025,2,0,P|192:112|200:76,1,60,8|2,0:0|0:0,0:0:0:0:
240,64,85333,2,0,P|272:48|316:52,1,60,8|2,0:0|0:0,0:0:0:0:
352,68,85641,6,0,L|328:228,1,120,4|8,0:0|0:0,0:0:0:0:
312,240,86102,6,0,B|256:224|256:224|152:248,1,120,4|8,0:0|0:0,0:0:0:0:
176,180,86564,6,0,L|158:61,1,120,4|8,0:0|0:0,0:0:0:0:
200,104,87025,6,0,B|256:120|256:120|360:96,1,120,4|8,0:0|0:0,0:0:0:0:
356,152,87487,6,0,L|336:224,3,60,4|4|8|4,0:0|0:0|0:0|0:0,0:0:0:0:
