osu file format v14

[General]
AudioFilename: audio.mp3
AudioLeadIn: 0
PreviewTime: 55487
Countdown: 0
SampleSet: Normal
StackLeniency: 0.7
Mode: 0
LetterboxInBreaks: 0
WidescreenStoryboard: 1

[Editor]
DistanceSpacing: 1
BeatDivisor: 4
GridSize: 4
TimelineZoom: 1.2

[Metadata]
Title:Rising Rainbow (TV Size)
TitleUnicode:ライジングレインボウ (TV Size)
Artist:Misokkasu
ArtistUnicode:ミソッカス
Creator:Suzuki_1112
Version:Hard
Source:食戟のソーマ
Tags:soma shokugeki opening anime food wars tv size no op2 single 1112deng _Yiiiii
BeatmapID:1191604
BeatmapSetID:563540

[Difficulty]
HPDrainRate:5.4
CircleSize:3.8
OverallDifficulty:6
ApproachRate:7.4
SliderMultiplier:1.4
SliderTickRate:1

[Events]
//Background and Video events
0,0,"psb.jpg",0,0
Video,0,"optc (1).flv"
//Break Periods
//Storyboard Layer 0 (Background)
//Storyboard Layer 1 (Fail)
//Storyboard Layer 2 (Pass)
//Storyboard Layer 3 (Foreground)
//Storyboard Sound Samples

[TimingPoints]
718,307.692307692308,4,2,1,100,1,0
718,-100,4,2,1,100,0,0
2564,-100,4,2,0,100,0,0
3487,-100,4,1,1,100,0,0
4718,-100,4,2,0,100,0,0
5641,-100,4,1,1,100,0,0
6871,-100,4,1,1,100,0,0
11179,-200,4,2,0,100,0,0
11794,-100,4,1,1,100,0,0
21641,-100,4,2,1,100,0,0
55487,-200,4,2,0,100,0,0
56102,-100,4,1,1,100,0,1
75179,-200,4,2,0,100,0,0
75794,-100,4,1,1,100,0,0

[Colours]
Combo1 : 255,192,0
Combo2 : 0,128,255
Combo3 : 255,255,0
Combo4 : 255,128,128

[HitObjects]
168,96,1333,6,0,P|132:148|40:164,2,140,0|0|4,0:0|0:0|1:0,0:0:0:0:
376,44,2564,6,0,P|392:104|380:200,1,140,2|2,0:0|0:0,0:0:0:0:
336,240,3025,1,2,0:0:0:0:
212,268,3487,6,0,L|116:280,1,70,2|0,1:0|1:0,0:0:0:0:
60,252,3794,2,0,P|32:200|36:164,1,70,2|0,1:0|1:0,0:0:0:0:
76,116,4102,2,0,L|156:104,1,70,2|0,1:0|1:0,0:0:0:0:
204,168,4410,1,4,1:0:0:0:
312,104,4718,1,2,0:0:0:0:
312,104,5333,5,2,0:0:0:0:
408,160,5641,2,0,L|456:144,5,35,2|0|0|0|2|0,0:0|0:0|0:0|0:0|0:0|0:0,0:0:0:0:
408,160,6102,2,0,L|364:156,5,35,0|0|2|0|0|0,0:0|0:0|0:0|0:0|0:0|0:0,0:0:0:0:
408,208,6564,1,2,0:0:0:0:
360,320,6871,6,0,P|312:328|204:312,1,140,4|2,0:0|0:0,0:0:0:0:
256,232,7333,1,0,0:0:0:0:
164,244,7487,2,0,P|120:248|64:240,1,70,2|0,0:0|0:0,0:0:0:0:
68,168,7794,2,0,P|60:120|72:88,1,70,2|0,0:0|0:0,0:0:0:0:
148,52,8102,2,0,P|156:92|144:144,1,70,2|0,0:0|0:0,0:0:0:0:
216,176,8410,2,0,L|300:172,1,70,0|0,0:0|0:0,0:0:0:0:
380,152,8718,2,0,P|364:200|376:244,1,70,2|0,0:0|0:0,0:0:0:0:
404,288,9025,2,0,L|324:300,1,70
248,300,9333,6,0,P|208:252|192:152,1,140,4|0,0:0|0:0,0:0:0:0:
260,96,9794,2,0,P|204:116|104:96,1,140,4|0,0:0|0:0,0:0:0:0:
44,68,10256,2,0,P|84:124|88:216,1,140,4|0,0:0|0:0,0:0:0:0:
32,280,10718,2,0,P|96:240|180:248,1,140,4|0,0:0|0:0,0:0:0:0:
248,252,11179,6,0,P|304:272|356:272,1,105,2|0,0:0|0:0,0:0:0:0:
412,220,11794,6,0,P|424:164|396:60,1,140,4|8,0:0|0:0,0:0:0:0:
336,40,12256,1,2,0:0:0:0:
332,120,12410,2,0,P|296:132|248:128,1,70,2|2,0:0|0:0,0:0:0:0:
224,68,12718,1,8,0:0:0:0:
176,136,12871,1,2,0:0:0:0:
220,200,13025,6,0,P|216:264|232:292,1,70,2|0,0:0|0:0,0:0:0:0:
304,268,13333,2,0,P|312:312|304:352,1,70,8|0,0:0|0:0,0:0:0:0:
220,344,13641,2,0,P|176:344|132:328,1,70,2|2,0:0|0:0,0:0:0:0:
136,256,13948,2,0,P|132:208|144:176,1,70,8|2,0:0|0:0,0:0:0:0:
196,128,14256,2,0,P|144:152|68:120,2,140,2|8|0,0:0|0:0|0:0,0:0:0:0:
244,52,15025,1,2,0:0:0:0:
276,136,15179,2,0,P|328:160|352:156,1,70,8|2,0:0|0:0,0:0:0:0:
392,108,15487,6,0,L|352:268,1,140,0|8,0:0|0:0,0:0:0:0:
292,284,15948,1,2,0:0:0:0:
248,220,16102,2,0,L|176:240,1,70,2|2,0:0|0:0,0:0:0:0:
112,164,16410,2,0,L|184:140,1,70,8|2,0:0|0:0,0:0:0:0:
256,108,16718,6,0,P|304:120|352:208,1,140,4|8,0:0|0:0,0:0:0:0:
296,264,17179,1,2,0:0:0:0:
380,272,17333,2,0,P|432:264|456:240,1,70,2|2,0:0|0:0,0:0:0:0:
472,176,17641,2,0,L|456:80,1,70,8|2,0:0|0:0,0:0:0:0:
488,28,17948,6,0,P|432:60|352:56,1,140,2|8,0:0|0:0,0:0:0:0:
284,40,18410,1,0,0:0:0:0:
312,120,18564,2,0,L|332:196,1,70,2|2,0:0|0:0,0:0:0:0:
264,240,18871,2,0,L|240:160,1,70,8|2,0:0|0:0,0:0:0:0:
220,100,19179,6,0,P|152:120|104:200,1,140,4|8,0:0|0:0,0:0:0:0:
120,256,19641,1,0,0:0:0:0:
184,208,19794,2,0,P|208:252|212:280,1,70,2|0,0:0|0:0,0:0:0:0:
248,344,20102,2,0,L|324:328,1,70,8|2,0:0|0:0,0:0:0:0:
376,260,20410,6,0,L|472:224,1,70,2|2,0:0|0:0,0:0:0:0:
400,144,20718,1,8,0:0:0:0:
324,104,20871,1,2,0:0:0:0:
248,152,21025,6,0,L|236:60,1,70,2|2,0:0|0:0,0:0:0:0:
152,40,21333,1,2,0:0:0:0:
160,120,21487,1,2,0:0:0:0:
80,112,21641,6,0,P|56:168|88:248,1,140,4|8,0:0|0:0,0:0:0:0:
156,196,22102,1,0,0:0:0:0:
152,284,22256,2,0,B|220:296|220:296|308:280,1,140,2|8,0:0|0:0,0:0:0:0:
352,232,22718,1,2,0:0:0:0:
400,304,22871,6,0,P|436:244|408:168,1,140,2|8,0:0|0:0,0:0:0:0:
344,148,23333,1,2,0:0:0:0:
276,200,23487,2,0,P|240:232|232:264,1,70,0|2,0:0|0:0,0:0:0:0:
232,332,23794,2,0,L|140:332,1,70,8|2,0:0|0:0,0:0:0:0:
96,280,24102,6,0,P|116:232|72:128,1,140,2|8,0:0|0:0,0:0:0:0:
48,72,24564,1,2,0:0:0:0:
132,80,24718,2,0,B|200:64|200:64|292:84,1,140,0|8,0:0|0:0,0:0:0:0:
332,136,25179,1,0,0:0:0:0:
400,80,25333,6,0,P|412:116|412:160,1,70,2|0,0:0|0:0,0:0:0:0:
372,212,25641,2,0,P|364:256|376:292,1,70,8|0,0:0|0:0,0:0:0:0:
432,336,25948,1,2,0:0:0:0:
352,352,26102,1,2,0:0:0:0:
272,332,26256,1,8,0:0:0:0:
208,288,26410,1,2,0:0:0:0:
188,208,26564,6,0,P|240:204|276:128,1,140,2|8,0:0|0:0,0:0:0:0:
232,52,27025,1,2,0:0:0:0:
176,120,27179,2,0,P|140:132|112:164,1,70,0|2,0:0|0:0,0:0:0:0:
116,228,27487,2,0,P|128:276|160:304,1,70,8|0,0:0|0:0,0:0:0:0:
216,320,27794,6,0,L|356:312,1,140,2|8,0:0|0:0,0:0:0:0:
388,240,28256,1,2,0:0:0:0:
396,160,28410,2,0,P|400:112|396:76,1,70,2|2,0:0|0:0,0:0:0:0:
332,36,28718,2,0,P|288:40|240:56,1,70,8|2,0:0|0:0,0:0:0:0:
252,128,29025,6,0,P|204:144|172:144,1,70,2|0,0:0|0:0,0:0:0:0:
116,112,29333,1,8,0:0:0:0:
120,192,29487,1,2,0:0:0:0:
200,224,29641,2,0,L|216:296,1,70,0|2,0:0|0:0,0:0:0:0:
292,304,29948,1,8,0:0:0:0:
280,224,30102,1,2,0:0:0:0:
236,148,30256,6,0,P|288:132|356:204,1,140,2|8,0:0|0:0,0:0:0:0:
360,268,30718,1,2,0:0:0:0:
432,216,30871,2,0,P|444:164|432:120,1,70,2|2,0:0|0:0,0:0:0:0:
388,68,31179,2,0,P|352:48|304:44,1,70,8|8,0:0|0:0,0:0:0:0:
328,120,31487,6,0,P|284:132|192:104,1,140,4|8,0:0|0:0,0:0:0:0:
128,64,31948,1,2,0:0:0:0:
128,152,32102,2,0,B|160:184|160:184|144:296,1,140,2|8,0:0|0:0,0:0:0:0:
84,336,32564,1,2,0:0:0:0:
176,352,32718,6,0,P|224:340|248:328,1,70,2|0,0:0|0:0,0:0:0:0:
304,268,33025,2,0,P|284:224|252:200,1,70,8|2,0:0|0:0,0:0:0:0:
196,160,33333,2,0,P|240:176|328:144,1,140,2|8,0:0|0:0,0:0:0:0:
388,200,33794,1,2,0:0:0:0:
416,116,33948,6,0,P|456:140|468:232,1,140,2|8,0:0|0:0,0:0:0:0:
396,280,34410,1,2,0:0:0:0:
316,228,34564,2,0,P|304:168|312:144,1,70,2|2,0:0|0:0,0:0:0:0:
324,80,34871,2,0,P|264:72|232:80,1,70,8|2,0:0|0:0,0:0:0:0:
228,152,35179,2,0,P|168:164|92:128,1,140,2|8,0:0|0:0,0:0:0:0:
96,132,35794,1,2,0:0:0:0:
68,212,35948,1,2,0:0:0:0:
144,256,36102,1,8,0:0:0:0:
116,332,36256,1,2,0:0:0:0:
196,320,36410,6,0,P|252:336|324:284,1,140,4|8,0:0|0:0,0:0:0:0:
348,220,36871,1,2,0:0:0:0:
292,160,37025,2,0,P|292:112|308:80,1,70,2|2,0:0|0:0,0:0:0:0:
408,40,37333,2,0,P|412:92|392:128,1,70,8|2,0:0|0:0,0:0:0:0:
292,160,37641,2,0,L|432:184,1,140,2|8,0:0|0:0,0:0:0:0:
488,252,38102,1,2,0:0:0:0:
472,336,38256,2,0,P|416:352|376:348,1,70,2|2,0:0|0:0,0:0:0:0:
312,276,38564,2,0,P|264:280|216:296,1,70,8|2,0:0|0:0,0:0:0:0:
172,332,38871,6,0,P|144:284|172:176,1,140,2|8,0:0|0:0,0:0:0:0:
232,192,39333,1,2,0:0:0:0:
184,120,39487,2,0,P|112:104|56:144,1,140,2|8,0:0|0:0,0:0:0:0:
80,224,39948,1,2,0:0:0:0:
156,272,40102,2,0,P|196:296|224:296,1,70,2|2,0:0|0:0,0:0:0:0:
248,204,40410,2,0,P|200:180|160:188,1,70,8|2,0:0|0:0,0:0:0:0:
152,108,40718,6,0,L|144:72,3,35,8|0|8|0,0:0|0:0|0:0|0:0,0:0:0:0:
196,120,41025,2,0,L|184:172,3,35,8|0|4|0,3:0|0:0|3:0|0:0,0:0:0:0:
224,88,41333,6,0,P|308:76|368:108,2,140,4|0|2,0:0|0:0|0:0,0:0:0:0:
132,280,42256,5,2,0:0:0:0:
136,284,42410,2,0,P|188:292|264:228,1,140,8|2,0:0|0:0,0:0:0:0:
312,300,42871,2,0,P|344:264|440:268,1,140,8|8,0:0|0:0,0:0:0:0:
488,192,43333,1,0,0:0:0:0:
428,128,43487,1,8,0:0:0:0:
368,192,43641,1,0,0:0:0:0:
276,184,43794,6,0,P|220:192|156:256,1,140,2|8,0:0|0:0,0:0:0:0:
124,104,44410,1,0,0:0:0:0:
200,40,44564,2,0,P|220:92|196:180,1,140,2|8,0:0|0:0,0:0:0:0:
272,304,45179,1,0,0:0:0:0:
352,336,45333,2,0,L|360:236,1,70,8|0,0:0|0:0,0:0:0:0:
336,152,45641,6,0,L|380:168,3,35,2|0|2|0,3:0|0:0|3:0|0:0,0:0:0:0:
300,116,45948,2,0,L|348:96,3,35,8|0|4|0,3:0|0:0|3:0|0:0,0:0:0:0:
288,160,46256,6,0,P|228:188|144:156,1,140,4|8,0:0|0:0,0:0:0:0:
88,104,46718,1,2,0:0:0:0:
84,196,46871,2,0,L|12:180,1,70,8|2,0:0|0:0,0:0:0:0:
28,272,47179,2,0,L|112:288,1,70,8|0,0:0|0:0,0:0:0:0:
168,240,47487,5,8,0:0:0:0:
240,288,47641,1,2,0:0:0:0:
272,204,47794,2,0,P|280:160|272:124,1,70,8|2,0:0|0:0,0:0:0:0:
232,64,48102,1,8,0:0:0:0:
312,44,48256,1,0,0:0:0:0:
392,92,48410,2,0,L|400:192,1,70,8|0,0:0|0:0,0:0:0:0:
472,196,48718,6,0,P|484:244|476:288,1,70,12|2,0:0|0:0,0:0:0:0:
400,288,49025,2,0,P|388:336|364:364,1,70,8|2,0:0|0:0,0:0:0:0:
304,304,49333,1,8,0:0:0:0:
240,252,49487,1,8,0:0:0:0:
228,336,49641,1,2,0:0:0:0:
172,284,49794,6,0,P|164:196|196:156,1,140,4|2,0:0|0:0,0:0:0:0:
280,112,50256,2,0,P|244:68|212:56,1,70,8|0,0:0|0:0,0:0:0:0:
340,168,50564,2,0,P|388:132|396:104,1,70,2|2,0:0|0:0,0:0:0:0:
444,64,50871,1,8,0:0:0:0:
472,152,51025,1,2,0:0:0:0:
408,224,51179,6,0,L|436:252,5,35,8|0|8|0|2|0,0:0|0:0|0:0|0:0|0:0|0:0,0:0:0:0:
360,292,51641,2,0,L|376:352,5,35,8|0|8|0|2|0,0:0|0:0|0:0|0:0|0:0|0:0,0:0:0:0:
276,328,52102,2,0,L|264:368,5,35,8|0|8|0|2|0,0:0|0:0|0:0|0:0|0:0|0:0,0:0:0:0:
184,316,52564,2,0,L|144:344,5,35,8|0|8|0|2|0,0:0|0:0|0:0|0:0|0:0|0:0,0:0:0:0:
112,264,53025,2,0,L|64:264,4,35,8|0|8|0|2,0:0|0:0|0:0|0:0|0:0,0:0:0:0:
168,144,53641,6,0,P|236:128|316:152,1,140,4|8,0:0|0:0,0:0:0:0:
300,248,54102,2,0,P|232:268|156:240,1,140,4|8,0:0|0:0,0:0:0:0:
108,192,54564,2,0,L|136:352,1,140,4|8,0:0|0:0,0:0:0:0:
220,344,55025,2,0,L|388:352,1,140,4|8,0:0|0:0,0:0:0:0:
416,280,55487,6,0,P|424:248|416:200,1,70,2|2,0:0|0:0,0:0:0:0:
392,104,56102,6,0,P|360:132|256:104,1,140,4|8,0:0|0:0,0:0:0:0:
208,64,56564,1,2,0:0:0:0:
176,144,56718,2,0,P|168:192|180:228,1,70,2|2,0:0|0:0,0:0:0:0:
252,252,57025,2,0,L|328:264,1,70,8|2,0:0|0:0,0:0:0:0:
404,212,57333,2,0,P|360:256|360:356,1,140,0|8,0:0|0:0,0:0:0:0:
272,344,57794,1,2,0:0:0:0:
188,320,57948,2,0,L|100:304,1,70,2|0,0:0|0:0,0:0:0:0:
88,208,58256,2,0,L|168:224,1,70,8|2,0:0|0:0,0:0:0:0:
240,232,58564,6,0,P|232:168|152:132,2,140,2|8|2,0:0|0:0|0:0,0:0:0:0:
304,288,59333,1,2,0:0:0:0:
372,232,59487,1,8,0:0:0:0:
304,160,59641,1,2,0:0:0:0:
368,100,59794,6,0,P|320:116|228:64,2,140,2|8|2,0:0|0:0|0:0,0:0:0:0:
436,48,60564,1,2,0:0:0:0:
476,132,60718,2,0,P|484:176|476:208,1,70,8|8,0:0|0:0,0:0:0:0:
460,284,61025,6,0,P|400:304|320:256,2,140,2|8|2,0:0|0:0|0:0,0:0:0:0:
476,200,61794,1,2,0:0:0:0:
420,148,61948,2,0,P|396:192|400:228,1,70,8|2,0:0|0:0,0:0:0:0:
336,276,62256,2,0,L|248:288,1,70,2|2,0:0|0:0,0:0:0:0:
208,208,62564,2,0,L|308:196,1,70,8|2,0:0|0:0,0:0:0:0:
360,200,62871,1,2,0:0:0:0:
312,128,63025,1,2,0:0:0:0:
232,128,63179,1,8,0:0:0:0:
160,88,63333,1,2,0:0:0:0:
156,172,63487,6,0,P|136:228|168:320,1,140,2|8,0:0|0:0,0:0:0:0:
224,252,63948,1,0,0:0:0:0:
276,316,64102,2,0,L|436:312,1,140,2|8,0:0|0:0,0:0:0:0:
432,232,64564,1,2,0:0:0:0:
420,140,64718,2,0,B|352:156|352:156|260:136,1,140,2|8,0:0|0:0,0:0:0:0:
232,56,65179,1,2,0:0:0:0:
192,136,65333,2,0,P|176:200|184:236,1,70,8|8,0:0|0:0,0:0:0:0:
216,284,65641,2,0,L|264:268,3,35,8|8|8|8,0:0|0:0|0:0|0:0,0:0:0:0:
176,292,65948,6,0,P|112:308|40:284,2,140,4|8|2,0:0|0:0|0:0,0:0:0:0:
208,212,66718,1,0,0:0:0:0:
264,268,66871,2,0,P|308:284|340:280,1,70,8|2,0:0|0:0,0:0:0:0:
392,336,67179,2,0,P|416:284|372:208,2,140,2|8|2,0:0|0:0|0:0,0:0:0:0:
312,308,67948,1,2,0:0:0:0:
232,332,68102,1,8,0:0:0:0:
248,256,68256,1,8,0:0:0:0:
324,228,68410,6,0,P|328:180|280:100,1,140,2|8,0:0|0:0,0:0:0:0:
224,172,68871,1,0,0:0:0:0:
224,172,69025,2,0,B|156:184|156:184|64:168,1,140,2|8,0:0|0:0,0:0:0:0:
132,96,69487,1,2,0:0:0:0:
228,88,69641,6,0,P|284:88|312:104,1,70,2|2,0:0|0:0,0:0:0:0:
360,152,69948,2,0,P|376:192|368:236,1,70,8|2,0:0|0:0,0:0:0:0:
356,300,70256,2,0,L|280:312,1,70,2|2,0:0|0:0,0:0:0:0:
200,248,70564,2,0,L|296:232,1,70,8|2,0:0|0:0,0:0:0:0:
344,216,70871,6,0,P|316:148|240:132,2,140,4|8|2,0:0|0:0|0:0,0:0:0:0:
412,280,71641,1,2,0:0:0:0:
452,200,71794,2,0,L|464:128,1,70,8|2,0:0|0:0,0:0:0:0:
488,48,72102,6,0,P|448:72|336:60,1,140,2|8,0:0|0:0,0:0:0:0:
280,40,72564,1,0,0:0:0:0:
300,124,72718,2,0,P|308:164|296:208,1,70,2|2,0:0|0:0,0:0:0:0:
200,252,73025,2,0,P|192:204|200:172,1,70,8|2,0:0|0:0,0:0:0:0:
236,116,73333,6,0,P|200:152|108:132,2,140,2|8|0,0:0|0:0|0:0,0:0:0:0:
260,36,74102,1,2,0:0:0:0:
320,96,74256,2,0,L|304:180,1,70,8|2,0:0|0:0,0:0:0:0:
320,256,74564,6,0,L|360:264,3,35,2|0|2|0,0:0|0:0|0:0|0:0,0:0:0:0:
232,288,74871,2,0,L|256:324,3,35,8|0|8|0,0:0|0:0|0:0|0:0,0:0:0:0:
152,272,75179,6,0,L|180:160,1,105,2|0,0:0|0:0,0:0:0:0:
236,112,75794,6,0,P|188:136|96:88,1,140,4|8,0:0|0:0,0:0:0:0:
176,44,76256,1,2,0:0:0:0:
236,112,76410,2,0,P|252:160|244:204,2,70,2|2|8,0:0|0:0|0:0,0:0:0:0:
280,36,76871,1,2,0:0:0:0:
336,100,77025,6,0,L|408:112,1,70,2|0,0:0|0:0,0:0:0:0:
444,204,77333,2,0,L|360:192,1,70,8|2,0:0|0:0,0:0:0:0:
304,260,77641,1,2,0:0:0:0:
288,164,77794,1,2,0:0:0:0:
216,224,77948,2,0,P|180:232|128:224,1,70,8|8,0:0|0:0,0:0:0:0:
88,184,78256,6,0,L|140:336,2,140,2|8|2,0:0|0:0|0:0,0:0:0:0:
128,100,79025,1,2,0:0:0:0:
192,152,79179,1,8,0:0:0:0:
188,240,79333,1,2,0:0:0:0:
256,204,79487,6,0,P|332:228|392:200,2,140,2|8|2,0:0|0:0|0:0,0:0:0:0:
320,136,80256,1,2,0:0:0:0:
236,116,80410,1,8,0:0:0:0:
172,176,80564,1,8,0:0:0:0:
196,260,80718,6,0,P|240:288|232:376,1,140,4|8,0:0|0:0,0:0:0:0:
144,336,81179,1,0,0:0:0:0:
104,260,81333,2,0,P|96:212|108:176,1,70,2|2,0:0|0:0,0:0:0:0:
140,112,81641,2,0,P|192:104|240:116,1,70,8|2,0:0|0:0,0:0:0:0:
288,64,81948,6,0,P|276:104|296:152,1,70,4|2,0:0|0:0,0:0:0:0:
368,168,82256,2,0,P|380:208|364:252,1,70,8|2,0:0|0:0,0:0:0:0:
308,296,82564,2,0,L|228:308,1,70,2|2,0:0|0:0,0:0:0:0:
140,236,82871,2,0,L|224:220,1,70,8|2,0:0|0:0,0:0:0:0:
288,200,83179,6,0,P|256:152|176:140,2,140,4|8|2,0:0|0:0|0:0,0:0:0:0:
296,280,83948,1,2,0:0:0:0:
376,224,84102,1,8,0:0:0:0:
344,136,84256,1,2,0:0:0:0:
420,76,84410,6,0,P|368:92|280:64,1,140,2|8,0:0|0:0,0:0:0:0:
216,112,84871,1,2,0:0:0:0:
128,104,85025,2,0,L|104:52,3,35,8|0|2|0,0:0|0:0|0:0|0:0,0:0:0:0:
132,144,85333,2,0,L|112:236,1,70,8|2,0:0|0:0,0:0:0:0:
96,308,85641,6,0,L|192:296,1,70,4|0,0:0|0:0,0:0:0:0:
248,336,85948,1,8,0:0:0:0:
320,272,86102,6,0,P|332:228|320:192,1,70,4|0,0:0|0:0,0:0:0:0:
284,132,86410,1,8,0:0:0:0:
224,200,86564,6,0,P|176:212|132:208,1,70,4|0,0:0|0:0,0:0:0:0:
84,168,86871,1,8,0:0:0:0:
144,112,87025,6,0,L|192:44,1,70,4|0,0:0|0:0,0:0:0:0:
272,48,87333,1,8,0:0:0:0:
340,108,87487,5,4,0:0:0:0:
316,188,87641,1,4,0:0:0:0:
376,248,87794,1,8,0:0:0:0:
352,328,87948,1,4,0:0:0:0:
