osu file format v14

[General]
AudioFilename: audio.mp3
AudioLeadIn: 0
PreviewTime: 55207
Countdown: 0
SampleSet: Soft
StackLeniency: 0.7
Mode: 0
LetterboxInBreaks: 0
WidescreenStoryboard: 1

[Editor]
DistanceSpacing: 1
BeatDivisor: 4
GridSize: 32
TimelineZoom: 2.1

[Metadata]
Title:Rising Rainbow (TV Size)
TitleUnicode:ライジングレインボウ (TV Size)
Artist:Misokkasu
ArtistUnicode:ミソッカス
Creator:Ryuusei Aika
Version:Nevo's Extra
Source:食戟のソーマ
Tags:not your japanese kitty anime freezinganimenz sanayui kyouren gokugohan12468 kittyadventure nevo soma shokugeki opening food wars no op2 souma rock jrock j-rock 反逆の♭m7
BeatmapID:4452287
BeatmapSetID:2106308

[Difficulty]
HPDrainRate:6
CircleSize:4
OverallDifficulty:9
ApproachRate:9.3
SliderMultiplier:1.7
SliderTickRate:1

[Events]
//Background and Video events
0,0,"bg.jpg",0,0
Video,0,"shokugeki_op2.mp4"
//Break Periods
//Storyboard Layer 0 (Background)
//Storyboard Layer 1 (Fail)
//Storyboard Layer 2 (Pass)
//Storyboard Layer 3 (Foreground)
//Storyboard Layer 4 (Overlay)
//Storyboard Sound Samples

[TimingPoints]
1039,342.857142857143,4,2,1,75,1,0
1039,-133.333333333333,4,2,1,75,0,0
1673,304.568527918782,4,2,1,75,1,0
1673,-133.333333333333,4,2,1,75,0,0
4104,333.333333333334,4,2,1,75,1,0
4104,-100,4,2,1,75,0,0
4437,375.000000000001,4,2,1,75,1,0
5005,363.636363636365,4,2,1,75,1,0
5005,-133.333333333333,4,2,1,75,0,0
5360,292.682926829268,4,2,1,75,1,0
5360,-100,4,2,1,75,0,0
6238,324.324324324324,4,2,1,75,1,0
6562,324.324324324325,4,2,1,75,1,0
6562,-100,4,2,1,75,0,0
6886,307.692307692308,4,2,1,75,1,0
9041,315.789473684211,4,2,1,75,1,0
9041,-83.3333333333333,4,2,1,75,0,0
10900,307.692307692308,4,2,1,75,1,0
10900,-142.857142857143,4,2,1,75,0,0
11438,-142.857142857143,4,2,1,5,0,0
11515,307.692307692308,4,2,1,70,1,0
11515,-86.9565217391304,4,2,1,70,0,0
21351,307.692307692308,4,2,1,70,1,0
31197,-90.9090909090909,4,2,1,70,0,0
41043,-90.9090909090909,4,2,1,75,0,0
42274,-111.111111111111,4,2,1,75,0,0
49504,-83.3333333333333,4,2,1,75,0,0
55197,-100,4,2,1,75,0,0
55812,-83.3333333333333,4,2,1,80,0,1
63197,-83.3333333333333,4,2,1,90,0,1
65043,-83.3333333333333,4,2,1,80,0,1
74889,-117.647058823529,4,2,1,70,0,0
75504,-100,4,2,1,70,0,0
84438,357.142857142857,4,2,1,70,1,0
84438,-100,4,2,1,70,0,0
84616,285.714285714285,4,2,1,70,1,0
84616,-100,4,2,1,70,0,0
84908,285.714285714286,4,2,1,70,1,0
84908,-100,4,2,1,70,0,0
85385,307.692307692308,4,2,1,70,1,0
85385,-94.3396226415094,4,2,1,70,0,0
85674,307.692307692308,4,2,1,70,1,0
85674,-100,4,2,1,70,0,0
86289,-94.3396226415094,4,2,1,70,0,0
86577,365.853658536585,4,2,1,70,1,0
86577,-100,4,2,1,70,0,0
86759,285.714285714286,4,2,1,70,1,0
86759,-100,4,2,1,70,0,0
87043,307.692307692308,4,2,1,70,1,0
87043,-100,4,2,1,70,0,0

[Colours]
Combo1 : 65,218,206
Combo2 : 128,128,128
Combo3 : 203,47,51
Combo4 : 192,192,192

[HitObjects]
71,282,1039,6,2,L|165:264,1,95.6250036478044,0|0,0:0|0:0,0:0:0:0:
219,310,1381,2,0,L|148:301,1,63.7500024318696
418,156,1673,1,6,3:2:0:0:
418,156,2282,2,0,P|443:183|455:232,1,63.1027918781727
318,143,2586,1,0,0:0:0:0:
318,143,2738,2,0,P|325:108|410:57,1,127.500004863739
361,226,3195,5,10,0:2:0:0:
256,36,3500,1,10,0:2:0:0:
151,226,3804,1,10,0:2:0:0:
256,132,4104,1,14,0:2:0:0:
256,132,5005,2,0,L|247:206,1,63.7500024318696
51,324,5360,5,8,0:2:0:0:
78,291,5433,1,8,0:2:0:0:
115,272,5506,1,8,0:2:0:0:
157,270,5579,1,8,0:2:0:0:
197,284,5652,1,0,3:2:0:0:
232,297,5725,1,0,3:2:0:0:
274,294,5799,1,0,3:2:0:0:
311,275,5872,1,0,3:2:0:0:
337,242,5945,2,0,L|343:181,3,42.5,0|0|0|0,3:2|3:2|3:2|3:2,0:0:0:0:
355,54,6238,1,8,0:0:0:0:
354,53,6562,6,0,L|263:40,1,85,4|0,3:2|0:0,0:0:0:0:
66,170,6886,5,0,3:0:0:0:
245,121,7039,1,0,3:0:0:0:
51,183,7193,1,0,3:0:0:0:
298,194,7347,1,0,3:0:0:0:
82,77,7501,5,0,3:0:0:0:
142,232,7655,1,0,3:0:0:0:
187,41,7809,1,0,3:0:0:0:
139,251,7962,1,0,3:0:0:0:
386,97,8116,5,0,3:0:0:0:
178,135,8270,1,0,3:0:0:0:
446,180,8424,1,0,3:0:0:0:
259,110,8578,1,0,3:0:0:0:
451,30,8732,5,0,3:0:0:0:
240,198,8886,1,0,3:0:0:0:
504,378,9041,6,0,P|473:341|364:327,1,153,4|0,3:2|0:0,0:0:0:0:
374,323,9356,2,0,L|354:390,1,51,8|0,0:2|0:0,0:0:0:0:
446,180,9514,6,0,P|415:217|306:231,1,153,4|0,3:2|0:0,0:0:0:0:
316,234,9830,2,0,L|296:166,1,51,8|0,0:2|0:0,0:0:0:0:
259,358,9988,6,0,P|228:321|119:307,1,153,4|0,3:2|0:0,0:0:0:0:
129,303,10304,2,0,L|109:370,1,51,8|0,0:2|0:0,0:0:0:0:
203,114,10462,6,0,P|168:179|28:159,1,204,4|0,3:2|0:0,0:0:0:0:
99,38,10900,6,0,B|124:19|124:19|108:112,1,118.999996368408,2|0,0:2|0:0,0:0:0:0:
221,255,11515,6,0,P|277:232|324:228,1,97.7500018644333,6|0,3:2|0:0,0:0:0:0:
481,308,11822,2,0,P|425:285|378:281,1,97.7500018644333,8|0,0:2|0:2,0:0:0:0:
218,159,12130,1,0,3:2:0:0:
291,328,12284,1,0,3:2:0:0:
391,195,12438,1,8,0:2:0:0:
221,255,12591,1,0,0:2:0:0:
322,130,12745,6,0,L|311:250,1,97.7500018644333,0|0,3:0|0:2,0:0:0:0:
216,58,13053,2,0,P|301:36|317:7,1,97.7500018644333,8|0,0:2|0:2,0:0:0:0:
66,2,13361,1,2,3:2:0:0:
143,62,13515,1,0,3:2:0:0:
72,185,13668,2,0,L|60:67,1,97.7500018644333,8|0,0:2|0:2,0:0:0:0:
0,285,13976,6,0,P|62:269|132:329,1,146.62500279665,0|0,3:2|0:0,0:0:0:0:
126,314,14284,2,0,P|184:313|228:285,1,97.7500018644333,8|0,0:2|0:0,0:0:0:0:
301,204,14591,1,0,3:2:0:0:
158,221,14745,1,0,3:2:0:0:
302,311,14899,2,0,L|313:207,1,97.7500018644333,8|0,0:2|0:2,0:0:0:0:
480,97,15207,6,0,P|429:139|384:145,1,97.7500018644333,0|0,3:2|0:2,0:0:0:0:
239,44,15515,2,0,P|293:86|338:92,1,97.7500018644333,10|0,0:2|0:0,0:0:0:0:
496,199,15822,1,0,3:2:0:0:
394,37,15976,1,0,3:2:0:0:
344,187,16130,2,0,B|240:169|240:169|202:188,1,146.62500279665,8|0,0:2|0:0,0:0:0:0:
133,236,16438,6,0,L|15:215,1,97.7500018644333,6|0,3:2|0:0,0:0:0:0:
155,384,16745,2,0,P|194:316|190:268,1,97.7500018644333,8|0,0:2|0:2,0:0:0:0:
110,138,17053,1,0,3:2:0:0:
75,311,17207,1,0,3:2:0:0:
203,187,17361,1,8,0:2:0:0:
36,218,17515,1,0,0:2:0:0:
219,0,17668,6,0,L|204:98,1,97.7500018644333,0|0,3:2|0:0,0:0:0:0:
16,131,17976,2,0,L|1:30,1,97.7500018644333,8|0,0:2|0:2,0:0:0:0:
300,129,18284,1,2,3:2:0:0:
110,138,18438,1,0,3:2:0:0:
320,224,18591,2,0,P|364:206|391:156,1,97.7500018644333,8|0,0:2|0:2,0:0:0:0:
500,333,18899,6,0,L|339:311,1,146.62500279665,6|0,3:2|0:2,0:0:0:0:
354,313,19207,1,8,0:2:0:0:
300,129,19361,1,2,0:2:0:0:
267,347,19515,1,0,3:2:0:0:
436,237,19668,1,0,3:2:0:0:
215,259,19822,1,8,0:2:0:0:
451,242,19976,1,0,0:2:0:0:
183,174,20130,5,0,3:2:0:0:
459,154,20284,1,0,3:2:0:0:
146,93,20438,1,10,0:2:0:0:
484,68,20591,1,0,0:2:0:0:
318,254,20745,5,8,0:2:0:0:
322,211,20822,1,0,3:2:0:0:
327,169,20899,1,0,3:2:0:0:
332,127,20976,1,0,3:0:0:0:
336,85,21053,1,0,3:2:0:0:
127,244,21207,5,8,0:2:0:0:
127,244,21284,1,8,0:2:0:0:
127,244,21351,2,0,L|146:351,1,85,4|0,3:2|0:0,0:0:0:0:
187,161,21658,2,0,L|80:142,1,85,8|0,0:2|0:0,0:0:0:0:
208,0,21966,1,0,3:2:0:0:
243,85,22120,1,0,3:2:0:0:
35,70,22274,2,0,L|118:55,1,85,8|0,0:2|0:0,0:0:0:0:
335,195,22581,6,0,P|413:180|441:96,1,170,0|8,3:2|0:2,0:0:0:0:
390,24,23043,1,0,0:0:0:0:
353,110,23197,2,0,P|278:95|244:94,1,85,0|0,3:2|3:0,0:0:0:0:
159,197,23504,2,0,P|234:182|268:181,1,85,8|0,0:2|0:2,0:0:0:0:
226,364,23812,6,0,L|212:267,1,85,0|0,3:2|0:0,0:0:0:0:
317,377,24120,1,8,0:2:0:0:
131,357,24274,2,0,L|117:260,1,85,0|0,0:2|0:0,0:0:0:0:
159,197,24581,1,0,3:2:0:0:
43,132,24735,2,0,P|46:173|69:208,1,85,8|0,0:2|0:2,0:0:0:0:
294,135,25043,6,0,B|227:130|227:130|188:110|188:110|108:104,1,170,0|8,3:2|0:2,0:0:0:0:
129,105,25658,1,0,3:2:0:0:
257,41,25812,1,0,3:2:0:0:
168,22,25966,1,8,0:2:0:0:
339,8,26120,1,0,0:2:0:0:
203,173,26274,6,0,P|195:243|280:305,1,170,2|8,3:2|0:2,0:0:0:0:
363,230,26735,2,0,L|268:214,1,85,0|0,0:2|3:0,0:0:0:0:
359,348,27043,1,0,3:2:0:0:
359,348,27197,2,0,L|442:333,1,85,8|0,0:2|3:0,0:0:0:0:
512,105,27504,6,0,L|322:137,1,170,0|8,3:2|0:2,0:0:0:0:
210,48,27966,2,0,L|296:63,1,85,0|0,0:2|3:2,0:0:0:0:
207,235,28274,1,0,3:2:0:0:
150,156,28427,2,0,L|249:137,1,85,8|0,0:2|0:0,0:0:0:0:
161,314,28735,6,0,P|128:291|111:240,1,85,0|0,3:2|0:0,0:0:0:0:
303,218,29043,1,8,0:2:0:0:
255,304,29197,2,0,L|200:225,1,85,0|0,0:2|3:0,0:0:0:0:
327,129,29504,1,0,3:2:0:0:
390,201,29658,2,0,P|390:245|366:288,1,85,8|0,0:2|0:2,0:0:0:0:
217,383,29966,6,0,L|32:370,1,170,0|8,3:2|0:2,0:0:0:0:
141,291,30427,1,4,3:2:0:0:
19,187,30581,1,0,0:0:0:0:
43,286,30735,1,0,3:2:0:0:
43,286,30812,1,0,3:2:0:0:
43,286,30889,1,12,0:2:0:0:
136,137,31043,1,0,0:0:0:0:
243,318,31197,6,0,P|316:320|375:215,1,187,4|8,3:2|0:2,0:0:0:0:
304,138,31658,1,0,0:2:0:0:
185,225,31812,2,0,L|292:236,1,93.5,0|0,3:2|0:0,0:0:0:0:
397,128,32120,2,0,L|290:139,1,93.5,8|0,0:2|0:2,0:0:0:0:
114,300,32427,6,0,B|86:249|86:249|112:110,1,187,0|8,3:2|0:2,0:0:0:0:
200,61,32889,1,0,0:2:0:0:
26,71,33043,2,0,P|97:28|137:29,1,93.5,0|0,3:2|3:2,0:0:0:0:
189,166,33351,2,0,P|144:152|109:121,1,93.5,8|0,0:2|0:2,0:0:0:0:
302,22,33658,6,0,L|283:154,1,93.5,0|0,3:2|0:0,0:0:0:0:
482,127,33966,1,8,0:2:0:0:
413,286,34120,2,0,L|399:193,1,93.5,0|0,0:2|3:2,0:0:0:0:
385,91,34427,1,0,3:2:0:0:
312,218,34581,2,0,P|266:217|212:186,1,93.5,8|0,0:2|0:2,0:0:0:0:
31,328,34889,6,0,B|107:309|107:309|156:314|156:314|236:292,1,187,0|8,3:2|0:2,0:0:0:0:
213,298,35504,1,0,3:2:0:0:
44,238,35658,1,0,3:2:0:0:
149,227,35812,1,8,0:2:0:0:
27,241,35966,1,0,0:2:0:0:
257,119,36120,6,0,L|239:242,1,93.5,6|0,3:2|0:0,0:0:0:0:
158,70,36427,1,8,0:2:0:0:
365,63,36581,2,0,L|383:186,1,93.5,0|0,0:2|3:2,0:0:0:0:
281,22,36889,1,0,3:2:0:0:
449,0,37043,2,0,P|475:53|466:101,1,93.5,10|0,0:2|0:0,0:0:0:0:
313,246,37351,6,0,P|363:180|472:198,1,187,0|8,3:2|0:2,0:0:0:0:
512,261,37812,1,0,0:2:0:0:
330,330,37966,1,0,3:2:0:0:
407,259,38120,1,0,3:2:0:0:
508,358,38274,2,0,L|397:344,1,93.5,10|0,0:2|0:2,0:0:0:0:
180,366,38581,6,0,P|223:340|244:287,1,93.5,0|0,3:2|0:0,0:0:0:0:
218,198,38889,1,8,0:2:0:0:
56,290,39043,2,0,L|167:276,1,93.5,0|0,0:2|3:2,0:0:0:0:
313,246,39351,1,0,3:2:0:0:
121,191,39504,2,0,P|99:140|100:89,1,93.5,8|0,0:2|0:2,0:0:0:0:
227,0,39812,5,4,3:2:0:0:
202,121,39966,1,0,3:0:0:0:
419,59,40120,1,8,0:2:0:0:
419,59,40427,1,8,0:2:0:0:
451,91,40504,1,8,0:2:0:0:
464,135,40581,1,8,0:2:0:0:
454,180,40658,1,8,0:2:0:0:
422,214,40735,2,0,L|437:276,3,46.75,0|0|0|8,3:2|3:2|3:2|3:3,0:0:0:0:
424,364,41043,6,0,P|371:337|285:362,1,140.25,6|0,3:2|0:0,0:0:0:0:
295,354,41351,2,0,L|315:235,1,93.5,8|0,0:2|0:0,0:0:0:0:
320,167,41658,1,0,3:2:0:0:
234,195,41812,1,0,3:2:0:0:
408,176,41966,1,0,0:2:0:0:
252,110,42120,1,8,0:2:0:0:
398,19,42274,6,0,L|374:117,1,76.5000000000001,0|0,0:0|3:2,0:0:0:0:
234,35,42581,2,0,L|257:133,1,76.5000000000001,8|0,0:2|0:0,0:0:0:0:
106,161,42889,1,0,3:2:0:0:
120,82,43043,1,0,3:2:0:0:
182,195,43197,1,8,0:2:0:0:
24,205,43351,1,0,0:2:0:0:
165,295,43504,6,0,B|248:274|248:274|295:287,1,114.75,0|0,3:2|0:0,0:0:0:0:
276,281,43812,1,8,0:2:0:0:
410,235,43966,2,0,P|432:186|425:131,1,76.5000000000001,0|0,0:2|3:0,0:0:0:0:
420,80,44274,1,0,3:2:0:0:
339,179,44427,2,0,L|325:104,1,76.5000000000001,0|8,0:2|0:2,0:0:0:0:
213,16,44735,6,0,P|166:67|77:58,1,153,0|12,0:2|0:2,0:0:0:0:
87,64,45351,1,8,0:2:0:0:
103,84,45427,1,8,0:2:0:0:
115,108,45504,1,8,0:2:0:0:
119,135,45581,1,8,0:2:0:0:
118,161,45658,1,0,3:2:0:0:
29,221,45812,5,0,3:2:0:0:
29,221,45889,1,0,3:2:0:0:
29,221,45966,2,0,L|13:132,1,76.5000000000001,6|0,3:2|0:0,0:0:0:0:
183,273,46274,5,8,0:2:0:0:
203,169,46427,1,0,3:2:0:0:
295,287,46581,1,8,0:2:0:0:
293,151,46735,1,0,3:2:0:0:
400,291,46889,1,8,0:2:0:0:
381,120,47043,1,0,3:2:0:0:
123,206,47197,5,8,0:2:0:0:
348,218,47351,1,0,3:2:0:0:
110,220,47504,1,8,0:2:0:0:
359,209,47658,1,0,3:2:0:0:
169,85,47812,5,8,0:2:0:0:
229,318,47966,1,0,3:2:0:0:
297,54,48120,1,8,0:2:0:0:
320,292,48274,1,0,3:2:0:0:
101,134,48427,5,12,0:2:0:0:
294,146,48581,1,0,3:2:0:0:
94,230,48735,1,8,0:2:0:0:
121,26,48889,1,0,3:2:0:0:
174,277,49043,5,8,0:2:0:0:
0,149,49197,1,10,0:2:0:0:
0,149,49504,6,0,L|108:134,1,102,14|0,0:2|0:0,0:0:0:0:
304,219,49812,5,0,3:2:0:0:
195,191,49966,1,8,0:2:0:0:
389,120,50120,1,0,3:2:0:0:
346,316,50274,1,8,0:2:0:0:
301,324,50351,1,8,0:2:0:0:
257,313,50427,1,8,0:2:0:0:
223,283,50504,1,8,0:2:0:0:
205,241,50581,2,0,L|193:181,3,51,0|0|0|0,3:0|3:0|3:0|3:0,0:0:0:0:
194,72,50889,5,8,0:2:0:0:
229,77,50966,1,0,3:2:0:0:
264,83,51043,1,0,3:0:0:0:
299,89,51120,1,0,3:0:0:0:
334,95,51197,2,0,L|349:152,1,51,0|0,3:2|0:0,0:0:0:0:
419,202,51351,5,8,0:2:0:0:
413,237,51427,1,0,3:2:0:0:
407,272,51504,1,0,3:0:0:0:
401,306,51581,1,0,3:0:0:0:
395,342,51658,2,0,L|338:357,1,51,0|0,3:2|0:0,0:0:0:0:
251,319,51812,5,8,0:2:0:0:
213,292,51889,1,0,3:2:0:0:
169,278,51966,1,0,3:2:0:0:
124,277,52043,1,0,3:2:0:0:
80,289,52120,2,0,L|91:355,1,51,0|0,3:2|0:0,0:0:0:0:
6,230,52274,5,8,0:2:0:0:
0,183,52351,1,0,3:2:0:0:
10,138,52427,1,0,3:2:0:0:
32,98,52504,1,0,3:2:0:0:
65,67,52581,2,0,L|116:109,1,51,0|0,3:2|0:0,0:0:0:0:
211,157,52735,5,8,0:2:0:0:
256,151,52812,1,0,3:2:0:0:
302,145,52889,1,0,3:2:0:0:
347,139,52966,1,0,3:2:0:0:
393,133,53043,1,8,0:2:0:0:
464,170,53351,6,0,P|333:187|318:105,1,204,14|8,0:2|0:2,0:0:0:0:
393,133,53812,6,0,P|297:223|236:166,1,204,14|8,0:2|0:2,0:0:0:0:
313,144,54274,6,0,P|288:273|206:262,1,204,14|8,0:2|0:2,0:0:0:0:
254,199,54735,6,0,P|310:318|237:357,1,204,14|0,0:2|0:2,0:0:0:0:
157,294,55197,6,0,L|268:273,1,85
358,366,55504,2,2,L|247:345,1,85,0|0,0:0|0:0,0:0:0:0:
75,242,55812,6,0,P|53:187|79:126,1,102,6|0,3:2|0:0,0:0:0:0:
254,43,56120,2,0,L|229:171,1,102,8|0,0:2|0:0,0:0:0:0:
137,28,56427,1,0,3:2:0:0:
374,0,56581,1,0,3:2:0:0:
122,35,56735,1,8,0:2:0:0:
338,113,56889,1,0,3:2:0:0:
147,188,57043,6,0,P|191:152|272:150,1,102,0|0,3:0|0:2,0:0:0:0:
478,215,57351,2,0,L|463:316,1,102,8|0,0:2|0:2,0:0:0:0:
229,236,57658,1,2,3:1:0:0:
436,115,57812,1,0,0:0:0:0:
391,384,57966,1,10,0:2:0:0:
341,233,58120,1,0,0:2:0:0:
200,356,58274,6,0,P|256:359|320:312,1,102,0|0,3:2|0:0,0:0:0:0:
273,115,58581,2,0,P|216:111|153:159,1,102,8|0,0:2|0:2,0:0:0:0:
340,175,58889,1,0,3:2:0:0:
299,21,59043,1,0,3:2:0:0:
229,236,59197,2,0,L|103:212,1,102,8|0,0:2|0:2,0:0:0:0:
390,89,59504,6,2,P|440:144|439:201,1,102,2|0,3:1|0:0,0:1:0:0:
251,329,59812,2,0,P|313:288|327:233,1,102,10|0,0:2|0:2,0:0:0:0:
188,29,60120,1,0,3:2:0:0:
340,175,60274,1,0,3:0:0:0:
37,191,60427,2,0,P|65:149|111:129,1,102,8|0,0:2|0:2,0:0:0:0:
110,317,60735,6,0,L|133:190,1,102,0|0,3:2|0:0,0:0:0:0:
408,237,61043,2,0,L|431:364,1,102,8|0,0:2|0:0,0:0:0:0:
252,207,61351,1,0,3:2:0:0:
480,163,61504,1,0,3:2:0:0:
358,74,61658,2,0,L|335:201,1,102,8|0,0:2|0:2,0:0:0:0:
143,116,61966,6,0,P|204:119|270:72,1,102,0|0,3:2|0:2,0:0:0:0:
120,248,62274,2,0,P|73:227|41:188,1,102,8|0,0:2|0:0,0:0:0:0:
252,207,62581,1,0,3:2:0:0:
33,318,62735,1,0,3:2:0:0:
288,383,62889,2,0,L|305:268,1,102,8|0,0:2|0:2,0:0:0:0:
468,152,63197,6,0,P|396:210|326:188,1,153,2|0,3:1|0:0,0:0:0:0:
428,232,63504,2,0,P|433:282|412:327,1,102,8|0,0:2|0:2,0:0:0:0:
213,238,63812,1,2,3:1:0:0:
382,125,63966,1,0,3:0:0:0:
130,156,64120,2,0,L|17:145,1,102,8|0,0:2|0:2,0:0:0:0:
285,3,64427,6,0,P|302:38|268:126,1,102,2|2,3:1|3:2,0:0:0:0:
49,238,64735,1,10,0:2:0:0:
166,43,64889,1,2,0:2:0:0:
213,238,65043,2,0,L|227:304,1,51,10|0,0:2|0:0,0:0:0:0:
294,355,65197,1,8,0:2:0:0:
329,374,65274,1,8,0:2:0:0:
369,378,65351,1,10,0:2:0:0:
408,367,65427,1,8,0:2:0:0:
440,342,65504,1,8,0:2:0:0:
459,306,65581,1,8,0:2:0:0:
464,266,65658,6,0,L|442:150,1,102,6|0,3:2|0:2,0:0:0:0:
185,134,65966,2,0,L|286:154,1,102,10|0,0:2|0:0,0:0:0:0:
472,19,66274,2,0,L|371:38,1,102,0|0,3:2|3:2,0:0:0:0:
210,243,66581,1,8,0:2:0:0:
157,36,66735,1,0,3:2:0:0:
388,165,66889,6,0,P|360:219|306:247,1,102,0|0,3:0|0:2,0:0:0:0:
113,230,67197,2,0,P|162:223|209:242,1,102,8|0,0:2|0:2,0:0:0:0:
52,316,67504,1,2,3:1:0:0:
98,129,67658,1,0,3:2:0:0:
142,355,67812,1,10,0:2:0:0:
8,231,67966,1,0,0:0:0:0:
237,329,68120,6,0,L|346:310,1,102,0|0,3:2|0:0,0:0:0:0:
449,126,68427,2,0,L|340:107,1,102,8|0,0:2|0:0,0:0:0:0:
486,241,68735,1,0,3:2:0:0:
421,11,68889,1,0,3:2:0:0:
287,214,69043,2,0,L|186:228,1,102,8|0,0:2|0:2,0:0:0:0:
38,39,69351,6,0,P|86:33|131:58,1,102,0|0,3:2|0:0,0:0:0:0:
74,294,69658,2,2,P|49:250|55:200,1,102,10|0,0:2|0:2,0:1:0:0:
192,334,69966,1,0,3:2:0:0:
170,142,70120,1,0,3:0:0:0:
325,280,70274,2,0,L|302:395,1,102,8|0,0:0|0:0,0:0:0:0:
482,225,70581,6,0,L|463:48,1,153,4|0,3:2|0:0,0:0:0:0:
465,72,70889,2,0,P|426:99|365:88,1,102,8|0,0:2|0:0,0:0:0:0:
302,5,71197,1,0,3:2:0:0:
352,195,71351,1,0,3:2:0:0:
170,142,71504,2,0,L|308:127,1,102,8|0,0:2|0:2,0:0:0:0:
475,289,71812,6,0,P|427:339|344:326,1,153,0|0,3:2|0:0,0:0:0:0:
270,372,72120,2,0,P|209:338|145:348,1,102,8|0,0:2|0:2,0:0:0:0:
86,370,72427,1,2,3:1:0:0:
284,270,72581,1,0,3:2:0:0:
78,182,72735,2,0,L|101:311,1,102,8|0,0:2|0:0,0:0:0:0:
338,41,73043,6,0,L|319:229,1,153,4|0,3:2|0:0,0:0:0:0:
322,193,73351,1,8,0:2:0:0:
204,16,73504,2,0,L|222:160,1,102,2|0,0:2|3:2,0:0:0:0:
241,260,73812,1,0,3:2:0:0:
450,117,73966,2,0,L|434:256,1,102,10|0,0:2|3:2,0:0:0:0:
295,342,74274,5,8,0:2:0:0:
263,358,74351,1,8,0:2:0:0:
228,362,74427,1,8,0:2:0:0:
194,352,74504,1,8,0:2:0:0:
166,330,74581,2,0,L|150:272,3,51,8|8|8|8,0:2|0:2|0:2|0:2,0:0:0:0:
19,300,74889,6,0,B|39:121|39:121|43:162|73:202,1,252.875000000001,2|0,0:2|0:2,0:0:0:0:
141,128,75504,6,0,P|197:143|258:104,1,127.5,6|0,3:2|0:0,0:0:0:0:
254,109,75812,2,0,L|351:98,1,85,8|0,0:2|0:2,0:0:0:0:
483,88,76120,1,0,3:2:0:0:
411,147,76274,1,0,3:2:0:0:
397,36,76427,1,8,0:2:0:0:
479,228,76581,1,0,0:2:0:0:
291,286,76735,6,0,L|306:202,1,85,0|0,3:0|0:2,0:0:0:0:
392,280,77043,2,0,L|407:363,1,85,10|0,0:2|0:2,0:0:0:0:
209,233,77351,1,2,3:2:0:0:
306,202,77504,1,0,3:2:0:0:
205,324,77658,2,0,P|162:339|120:339,1,85,10|0,0:2|0:2,0:0:0:0:
112,162,77966,6,0,L|249:141,1,127.5,0|0,3:2|0:0,0:0:0:0:
299,62,78274,2,0,L|214:55,1,85,10|0,0:2|0:0,0:0:0:0:
342,142,78581,1,0,3:2:0:0:
376,12,78735,1,0,3:2:0:0:
433,142,78889,2,0,P|453:192|446:244,1,85,8|0,0:2|0:2,0:0:0:0:
348,325,79197,6,0,L|360:213,1,85,0|0,3:2|0:0,0:0:0:0:
259,363,79504,2,0,L|247:251,1,85,10|0,0:2|0:0,0:0:0:0:
171,191,79812,1,0,3:2:0:0:
266,158,79966,1,0,3:0:0:0:
180,106,80120,2,0,L|168:218,1,85,8|0,0:2|0:2,0:0:0:0:
64,331,80427,6,0,P|120:277|183:279,1,127.5,4|0,3:2|0:0,0:0:0:0:
249,278,80735,2,0,P|303:270|346:238,1,85,8|0,0:2|0:2,0:0:0:0:
443,111,81043,1,0,3:2:0:0:
361,167,81197,1,0,3:2:0:0:
436,285,81351,2,0,L|445:187,1,85,8|0,0:2|0:2,0:0:0:0:
291,40,81658,6,0,P|333:78|377:80,1,85,0|0,3:2|0:0,0:0:0:0:
199,200,81966,2,0,P|241:162|285:160,1,85,8|0,0:2|0:2,0:0:0:0:
90,64,82274,1,2,3:2:0:0:
195,85,82427,1,0,3:2:0:0:
103,245,82581,2,0,L|87:131,1,85,8|0,0:2|0:2,0:0:0:0:
361,167,82889,6,0,P|365:211|334:265,1,85,6|0,3:2|0:0,0:0:0:0:
186,313,83197,2,0,P|222:287|284:287,1,85,8|0,0:2|0:2,0:0:0:0:
449,297,83504,1,0,3:2:0:0:
270,195,83658,1,0,3:2:0:0:
452,212,83812,1,8,0:2:0:0:
254,203,83966,1,0,0:2:0:0:
338,332,84120,6,0,L|354:217,1,85,0|0,3:2|3:2,0:0:0:0:
494,59,84438,2,0,L|513:171,1,85,12|0,0:2|3:2,0:0:0:0:
508,142,84687,1,0,3:2:0:0:
508,142,84758,1,12,0:0:0:0:
342,120,84908,5,8,0:2:0:0:
315,107,84979,1,8,0:2:0:0:
286,101,85050,1,8,0:2:0:0:
256,102,85122,1,8,0:2:0:0:
227,110,85193,2,0,L|210:175,1,42.5,8|8,0:2|0:2,0:2:0:0:
172,238,85385,6,0,P|119:201|51:270,1,169.41435,6|8,3:2|0:2,0:0:0:0:
114,365,85827,2,0,P|180:326|284:321,1,170,6|8,3:2|0:2,0:0:0:0:
382,384,86289,2,0,L|362:195,1,168.8287,6|8,3:2|0:2,0:0:0:0:
279,139,86759,2,0,L|262:245,1,85,4|0,3:2|0:0,0:0:0:0:
343,43,87043,5,0,3:0:0:0:
343,43,87119,1,0,3:2:0:0:
343,43,87196,1,8,0:2:0:0:
157,131,87350,1,8,0:2:0:0:
426,133,87504,1,8,0:2:0:0:
79,51,87658,1,8,0:2:0:0:
