osu file format v14

[General]
AudioFilename: audio.mp3
AudioLeadIn: 0
PreviewTime: 55207
Countdown: 0
SampleSet: Soft
StackLeniency: 0.2
Mode: 0
LetterboxInBreaks: 0
WidescreenStoryboard: 1

[Editor]
DistanceSpacing: 1
BeatDivisor: 4
GridSize: 32
TimelineZoom: 2.6

[Metadata]
Title:Rising Rainbow (TV Size)
TitleUnicode:ライジングレインボウ (TV Size)
Artist:Misokkasu
ArtistUnicode:ミソッカス
Creator:Ryuusei Aika
Version:Kyouren's Insane
Source:食戟のソーマ
Tags:not your japanese kitty anime freezinganimenz sanayui kyouren gokugohan12468 kittyadventure nevo soma shokugeki opening food wars no op2 souma rock jrock j-rock 反逆の♭m7
BeatmapID:4471496
BeatmapSetID:2106308

[Difficulty]
HPDrainRate:5.3
CircleSize:4
OverallDifficulty:8
ApproachRate:9
SliderMultiplier:1.5
SliderTickRate:1

[Events]
//Background and Video events
Video,0,"shokugeki_op2.mp4"
0,0,"kyou.jpg",0,0
//Break Periods
//Storyboard Layer 0 (Background)
//Storyboard Layer 1 (Fail)
//Storyboard Layer 2 (Pass)
//Storyboard Layer 3 (Foreground)
//Storyboard Layer 4 (Overlay)
//Storyboard Sound Samples

[TimingPoints]
1039,342.857142857143,4,2,1,75,1,0
1039,-153.846153846153,4,2,1,75,0,0
1673,304.568527918782,4,2,1,75,1,0
1673,-117.647058823529,4,2,1,75,0,0
4104,333.333333333334,4,2,1,75,1,0
4437,375.000000000001,4,2,1,75,1,0
5005,363.636363636365,4,2,1,75,1,0
5360,292.682926829268,4,2,1,75,1,0
6238,324.324324324324,4,2,1,75,1,0
6562,324.324324324325,4,2,1,75,1,0
6562,-117.647058823529,4,2,1,75,0,0
6886,307.692307692308,4,2,1,75,1,0
6886,-117.647058823529,4,2,1,75,0,0
9041,315.789473684211,4,2,1,75,1,0
9041,-100,4,2,1,75,0,0
10900,307.692307692308,4,2,1,75,1,0
10900,-117.647058823529,4,2,1,75,0,0
11207,-100,4,2,1,75,0,0
11515,307.692307692308,4,2,1,70,1,0
11515,-100,4,2,1,70,0,0
21351,307.692307692308,4,2,1,70,1,0
21351,-100,4,2,1,70,0,0
21658,-117.647058823529,4,2,1,70,0,0
30889,-117.647058823529,4,2,1,70,0,0
31197,-100,4,2,1,70,0,0
36120,-90.9090909090909,4,2,1,70,0,0
41043,-117.647058823529,4,2,1,75,0,0
45966,-100,4,2,1,75,0,0
50889,-90.9090909090909,4,2,1,75,0,0
53043,-83.3333333333333,4,2,1,75,0,0
53351,-100,4,2,1,75,0,0
55504,-100,4,2,1,75,0,0
55812,-86.9565217391304,4,2,1,80,0,1
63197,-86.9565217391304,4,2,1,90,0,1
65043,-86.9565217391304,4,2,1,80,0,1
65053,-86.9565217391304,4,2,1,80,0,1
74889,-100,4,2,1,70,0,0
75197,-86.9565217391304,4,2,1,70,0,0
75504,-100,4,2,1,70,0,0
84438,357.142857142857,4,2,1,70,1,0
84438,-100,4,2,1,70,0,0
84616,285.714285714285,4,2,1,70,1,0
84616,-100,4,2,1,70,0,0
84908,285.714285714286,4,2,1,70,1,0
85385,307.692307692308,4,2,1,70,1,0
85385,-83.3333333333333,4,2,1,70,0,0
85674,307.692307692308,4,2,1,70,1,0
85674,-83.3333333333333,4,2,1,70,0,0
86577,365.853658536585,4,2,1,70,1,0
86577,-83.3333333333333,4,2,1,70,0,0
86759,285.714285714286,4,2,1,70,1,0
86759,-83.3333333333333,4,2,1,70,0,0
87043,307.692307692308,4,2,1,70,1,0
87043,-83.3333333333333,4,2,1,70,0,0
87658,-222.22222222222,4,2,1,70,0,0
87735,-222.22222222222,4,2,1,35,0,0
88273,-222.22222222222,4,2,1,15,0,0

[Colours]
Combo1 : 65,218,206
Combo2 : 128,128,128
Combo3 : 203,47,51
Combo4 : 192,192,192

[HitObjects]
50,190,1039,6,2,L|41:141,1,48.7499977684022,0|0,0:0|0:0,0:0:0:0:
140,190,1381,2,0,L|131:238,1,48.7499977684022
195,95,1673,6,0,B|268:81|248:105|321:90,1,127.50000243187,6|0,3:2|0:0,0:0:0:0:
495,70,2282,2,0,P|449:28|387:33,1,127.50000243187,2|0,0:0|0:0,0:0:0:0:
380,150,2738,1,2,0:0:0:0:
380,150,3195,5,10,0:2:0:0:
225,210,3500,1,10,0:2:0:0:
360,310,3804,1,10,0:2:0:0:
256,133,4104,6,0,L|270:282,1,150,14|2,0:2|0:0,0:0:0:0:
215,350,5005,1,2,0:0:0:0:
15,195,5360,6,0,L|52:191,3,37.5,8|8|8|8,0:2|0:2|0:2|0:2,0:0:0:0:
110,125,5652,2,0,L|147:128,3,37.5,0|0|0|0,3:2|3:2|3:2|3:2,0:0:0:0:
205,190,5945,1,0,3:2:0:0:
214,189,6018,1,0,3:2:0:0:
223,188,6091,1,0,3:2:0:0:
233,187,6164,1,0,3:2:0:0:
242,186,6238,1,8,0:0:0:0:
335,75,6562,6,0,B|356:80|371:76|371:76|401:108|454:105,1,127.50000243187,4|0,3:2|3:0,0:0:0:0:
315,235,7039,1,0,3:0:0:0:
242,186,7193,2,0,P|248:154|254:123,1,63.7500012159348,0|0,3:0|3:0,0:0:0:0:
405,225,7501,2,0,P|398:256|392:287,1,63.7500012159348,0|0,3:0|3:0,0:0:0:0:
255,365,7809,5,0,3:0:0:0:
80,350,7962,1,0,3:0:0:0:
170,330,8116,5,0,3:0:0:0:
125,245,8270,1,0,3:0:0:0:
210,225,8424,5,0,3:0:0:0:
55,185,8578,1,0,3:0:0:0:
145,155,8732,5,0,3:0:0:0:
95,80,8886,1,0,3:0:0:0:
255,25,9041,6,0,P|251:62|244:99,1,75,4|0,3:2|0:0,0:0:0:0:
210,225,9356,1,8,0:2:0:0:
435,195,9514,6,0,P|410:167|375:153,1,75,4|0,3:2|0:0,0:0:0:0:
275,275,9830,1,8,0:2:0:0:
404,76,9988,6,0,P|367:70|331:82,1,75,4|0,3:2|0:0,0:0:0:0:
210,225,10304,1,8,0:2:0:0:
97,76,10462,6,0,B|194:104|144:67|244:99,1,150,4|0,3:2|0:0,0:0:0:0:
120,225,10900,6,0,L|26:206,1,95.6250018239022,2|0,0:2|0:0,0:0:0:0:
15,215,11207,2,0,L|22:178,3,37.5,0|0|0|0,0:0|0:0|0:0|0:2,0:0:0:0:
0,300,11515,6,0,B|24:310|49:303|49:303|82:346|138:333,2,150,6|8|0,3:2|0:2|3:2,0:0:0:0:
120,225,12284,1,0,3:2:0:0:
105,135,12438,1,8,0:2:0:0:
130,220,12591,1,0,0:2:0:0:
280,240,12745,6,0,P|288:203|301:168,1,75,0|0,3:2|0:2,0:0:0:0:
255,40,13053,2,0,P|246:76|233:111,1,75,8|0,0:2|0:2,0:0:0:0:
385,150,13361,1,2,3:2:0:0:
402,68,13515,1,0,3:2:0:0:
385,150,13668,2,0,L|458:166,1,75,8|0,0:2|0:2,0:0:0:0:
280,240,13976,6,0,B|196:255|228:285|145:302,2,150,0|8|0,3:2|0:2|3:2,0:0:0:0:
280,240,14745,1,0,3:2:0:0:
195,180,14899,2,0,P|192:142|187:105,1,75,8|0,0:2|0:2,0:0:0:0:
325,5,15207,6,0,P|327:42|332:79,1,75,0|0,3:2|0:2,0:0:0:0:
98,42,15515,2,0,P|103:79|105:116,1,75,10|0,0:2|0:0,0:0:0:0:
195,180,15822,6,0,P|197:217|202:254,1,75,0|0,3:2|3:2,0:0:0:0:
400,130,16130,2,0,P|402:167|407:204,1,75,8|0,0:2|0:2,0:0:0:0:
355,355,16438,6,0,B|347:271|316:298|307:214,1,150,6|8,3:2|0:2,0:0:0:0:
270,140,16899,1,0,0:2:0:0:
400,130,17053,2,0,L|470:154,1,75,0|0,3:2|3:2,0:0:0:0:
195,180,17361,2,0,P|160:195|124:204,1,75,8|0,0:2|0:2,0:0:0:0:
310,60,17668,6,0,P|236:48|167:18,1,150,0|8,3:2|0:2,0:0:0:0:
115,80,18130,1,0,0:2:0:0:
30,85,18284,2,0,L|44:159,1,75,2|0,3:2|3:2,0:0:0:0:
195,180,18591,2,0,L|181:254,1,75,8|0,0:2|0:2,0:0:0:0:
410,270,18899,6,0,P|336:274|272:236,1,150,6|8,3:2|0:2,0:0:0:0:
425,180,19361,2,0,L|498:164,1,75,2|0,0:2|3:2,0:0:0:0:
310,115,19668,1,0,3:2:0:0:
415,15,19822,2,0,P|399:49|388:84,1,75,8|0,0:2|0:2,0:0:0:0:
195,180,20130,5,0,3:2:0:0:
180,95,20284,1,0,3:2:0:0:
190,190,20438,2,0,L|115:201,1,75,10|0,0:2|0:2,0:0:0:0:
24,366,20745,5,8,0:2:0:0:
35,355,20822,1,0,3:2:0:0:
46,344,20899,2,0,L|40:306,2,37.5,0|0|0,3:2|3:2|3:2,0:0:0:0:
190,190,21207,6,0,L|184:227,1,37.5,8|8,0:2|0:2,0:0:0:0:
220,295,21351,6,0,L|209:220,1,75,4|0,3:2|0:0,0:0:0:0:
285,115,21658,2,0,P|280:146|282:178,1,63.7500012159348,8|0,0:2|0:0,0:0:0:0:
145,110,21966,1,0,3:2:0:0:
210,55,22120,1,0,3:2:0:0:
135,120,22274,2,0,L|72:131,1,63.7500012159348,8|0,0:2|0:0,0:0:0:0:
0,250,22581,6,0,P|53:217|115:225,1,127.50000243187,0|8,3:2|0:2,0:0:0:0:
155,355,23043,1,0,0:0:0:0:
155,355,23197,2,0,L|168:292,1,63.7500012159348,0|0,3:2|3:0,0:0:0:0:
255,280,23504,2,0,L|241:217,1,63.7500012159348,8|0,0:2|0:2,0:0:0:0:
345,95,23812,6,0,L|327:221,1,127.50000243187,0|8,3:2|0:2,0:0:0:0:
405,370,24274,2,0,P|413:339|413:307,1,63.7500012159348,0|0,0:2|0:0,0:0:0:0:
408,222,24581,1,0,3:2:0:0:
280,365,24735,2,0,P|307:349|329:326,1,63.7500012159348,8|0,0:2|0:2,0:0:0:0:
229,155,25043,6,0,P|246:216|255:279,1,127.50000243187,0|8,3:2|0:2,0:0:0:0:
345,95,25658,1,0,3:2:0:0:
275,50,25812,1,0,3:2:0:0:
345,5,25966,1,8,0:2:0:0:
415,45,26120,1,0,0:2:0:0:
345,95,26274,6,0,P|327:156|318:219,1,127.50000243187,2|8,3:2|0:2,0:0:0:0:
365,290,26735,1,0,0:2:0:0:
425,225,26889,2,0,L|410:162,1,63.7500012159348,0|0,3:0|3:2,0:0:0:0:
512,98,27197,2,0,P|499:127|491:158,1,63.7500012159348,8|0,0:2|0:0,0:0:0:0:
425,225,27504,6,0,P|483:245|505:302,1,127.50000243187,0|8,3:2|0:2,0:0:0:0:
435,350,27966,1,0,0:2:0:0:
306,312,28120,2,0,P|333:295|365:290,1,63.7500012159348,0|0,3:2|3:2,0:0:0:0:
335,140,28427,2,0,L|343:204,1,63.7500012159348,8|0,0:2|0:0,0:0:0:0:
306,312,28735,6,0,B|233:322|254:345|187:352,1,127.50000243187,0|8,3:2|0:2,0:0:0:0:
103,367,29197,1,0,0:2:0:0:
103,367,29351,2,0,L|108:303,1,63.7500012159348,0|0,3:2|3:2,0:0:0:0:
205,205,29658,2,0,P|199:236|198:268,1,63.7500012159348,8|0,0:2|0:2,0:0:0:0:
210,115,29966,6,0,B|137:125|158:148|91:155,1,127.50000243187,0|8,3:2|0:2,0:0:0:0:
15,120,30427,2,0,L|4:57,1,63.7500012159348,4|0,3:2|0:0,0:0:0:0:
45,230,30735,2,0,L|39:261,2,31.8750006079674,0|0|12,3:2|3:2|0:2,0:0:0:0:
98,322,31043,1,2,0:2:0:0:
215,375,31197,6,0,B|244:310|244:310|218:236,1,150,4|8,3:2|0:2,0:0:0:0:
218,236,31658,1,0,0:2:0:0:
315,155,31812,2,0,L|305:229,1,75,0|0,3:2|3:2,0:0:0:0:
390,335,32120,2,0,L|380:260,1,75,8|0,0:2|0:2,0:0:0:0:
465,140,32427,6,0,P|484:211|464:283,1,150,0|8,3:2|0:2,0:0:0:0:
390,335,32889,1,0,0:2:0:0:
315,155,33043,2,0,L|305:229,1,75,0|0,3:2|3:2,0:0:0:0:
220,345,33351,2,0,P|227:308|224:271,1,75,8|0,0:2|0:2,0:0:0:0:
10,265,33658,6,0,B|41:275|65:268|65:268|93:311|146:300,1,150,0|8,3:2|0:2,0:0:0:0:
95,190,34120,2,0,L|167:209,1,75,0|0,0:2|3:2,0:0:0:0:
224,271,34427,1,0,3:2:0:0:
119,368,34581,2,0,P|127:331|147:300,1,75,8|0,0:2|0:2,0:0:0:0:
320,210,34889,6,0,L|302:358,1,150,0|8,3:2|0:2,0:0:0:0:
84,210,35504,1,0,3:2:0:0:
169,184,35658,1,0,3:2:0:0:
143,99,35812,1,8,0:2:0:0:
58,125,35966,1,0,0:2:0:0:
84,210,36120,6,0,B|110:220|139:218|139:218|160:275|225:271,1,165.000005035401,6|8,3:2|0:2,0:0:0:0:
395,270,36581,1,0,0:2:0:0:
315,305,36735,2,0,B|306:267|306:267|317:225,1,82.5000025177003,0|0,3:2|3:2,0:0:0:0:
475,235,37043,2,0,L|483:317,1,82.5000025177003,10|0,0:2|0:0,0:0:0:0:
317,225,37351,6,0,P|397:225|445:162,1,165.000005035401,0|8,3:2|0:2,0:0:0:0:
440,80,37812,1,0,0:2:0:0:
280,120,37966,2,0,P|320:113|361:104,1,82.5000025177003,0|0,3:2|3:2,0:0:0:0:
317,225,38274,2,0,L|235:239,1,82.5000025177003,10|0,0:2|0:2,0:0:0:0:
160,200,38581,6,0,B|180:108|127:130|145:39,1,165.000005035401,0|8,3:2|0:2,0:0:0:0:
5,195,39043,2,0,P|41:175|81:167,1,82.5000025177003,0|0,0:2|3:2,0:0:0:0:
235,85,39351,1,0,3:2:0:0:
235,85,39504,2,0,L|227:2,1,82.5000025177003,8|0,0:2|0:2,0:0:0:0:
145,40,39812,6,0,L|152:122,1,82.5000025177003,4|0,3:2|3:0,0:0:0:0:
317,225,40120,2,0,L|310:142,1,82.5000025177003,8|0,0:2|0:0,0:0:0:0:
410,20,40427,1,8,0:2:0:0:
425,25,40504,1,8,0:2:0:0:
440,30,40581,1,8,0:2:0:0:
455,35,40658,1,8,0:2:0:0:
470,40,40735,2,0,L|474:81,3,41.2500012588501,0|0|0|8,3:2|3:2|3:2|3:3,0:0:0:0:
500,160,41043,6,0,P|465:213|455:275,1,127.50000243187,6|8,3:2|0:2,0:0:0:0:
300,310,41658,1,0,3:2:0:0:
300,310,41812,2,0,L|292:246,1,63.7500012159348,0|0,3:2|0:2,0:0:0:0:
225,195,42120,6,0,B|178:185|178:185|166:191|166:191|93:178,1,127.50000243187,8|0,0:2|3:2,0:0:0:0:
230,110,42581,2,0,L|291:94,1,63.7500012159348,8|0,0:2|0:0,0:0:0:0:
155,15,42889,5,0,3:2:0:0:
120,90,43043,1,0,3:2:0:0:
155,15,43197,1,8,0:2:0:0:
6,134,43351,6,0,L|11:165,1,31.8750006079674,0|2,0:2|0:0,0:0:0:0:
20,175,43504,6,0,L|39:301,1,127.50000243187,0|8,3:2|0:2,0:0:0:0:
110,195,43966,2,0,L|119:258,1,63.7500012159348,0|0,0:2|3:0,0:0:0:0:
135,340,44274,1,0,3:2:0:0:
202,285,44427,2,0,L|265:295,1,63.7500012159348,0|8,0:2|0:2,0:0:0:0:
330,360,44735,2,0,P|349:300|335:238,1,127.50000243187,0|12,0:2|0:2,0:0:0:0:
135,340,45351,5,8,0:2:0:0:
265,295,45504,1,8,0:2:0:0:
258,312,45581,1,8,0:2:0:0:
251,329,45658,1,0,3:2:0:0:
67,282,45812,1,0,3:2:0:0:
67,282,45889,1,0,3:2:0:0:
67,282,45966,6,0,P|56:207|44:133,1,150,6|8,3:2|0:2,0:0:0:0:
155,155,46427,1,0,3:2:0:0:
55,45,46581,1,8,0:2:0:0:
150,145,46735,1,0,3:2:0:0:
140,15,46889,2,0,P|174:29|209:42,1,75,8|0,0:2|3:2,0:0:0:0:
365,20,47197,5,8,0:2:0:0:
485,55,47351,1,0,3:2:0:0:
420,170,47504,2,0,P|415:132|410:95,1,75,8|0,0:2|3:2,0:0:0:0:
510,210,47812,2,0,P|500:246|496:283,1,75,8|0,0:2|3:2,0:0:0:0:
365,265,48120,1,8,0:2:0:0:
420,170,48274,1,0,3:2:0:0:
285,150,48427,6,0,P|290:112|294:75,1,75,12|0,0:2|3:2,0:0:0:0:
365,265,48735,2,0,P|359:302|355:339,1,75,8|0,0:2|3:2,0:0:0:0:
250,230,49043,1,8,0:2:0:0:
165,205,49197,2,0,P|170:167|174:130,1,75,10|0,0:2|3:2,0:0:0:0:
15,285,49504,6,0,P|88:278|148:321,1,150,14|0,0:2|3:2,0:0:0:0:
250,230,49966,2,0,P|246:267|240:304,1,75,8|0,0:2|3:2,0:0:0:0:
90,120,50274,1,8,0:2:0:0:
90,120,50351,1,8,0:2:0:0:
90,120,50427,1,8,0:2:0:0:
90,120,50504,1,8,0:2:0:0:
90,120,50581,2,0,P|92:101|94:82,3,37.5,0|0|0|0,3:0|3:0|3:0|3:0,0:0:0:0:
170,35,50889,5,8,0:2:0:0:
209,24,50966,1,0,3:2:0:0:
246,41,51043,1,0,3:0:0:0:
265,77,51120,1,0,3:0:0:0:
257,117,51197,2,0,L|217:130,1,41.2500012588501,0|0,3:2|3:2,0:0:0:0:
165,195,51351,6,0,L|158:235,1,41.2500012588501,8|0,0:2|3:2,0:0:0:0:
215,300,51504,2,0,L|254:313,3,41.2500012588501,0|0|0|0,3:0|3:0|3:2|3:2,0:0:0:0:
320,365,51812,5,8,0:2:0:0:
360,366,51889,1,0,3:2:0:0:
394,344,51966,1,0,3:2:0:0:
410,307,52043,1,0,3:2:0:0:
402,267,52120,2,0,L|414:228,1,41.2500012588501,0|0,3:2|3:0,0:0:0:0:
491,199,52274,2,0,L|479:160,3,41.2500012588501,8|0|0|0,0:2|3:2|3:2|3:2,0:0:0:0:
500,80,52581,5,0,3:2:0:0:
472,75,52658,1,0,3:0:0:0:
447,65,52735,1,8,0:2:0:0:
425,49,52812,1,0,3:2:0:0:
402,33,52889,1,0,3:2:0:0:
376,24,52966,1,0,3:2:0:0:
350,20,53043,2,0,L|336:109,1,89.9999972534181,8|0,0:2|0:0,0:0:0:0:
43,191,53351,6,0,P|76:174|112:164,1,75,14|0,0:2|0:0,0:0:0:0:
230,115,53658,1,8,0:2:0:0:
80,50,53812,6,0,P|115:63|147:82,1,75,14|0,0:2|0:0,0:0:0:0:
210,240,54120,1,8,0:2:0:0:
260,0,54274,6,0,P|284:28|301:61,1,75,14|0,0:2|0:0,0:0:0:0:
310,265,54581,1,8,0:2:0:0:
512,18,54735,6,0,P|469:79|406:119,1,150,14|0,0:2|0:2,0:0:0:0:
300,355,55197,6,0,P|335:312|389:302,1,112.5,2|0,0:0|0:0,0:0:0:0:
463,257,55504,6,2,L|499:267,3,37.5,0|2|2|0,0:0|0:0|0:0|0:0,0:0:0:0:
400,200,55812,6,0,B|306:219|333:176|230:193,1,172.500003290176,6|8,3:2|0:2,0:0:0:0:
95,135,56274,1,0,0:0:0:0:
200,40,56427,2,0,P|190:81|180:124,1,86.2500016450882,0|0,3:2|3:2,0:0:0:0:
130,280,56735,1,8,0:2:0:0:
70,215,56889,1,0,3:2:0:0:
230,193,57043,2,0,P|220:234|210:277,1,86.2500016450882,0|0,3:2|0:2,0:0:0:0:
410,365,57351,6,0,P|400:322|390:280,1,86.2500016450882,8|0,0:2|0:2,0:0:0:0:
470,140,57658,1,2,3:1:0:0:
500,225,57812,1,0,0:0:0:0:
310,160,57966,2,0,P|319:117|329:75,1,86.2500016450882,10|0,0:2|0:2,0:0:0:0:
230,193,58274,6,0,B|136:168|167:200|59:176,1,172.500003290176,0|8,3:2|0:2,0:0:0:0:
10,100,58735,1,0,0:2:0:0:
190,65,58889,1,0,3:2:0:0:
59,176,59043,1,0,3:2:0:0:
230,193,59197,2,0,P|271:181|313:173,1,86.2500016450882,8|0,0:2|0:2,0:0:0:0:
144,215,59504,6,2,L|128:299,1,86.2500016450882,2|0,3:1|0:0,0:1:0:0:
10,100,59812,2,0,L|25:15,1,86.2500016450882,10|0,0:2|0:2,0:0:0:0:
190,65,60120,1,0,3:2:0:0:
120,120,60274,1,0,3:0:0:0:
230,193,60427,2,0,P|271:181|313:173,1,86.2500016450882,8|0,0:2|0:2,0:0:0:0:
485,115,60735,6,0,L|399:101,1,86.2500016450882,0|0,3:2|0:0,0:0:0:0:
315,260,61043,2,0,P|398:261|447:194,1,172.500003290176,8|0,0:2|3:2,0:0:0:0:
230,193,61504,1,0,3:2:0:0:
360,30,61658,2,0,P|322:51|291:80,1,86.2500016450882,8|0,0:2|0:2,0:0:0:0:
135,165,61966,6,0,L|146:271,1,86.2500016450882,0|0,3:2|0:2,0:0:0:0:
210,110,62274,2,0,L|201:24,1,86.2500016450882,8|0,0:2|0:0,0:0:0:0:
45,130,62581,1,0,3:2:0:0:
55,215,62735,1,0,3:2:0:0:
230,193,62889,2,0,L|311:163,1,86.2500016450882,8|0,0:2|0:2,0:0:0:0:
144,250,63197,6,0,B|243:261|204:304|300:313,1,172.500003290176,2|8,3:1|0:2,0:0:0:0:
390,315,63658,1,0,0:2:0:0:
395,140,63812,2,0,L|384:236,1,86.2500016450882,2|0,3:1|3:0,0:0:0:0:
213,108,64120,2,0,P|224:150|230:193,1,86.2500016450882,8|0,0:2|0:2,0:0:0:0:
315,75,64427,5,2,3:1:0:0:
190,15,64581,1,2,3:2:0:0:
100,115,64735,2,0,P|57:107|14:101,1,86.2500016450882,10|2,0:2|0:2,0:0:0:0:
230,192,65043,5,10,0:2:0:0:
5,255,65197,1,8,0:2:0:0:
32,245,65274,1,8,0:2:0:0:
60,240,65351,1,10,0:2:0:0:
89,241,65427,1,8,0:2:0:0:
117,247,65504,1,8,0:2:0:0:
143,258,65581,1,8,0:2:0:0:
167,274,65658,6,0,P|149:313|148:355,1,86.2500016450882,6|0,3:2|0:2,0:0:0:0:
230,192,65966,2,0,L|210:20,1,172.500003290176,10|0,0:2|3:2,0:0:0:0:
210,20,66427,1,0,3:2:0:0:
100,115,66581,1,8,0:2:0:0:
310,150,66735,1,0,3:2:0:0:
136,196,66889,6,0,P|115:278|148:356,1,172.500003290176,0|8,3:2|0:2,0:0:0:0:
225,305,67351,1,0,0:2:0:0:
385,330,67504,2,0,P|342:337|302:352,1,86.2500016450882,2|0,3:1|3:2,0:0:0:0:
450,265,67812,2,0,L|459:179,1,86.2500016450882,10|0,0:2|0:0,0:0:0:0:
319,64,68120,6,0,L|310:150,1,86.2500016450882,0|0,3:2|0:0,0:0:0:0:
225,305,68427,2,0,B|214:208|167:248|152:153,1,172.500003290176,8|0,0:2|3:2,0:0:0:0:
295,235,68889,1,0,3:2:0:0:
120,280,69043,2,0,P|77:275|40:254,1,86.2500016450882,8|0,0:2|0:2,0:0:0:0:
165,68,69351,6,0,L|152:153,1,86.2500016450882,0|0,3:2|0:0,0:0:0:0:
380,248,69658,2,2,L|295:235,1,86.2500016450882,10|0,0:2|0:2,0:1:0:0:
155,360,69966,1,0,3:2:0:0:
212,218,70120,1,0,3:0:0:0:
340,370,70274,1,8,0:0:0:0:
402,162,70427,1,0,3:0:0:0:
402,162,70504,1,2,3:2:0:0:
402,162,70581,2,0,P|421:80|379:7,1,172.500003290176,4|8,3:2|0:2,0:0:0:0:
225,100,71043,1,0,0:0:0:0:
308,150,71197,2,0,L|313:64,1,86.2500016450882,0|0,3:2|3:2,0:0:0:0:
140,10,71504,2,0,P|138:53|134:96,1,86.2500016450882,8|0,0:2|0:2,0:0:0:0:
20,240,71812,6,0,P|84:186|168:198,1,172.500003290176,0|8,3:2|0:2,0:0:0:0:
220,270,72274,1,0,0:2:0:0:
130,365,72427,2,0,P|133:321|135:278,1,86.2500016450882,2|0,3:1|3:2,0:0:0:0:
308,150,72735,2,0,L|303:236,1,86.2500016450882,8|0,0:2|0:0,0:0:0:0:
450,370,73043,6,0,P|470:332|477:289,1,86.2500016450882,4|0,3:2|0:0,0:0:0:0:
440,215,73351,1,8,0:2:0:0:
290,355,73504,6,0,P|332:349|371:331,1,86.2500016450882,2|0,0:2|3:2,0:0:0:0:
478,290,73812,1,0,3:2:0:0:
227,198,73966,6,0,P|264:222|304:236,1,86.2500016450882,10|0,0:2|3:2,0:0:0:0:
440,215,74274,5,8,0:2:0:0:
443,193,74351,1,8,0:2:0:0:
449,173,74427,1,8,0:2:0:0:
459,154,74504,1,8,0:2:0:0:
474,138,74581,1,8,0:2:0:0:
489,123,74658,1,8,0:2:0:0:
501,104,74735,1,8,0:2:0:0:
508,84,74812,1,8,0:2:0:0:
512,63,74889,6,0,B|467:32|467:32|412:50,1,112.5,2|0,0:2|0:0,0:0:0:0:
336,84,75197,6,0,L|328:41,3,43.1250008225441,0|0|0|0,0:0|0:0|0:0|0:2,0:0:0:0:
285,155,75504,6,0,B|261:165|236:158|236:158|203:201|147:188,2,150,6|8|0,3:2|0:2|3:2,0:0:0:0:
222,78,76274,1,0,3:2:0:0:
266,244,76427,1,8,0:2:0:0:
145,280,76581,1,0,0:2:0:0:
285,155,76735,6,0,P|321:165|357:172,1,75,0|0,3:0|0:2,0:0:0:0:
145,280,77043,2,0,P|109:270|73:263,1,75,10|0,0:2|0:2,0:0:0:0:
250,360,77351,1,2,3:2:0:0:
340,330,77504,1,0,3:2:0:0:
250,360,77658,2,0,L|260:281,1,75,10|0,0:2|0:2,0:0:0:0:
285,155,77966,6,0,B|202:138|223:174|136:156,2,150,0|10|0,3:2|0:2|3:2,0:0:0:0:
355,15,78735,1,0,3:2:0:0:
355,15,78889,2,0,L|346:89,1,75,8|0,0:2|0:2,0:0:0:0:
495,165,79197,6,0,L|486:239,1,75,0|0,3:2|0:0,0:0:0:0:
285,155,79504,2,0,L|276:229,1,75,10|0,0:2|0:0,0:0:0:0:
425,295,79812,6,0,L|416:369,1,75,0|0,3:2|3:0,0:0:0:0:
344,286,80120,2,0,L|335:360,1,75,8|0,0:2|0:2,0:0:0:0:
285,155,80427,6,0,B|202:138|223:174|136:156,1,150,4|8,3:2|0:2,0:0:0:0:
20,240,80889,1,0,0:2:0:0:
180,255,81043,2,0,P|144:242|107:235,1,75,0|0,3:2|3:2,0:0:0:0:
110,60,81351,2,0,P|145:72|182:79,1,75,8|0,0:2|0:2,0:0:0:0:
285,155,81658,6,0,L|271:5,1,150,0|8,3:2|0:2,0:0:0:0:
285,155,82120,1,0,0:2:0:0:
390,150,82274,2,0,P|375:184|367:221,1,75,2|0,3:2|3:2,0:0:0:0:
205,210,82581,2,0,P|236:229|264:254,1,75,8|0,0:2|0:2,0:0:0:0:
299,6,82889,6,0,L|285:156,1,150,6|8,3:2|0:2,0:0:0:0:
390,150,83351,1,0,0:2:0:0:
205,210,83504,2,0,P|197:173|195:135,1,75,0|0,3:2|3:2,0:0:0:0:
340,300,83812,2,0,P|347:336|349:374,1,75,8|0,0:2|0:2,0:0:0:0:
185,325,84120,5,0,3:2:0:0:
105,345,84274,1,0,3:2:0:0:
0,250,84438,2,0,L|73:232,1,75,12|0,0:2|3:2,0:0:0:0:
72,232,84687,1,0,3:2:0:0:
72,232,84758,1,12,0:0:0:0:
195,136,84908,5,8,0:2:0:0:
151,152,84979,1,8,0:2:0:0:
105,147,85050,1,8,0:2:0:0:
65,123,85122,1,8,0:2:0:0:
40,85,85193,2,0,L|50:48,1,37.5,8|8,0:2|0:2,0:2:0:0:
130,20,85385,6,0,P|173:29|218:37,1,89.9999972534181,6|0,3:2|0:0,0:0:0:0:
355,160,85674,1,8,0:2:0:0:
310,15,85827,6,0,P|300:58|292:103,1,89.9999972534181,6|0,3:2|0:0,0:0:0:0:
265,230,86135,1,8,0:2:0:0:
425,245,86289,6,0,P|434:201|442:156,1,89.9999972534181,6|0,3:2|0:0,0:0:0:0:
220,155,86577,1,8,0:2:0:0:
395,325,86759,6,0,P|351:315|306:307,1,89.9999972534181,4|0,3:2|0:0,0:0:0:0:
157,367,87044,1,0,3:0:0:0:
157,367,87119,1,0,3:2:0:0:
157,367,87196,1,8,0:2:0:0:
265,230,87350,1,8,0:2:0:0:
75,190,87504,1,8,0:2:0:0:
220,155,87658,6,2,L|207:20,1,134.999995880127,8|2,0:2|0:0,1:1:0:0:
