osu file format v14

[General]
AudioFilename: Misokkasu - Rising Rainbow.mp3
AudioLeadIn: 0
PreviewTime: 55487
Countdown: 0
SampleSet: Soft
StackLeniency: 0.7
Mode: 0
LetterboxInBreaks: 0
WidescreenStoryboard: 1

[Editor]
Bookmarks: 9040,37020,87809
DistanceSpacing: 2.5
BeatDivisor: 4
GridSize: 4
TimelineZoom: 1.5

[Metadata]
Title:Rising Rainbow
TitleUnicode:ライジングレインボウ
Artist:Misokkasu
ArtistUnicode:ミソッカス
Creator:Rave-up
Version:Insane
Source:食戟のソーマ
Tags:soma shokugeki opening anime food wars Karia Umi XiMerx tv size no op2 single
BeatmapID:841101
BeatmapSetID:379296

[Difficulty]
HPDrainRate:6
CircleSize:4
OverallDifficulty:7
ApproachRate:9
SliderMultiplier:1.7
SliderTickRate:1

[Events]
//Background and Video events
Video,375,"optc (1).flv"
0,0,"bg.jpg",0,0
//Break Periods
//Storyboard Layer 0 (Background)
//Storyboard Layer 1 (Fail)
//Storyboard Layer 2 (Pass)
//Storyboard Layer 3 (Foreground)
//Storyboard Sound Samples

[TimingPoints]
718,307.692307692308,4,2,1,60,1,0
1949,-133.333333333333,4,2,1,60,0,0
4718,-100,4,2,1,60,0,0
6872,-100,4,2,1,60,0,0
11179,-133.333333333333,4,2,1,30,0,0
11718,-100,4,2,1,30,0,0
11795,-100,4,2,1,60,0,0
41333,-133.333333333333,4,2,1,55,0,0
45641,-100,4,2,1,65,0,0
53949,-133.333333333333,4,2,1,65,0,0
55487,-133.333333333333,4,2,1,65,0,0
56102,-100,4,2,1,75,0,1
75179,-133.333333333333,4,2,1,30,0,0
75718,-100,4,2,1,30,0,0
75795,-100,4,2,1,70,0,0

[Colours]
Combo1 : 255,128,128
Combo2 : 255,0,128
Combo3 : 64,128,128
Combo4 : 192,192,192
Combo5 : 128,0,255

[HitObjects]
336,117,1948,5,4,0:0:0:0:
336,117,2564,2,0,P|315:174|256:192,1,127.500004863739
287,55,3025,2,0,P|346:38|400:70,1,127.500004863739
432,160,3487,5,8,0:0:0:0:
316,228,3794,1,8,0:0:0:0:
264,112,4102,1,8,0:0:0:0:
264,112,4410,2,0,B|236:104|204:128|204:128|172:100|144:112,1,127.500004863739,8|0,0:0|0:0,0:0:0:0:
168,192,5333,1,0,0:0:0:0:
285,121,5641,6,0,L|304:82,2,42.5,2|2|2,0:0|0:0|0:0,0:0:0:0:
288,256,5948,2,0,L|309:291,2,42.5,2|2|2,0:0|0:0|0:0,0:0:0:0:
168,192,6256,2,0,L|125:192,2,42.5,2|2|2,0:0|0:0|0:0,0:0:0:0:
244,192,6564,1,0,0:0:0:0:
240,112,6871,6,0,P|228:72|228:30,1,85,12|0,0:0|0:0,0:0:0:0:
247,276,7179,2,0,P|259:316|260:359,1,85,8|0,0:0|0:0,0:0:0:0:
167,198,7487,2,0,P|126:210|84:211,1,85,8|0,0:0|0:0,0:0:0:0:
320,194,7794,2,0,P|360:179|403:180,1,85,8|0,0:0|0:0,0:0:0:0:
384,96,8102,5,8,0:0:0:0:
320,40,8256,1,0,0:0:0:0:
400,16,8410,1,8,0:0:0:0:
304,120,8564,1,0,0:0:0:0:
368,176,8718,2,0,P|380:224|364:260,1,85,8|0,0:0|0:0,0:0:0:0:
148,160,9025,2,0,P|136:112|152:76,1,85,8|0,0:0|0:0,0:0:0:0:
264,132,9333,6,0,B|296:156|296:156|256:212|300:284,1,170,4|0,0:0|0:0,0:0:0:0:
396,360,9794,2,0,B|364:336|364:336|404:280|360:208,1,170,4|0,0:0|0:0,0:0:0:0:
448,116,10256,2,0,B|424:148|424:148|352:104|296:160,1,170,4|0,0:0|0:0,0:0:0:0:
196,84,10718,2,0,B|226:107|226:107|188:180|248:232,1,170,4|0,0:0|0:0,0:0:0:0:
160,272,11179,6,0,B|180:316|244:340|300:316|320:268|320:268|360:260,1,223.125008511544
387,263,11794,6,4,P|427:276|468:264,1,85,4|2,0:0|0:0,0:0:0:0:
424,192,12102,1,8,0:0:0:0:
332,80,12256,1,0,0:0:0:0:
223,160,12410,2,2,P|263:172|304:160,1,85
332,80,12718,1,8,0:0:0:0:
175,96,12871,2,0,P|136:166|181:232,1,170
223,160,13333,6,0,L|308:160,1,85,8|0,0:0|0:0,0:0:0:0:
383,116,13641,1,2,0:0:0:0:
272,36,13794,1,2,0:0:0:0:
251,172,13948,2,0,L|214:259,1,85,8|0,0:0|0:0,0:0:0:0:
163,168,14256,6,0,B|187:116|187:116|231:88|231:88|251:28,1,170,4|8,0:0|0:0,0:0:0:0:
171,40,14718,1,0,0:0:0:0:
171,40,14794,1,0,0:0:0:0:
171,40,14871,1,2,0:0:0:0:
253,170,15025,1,2,0:0:0:0:
404,121,15179,2,2,P|365:109|324:120,1,85,8|0,0:0|0:0,0:0:0:0:
120,168,15487,6,2,P|159:180|200:169,1,85
403,120,15794,2,0,P|336:76|264:112,1,170,8|2,0:0|0:0,0:0:0:0:
120,168,16256,1,0,0:0:0:0:
224,188,16410,2,0,P|263:200|304:189,1,85,8|0,0:0|0:0,0:0:0:0:
424,104,16718,6,0,P|384:91|343:102,1,85,4|0,0:0|0:0,0:0:0:0:
304,188,17025,2,0,P|285:256|352:238,1,170,8|2,0:0|0:0,0:0:0:0:
400,164,17487,1,2,0:0:0:0:
343,101,17641,2,0,L|258:97,1,85,8|0,0:0|0:0,0:0:0:0:
79,24,17948,6,0,L|163:27,1,85,4|2,0:0|0:0,0:0:0:0:
280,30,18256,2,0,P|299:98|232:80,1,170,8|2,0:0|0:0,0:0:0:0:
164,28,18718,1,2,0:0:0:0:
120,100,18871,2,0,L|120:200,1,85,8|0,0:0|0:0,0:0:0:0:
80,308,19179,6,2,P|120:320|160:308,1,85,6|2,0:0|0:0,0:0:0:0:
276,128,19487,1,8,0:0:0:0:
204,176,19641,2,0,P|274:216|344:174,1,170,0|2,0:0|0:0,0:0:0:0:
276,128,20102,1,8,0:0:0:0:
276,308,20256,1,0,0:0:0:0:
432,236,20410,2,0,B|440:184|440:184|424:136,1,85,2|2,0:0|0:0,0:0:0:0:
308,72,20718,2,0,B|300:124|300:124|316:172,1,85,8|0,0:0|0:0,0:0:0:0:
212,244,21025,6,0,L|168:296,2,42.5,8|0|0,0:0|0:0|0:0,0:0:0:0:
140,136,21333,1,0,0:0:0:0:
273,133,21486,1,0,0:0:0:0:
296,152,21563,1,0,0:0:0:0:
309,173,21641,6,0,L|400:180,1,85,4|0,0:0|0:0,0:0:0:0:
485,83,21948,2,0,B|477:203|477:203|448:244,1,170,8|2,0:0|0:0,0:0:0:0:
372,284,22410,1,0,0:0:0:0:
296,248,22564,2,0,L|200:236,1,85,8|0,0:0|0:0,0:0:0:0:
72,140,22871,6,2,L|168:152,1,85
381,164,23179,2,0,B|253:152|253:152|228:120,1,170,8|2,0:0|0:0,0:0:0:0:
220,32,23641,1,2,0:0:0:0:
296,68,23794,2,0,L|381:76,1,85,8|0,0:0|0:0,0:0:0:0:
152,84,24102,6,0,B|140:136|140:136|156:204|156:204|140:272,1,170,2|8,0:0|0:0,0:0:0:0:
72,208,24564,1,0,0:0:0:0:
223,152,24718,2,2,P|264:140|303:152,1,85
343,227,25025,2,0,P|302:239|263:226,1,85,8|0,0:0|0:0,0:0:0:0:
348,84,25333,2,0,P|383:157|341:227,1,170,2|8,0:0|0:0,0:0:0:0:
204,312,25948,5,2,0:0:0:0:
220,196,26102,1,2,0:0:0:0:
272,264,26256,1,8,0:0:0:0:
148,244,26410,1,0,0:0:0:0:
96,128,26564,6,0,P|88:88|104:44,1,85,2|0,0:0|0:0,0:0:0:0:
170,98,26871,2,0,P|160:177|72:204,1,170,8|2,0:0|0:0,0:0:0:0:
0,192,27333,1,2,0:0:0:0:
30,110,27487,2,0,P|52:74|89:54,1,85,8|0,0:0|0:0,0:0:0:0:
170,80,27794,6,0,P|147:115|111:135,1,85,2|0,0:0|0:0,0:0:0:0:
39,249,28102,2,0,P|37:168|110:134,1,170,8|2,0:0|0:0,0:0:0:0:
196,144,28564,1,2,0:0:0:0:
260,200,28718,2,0,L|344:204,1,85,8|0,0:0|0:0,0:0:0:0:
404,112,29025,6,0,L|320:108,1,85,2|0,0:0|0:0,0:0:0:0:
236,84,29333,2,0,P|171:35|99:72,1,170,8|0,0:0|0:0,0:0:0:0:
56,144,29794,2,0,P|100:156|139:143,1,85,2|8,0:0|0:0,0:0:0:0:
220,164,30102,1,0,0:0:0:0:
304,144,30256,5,2,0:0:0:0:
284,228,30410,1,0,0:0:0:0:
384,116,30564,1,4,0:0:0:0:
348,284,30718,1,0,0:0:0:0:
444,176,30871,1,2,0:0:0:0:
368,200,31025,1,2,0:0:0:0:
368,200,31102,1,0,0:0:0:0:
368,200,31179,2,0,L|268:180,1,85,8|0,0:0|0:0,0:0:0:0:
96,144,31487,6,0,L|180:161,1,85,6|0,0:0|0:0,0:0:0:0:
67,64,31794,2,0,P|16:124|40:208,1,170,8|2,0:0|0:0,0:0:0:0:
92,140,32256,1,0,0:0:0:0:
176,124,32410,2,0,L|262:117,1,85,8|0,0:0|0:0,0:0:0:0:
288,36,32718,6,2,L|202:42,1,85
176,124,33025,2,0,P|213:196|296:202,1,170,8|2,0:0|0:0,0:0:0:0:
112,56,33487,1,2,0:0:0:0:
0,131,33641,2,0,P|39:146|80:136,1,85,8|0,0:0|0:0,0:0:0:0:
276,52,33948,6,0,P|238:37|198:48,1,85
0,131,34256,2,0,P|37:203|119:208,1,170,8|2,0:0|0:0,0:0:0:0:
204,200,34718,1,2,0:0:0:0:
350,254,34871,2,0,P|310:267|272:252,1,85,8|0,0:0|0:0,0:0:0:0:
259,54,35179,2,0,P|326:99|316:180,1,170,2|8,0:0|0:0,0:0:0:0:
92,200,35794,5,2,0:0:0:0:
204,164,35948,1,2,0:0:0:0:
128,124,36102,1,8,0:0:0:0:
164,240,36256,1,0,0:0:0:0:
332,296,36410,6,0,P|372:308|416:296,1,85,6|0,0:0|0:0,0:0:0:0:
456,224,36718,2,0,P|416:212|372:224,1,85,8|0,0:0|0:0,0:0:0:0:
220,172,37025,1,0,0:0:0:0:
292,216,37179,1,2,0:0:0:0:
316,36,37333,1,8,0:0:0:0:
188,92,37487,1,0,0:0:0:0:
188,92,37641,6,0,P|232:84|276:100,1,85,2|0,0:0|0:0,0:0:0:0:
433,123,37948,2,0,P|392:132|352:120,1,85,8|2,0:0|0:0,0:0:0:0:
316,36,38256,1,0,0:0:0:0:
472,188,38410,1,2,0:0:0:0:
308,236,38564,2,0,P|268:224|216:240,1,85,8|0,0:0|0:0,0:0:0:0:
30,267,38871,6,0,P|91:319|176:292,1,170,2|8,0:0|0:0,0:0:0:0:
138,141,39333,2,0,L|116:224,1,85,0|2,0:0|0:0,0:0:0:0:
171,296,39641,1,2,0:0:0:0:
216,108,39794,2,0,P|155:55|78:82,1,170,8|2,0:0|0:0,0:0:0:0:
58,270,40256,1,0,0:0:0:0:
58,270,40410,2,0,P|50:229|60:188,1,85,8|0,0:0|0:0,0:0:0:0:
120,72,40718,6,0,L|88:112,3,42.5
148,52,41025,1,0,0:0:0:0:
173,41,41101,1,0,0:0:0:0:
200,36,41178,1,0,0:0:0:0:
227,37,41255,1,0,0:0:0:0:
254,45,41333,6,0,P|312:68|372:44,1,127.500004863739,4|8,0:0|0:0,0:0:0:0:
420,128,41794,2,0,P|443:185|420:244,1,127.500004863739
364,320,42256,1,0,0:0:0:0:
312,240,42410,2,0,P|304:209|306:177,1,63.7500024318696,8|0,0:0|0:0,0:0:0:0:
360,100,42718,1,0,0:0:0:0:
414,181,42871,2,0,P|422:212|420:244,1,63.7500024318696,8|0,0:0|0:0,0:0:0:0:
344,300,43179,5,2,0:0:0:0:
264,248,43333,1,2,0:0:0:0:
168,248,43487,2,0,L|76:240,1,63.7500024318696,8|0,0:0|0:0,0:0:0:0:
40,126,43794,6,0,P|96:100|152:136,1,127.500004863739,0|8,0:0|0:0,0:0:0:0:
328,196,44256,2,0,P|273:222|220:192,1,127.500004863739,0|0,0:0|0:0,0:0:0:0:
148,130,44718,5,0,0:0:0:0:
223,70,44871,2,0,P|253:62|288:72,1,63.7500024318696,8|0,0:0|0:0,0:0:0:0:
340,146,45179,1,0,0:0:0:0:
272,212,45333,2,0,P|242:220|207:210,1,63.7500024318696,4|0,0:0|0:0,0:0:0:0:
248,136,45641,5,10,0:0:0:0:
263,113,45717,1,2,0:0:0:0:
285,96,45794,1,2,0:0:0:0:
311,88,45871,1,2,0:0:0:0:
337,90,45948,2,0,P|380:88|424:92,1,85,10|2,0:0|0:0,0:0:0:0:
452,172,46256,6,0,P|460:220|444:264,1,85,12|0,0:0|0:0,0:0:0:0:
312,276,46564,2,0,P|348:255|371:219,1,85,8|0,0:0|0:0,0:0:0:0:
288,196,46871,2,0,P|246:204|205:193,1,85,8|0,0:0|0:0,0:0:0:0:
183,56,47179,2,0,P|204:92|240:116,1,85,8|0,0:0|0:0,0:0:0:0:
396,52,47487,5,8,0:0:0:0:
316,84,47641,1,0,0:0:0:0:
412,132,47794,1,8,0:0:0:0:
332,164,47948,1,0,0:0:0:0:
428,212,48102,1,8,0:0:0:0:
348,244,48256,1,0,0:0:0:0:
444,292,48410,2,0,B|396:328|396:328|344:332,1,85,8|2,0:0|0:0,0:0:0:0:
292,300,48718,6,0,B|245:281|245:281|114:297,1,170,12|12,0:0|0:0,0:0:0:0:
62,239,49179,1,2,0:0:0:0:
203,173,49333,1,12,0:0:0:0:
54,139,49487,1,0,0:0:0:0:
196,81,49641,1,8,0:0:0:0:
119,47,49794,6,0,L|129:131,1,85,4|0,0:0|0:0,0:0:0:0:
140,217,50102,1,2,0:0:0:0:
299,250,50256,2,0,P|260:236|220:248,1,85,8|2,0:0|0:0,0:0:0:0:
152,300,50564,5,12,0:0:0:0:
165,323,50640,1,0,0:0:0:0:
184,343,50717,1,0,0:0:0:0:
208,358,50794,1,0,0:0:0:0:
233,368,50871,1,2,0:0:0:0:
261,370,50948,1,0,0:0:0:0:
288,367,51025,1,0,0:0:0:0:
314,357,51102,1,0,0:0:0:0:
336,340,51179,6,2,L|376:307,5,42.5,10|2|2|2|2|2,0:0|0:0|0:0|0:0|0:0|0:0,0:0:0:0:
388,272,51641,2,2,L|388:216,5,42.5,10|2|2|2|2|2,0:0|0:0|0:0|0:0|0:0|0:0,0:0:0:0:
380,188,52102,2,2,L|348:136,5,42.5,10|2|2|2|2|2,0:0|0:0|0:0|0:0|0:0|0:0,0:0:0:0:
324,124,52564,2,2,L|264:96,5,42.5,10|2|2|2|2|2,0:0|0:0|0:0|0:0|0:0|0:0,0:0:0:0:
244,100,53025,2,2,L|180:100,4,42.5,10|2|2|2|6,0:0|0:0|0:0|0:0|0:0,0:0:0:0:
256,16,53641,5,4,0:0:0:0:
172,192,53948,5,0,0:0:0:0:
96,52,54102,1,4,0:0:0:0:
340,192,54410,5,0,0:0:0:0:
416,52,54564,1,4,0:0:0:0:
256,192,54871,5,0,0:0:0:0:
252,32,55025,1,4,0:0:0:0:
256,104,56102,6,0,L|352:104,1,85,4|0,0:0|0:0,0:0:0:0:
481,208,56410,2,0,L|396:208,1,85,8|0,0:0|0:0,0:0:0:0:
219,271,56718,2,0,P|260:283|299:267,1,85,2|2,0:0|0:0,0:0:0:0:
396,208,57025,1,8,0:0:0:0:
172,200,57179,6,0,P|136:268|180:348,1,170,0|2,0:0|0:0,0:0:0:0:
268,268,57641,2,0,L|360:272,1,85,8|0,0:0|0:0,0:0:0:0:
416,216,57948,1,2,0:0:0:0:
312,352,58102,1,2,0:0:0:0:
269,163,58256,2,0,P|309:152|348:168,1,85,8|0,0:0|0:0,0:0:0:0:
395,71,58564,6,0,P|321:34|240:56,1,170,6|8,0:0|0:0,0:0:0:0:
116,126,59025,1,0,0:0:0:0:
116,126,59102,1,0,0:0:0:0:
116,126,59179,2,0,P|156:139|197:127,1,85,2|2,0:0|0:0,0:0:0:0:
241,55,59487,2,0,P|202:43|161:54,1,85,8|0,0:0|0:0,0:0:0:0:
332,56,59794,6,2,L|420:50,1,85
460,130,60102,2,0,L|372:136,1,85,8|0,0:0|0:0,0:0:0:0:
296,168,60410,1,2,0:0:0:0:
416,50,60564,1,2,0:0:0:0:
476,228,60718,2,0,P|435:222|393:227,1,85,8|0,0:0|0:0,0:0:0:0:
220,344,61025,6,4,P|208:304|220:260,1,85,4|2,0:0|0:0,0:0:0:0:
316,64,61333,2,0,P|332:143|275:202,1,170,8|2,0:0|0:0,0:0:0:0:
192,180,61794,1,2,0:0:0:0:
176,96,61948,2,0,P|200:60|248:44,1,85,8|0,0:0|0:0,0:0:0:0:
400,120,62256,6,4,P|380:156|340:179,1,85,4|2,0:0|0:0,0:0:0:0:
134,250,62564,2,0,P|178:182|260:181,1,170,8|2,0:0|0:0,0:0:0:0:
302,255,63025,1,2,0:0:0:0:
274,335,63179,2,0,P|231:343|186:320,1,85,8|0,0:0|0:0,0:0:0:0:
40,172,63487,6,2,L|128:180,1,85,6|2,0:0|0:0,0:0:0:0:
180,100,63794,1,8,0:0:0:0:
86,268,63948,1,0,0:0:0:0:
8,100,64102,1,2,0:0:0:0:
12,220,64256,1,2,0:0:0:0:
176,220,64410,2,0,L|264:228,1,85,8|0,0:0|0:0,0:0:0:0:
428,292,64718,2,2,P|439:248|435:209,1,85
388,148,64948,1,0,0:0:0:0:
388,148,65025,2,0,L|312:108,1,85,8|0,0:0|0:0,0:0:0:0:
192,64,65333,5,0,0:0:0:0:
166,54,65409,1,0,0:0:0:0:
138,52,65486,1,0,0:0:0:0:
111,58,65563,1,0,0:0:0:0:
87,71,65640,1,0,0:0:0:0:
68,91,65717,1,0,0:0:0:0:
55,115,65794,1,0,0:0:0:0:
50,142,65871,1,0,0:0:0:0:
60,168,65948,6,0,L|177:197,1,85,6|0,0:0|0:0,0:0:0:0:
378,272,66256,2,0,L|296:252,1,85,8|0,0:0|0:0,0:0:0:0:
171,292,66564,2,0,P|131:301|93:283,1,85
48,212,66871,1,8,0:0:0:0:
224,224,67025,6,0,P|256:292|208:368,1,170
165,149,67487,2,0,P|153:108|158:66,1,85,8|2,0:0|0:0,0:0:0:0:
290,42,67794,2,0,P|257:68|237:105,1,85,2|2,0:0|0:0,0:0:0:0:
324,120,68102,2,0,P|364:109|406:113,1,85,8|0,0:0|0:0,0:0:0:0:
282,195,68410,6,0,P|240:124|280:48,1,170,4|8,0:0|0:0,0:0:0:0:
324,272,68871,1,0,0:0:0:0:
324,272,68948,1,0,0:0:0:0:
324,272,69025,2,0,P|284:283|244:271,1,85,2|2,0:0|0:0,0:0:0:0:
99,212,69333,2,0,P|140:201|180:213,1,85,8|0,0:0|0:0,0:0:0:0:
278,293,69641,6,0,P|207:332|140:288,1,170,2|8,0:0|0:0,0:0:0:0:
100,212,70102,1,0,0:0:0:0:
132,132,70256,2,2,L|224:132,1,85
381,132,70564,2,0,L|296:132,1,85,8|0,0:0|0:0,0:0:0:0:
243,220,70871,6,0,P|235:261|239:303,1,85,4|0,0:0|0:0,0:0:0:0:
320,176,71179,2,0,P|401:187|461:131,1,170,8|2,0:0|0:0,0:0:0:0:
484,48,71641,1,2,0:0:0:0:
404,40,71794,2,0,P|336:48|312:44,1,85,8|0,0:0|0:0,0:0:0:0:
152,42,72102,6,0,P|193:50|236:47,1,85,6|0,0:0|0:0,0:0:0:0:
285,121,72410,2,0,B|320:152|308:196|308:196|296:232|332:280,1,170,8|0,0:0|0:0,0:0:0:0:
368,352,72871,1,2,0:0:0:0:
284,356,73025,2,0,L|180:356,1,85,8|0,0:0|0:0,0:0:0:0:
88,296,73333,6,0,P|36:220|80:148,1,170,4|8,0:0|0:0,0:0:0:0:
209,209,73794,2,0,L|124:220,1,85,2|2,0:0|0:0,0:0:0:0:
66,157,74101,1,2,0:0:0:0:
129,97,74256,2,0,L|214:86,1,85,8|0,0:0|0:0,0:0:0:0:
292,120,74564,5,0,0:0:0:0:
309,142,74640,1,0,0:0:0:0:
330,159,74717,1,0,0:0:0:0:
355,171,74794,1,0,0:0:0:0:
382,176,74871,1,0,0:0:0:0:
410,175,74948,1,0,0:0:0:0:
436,168,75025,1,0,0:0:0:0:
460,155,75102,1,0,0:0:0:0:
484,132,75179,6,0,P|508:84|400:96,1,223.125008511544
360,104,75794,6,0,P|324:120|276:104,1,85,4|0,0:0|0:0,0:0:0:0:
111,108,76102,2,0,L|196:108,1,85,8|0,0:0|0:0,0:0:0:0:
220,191,76410,2,0,L|136:192,1,85,2|0,0:0|0:0,0:0:0:0:
64,240,76718,1,8,0:0:0:0:
269,120,76871,2,0,P|307:192|268:264,1,170,0|2,0:0|0:0,0:0:0:0:
232,340,77333,6,0,P|198:314|188:274,1,85,8|0,0:0|0:0,0:0:0:0:
80,176,77641,1,2,0:0:0:0:
224,176,77794,1,2,0:0:0:0:
112,276,77948,2,0,P|101:316|67:341,1,85,8|0,0:0|0:0,0:0:0:0:
80,176,78256,6,0,P|110:100|138:158,1,170,4|8,0:0|0:0,0:0:0:0:
204,212,78718,1,0,0:0:0:0:
204,212,78794,1,0,0:0:0:0:
204,212,78871,2,0,L|293:224,1,85,2|2,0:0|0:0,0:0:0:0:
208,124,79179,2,0,L|124:112,1,85,8|0,0:0|0:0,0:0:0:0:
36,20,79487,6,0,L|120:32,1,85,2|2,0:0|0:0,0:0:0:0:
248,48,79794,2,0,P|313:73|259:119,1,170,8|2,0:0|0:0,0:0:0:0:
176,116,80256,1,2,0:0:0:0:
96,144,80410,2,0,P|55:156|15:144,1,85,8|0,0:0|0:0,0:0:0:0:
60,72,80718,6,0,P|96:60|140:72,1,85,4|0,0:0|0:0,0:0:0:0:
184,144,81025,2,0,P|254:184|328:144,1,170,8|2,0:0|0:0,0:0:0:0:
436,43,81487,1,2,0:0:0:0:
406,144,81641,2,0,P|366:157|326:145,1,85,8|0,0:0|0:0,0:0:0:0:
369,72,81949,6,2,P|409:59|450:72,1,85,6|2,0:0|0:0,0:0:0:0:
326,145,82256,2,0,P|254:185|182:129,1,170,8|2,0:0|0:0,0:0:0:0:
110,105,82718,1,2,0:0:0:0:
82,185,82871,2,0,P|94:229|82:277,1,85,8|0,0:0|0:0,0:0:0:0:
86,266,83102,1,0,0:0:0:0:
86,266,83179,5,6,0:0:0:0:
264,164,83487,1,8,0:0:0:0:
204,224,83641,1,0,0:0:0:0:
248,84,83794,1,2,0:0:0:0:
184,140,83948,1,2,0:0:0:0:
328,112,84102,2,0,L|416:112,1,85,8|0,0:0|0:0,0:0:0:0:
501,196,84410,2,0,L|416:196,1,85,2|2,0:0|0:0,0:0:0:0:
307,280,84718,2,0,L|392:280,1,85,8|0,0:0|0:0,0:0:0:0:
328,200,85025,5,8,0:0:0:0:
307,181,85101,1,0,0:0:0:0:
281,172,85178,1,0,0:0:0:0:
254,174,85255,1,0,0:0:0:0:
230,187,85333,2,0,P|187:203|143:187,1,85,8|0,0:0|0:0,0:0:0:0:
100,76,85641,6,0,L|188:76,1,85,6|0,0:0|0:0,0:0:0:0:
380,164,85948,5,2,0:0:0:0:
380,164,86102,2,0,L|284:164,1,85,8|0,0:0|0:0,0:0:0:0:
92,232,86410,5,2,0:0:0:0:
92,232,86564,2,0,L|192:232,1,85,8|0,0:0|0:0,0:0:0:0:
376,308,86871,5,2,0:0:0:0:
376,308,87025,2,0,L|284:308,2,85,8|0|0,0:0|0:0|0:0,0:0:0:0:
316,225,87487,5,10,0:0:0:0:
204,80,87641,1,10,0:0:0:0:
204,225,87794,1,10,0:0:0:0:
316,80,87948,1,10,0:0:0:0:
