osu file format v14

[General]
AudioFilename: audio.mp3
AudioLeadIn: 0
PreviewTime: 45641
Countdown: 1
SampleSet: Normal
StackLeniency: 0.5
Mode: 0
LetterboxInBreaks: 0
WidescreenStoryboard: 1

[Editor]
DistanceSpacing: 0.9
BeatDivisor: 4
GridSize: 4
TimelineZoom: 1

[Metadata]
Title:Rising Rainbow
TitleUnicode:Rising Rainbow
Artist:Misokassu
ArtistUnicode:Misokassu
Creator:Turquoise2
Version:2010
Source:
Tags:shokugeki no souma
BeatmapID:1307470
BeatmapSetID:620362

[Difficulty]
HPDrainRate:4
CircleSize:5.3
OverallDifficulty:7
ApproachRate:8
SliderMultiplier:1.5
SliderTickRate:1

[Events]
//Background and Video events
0,0,"shokugeki no souma.png",0,0
//Break Periods
//Storyboard Layer 0 (Background)
//Storyboard Layer 1 (Fail)
//Storyboard Layer 2 (Pass)
//Storyboard Layer 3 (Foreground)
//Storyboard Sound Samples

[TimingPoints]
718,307.692307692308,4,1,0,80,1,0
1333,-133.333333333333,4,1,0,80,0,0
2102,-133.333333333333,4,1,0,30,0,0
3487,-133.333333333333,4,1,0,80,0,0
3794,-117.647058823529,4,1,0,80,0,0
4102,-105.263157894737,4,1,0,70,0,0
5641,-100,4,1,0,80,0,0

[HitObjects]
208,88,1333,6,0,B|248:72|296:64|296:64|336:72,2,112.500004291535
388,88,2564,1,0,0:0:0:0:
312,132,2871,1,0,0:0:0:0:
272,156,3025,1,0,0:0:0:0:
64,280,3487,1,0,0:0:0:0:
164,280,3794,1,0,0:0:0:0:
280,280,4102,1,0,0:0:0:0:
396,280,4410,1,0,0:0:0:0:
280,280,4718,1,0,0:0:0:0:
208,88,5333,1,0,0:0:0:0:
256,192,5641,5,0,0:0:0:0:
220,192,5718,1,0,0:0:0:0:
184,188,5794,1,0,0:0:0:0:
156,220,5871,1,0,0:0:0:0:
172,268,5948,1,0,0:0:0:0:
208,284,6025,1,0,0:0:0:0:
248,284,6102,1,0,0:0:0:0:
284,272,6179,1,0,0:0:0:0:
328,248,6256,1,0,0:0:0:0:
356,216,6333,1,0,0:0:0:0:
384,172,6410,1,0,0:0:0:0:
396,136,6487,1,0,0:0:0:0:
396,104,6564,2,0,B|328:76|328:76|244:112,1,150
104,192,7179,5,0,0:0:0:0:
104,41,7333,1,0,0:0:0:0:
254,42,7487,1,0,0:0:0:0:
254,192,7641,1,0,0:0:0:0:
104,192,7794,5,0,0:0:0:0:
104,343,7948,1,0,0:0:0:0:
254,342,8102,1,0,0:0:0:0:
254,192,8256,1,0,0:0:0:0:
404,192,8410,5,0,0:0:0:0:
404,41,8564,1,0,0:0:0:0:
254,42,8718,1,0,0:0:0:0:
254,192,8872,1,0,0:0:0:0:
404,192,9025,5,0,0:0:0:0:
404,343,9179,1,0,0:0:0:0:
254,342,9333,1,0,0:0:0:0:
254,342,9487,1,0,0:0:0:0:
256,192,9794,1,0,0:0:0:0:
256,192,9948,1,0,0:0:0:0:
256,24,10256,1,0,0:0:0:0:
256,24,10410,1,0,0:0:0:0:
52,192,10718,6,0,B|184:264|184:264|264:216,2,225
252,76,11794,1,0,0:0:0:0:
252,76,11948,1,0,0:0:0:0:
252,308,12102,1,0,0:0:0:0:
252,308,12256,1,0,0:0:0:0:
292,212,12410,2,0,B|284:264|284:264|256:296,2,75
220,172,12871,2,0,B|228:120|228:120|256:88,2,75
348,272,13333,2,0,B|416:256|416:256|456:168,1,150
164,112,13948,2,0,B|96:128|96:128|56:216,1,150
256,192,14564,1,0,0:0:0:0:
449,183,15179,5,0,0:0:0:0:
256,40,15487,1,0,0:0:0:0:
256,188,15794,1,0,0:0:0:0:
256,340,16102,1,0,0:0:0:0:
104,340,16410,1,0,0:0:0:0:
104,188,16718,1,0,0:0:0:0:
104,188,17641,1,0,0:0:0:0:
252,188,17948,1,0,0:0:0:0:
404,188,18256,1,0,0:0:0:0:
316,312,18564,1,0,0:0:0:0:
316,164,18871,1,0,0:0:0:0:
192,80,19179,2,0,B|128:256|152:284|152:284|180:324,2,225
328,148,20410,1,0,0:0:0:0:
464,212,20718,1,0,0:0:0:0:
332,284,21025,5,0,0:0:0:0:
292,288,21102,1,0,0:0:0:0:
260,280,21179,1,0,0:0:0:0:
224,264,21256,1,0,0:0:0:0:
216,240,21333,1,0,0:0:0:0:
212,208,21410,1,0,0:0:0:0:
216,184,21487,1,0,0:0:0:0:
228,168,21564,1,0,0:0:0:0:
240,152,21641,1,0,0:0:0:0:
