osu file format v14

[General]
AudioFilename: audio.mp3
AudioLeadIn: 0
PreviewTime: 67813
Countdown: 0
SampleSet: Soft
StackLeniency: 0.7
Mode: 0
LetterboxInBreaks: 0
WidescreenStoryboard: 1

[Editor]
Bookmarks: 1573,2293,9973,19573,25333,39682,58462,84853,84883,84913,84943
DistanceSpacing: 1.6
BeatDivisor: 4
GridSize: 4
TimelineZoom: 2.4

[Metadata]
Title:Staring at star
TitleUnicode:Staring at star
Artist:MisoilePunch~Takenoko Shounen~
ArtistUnicode:MisoilePunch♪ ~タケノコ添え~
Creator:Sladkoru
Version:MAXIMUM
Source:SOUND VOLTEX IV HEAVENLY HAVEN
Tags:SDVX Ω Dimension Phase 1 KONAMI Original Song Contest Winner MisomyL Ponchi Takenoko Shounen
BeatmapID:2101173
BeatmapSetID:962642

[Difficulty]
HPDrainRate:5.7
CircleSize:4.5
OverallDifficulty:9.4
ApproachRate:9.8
SliderMultiplier:1.2
SliderTickRate:1

[Events]
//Background and Video events
0,0,"BG.jpg",0,0
//Break Periods
2,19773,25333
2,50493,57014
//Storyboard Layer 0 (Background)
//Storyboard Layer 1 (Fail)
//Storyboard Layer 2 (Pass)
//Storyboard Layer 3 (Foreground)
//Storyboard Sound Samples

[TimingPoints]
1573,240,4,2,6,30,1,0
1573,-200,4,2,4,30,0,0
1813,-200,4,2,4,40,0,0
2053,-200,4,2,4,50,0,0
2293,240,4,2,6,60,1,0
2293,-200,4,2,6,60,0,0
3733,-83.3333333333333,4,2,6,65,0,0
4213,-83.3333333333333,4,2,6,75,0,0
8053,-71.4285714285714,4,2,6,85,0,0
9973,-71.4285714285714,4,2,6,65,0,0
11893,-71.4285714285714,4,2,6,75,0,0
18853,-71.4285714285714,4,2,6,50,0,0
19573,-71.4285714285714,4,2,10,50,0,0
25333,-71.4285714285714,4,2,6,50,0,0
26293,-100,4,2,6,40,0,0
26773,-100,4,2,6,60,0,0
27253,-71.4285714285714,4,2,6,65,0,0
34933,-71.4285714285714,4,2,6,75,0,0
36013,-71.4285714285714,4,2,6,65,0,0
36373,-71.4285714285714,4,2,6,40,0,0
36853,-71.4285714285714,4,2,6,65,0,0
37813,-100,4,2,6,40,0,0
38773,-71.4285714285714,4,2,6,65,0,0
41413,-83.3333333333333,4,2,6,65,0,0
41653,-100,4,2,6,65,0,0
41893,-125,4,2,6,65,0,0
42133,-71.4285714285714,4,2,6,65,0,0
42733,-71.4285714285714,4,2,6,65,0,0
46453,-71.4285714285714,4,2,6,75,0,0
48373,-71.4285714285714,4,2,6,65,0,0
49333,-71.4285714285714,4,2,6,80,0,0
50293,-71.4285714285714,4,2,10,80,0,0
57013,-125,4,2,6,40,0,0
61813,-125,4,2,6,40,0,0
62293,-90.9090909090909,4,2,6,45,0,0
62773,-90.9090909090909,4,2,6,50,0,0
63013,-90.9090909090909,4,2,6,55,0,0
63253,-90.9090909090909,4,2,6,60,0,0
63493,-55.5555555555556,4,2,6,65,0,0
63733,-83.3333333333333,4,2,6,65,0,0
65413,-83.3333333333333,4,2,6,85,0,0
66853,-166.666666666667,4,2,4,30,0,0
67093,-166.666666666667,4,2,4,40,0,0
67333,-166.666666666667,4,2,4,50,0,0
67573,-62.5,4,2,6,95,0,1
78253,-62.5,4,2,6,5,0,1
78313,-62.5,4,2,6,95,0,1
78433,-62.5,4,2,6,5,0,1
78493,-62.5,4,2,6,95,0,1
78553,-62.5,4,2,6,5,0,1
78613,-62.5,4,2,6,95,0,1
78733,-62.5,4,2,6,5,0,1
78793,-62.5,4,2,6,95,0,1
78913,-62.5,4,2,6,5,0,1
78973,-62.5,4,2,6,95,0,1
79033,-62.5,4,2,6,5,0,1
79093,-62.5,4,2,6,95,0,1
82933,-62.5,4,2,6,70,0,0
83293,-62.5,4,2,6,95,0,1
90613,-62.5,4,2,6,80,0,1
92533,-62.5,4,2,6,95,0,1
97333,-83.3333333333333,4,2,6,95,0,1
97573,-83.3333333333333,4,2,6,85,0,1
97813,-83.3333333333333,4,2,6,75,0,1
98053,-83.3333333333333,4,2,6,65,0,1
98293,-83.3333333333333,4,2,6,55,0,0
102493,-83.3333333333333,4,2,6,60,0,0
103093,-83.3333333333333,4,2,6,65,0,0
103573,-83.3333333333333,4,2,6,70,0,0
103813,-83.3333333333333,4,2,6,75,0,0
105973,-83.3333333333333,4,2,6,85,0,0
107893,-83.3333333333333,4,2,6,85,0,0
108133,-83.3333333333333,4,2,6,80,0,0
108373,-100,4,2,6,75,0,0
108613,-125,4,2,6,70,0,0
108853,-125,4,2,6,65,0,0
109093,-125,4,2,6,60,0,0
109333,-125,4,2,6,55,0,0
109573,-125,4,2,6,50,0,0
109813,-83.3333333333333,4,2,6,60,0,0
110293,-83.3333333333333,4,2,6,65,0,0
110773,-83.3333333333333,4,2,6,70,0,0
111253,-83.3333333333333,4,2,6,75,0,0
111733,-83.3333333333333,4,2,6,80,0,0
113173,-83.3333333333333,4,2,6,90,0,0
113893,-83.3333333333333,4,2,10,90,0,0
116533,-83.3333333333333,4,2,6,5,0,0

[Colours]
Combo1 : 49,89,196
Combo2 : 232,28,201
Combo3 : 166,40,159
Combo4 : 82,209,220

[HitObjects]
74,57,1573,5,2,1:2:0:0:
147,116,1813,1,2,1:2:0:0:
76,175,2053,1,2,1:2:0:0:
233,57,2293,6,0,B|355:35|311:132|428:109,1,210,6|2,3:2|0:0,0:0:0:0:
464,114,3193,1,0,1:0:0:0:
464,114,3253,1,0,1:0:0:0:
400,43,3733,5,8,1:3:0:0:
346,136,3853,2,0,P|344:157|341:175,2,35.9999989013672,8|8|8,1:3|0:3|0:3,0:0:0:0:
305,31,4093,1,2,1:0:0:0:
198,73,4213,6,0,P|195:122|192:166,1,71.9999978027344,6|0,1:2|0:0,0:0:0:0:
48,56,4453,1,2,1:2:0:0:
151,222,4573,1,2,1:2:0:0:
151,222,4633,1,2,1:2:0:0:
151,222,4693,1,8,1:2:0:0:
56,179,4813,1,2,1:0:0:0:
267,182,4933,1,0,1:0:0:0:
108,345,5053,2,0,P|76:340|60:340,1,35.9999989013672,2|2,1:2|0:0,0:0:0:0:
317,284,5173,6,0,P|368:278|411:278,1,71.9999978027344,6|2,1:2|0:0,0:0:0:0:
373,95,5413,1,2,1:2:0:0:
233,313,5533,2,0,B|215:225|268:250|250:169,1,143.999995605469,8|8,1:2|0:3,0:0:0:0:
214,117,5833,1,8,0:3:0:0:
214,117,5893,2,0,P|175:110|153:108,1,35.9999989013672,8|8,1:3|0:3,0:0:0:0:
83,157,6013,2,0,P|122:150|144:148,1,35.9999989013672,8|8,1:3|0:3,0:0:0:0:
229,32,6133,6,0,P|273:27|317:25,1,71.9999978027344,6|0,1:2|0:0,0:0:0:0:
411,90,6373,1,0,1:0:0:0:
351,171,6493,1,2,1:2:0:0:
351,171,6553,1,2,1:2:0:0:
351,171,6613,2,0,P|354:219|358:253,1,71.9999978027344,8|0,1:2|0:0,0:0:0:0:
304,347,6853,1,2,1:2:0:0:
216,156,6973,1,2,1:2:0:0:
148,331,7093,5,0,1:0:0:0:
268,277,7213,1,8,1:2:0:0:
143,218,7333,1,2,1:2:0:0:
226,341,7453,1,2,1:2:0:0:
106,109,7573,5,8,1:2:0:0:
351,171,7693,1,8,1:2:0:0:
147,45,7813,1,8,1:2:0:0:
156,233,7933,1,8,1:2:0:0:
343,76,8053,6,0,P|383:70|432:66,1,83.9999974365235,8|2,1:2|0:0,0:0:0:0:
268,277,8293,1,2,1:2:0:0:
147,45,8413,6,0,P|107:39|58:35,1,83.9999974365235,8|2,1:2|0:0,0:0:0:0:
272,295,8653,1,2,1:2:0:0:
249,10,8773,6,0,P|244:68|240:109,1,83.9999974365235,8|2,1:2|0:2,0:0:0:0:
276,313,9013,1,2,1:2:0:0:
75,202,9133,6,0,P|131:196|169:193,1,83.9999974365235,8|2,1:2|0:0,0:0:0:0:
306,213,9373,1,2,1:2:0:0:
161,368,9493,1,8,1:0:0:0:
141,364,9553,1,8,1:3:0:0:
120,360,9613,1,8,1:3:0:0:
99,356,9673,1,8,1:3:0:0:
79,352,9733,2,0,P|89:309|99:264,1,83.9999974365235,8|0,1:2|0:0,0:0:0:0:
226,125,9973,6,0,P|235:89|237:65,2,55.9999982910157,2|0|0,1:2|0:0|0:0,0:0:0:0:
328,212,10213,2,0,P|337:248|339:272,2,55.9999982910157,8|0|0,1:2|0:0|0:0,0:0:0:0:
323,110,10453,2,0,P|359:101|383:99,2,55.9999982910157,0|0|0,1:0|0:0|0:0,0:0:0:0:
236,212,10693,2,0,P|200:203|176:201,2,55.9999982910157,8|0|0,1:2|0:0|0:0,0:0:0:0:
399,184,10933,5,2,1:2:0:0:
399,184,11013,2,0,B|426:191|426:191|456:187,1,55.9999982910157,0|0,1:0|0:0,0:0:0:0:
495,60,11173,5,2,1:2:0:0:
495,60,11253,2,0,B|468:53|468:53|438:57,1,55.9999982910157,0|0,1:2|0:0,0:0:0:0:
323,110,11413,6,0,L|263:125,1,55.9999982910157,8|0,1:2|0:0,0:0:0:0:
140,0,11573,2,0,L|182:44,1,55.9999982910157,8|0,1:2|0:0,0:0:0:0:
136,213,11733,2,0,L|153:153,1,55.9999982910157,8|0,1:2|0:0,0:0:0:0:
248,281,11893,5,8,1:2:0:0:
141,318,12013,1,0,1:2:0:0:
266,206,12133,1,8,1:2:0:0:
240,353,12253,1,0,1:2:0:0:
163,143,12373,5,2,1:2:0:0:
321,295,12493,1,0,1:2:0:0:
89,268,12613,1,2,1:2:0:0:
283,200,12733,1,0,1:2:0:0:
92,60,12853,5,2,1:2:0:0:
170,159,12973,1,0,1:2:0:0:
1,41,13093,1,2,1:2:0:0:
181,64,13213,2,0,P|232:59|360:55,1,167.999994873047,8|2,1:2|0:0,0:0:0:0:
391,78,13513,1,2,1:2:0:0:
391,78,13573,2,0,P|388:127|386:168,1,83.9999974365235,0|2,1:2|0:0,0:0:0:0:
512,286,13813,6,0,P|509:244|507:202,1,83.9999974365235,8|0,1:2|0:0,0:0:0:0:
397,334,14053,1,8,1:2:0:0:
301,237,14173,1,2,1:2:0:0:
440,255,14293,1,8,1:2:0:0:
241,299,14413,1,2,1:2:0:0:
361,144,14533,1,8,1:2:0:0:
313,356,14653,1,2,1:2:0:0:
313,356,14713,1,2,1:2:0:0:
313,356,14773,5,8,1:2:0:0:
220,111,14893,1,0,1:2:0:0:
129,315,15013,1,8,1:2:0:0:
281,167,15133,1,2,1:2:0:0:
81,35,15253,1,8,1:3:0:0:
84,61,15313,1,8,1:3:0:0:
87,87,15373,1,8,1:3:0:0:
90,113,15433,1,8,1:3:0:0:
93,139,15493,1,4,1:3:0:0:
96,165,15553,1,4,1:3:0:0:
100,191,15613,1,4,1:3:0:0:
103,217,15673,1,4,1:3:0:0:
106,243,15733,5,6,1:2:0:0:
349,9,15853,1,2,1:2:0:0:
405,243,16093,5,6,1:2:0:0:
163,36,16213,1,2,1:2:0:0:
248,337,16453,5,6,1:2:0:0:
265,33,16573,1,2,1:2:0:0:
427,97,16813,5,6,1:2:0:0:
93,139,16933,1,2,1:2:0:0:
412,284,17173,6,0,P|407:258|404:238,3,41.9999987182618,8|8|8|8,1:3|0:3|0:3|0:3,0:0:0:0:
355,190,17413,2,0,P|312:185|266:184,1,83.9999974365235,8|0,1:2|0:0,0:0:0:0:
75,205,17653,5,2,1:2:0:0:
214,122,17773,1,8,1:2:0:0:
45,115,17893,1,2,1:2:0:0:
208,313,18013,1,2,1:2:0:0:
192,108,18133,1,8,1:2:0:0:
186,329,18253,1,2,1:2:0:0:
272,184,18373,1,2,1:2:0:0:
41,271,18493,6,0,B|129:296|115:222|200:241,1,167.999994873047,8|0,1:2|0:0,0:0:0:0:
276,274,18853,2,0,P|309:270|327:270,7,41.9999987182618,0|0|0|0|0|0|0|0,1:0|0:0|0:0|0:0|0:0|0:0|0:0|0:0,0:0:0:0:
378,313,19333,1,0,1:0:0:0:
398,316,19393,1,0,1:0:0:0:
419,319,19453,1,0,1:0:0:0:
440,322,19513,1,0,1:0:0:0:
461,324,19573,5,6,1:2:0:0:
164,82,26053,6,0,L|171:129,5,27.9999991455078,2|2|2|2|2|2,1:2|0:0|0:0|0:0|0:0|0:0,0:0:0:0:
190,133,26293,6,0,B|238:127|230:157|278:150,2,90,2|0|2,1:2|0:0|0:0,0:0:0:0:
133,186,26713,1,2,1:2:0:0:
133,186,26773,1,8,1:2:0:0:
235,262,26893,1,8,1:2:0:0:
118,330,27013,1,0,1:3:0:0:
261,175,27133,1,0,1:2:0:0:
204,363,27253,6,0,P|257:356|306:355,1,83.9999974365235,4|0,1:2|0:0,0:0:0:0:
423,332,27493,1,8,1:2:0:0:
445,310,27553,1,0,1:0:0:0:
456,280,27613,1,0,1:0:0:0:
454,249,27673,1,0,1:0:0:0:
439,222,27733,2,0,P|436:182|434:134,1,83.9999974365235,2|0,1:0|0:0,0:0:0:0:
351,2,27973,2,0,P|348:42|346:90,1,83.9999974365235,8|0,1:2|0:0,0:0:0:0:
214,24,28213,5,2,1:2:0:0:
344,172,28333,1,2,1:2:0:0:
190,145,28453,2,0,P|223:139|244:137,3,41.9999987182618,8|8|8|8,1:2|0:3|0:3|0:3,0:0:0:0:
159,77,28693,1,8,1:3:0:0:
111,61,28753,1,8,1:3:0:0:
65,68,28813,1,8,1:3:0:0:
29,91,28873,1,8,1:3:0:0:
7,127,28933,1,4,1:3:0:0:
3,164,28993,1,4,1:3:0:0:
9,197,29053,1,4,1:3:0:0:
24,221,29113,1,4,1:3:0:0:
43,236,29173,6,0,P|83:234|133:235,1,83.9999974365235,6|2,1:2|0:0,0:0:0:0:
298,345,29413,2,0,P|258:343|208:344,1,83.9999974365235,8|8,1:2|1:3,0:0:0:0:
173,360,29593,1,8,1:3:0:0:
173,360,29653,1,2,1:2:0:0:
246,219,29773,1,2,1:2:0:0:
372,326,29893,1,8,1:2:0:0:
162,240,30013,1,8,1:3:0:0:
162,240,30073,1,8,1:3:0:0:
162,240,30133,6,0,P|169:211|172:192,1,41.9999987182618,6|0,1:2|0:0,0:0:0:0:
252,55,30253,1,2,1:2:0:0:
252,55,30313,1,2,1:2:0:0:
252,55,30373,2,0,P|292:52|344:52,1,83.9999974365235,8|0,1:2|0:0,0:0:0:0:
451,167,30613,1,2,1:2:0:0:
430,163,30673,1,2,1:2:0:0:
409,161,30733,1,2,1:2:0:0:
388,159,30793,1,2,1:2:0:0:
367,157,30853,2,0,P|372:204|375:247,1,83.9999974365235,8|0,1:2|0:0,0:0:0:0:
194,122,31093,5,2,1:2:0:0:
367,72,31213,1,8,1:2:0:0:
188,11,31333,1,2,1:2:0:0:
188,11,31393,1,2,1:2:0:0:
188,11,31453,2,0,P|137:19|97:25,1,83.9999974365235,8|2,1:2|0:0,0:0:0:0:
12,131,31693,2,0,P|63:139|103:145,1,83.9999974365235,8|2,1:2|0:0,0:0:0:0:
121,168,31873,1,2,1:2:0:0:
121,168,31933,1,8,1:2:0:0:
66,259,32053,5,2,1:2:0:0:
252,237,32173,1,8,1:2:0:0:
136,328,32293,1,2,1:2:0:0:
136,328,32353,1,2,1:2:0:0:
136,328,32413,2,0,P|138:286|142:237,1,83.9999974365235,8|2,1:2|0:0,0:0:0:0:
264,344,32653,1,8,1:2:0:0:
240,161,32773,1,0,1:2:0:0:
240,161,32833,1,0,1:2:0:0:
240,161,32893,1,8,1:2:0:0:
490,243,33013,6,0,B|421:235|421:235|393:253|393:253|327:245,1,167.999994873047,12|2,1:2|0:0,0:0:0:0:
328,209,33313,1,2,1:2:0:0:
328,209,33373,2,0,P|355:144|288:64,1,167.999994873047,8|2,1:2|0:0,0:0:0:0:
141,20,33733,2,0,P|189:30|231:33,1,83.9999974365235,2|2,1:2|0:0,0:0:0:0:
221,71,33913,1,0,1:2:0:0:
221,71,33973,6,0,P|217:103|216:123,3,41.9999987182618,8|8|8|8,1:3|0:3|0:3|0:3,0:0:0:0:
181,141,34213,2,0,P|132:136|91:137,1,83.9999974365235,8|8,1:3|1:3,0:0:0:0:
96,233,34453,5,8,1:3:0:0:
154,242,34533,1,8,1:3:0:0:
210,228,34613,1,8,1:3:0:0:
256,191,34693,5,4,1:3:0:0:
303,157,34773,1,4,1:3:0:0:
361,148,34853,1,4,1:3:0:0:
419,156,34933,6,0,P|431:207|434:257,1,83.9999974365235,8|0,1:2|0:0,0:0:0:0:
394,302,35113,1,0,1:0:0:0:
394,302,35173,1,0,1:0:0:0:
303,157,35293,6,0,P|315:106|318:56,1,83.9999974365235,8|0,1:2|0:0,0:0:0:0:
274,16,35473,1,0,1:0:0:0:
274,16,35533,1,0,1:0:0:0:
195,145,35653,6,0,P|207:196|210:246,1,83.9999974365235,8|0,1:2|0:0,0:0:0:0:
163,290,35833,1,0,1:0:0:0:
163,290,35893,1,0,1:0:0:0:
41,116,36013,6,0,P|92:107|141:107,1,83.9999974365235,8|0,1:0|0:0,0:0:0:0:
17,187,36253,1,0,0:0:0:0:
79,232,36373,2,0,P|82:264|83:288,7,41.9999987182618,0|0|0|0|0|0|0|0,0:0|0:0|0:0|0:0|0:0|0:0|0:0|0:0,0:0:0:0:
104,338,36853,6,0,P|150:343|194:345,1,83.9999974365235,2|0,1:2|0:0,0:0:0:0:
224,324,37033,1,0,1:2:0:0:
224,324,37093,1,0,1:2:0:0:
280,248,37213,1,8,1:2:0:0:
367,330,37333,1,0,1:2:0:0:
397,335,37393,1,0,1:2:0:0:
428,330,37453,1,0,1:2:0:0:
455,314,37513,1,0,1:2:0:0:
474,289,37573,1,0,1:2:0:0:
484,259,37633,1,0,1:2:0:0:
481,228,37693,1,0,1:2:0:0:
468,200,37753,1,0,1:2:0:0:
446,178,37813,6,0,P|436:133|434:103,1,60,2|0,1:2|0:0,0:0:0:0:
369,20,38053,2,0,P|358:65|356:95,1,60,0|0,1:0|0:0,0:0:0:0:
282,113,38293,2,0,P|251:117|240:117,5,30,0|0|0|0|0|0,1:0|0:0|0:0|0:0|0:0|0:0,0:0:0:0:
219,182,38653,1,2,1:2:0:0:
219,182,38713,1,2,1:2:0:0:
219,182,38773,5,2,1:2:0:0:
126,179,38893,2,0,P|118:131|116:92,1,83.9999974365235,8|0,1:2|0:0,0:0:0:0:
104,73,39073,1,0,1:2:0:0:
80,62,39133,1,2,1:2:0:0:
54,64,39193,1,0,1:2:0:0:
33,78,39253,1,0,1:2:0:0:
187,14,39373,1,8,1:2:0:0:
25,200,39493,2,0,P|67:197|116:197,1,83.9999974365235,2|0,1:2|0:0,0:0:0:0:
200,347,39733,5,8,1:3:0:0:
98,281,39853,1,2,1:2:0:0:
193,265,39973,2,0,P|223:270|243:270,3,41.9999987182618,0|0|8|0,1:0|0:0|0:3|0:0,0:0:0:0:
295,240,40213,2,0,P|340:235|393:232,1,83.9999974365235,0|2,1:0|0:0,0:0:0:0:
310,166,40453,1,8,1:3:0:0:
410,300,40573,1,8,1:3:0:0:
484,126,40693,5,8,1:2:0:0:
319,147,40813,1,8,1:3:0:0:
402,37,40933,1,8,1:3:0:0:
406,157,41053,1,8,1:2:0:0:
309,43,41173,2,0,P|262:36|223:33,1,83.9999974365235,8|0,1:3|0:0,0:0:0:0:
174,145,41413,2,0,P|221:138|260:135,1,71.9999978027344,8|0,1:3|0:0,0:0:0:0:
120,30,41653,2,0,P|115:72|113:97,1,60,8|8,1:3|0:2,0:0:0:0:
46,154,41893,2,0,P|43:124|39:94,1,48,8|0,1:2|0:0,0:0:0:0:
114,200,42133,5,4,1:3:0:0:
103,231,42193,1,4,1:3:0:0:
104,268,42253,1,4,1:3:0:0:
121,306,42313,1,4,1:3:0:0:
155,336,42373,1,4,1:3:0:0:
203,349,42433,1,4,1:3:0:0:
255,334,42493,1,4,1:3:0:0:
290,282,42553,1,4,1:3:0:0:
252,218,42733,5,2,1:2:0:0:
252,218,42793,1,2,1:2:0:0:
252,218,42853,1,8,1:2:0:0:
400,102,42973,1,8,1:2:0:0:
274,128,43093,2,0,P|303:130|327:131,3,41.9999987182618,4|8|4|4,1:3|0:3|0:3|0:3,0:0:0:0:
364,183,43333,2,0,P|393:181|417:180,3,41.9999987182618,8|8|8|8,1:3|0:3|0:3|0:3,0:0:0:0:
470,207,43573,6,0,P|474:247|481:299,1,83.9999974365235,6|0,1:2|0:0,0:0:0:0:
383,344,43813,2,0,P|388:302|392:260,1,83.9999974365235,8|0,1:2|0:0,0:0:0:0:
303,224,44053,1,2,1:2:0:0:
263,209,44113,1,0,1:2:0:0:
221,207,44173,1,2,1:2:0:0:
183,224,44233,1,0,1:2:0:0:
154,253,44293,1,8,1:2:0:0:
124,283,44353,1,0,1:2:0:0:
86,301,44413,1,0,1:2:0:0:
45,301,44473,1,0,1:2:0:0:
4,289,44533,5,2,1:2:0:0:
104,80,44653,2,0,P|111:130|116:169,1,83.9999974365235,2|8,1:2|0:3,0:0:0:0:
102,180,44833,1,8,1:3:0:0:
81,180,44893,1,8,1:3:0:0:
60,180,44953,1,8,1:3:0:0:
39,181,45013,1,8,1:2:0:0:
176,52,45133,1,8,1:2:0:0:
273,142,45253,1,8,1:3:0:0:
293,144,45313,1,8,1:3:0:0:
313,146,45373,1,8,1:3:0:0:
333,149,45433,1,8,1:3:0:0:
353,152,45493,5,8,1:2:0:0:
434,7,45613,2,0,B|408:105|479:73|455:171,1,167.999994873047,8|2,1:2|0:2,0:0:0:0:
429,203,45913,1,2,1:2:0:0:
429,203,45973,2,0,B|425:268|425:268|440:291|440:291|438:334,2,125.999996154785,8|8|8,1:3|0:3|0:3,0:0:0:0:
360,340,46453,5,12,1:2:0:0:
177,215,46573,1,8,1:2:0:0:
177,215,46633,1,0,1:2:0:0:
177,215,46693,2,0,P|178:248|179:272,1,41.9999987182618,2|2,1:2|0:2,0:0:0:0:
81,319,46813,5,12,1:2:0:0:
258,285,46933,1,8,1:2:0:0:
258,285,46993,1,0,1:0:0:0:
258,285,47053,2,0,P|257:318|256:342,1,41.9999987182618,2|2,1:2|0:0,0:0:0:0:
448,215,47173,5,12,1:2:0:0:
269,158,47293,1,8,1:2:0:0:
269,158,47353,1,0,0:0:0:0:
269,158,47413,2,0,P|270:191|271:215,1,41.9999987182618,2|2,1:2|0:0,0:0:0:0:
173,360,47533,5,12,1:2:0:0:
354,286,47653,1,8,1:2:0:0:
354,286,47713,1,0,1:0:0:0:
354,286,47773,2,0,P|353:319|352:343,1,41.9999987182618,2|2,1:2|0:0,0:0:0:0:
448,215,47893,5,4,1:3:0:0:
478,186,47953,1,4,1:3:0:0:
495,148,48013,1,4,1:3:0:0:
496,107,48073,1,4,1:3:0:0:
480,68,48133,1,8,1:3:0:0:
449,40,48193,1,8,1:3:0:0:
410,25,48253,1,8,1:3:0:0:
369,28,48313,1,8,1:3:0:0:
332,48,48373,6,0,P|291:54|244:57,1,83.9999974365235,6|0,1:2|0:0,0:0:0:0:
109,149,48613,2,0,P|150:151|192:157,1,83.9999974365235,2|0,1:2|0:0,0:0:0:0:
39,45,48853,1,8,1:3:0:0:
78,224,48973,1,8,1:3:0:0:
173,0,49093,1,8,1:3:0:0:
0,120,49213,1,8,1:3:0:0:
281,253,49333,5,8,1:2:0:0:
8,280,49453,1,8,1:2:0:0:
301,273,49573,1,8,1:2:0:0:
119,66,49693,1,8,1:2:0:0:
170,326,49813,5,8,1:3:0:0:
170,326,49873,1,8,1:3:0:0:
170,326,49933,2,0,P|166:297|164:277,1,41.9999987182618,8|8,1:3|0:3,0:0:0:0:
281,165,50053,1,4,1:3:0:0:
281,165,50113,1,4,1:3:0:0:
281,165,50173,2,0,P|285:136|287:116,1,41.9999987182618,4|4,1:3|0:3,0:0:0:0:
512,100,50293,5,4,1:2:0:0:
163,36,57493,5,0,1:0:0:0:
189,114,57613,2,0,P|174:111|163:110,1,24,0|0,1:0|0:0,0:0:0:0:
100,146,57733,1,0,1:0:0:0:
101,158,57793,1,0,1:0:0:0:
102,170,57853,1,0,1:0:0:0:
103,182,57913,1,0,1:0:0:0:
104,194,57973,5,0,1:0:0:0:
256,192,58033,12,0,61573,0:0:0:0:
111,51,61813,6,0,L|68:46,2,32,0|0|0,1:0|0:0|0:0,0:0:0:0:
151,134,62053,2,0,L|194:129,2,32,0|0|0,1:0|0:0|0:0,0:0:0:0:
122,231,62293,6,0,L|117:274,2,44.0000013427735,0|0|0,1:0|0:0|0:0,0:0:0:0:
263,167,62533,2,0,L|258:124,2,44.0000013427735,0|0|0,1:0|0:0|0:0,0:0:0:0:
267,290,62773,5,0,1:0:0:0:
293,318,62853,1,0,1:0:0:0:
331,340,62933,1,0,1:0:0:0:
377,348,63013,5,0,1:0:0:0:
429,337,63093,1,0,1:0:0:0:
473,303,63173,1,0,1:0:0:0:
503,248,63253,5,0,1:0:0:0:
502,182,63333,1,0,1:0:0:0:
465,121,63413,1,0,1:0:0:0:
398,89,63493,6,0,P|395:69|392:45,5,35.9999989013672,2|2|2|2|2|0,1:2|0:0|0:0|0:0|0:0|0:0,0:0:0:0:
314,45,63733,6,0,P|274:39|231:37,1,71.9999978027344,6|2,1:0|0:0,0:0:0:0:
173,48,63913,1,2,1:2:0:0:
173,48,63973,2,0,P|133:54|90:56,1,71.9999978027344,8|0,1:2|0:0,0:0:0:0:
56,183,64213,1,2,1:2:0:0:
212,148,64333,1,2,1:2:0:0:
38,105,64453,1,8,1:2:0:0:
148,264,64573,2,0,P|204:258|240:256,1,71.9999978027344,2|0,1:2|0:0,0:0:0:0:
3,271,64813,5,2,1:2:0:0:
231,138,64933,2,0,P|287:144|323:146,1,71.9999978027344,8|0,1:2|0:0,0:0:0:0:
298,303,65173,1,2,1:2:0:0:
449,171,65293,1,2,1:2:0:0:
299,129,65413,1,12,1:2:0:0:
470,246,65533,1,8,1:2:0:0:
187,57,65653,5,8,1:2:0:0:
452,0,65773,1,8,1:2:0:0:
490,116,66013,5,8,1:2:0:0:
203,54,66133,1,8,1:2:0:0:
143,198,66373,5,8,1:2:0:0:
481,126,66493,1,8,1:2:0:0:
272,384,66853,5,2,1:2:0:0:
345,325,67093,1,2,1:2:0:0:
274,266,67333,1,2,1:2:0:0:
61,231,67573,6,0,P|144:221|190:221,1,96,6|2,1:2|0:0,0:0:0:0:
204,207,67753,1,2,1:2:0:0:
204,207,67813,2,0,P|215:158|221:100,1,96,8|0,1:2|0:0,0:0:0:0:
451,135,68053,1,2,1:2:0:0:
297,70,68173,1,2,1:2:0:0:
452,52,68293,1,8,1:2:0:0:
361,132,68413,2,0,P|358:188|351:231,1,96,2|0,1:2|0:0,0:0:0:0:
258,308,68653,1,0,1:2:0:0:
258,308,68713,1,0,1:2:0:0:
258,308,68773,2,0,B|359:288|339:386|438:355,1,192,8|2,1:2|0:0,0:0:0:0:
452,284,69073,1,2,1:2:0:0:
459,271,69133,1,2,1:2:0:0:
466,258,69193,1,2,1:2:0:0:
473,245,69253,2,0,P|467:198|465:145,1,96,8|0,1:2|0:0,0:0:0:0:
344,13,69493,6,0,P|294:2|248:16,1,96,6|2,1:2|0:0,0:0:0:0:
181,184,69733,2,0,P|186:140|191:81,1,96,8|0,1:2|0:0,0:0:0:0:
78,110,69973,1,2,1:2:0:0:
261,148,70093,1,2,1:2:0:0:
121,29,70213,1,8,1:2:0:0:
130,247,70333,1,2,1:2:0:0:
276,172,70453,6,0,P|330:166|385:162,2,96,0|2|8,1:0|0:0|0:0,0:0:0:0:
236,275,70813,2,0,P|182:269|127:265,1,96,0|2,1:2|0:0,0:0:0:0:
45,310,70993,1,2,1:2:0:0:
40,296,71053,1,2,1:2:0:0:
35,282,71113,1,2,1:2:0:0:
30,268,71173,2,0,P|35:223|41:163,1,96,8|0,1:2|0:0,0:0:0:0:
147,48,71413,5,2,1:2:0:0:
185,149,71533,1,0,1:0:0:0:
120,49,71653,1,8,1:2:0:0:
258,25,71773,2,0,B|366:10|337:94|436:77,1,192,0|2,1:0|1:2,0:0:0:0:
498,192,72133,1,8,1:2:0:0:
314,168,72253,2,0,P|367:162|413:162,1,96,2|0,1:2|0:0,0:0:0:0:
464,335,72493,1,0,1:2:0:0:
464,335,72553,1,0,1:2:0:0:
464,335,72613,5,8,1:2:0:0:
417,347,72673,1,0,1:2:0:0:
370,340,72733,1,0,1:2:0:0:
332,312,72793,1,0,1:2:0:0:
292,285,72853,1,8,1:2:0:0:
245,281,72913,1,8,1:3:0:0:
198,293,72973,2,0,P|168:299|142:300,1,48,8|8,1:3|0:3,0:0:0:0:
132,131,73093,2,0,P|152:154|165:176,1,48,8|8,1:3|0:3,0:0:0:0:
24,270,73213,2,0,P|34:240|46:217,1,48,8|8,1:3|0:3,0:0:0:0:
177,34,73333,5,8,1:2:0:0:
316,127,73453,1,0,1:2:0:0:
316,127,73513,1,0,1:2:0:0:
316,127,73573,2,0,L|327:72,1,48,2|0,1:2|0:0,0:0:0:0:
390,247,73693,1,8,1:2:0:0:
390,247,73753,1,0,1:0:0:0:
390,247,73813,1,0,1:0:0:0:
390,247,73873,1,0,1:0:0:0:
390,247,73933,2,0,L|438:228,1,48,0|0,1:0|0:0,0:0:0:0:
326,333,74053,1,8,1:2:0:0:
291,324,74113,1,0,1:0:0:0:
255,318,74173,1,2,1:2:0:0:
219,316,74233,1,2,1:2:0:0:
183,318,74293,6,0,P|123:325|81:324,1,96,8|8,1:2|0:3,0:0:0:0:
24,343,74473,1,8,1:3:0:0:
24,343,74533,1,8,1:3:0:0:
217,190,74653,2,0,B|107:163|143:256|32:223,1,192,8|2,1:3|0:0,0:0:0:0:
6,167,74953,1,2,1:2:0:0:
6,167,75013,1,8,1:2:0:0:
25,123,75073,1,2,1:2:0:0:
64,97,75133,1,2,1:2:0:0:
111,95,75193,1,2,1:2:0:0:
152,119,75253,6,0,P|145:72|142:19,1,96,6|0,1:2|0:0,0:0:0:0:
304,124,75493,2,0,P|296:171|293:224,1,96,8|0,1:2|0:0,0:0:0:0:
265,59,75733,1,2,1:2:0:0:
433,33,75853,1,2,1:2:0:0:
251,37,75973,1,8,1:2:0:0:
406,167,76093,1,0,0:0:0:0:
260,292,76213,5,2,1:2:0:0:
224,286,76273,1,2,1:2:0:0:
188,282,76333,1,2,1:2:0:0:
152,281,76393,1,2,1:2:0:0:
116,280,76453,2,0,P|124:330|127:382,1,96,8|0,1:2|0:0,0:0:0:0:
262,179,76693,5,2,1:2:0:0:
298,173,76753,1,2,1:2:0:0:
334,169,76813,1,2,1:2:0:0:
370,168,76873,1,2,1:2:0:0:
406,167,76933,2,0,P|397:217|394:269,1,96,8|0,1:2|0:0,0:0:0:0:
181,162,77173,6,0,P|172:111|169:59,1,96,2|8,1:2|1:3,0:0:0:0:
119,20,77353,1,8,0:3:0:0:
119,20,77413,2,0,P|82:14|58:12,1,48,8|8,1:3|1:3,0:0:0:0:
16,102,77533,2,0,P|23:153|24:206,1,96,8|0,1:2|0:0,0:0:0:0:
14,302,77773,2,0,P|39:296|65:293,1,48,8|4,1:3|0:3,0:0:0:0:
170,366,77893,2,0,P|144:360|119:357,1,48,8|4,1:3|0:3,0:0:0:0:
23,277,78013,2,0,P|48:271|74:268,1,48,8|4,1:3|0:3,0:0:0:0:
244,365,78133,6,0,P|251:304|261:248,1,96,8|0,1:2|0:0,0:0:0:0:
321,200,78313,2,0,P|328:261|338:317,1,96,8|0,1:2|0:0,0:0:0:0:
391,345,78493,2,0,P|423:340|458:340,1,48,8|0,1:2|0:0,0:0:0:0:
508,235,78613,6,0,P|501:174|491:118,1,96,8|0,1:2|0:0,0:0:0:0:
431,57,78793,2,0,P|424:118|414:174,1,96,8|0,1:2|0:0,0:0:0:0:
368,205,78973,2,0,P|336:200|301:200,1,48,8|0,1:2|0:0,0:0:0:0:
253,0,79093,5,0,1:2:0:0:
176,218,79213,1,2,1:2:0:0:
176,218,79273,1,2,1:2:0:0:
176,218,79333,2,0,P|170:183|166:159,1,48,8|0,1:2|0:0,0:0:0:0:
0,51,79453,5,0,1:0:0:0:
74,260,79573,1,2,1:2:0:0:
74,260,79633,1,2,1:2:0:0:
74,260,79693,2,0,P|80:225|84:201,1,48,2|0,1:2|0:0,0:0:0:0:
283,110,79813,5,8,1:2:0:0:
252,298,79933,1,0,1:2:0:0:
252,298,79993,1,0,1:2:0:0:
252,298,80053,2,0,P|246:263|242:239,1,48,6|2,1:2|0:0,0:0:0:0:
98,121,80173,5,2,1:2:0:0:
150,340,80293,1,8,1:2:0:0:
150,340,80353,1,0,1:0:0:0:
150,340,80413,2,0,P|156:305|160:281,1,48,0|0,1:0|0:0,0:0:0:0:
362,196,80533,5,6,1:2:0:0:
331,384,80653,1,0,1:0:0:0:
331,384,80713,1,0,1:0:0:0:
331,384,80773,2,0,P|325:349|321:325,1,48,8|0,1:2|0:0,0:0:0:0:
482,236,80893,1,2,1:2:0:0:
363,87,81013,6,0,B|259:68|276:150|185:134,1,192,8|8,1:2|0:2,0:0:0:0:
101,67,81313,1,8,1:3:0:0:
53,64,81373,1,8,1:3:0:0:
14,91,81433,1,8,1:3:0:0:
0,136,81493,1,8,1:2:0:0:
14,181,81553,1,8,1:3:0:0:
53,207,81613,1,8,1:3:0:0:
100,206,81673,1,8,1:3:0:0:
136,235,81733,1,8,1:2:0:0:
144,282,81793,1,8,1:3:0:0:
120,322,81853,2,0,P|116:352|114:377,1,48,8|8,1:3|0:3,0:0:0:0:
240,241,81973,2,0,P|235:211|233:186,1,48,4|4,1:3|0:3,0:0:0:0:
352,324,82093,2,0,P|347:353|345:378,1,48,4|4,1:3|0:3,0:0:0:0:
437,240,82213,5,2,1:2:0:0:
434,204,82273,1,2,1:2:0:0:
432,168,82333,2,0,P|434:143|434:116,1,48,2|2,1:2|0:0,0:0:0:0:
335,15,82453,5,2,1:2:0:0:
332,50,82513,1,2,1:2:0:0:
330,86,82573,2,0,P|331:111|331:138,1,48,2|2,1:2|0:0,0:0:0:0:
240,241,82693,5,2,1:2:0:0:
237,206,82753,1,2,1:2:0:0:
235,170,82813,2,0,P|236:144|236:117,1,48,2|2,1:2|0:2,0:0:0:0:
127,17,82933,5,8,1:3:0:0:
127,17,82993,1,8,1:3:0:0:
127,17,83053,1,2,1:2:0:0:
127,17,83113,1,2,1:2:0:0:
127,17,83173,1,8,1:2:0:0:
0,178,83293,2,0,B|109:155|79:249|178:222,1,192,0|8,0:0|0:2,0:0:0:0:
303,336,83653,5,8,1:3:0:0:
336,370,83713,1,8,1:3:0:0:
381,384,83773,1,8,1:3:0:0:
428,377,83833,1,8,1:3:0:0:
466,348,83893,1,8,1:3:0:0:
487,306,83953,1,8,1:3:0:0:
486,258,84013,1,4,1:3:0:0:
463,217,84073,1,4,1:3:0:0:
423,190,84133,1,8,1:3:0:0:
376,185,84193,1,8,1:3:0:0:
342,152,84253,1,4,1:3:0:0:
334,105,84313,1,4,1:3:0:0:
357,64,84373,1,4,1:3:0:0:
400,45,84433,1,4,1:3:0:0:
446,56,84493,2,0,P|477:62|500:62,1,48,2|2,1:2|0:0,0:0:0:0:
308,7,84613,5,8,1:3:0:0:
308,7,84673,1,8,1:3:0:0:
308,7,84733,2,0,P|278:13|251:13,1,48,0|8,1:3|0:3,0:0:0:0:
209,160,84853,5,2,1:2:0:0:
107,22,84973,1,0,1:0:0:0:
107,22,85033,1,0,1:0:0:0:
107,22,85093,2,0,P|100:69|93:125,1,96,8|0,1:2|0:0,0:0:0:0:
167,245,85333,2,0,P|140:241|113:239,3,48,2|2|2|2,1:2|0:0|0:0|0:0,0:0:0:0:
142,323,85573,2,0,P|201:315|247:313,1,96,8|0,1:2|0:0,0:0:0:0:
356,177,85813,5,2,1:2:0:0:
328,348,85933,1,2,1:2:0:0:
328,348,85993,1,2,1:2:0:0:
328,348,86053,2,0,P|336:287|338:246,1,96,8|0,1:2|0:0,0:0:0:0:
442,56,86293,1,2,1:2:0:0:
483,79,86353,1,2,1:2:0:0:
502,122,86413,1,2,1:2:0:0:
492,168,86473,1,2,1:2:0:0:
457,200,86533,1,8,1:3:0:0:
422,232,86593,1,8,1:3:0:0:
412,278,86653,1,8,1:3:0:0:
431,321,86713,1,8,1:3:0:0:
473,345,86773,6,0,L|475:276,2,64,2|8|8,1:2|0:3|0:3,0:0:0:0:
267,253,87013,2,0,L|265:184,2,64,8|8|8,1:2|0:3|0:3,0:0:0:0:
492,168,87253,6,0,L|494:99,2,64,2|8|8,1:2|0:3|0:3,0:0:0:0:
234,91,87493,2,0,L|232:22,2,64,8|8|8,1:2|0:3|0:3,0:0:0:0:
452,39,87733,6,0,P|377:35|333:34,1,96,6|8,1:2|0:3,0:0:0:0:
333,62,87913,1,8,1:3:0:0:
333,62,87973,1,8,1:3:0:0:
80,116,88093,1,8,1:2:0:0:
354,181,88213,1,8,1:2:0:0:
214,3,88333,1,8,1:2:0:0:
285,298,88453,1,8,1:2:0:0:
435,55,88573,1,8,1:2:0:0:
175,207,88693,6,0,P|116:197|71:194,1,96,8|8,1:2|0:3,0:0:0:0:
24,226,88873,1,8,1:3:0:0:
27,249,88933,1,8,1:3:0:0:
268,280,89053,6,0,P|327:270|372:267,1,96,8|8,1:2|0:3,0:0:0:0:
419,299,89233,1,8,1:3:0:0:
416,322,89293,2,0,P|419:354|421:380,1,48,2|2,1:2|0:0,0:0:0:0:
355,181,89413,1,8,1:2:0:0:
355,181,89473,1,8,0:3:0:0:
355,181,89533,2,0,P|358:149|360:123,1,48,2|2,0:0|0:0,0:0:0:0:
288,18,89653,5,6,1:2:0:0:
131,107,89773,1,6,1:2:0:0:
268,280,89893,1,6,1:2:0:0:
183,14,90013,2,0,B|111:7|111:7|53:27|53:27|-22:22,1,192,6|8,1:2|0:0,0:0:0:0:
38,99,90313,1,8,1:2:0:0:
38,99,90373,2,0,P|41:130|44:154,1,48,8|8,1:3|0:3,0:0:0:0:
122,210,90493,2,0,P|119:241|116:265,1,48,4|4,1:3|0:3,0:0:0:0:
28,355,90613,5,8,1:2:0:0:
69,332,90693,1,8,1:3:0:0:
117,329,90773,1,8,1:3:0:0:
161,348,90853,2,0,P|191:357|229:358,2,64,8|8|8,1:3|0:3|0:3,0:0:0:0:
211,269,91093,5,8,1:3:0:0:
251,257,91173,1,8,1:3:0:0:
290,271,91253,1,8,1:3:0:0:
313,306,91333,2,0,P|311:340|315:373,2,64,8|8|8,1:3|0:3|0:3,0:0:0:0:
398,305,91573,5,8,1:3:0:0:
421,263,91653,1,8,1:3:0:0:
424,215,91733,1,8,1:3:0:0:
405,171,91813,2,0,P|396:141|395:103,2,64,8|8|8,1:3|0:3|0:3,0:0:0:0:
355,45,92053,6,0,P|331:39|308:38,1,48,2|0,1:2|0:0,0:0:0:0:
234,100,92173,2,0,P|211:106|190:116,1,48,2|0,1:2|0:0,0:0:0:0:
162,208,92293,2,0,P|143:227|129:249,1,48,8|8,1:3|0:3,0:0:0:0:
148,336,92414,2,0,P|142:359|143:383,1,48,8|8,1:3|0:3,0:0:0:0:
51,279,92533,6,0,P|63:226|66:183,1,96,6|0,1:2|0:0,0:0:0:0:
25,33,92773,1,8,1:2:0:0:
148,140,92893,1,2,1:2:0:0:
148,140,92953,1,2,1:2:0:0:
148,140,93013,2,0,P|212:133|252:131,1,96,2|2,1:2|0:0,0:0:0:0:
362,79,93253,1,8,1:3:0:0:
380,94,93313,1,8,1:3:0:0:
390,116,93373,1,8,1:3:0:0:
391,139,93433,1,8,1:3:0:0:
382,162,93493,6,0,P|376:210|379:270,1,96,8|8,1:3|0:3,0:0:0:0:
265,298,93733,1,2,1:2:0:0:
499,308,93853,2,0,B|387:290|425:376|316:360,1,192,8|8,1:2|0:0,0:0:0:0:
258,283,94153,1,8,1:2:0:0:
258,283,94213,2,0,P|262:246|265:223,1,48,8|8,1:3|0:3,0:0:0:0:
125,318,94333,2,0,P|129:355|132:378,1,48,8|8,1:3|0:3,0:0:0:0:
31,254,94453,5,6,1:2:0:0:
193,211,94573,1,8,1:2:0:0:
38,275,94693,1,0,0:0:0:0:
34,139,94813,2,0,B|160:127|109:198|212:190,1,192,8|8,1:2|0:0,0:0:0:0:
283,98,95173,1,2,1:2:0:0:
363,329,95293,1,8,1:2:0:0:
396,85,95413,5,2,1:2:0:0:
278,219,95533,1,2,1:2:0:0:
278,219,95593,1,2,1:2:0:0:
278,219,95653,2,0,P|306:215|331:214,1,48,2|2,1:2|0:0,0:0:0:0:
447,288,95773,1,8,1:2:0:0:
346,141,95893,1,2,1:2:0:0:
264,316,96013,2,0,P|210:321|162:332,1,96,8|2,1:2|0:0,0:0:0:0:
131,314,96193,1,2,1:2:0:0:
131,314,96253,1,8,1:2:0:0:
61,122,96373,5,2,1:2:0:0:
29,303,96493,1,8,1:2:0:0:
204,152,96613,2,0,P|166:147|146:147,1,48,2|2,1:2|0:0,0:0:0:0:
0,210,96733,1,8,1:2:0:0:
140,37,96853,1,2,1:2:0:0:
140,37,96913,1,2,1:2:0:0:
140,37,96973,1,8,1:2:0:0:
136,218,97093,2,0,P|133:268|130:321,1,96,8|0,1:2|0:0,0:0:0:0:
258,205,97333,6,0,P|293:194|321:190,2,47.9999985351563,8|8|8,1:3|0:3|0:3,0:0:0:0:
375,241,97573,2,0,P|406:245|436:255,2,47.9999985351563,8|8|8,1:3|0:3|0:3,0:0:0:0:
484,212,97813,5,4,1:3:0:0:
503,164,97893,1,4,1:3:0:0:
501,114,97973,1,4,1:3:0:0:
476,69,98053,5,4,1:3:0:0:
435,40,98133,1,4,1:3:0:0:
385,33,98213,1,4,1:3:0:0:
336,49,98293,6,0,B|254:41|281:98|201:90,1,143.999995605469,6|0,1:2|0:0,0:0:0:0:
113,40,98653,1,2,1:2:0:0:
126,181,98773,2,0,P|135:128|138:96,1,71.9999978027344,8|0,1:2|0:0,0:0:0:0:
49,151,99013,2,0,P|53:186|59:222,1,71.9999978027344,2|2,1:2|0:0,0:0:0:0:
196,273,99253,6,0,P|238:268|281:266,1,71.9999978027344,4|2,1:2|0:0,0:0:0:0:
458,271,99493,2,0,L|457:354,1,71.9999978027344,0|2,0:0|0:0,0:0:0:0:
355,211,99733,2,0,L|356:294,1,71.9999978027344,8|2,1:2|0:0,0:0:0:0:
474,176,99973,2,0,L|473:259,1,71.9999978027344,0|2,0:0|0:0,0:0:0:0:
406,100,100213,6,0,P|370:53|285:57,1,143.999995605469,4|0,1:2|0:0,0:0:0:0:
227,108,100573,1,2,1:2:0:0:
227,108,100633,1,2,1:2:0:0:
227,108,100693,2,0,P|171:95|138:93,1,71.9999978027344,8|0,1:2|0:0,0:0:0:0:
93,177,100933,1,2,1:2:0:0:
76,73,101053,1,2,1:2:0:0:
15,218,101173,5,4,1:2:0:0:
180,194,101293,1,2,1:2:0:0:
180,194,101353,1,2,1:2:0:0:
180,194,101413,2,0,P|175:244|174:279,1,71.9999978027344,0|2,0:0|0:0,0:0:0:0:
75,326,101653,2,0,B|135:322|122:351|178:348,2,107.999996704102,8|8|8,1:2|0:0|0:0,0:0:0:0:
253,327,102133,6,0,P|290:317|337:313,1,71.9999978027344,2|2,1:2|0:0,0:0:0:0:
358,329,102313,1,0,0:0:0:0:
358,329,102373,1,0,0:0:0:0:
456,202,102493,1,2,1:2:0:0:
456,202,102553,1,2,1:2:0:0:
456,202,102613,2,0,P|460:175|460:156,1,35.9999989013672,8|0,1:2|0:0,0:0:0:0:
345,120,102733,2,0,P|349:147|349:166,1,35.9999989013672,0|0,1:0|0:0,0:0:0:0:
476,100,102853,2,0,P|480:73|480:54,1,35.9999989013672,2|0,1:2|0:0,0:0:0:0:
321,16,102973,2,0,P|325:43|325:62,1,35.9999989013672,2|0,1:2|0:0,0:0:0:0:
264,179,103093,5,4,1:2:0:0:
264,179,103173,2,0,L|217:185,1,47.9999985351563,0|0,1:0|0:0,0:0:0:0:
151,136,103333,5,0,1:0:0:0:
156,89,103413,1,0,1:0:0:0:
126,53,103493,1,0,1:0:0:0:
80,50,103573,6,0,P|73:15|72:-14,2,47.9999985351563,8|0|0,1:2|0:0|0:0,0:0:0:0:
0,163,103813,2,0,P|5:139|7:115,2,47.9999985351563,8|0|0,1:3|0:0|0:0,0:0:0:0:
0,301,104053,5,8,1:3:0:0:
35,293,104113,1,8,1:3:0:0:
71,290,104173,1,8,1:3:0:0:
107,289,104233,1,8,1:3:0:0:
142,293,104293,2,0,P|166:302|194:306,1,35.9999989013672,4|4,1:3|0:3,0:0:0:0:
217,238,104413,5,8,1:3:0:0:
253,246,104473,1,8,1:3:0:0:
289,249,104533,1,8,1:3:0:0:
325,250,104593,1,8,1:3:0:0:
360,246,104653,2,0,P|383:237|411:233,1,35.9999989013672,4|4,1:3|0:3,0:0:0:0:
456,296,104773,5,8,1:3:0:0:
474,265,104833,1,8,1:3:0:0:
480,230,104893,1,8,1:3:0:0:
470,195,104953,1,8,1:3:0:0:
447,168,105013,2,0,P|442:132|440:113,1,35.9999989013672,4|4,1:3|0:3,0:0:0:0:
406,27,105133,1,0,1:0:0:0:
406,27,105193,1,0,1:0:0:0:
406,27,105253,2,0,L|384:61,1,35.9999989013672,8|8,1:3|0:3,0:0:0:0:
292,52,105373,1,8,1:2:0:0:
292,52,105433,1,2,0:0:0:0:
292,52,105493,2,0,L|255:70,1,35.9999989013672,8|0,1:3|0:3,0:0:0:0:
181,46,105613,1,2,1:0:0:0:
151,25,105673,1,2,1:0:0:0:
116,21,105733,1,8,1:3:0:0:
83,34,105793,1,8,1:3:0:0:
59,61,105853,1,8,1:3:0:0:
51,95,105913,1,8,1:3:0:0:
67,136,105973,5,2,1:2:0:0:
67,136,106033,1,0,1:0:0:0:
67,136,106093,2,0,P|72:184|75:197,1,35.9999989013672,0|0,1:0|0:0,0:0:0:0:
124,304,106213,1,2,1:2:0:0:
124,304,106273,1,0,1:0:0:0:
124,304,106333,2,0,P|129:256|132:243,1,35.9999989013672,0|0,1:0|0:0,0:0:0:0:
209,148,106453,1,0,1:0:0:0:
209,148,106513,1,0,1:0:0:0:
209,148,106573,2,0,P|214:196|217:209,1,35.9999989013672,0|0,1:0|0:0,0:0:0:0:
258,294,106693,2,0,P|310:296|347:301,1,71.9999978027344,2|0,1:2|0:0,0:0:0:0:
447,229,106933,5,2,1:2:0:0:
447,229,106993,1,0,1:2:0:0:
447,229,107053,2,0,P|442:181|439:168,1,35.9999989013672,0|0,1:0|0:0,0:0:0:0:
390,61,107173,1,2,1:2:0:0:
390,61,107233,1,0,1:2:0:0:
390,61,107293,2,0,P|385:109|382:122,1,35.9999989013672,0|0,1:0|0:0,0:0:0:0:
305,217,107413,1,2,1:2:0:0:
305,217,107473,1,0,1:0:0:0:
305,217,107533,2,0,P|300:169|297:156,1,35.9999989013672,0|0,1:0|0:0,0:0:0:0:
261,37,107653,1,0,1:0:0:0:
209,148,107773,1,0,1:0:0:0:
114,26,107893,5,2,1:2:0:0:
186,61,108013,1,0,1:0:0:0:
54,108,108133,1,0,1:2:0:0:
123,9,108253,1,0,1:0:0:0:
105,158,108373,2,0,P|112:200|116:243,1,60,2|0,1:2|0:0,0:0:0:0:
29,259,108613,2,0,P|32:229|37:199,1,48,2|0,1:2|0:0,0:0:0:0:
82,341,108853,5,8,1:3:0:0:
111,342,108933,1,8,1:3:0:0:
141,343,109013,1,8,1:3:0:0:
171,344,109093,5,8,1:3:0:0:
201,345,109173,1,8,1:3:0:0:
231,347,109253,1,8,1:3:0:0:
261,348,109333,5,4,1:3:0:0:
291,349,109413,1,4,1:3:0:0:
321,350,109493,1,4,1:3:0:0:
351,351,109573,5,4,1:3:0:0:
381,353,109653,1,4,1:3:0:0:
411,354,109733,1,4,1:3:0:0:
441,355,109813,6,0,L|445:315,7,35.9999989013672,2|0|2|0|2|0|2|2,1:2|0:0|0:0|0:0|0:0|0:0|0:0|0:0,0:0:0:0:
399,264,110293,2,0,L|395:223,7,35.9999989013672,8|0|2|0|2|0|2|0,1:2|0:0|0:0|0:0|0:0|0:0|0:0|0:0,0:0:0:0:
426,161,110773,5,0,1:0:0:0:
427,129,110833,1,0,1:0:0:0:
418,99,110893,1,2,1:2:0:0:
400,74,110953,1,0,1:0:0:0:
374,56,111013,2,0,P|341:52|325:53,1,35.9999989013672,0|0,1:0|0:0,0:0:0:0:
283,188,111133,2,0,P|300:187|318:184,1,35.9999989013672,2|2,1:2|0:0,0:0:0:0:
253,25,111253,5,8,1:2:0:0:
254,57,111313,1,0,1:0:0:0:
245,87,111373,1,2,1:2:0:0:
227,112,111433,1,2,1:2:0:0:
201,130,111493,2,0,P|168:134|152:133,1,35.9999989013672,8|8,1:3|0:3,0:0:0:0:
67,24,111613,2,0,P|84:24|102:27,1,35.9999989013672,8|8,1:3|0:3,0:0:0:0:
209,271,111733,5,12,1:2:0:0:
128,54,111853,1,0,1:2:0:0:
49,288,111973,1,2,1:2:0:0:
206,161,112093,1,2,1:2:0:0:
9,208,112213,1,8,1:2:0:0:
229,298,112333,1,0,1:0:0:0:
38,185,112453,2,0,P|36:157|34:139,3,35.9999989013672,8|8|8|8,1:2|0:3|0:3|0:3,0:0:0:0:
71,80,112693,6,0,L|110:78,1,35.9999989013672,8|8,1:3|0:3,0:0:0:0:
206,161,112813,2,0,L|245:163,1,35.9999989013672,4|4,1:3|0:3,0:0:0:0:
326,41,112933,2,0,L|365:39,1,35.9999989013672,8|8,1:3|0:3,0:0:0:0:
477,194,113053,2,0,L|516:196,1,35.9999989013672,4|4,1:3|0:3,0:0:0:0:
469,39,113173,5,8,1:2:0:0:
323,285,113293,1,8,1:2:0:0:
199,34,113413,1,8,1:2:0:0:
61,275,113533,1,8,1:2:0:0:
74,290,114133,5,6,1:2:0:0:
256,192,114193,12,0,116533,0:0:0:0:
