osu file format v14

[General]
AudioFilename: 5.mp3
AudioLeadIn: 0
PreviewTime: 66805
Countdown: 0
SampleSet: Soft
StackLeniency: 0.7
Mode: 3
LetterboxInBreaks: 0
SpecialStyle: 0
WidescreenStoryboard: 1

[Editor]
DistanceSpacing: 0.8
BeatDivisor: 4
GridSize: 4
TimelineZoom: 2.2

[Metadata]
Title:Staring at star
TitleUnicode:Staring at star
Artist:MisoilePunch ~Takenoko Soe~
ArtistUnicode:MisoilePunch♪ ~タケノコ添え~
Creator:Murumoo
Version:BASIC
Source:SOUND VOLTEX IV HEAVENLY HAVEN
Tags:Wonki ATing Famoss SOUND VOLTEX ULTIMATE TRACKS Dimension Gates Ω -Phase.1- KFC-1807-1 The 6th KAC 受賞者の書き下ろし新曲 SDVX omega konami arcade championship original song MisomyL Ponchi Takenoko Shounen みそみぃる ポン恥♪ タケノコ少 Bemani rhythm video game electronic instrumental
BeatmapID:1936645
BeatmapSetID:920688

[Difficulty]
HPDrainRate:6
CircleSize:4
OverallDifficulty:6
ApproachRate:5
SliderMultiplier:1.4
SliderTickRate:1

[Events]
//Background and Video events
0,0,"bg.jpg",0,0
//Break Periods
//Storyboard Layer 0 (Background)
//Storyboard Layer 1 (Fail)
//Storyboard Layer 2 (Pass)
//Storyboard Layer 3 (Foreground)
//Storyboard Layer 4 (Overlay)
//Storyboard Sound Samples
Sample,45925,0,"tom3.wav",70
Sample,46105,0,"tom2.wav",70
Sample,46285,0,"tom1.wav",70
Sample,48085,0,"tom1.wav",70
Sample,57925,0,"amenbreak_kick1.wav",50
Sample,104005,0,"tom1.wav",70
Sample,104365,0,"tom2.wav",70
Sample,104725,0,"tom3.wav",70
Sample,111445,0,"tom1.wav",70
Sample,112645,0,"tom1.wav",70
Sample,112885,0,"tom2.wav",70
Sample,113125,0,"tom3.wav",70
Sample,113245,0,"tom4.wav",70

[TimingPoints]
2245,240,4,2,1,60,1,0
19645,-100,4,2,1,40,0,0
25285,-100,4,2,1,50,0,0
26245,-100,4,2,1,60,0,0
50365,-100,4,2,1,40,0,0
57925,-100,4,2,1,50,0,0
63685,-100,4,2,1,60,0,0
67525,-100,4,2,1,70,0,0
81925,-100,4,2,1,60,0,0
83125,-100,4,2,1,70,0,0
98245,-100,4,2,1,60,0,0

[HitObjects]
64,192,1525,128,0,2245:0:0:0:0:
320,192,2245,1,2,0:0:0:0:
448,192,2245,1,4,0:0:0:0:
192,192,2485,128,0,3685:0:0:0:0:
448,192,3685,1,0,0:0:0:70:tom1.wav
320,192,3925,1,0,0:0:0:0:
64,192,4165,128,4,4645:0:0:0:0:
192,192,4165,1,2,0:0:0:0:
320,192,4645,128,4,5125:0:0:0:0:
448,192,4645,1,8,0:0:0:0:
64,192,5125,128,2,5485:0:0:0:0:
192,192,5125,1,4,0:0:0:0:
320,192,5485,1,8,0:0:0:0:
448,192,5485,128,4,6085:0:0:0:0:
64,192,6085,1,2,0:0:0:0:
192,192,6085,128,4,6445:0:0:0:0:
320,192,6445,128,2,6685:0:0:0:0:
64,192,6685,1,0,0:0:0:0:
192,192,6805,128,2,7045:0:0:0:0:
320,192,7045,128,0,7285:0:0:0:0:
64,192,7285,128,2,7525:0:0:0:0:
448,192,7525,128,8,8005:0:0:0:0:
64,192,8005,128,4,8365:0:0:0:0:
320,192,8005,1,8,0:0:0:0:
192,192,8365,128,4,8725:0:0:0:0:
448,192,8365,1,8,0:0:0:0:
64,192,8725,1,4,0:0:0:0:
320,192,8725,128,8,9085:0:0:0:0:
192,192,9085,1,4,0:0:0:0:
448,192,9085,128,8,9445:0:0:0:0:
64,192,9445,1,12,0:0:0:0:
192,192,9685,1,8,0:0:0:0:
320,192,9925,128,4,10405:0:0:0:0:
448,192,9925,1,2,0:0:0:0:
192,192,10405,128,0,10885:0:0:0:0:
64,192,10885,128,2,11365:0:0:0:0:
320,192,11365,1,8,0:0:0:0:
448,192,11365,128,4,11845:0:0:0:0:
64,192,11845,1,8,0:0:0:0:
320,192,11845,1,4,0:0:0:0:
192,192,12085,1,8,0:0:0:0:
320,192,12325,1,8,0:0:0:0:
448,192,12565,1,8,0:0:0:0:
64,192,12805,128,2,13165:0:0:0:0:
320,192,13165,1,2,0:0:0:0:
448,192,13165,1,4,0:0:0:0:
192,192,13405,128,2,13765:0:0:0:0:
320,192,13765,1,8,0:0:0:0:
448,192,13765,1,4,0:0:0:0:
64,192,14005,1,8,0:0:0:0:
448,192,14245,1,8,0:0:0:0:
64,192,14485,1,8,0:0:0:0:
320,192,14725,1,8,0:0:0:0:
192,192,14965,1,8,0:0:0:0:
320,192,15205,1,8,0:0:0:0:
192,192,15445,1,0,0:0:0:70:tom2.wav
320,192,15685,1,2,0:0:0:0:
448,192,15685,128,4,16045:0:0:0:0:
64,192,16045,128,2,16405:0:0:0:0:
192,192,16045,1,4,0:0:0:0:
320,192,16405,1,4,0:0:0:0:
448,192,16405,128,2,16765:0:0:0:0:
64,192,16765,128,2,17125:0:0:0:0:
192,192,16765,1,4,0:0:0:0:
192,192,17125,128,8,17605:0:0:0:0:
448,192,17605,128,2,17845:0:0:0:0:
320,192,17845,128,2,18085:0:0:0:0:
192,192,18085,128,12,18325:0:0:0:0:
64,192,18325,1,2,0:0:0:0:
320,192,18445,1,8,0:0:0:0:
448,192,18445,128,4,19525:0:0:0:0:
64,192,19525,1,2,0:0:0:0:
192,192,19525,1,4,0:0:0:0:
192,192,20245,1,0,0:0:0:0:
320,192,20485,1,0,0:0:0:70:tick02_edit.wav
448,192,21205,1,0,0:0:0:0:
64,192,21445,1,0,0:0:0:70:tick02_edit.wav
192,192,22405,1,0,0:0:0:70:tick02_edit.wav
64,192,22885,1,0,0:0:0:0:
320,192,23365,1,0,0:0:0:70:tick02_edit.wav
448,192,23845,1,0,0:0:0:0:
64,192,24325,1,0,0:0:0:70:tick02_edit.wav
320,192,24805,1,0,0:0:0:0:
448,192,25285,128,0,25765:0:0:0:70:tick02_edit.wav
320,192,25765,128,0,26245:0:0:0:0:
64,192,26245,128,2,26725:0:0:0:0:
192,192,26245,1,4,0:0:0:0:
320,192,26725,128,8,26965:0:0:0:0:
448,192,26725,1,0,0:0:0:0:
192,192,26965,128,8,27205:0:0:0:0:
64,192,27205,1,2,0:0:0:0:
448,192,27205,1,4,0:0:0:0:
192,192,27445,1,8,0:0:0:0:
320,192,27685,1,2,0:0:0:0:
448,192,27925,1,8,0:0:0:0:
64,192,28165,1,6,0:0:0:0:
192,192,28405,1,8,0:0:0:0:
448,192,28645,1,0,0:0:0:70:tom1.wav
320,192,28885,1,0,0:0:0:70:tom3.wav
64,192,29125,1,2,0:0:0:0:
192,192,29125,128,4,29365:0:0:0:0:
320,192,29365,128,8,29605:0:0:0:0:
448,192,29605,128,2,30085:0:0:0:0:
64,192,30085,128,2,30565:0:0:0:0:
192,192,30085,1,4,0:0:0:0:
320,192,30565,128,2,31045:0:0:0:0:
64,192,31045,1,2,0:0:0:0:
192,192,31045,1,4,0:0:0:0:
448,192,31165,1,8,0:0:0:0:
64,192,31405,1,8,0:0:0:0:
320,192,31645,1,8,0:0:0:0:
192,192,31885,1,8,0:0:0:0:
448,192,32125,1,8,0:0:0:0:
320,192,32365,1,8,0:0:0:0:
64,192,32605,1,8,0:0:0:0:
448,192,32845,1,8,0:0:0:0:
64,192,32965,1,4,0:0:0:0:
192,192,32965,1,8,0:0:0:0:
320,192,33325,1,8,0:0:0:0:
448,192,33325,1,0,0:0:0:0:
64,192,33685,1,8,0:0:0:0:
192,192,33685,1,0,0:0:0:0:
448,192,33925,1,12,0:0:0:0:
320,192,34165,1,0,0:0:0:70:tom3.wav
192,192,34405,1,8,0:0:0:0:
64,192,34645,1,0,0:0:0:70:tom2.wav
320,192,34885,1,4,0:0:0:0:
448,192,34885,1,8,0:0:0:0:
64,192,35245,1,8,0:0:0:0:
192,192,35245,1,4,0:0:0:0:
320,192,35605,1,8,0:0:0:0:
448,192,35605,1,4,0:0:0:0:
64,192,35965,1,8,0:0:0:0:
192,192,35965,1,4,0:0:0:0:
320,192,36325,128,0,36805:0:0:0:0:
64,192,36805,1,8,0:0:0:0:
192,192,36805,1,4,0:0:0:0:
320,192,37165,1,4,0:0:0:0:
448,192,37165,1,8,0:0:0:0:
192,192,37405,128,0,37765:0:0:0:0:
320,192,37765,1,2,0:0:0:0:
448,192,37765,128,4,38245:0:0:0:0:
320,192,38245,128,0,38725:0:0:0:0:
64,192,38725,1,4,0:0:0:0:
448,192,38725,1,2,0:0:0:0:
192,192,38965,1,0,0:0:0:0:
320,192,39205,128,0,39685:0:0:0:0:
192,192,39685,1,8,0:0:0:0:
320,192,39925,1,0,0:0:0:0:
64,192,40165,128,2,40645:0:0:0:0:
448,192,40645,128,8,40885:0:0:0:0:
320,192,40885,128,0,41125:0:0:0:70:tom3.wav
192,192,41125,128,8,41365:0:0:0:0:
64,192,41365,128,8,41605:0:0:0:0:
448,192,41605,128,6,41845:0:0:0:0:
320,192,41845,128,8,42085:0:0:0:0:
64,192,42085,128,8,42325:0:0:0:0:
448,192,42325,128,8,42565:0:0:0:0:
192,192,42685,1,2,0:0:0:0:
320,192,42805,1,8,0:0:0:0:
448,192,42805,1,4,0:0:0:0:
192,192,43045,1,2,0:0:0:0:
64,192,43285,1,12,0:0:0:0:
320,192,43525,1,6,0:0:0:0:
448,192,43765,1,8,0:0:0:0:
192,192,44005,1,6,0:0:0:0:
320,192,44245,1,8,0:0:0:0:
64,192,44485,1,6,0:0:0:0:
448,192,44725,1,8,0:0:0:0:
320,192,44965,1,6,0:0:0:0:
192,192,45205,1,8,0:0:0:0:
64,192,45445,128,6,45685:0:0:0:0:
448,192,45685,128,8,45925:0:0:0:0:
192,192,45925,1,8,0:0:0:0:
320,192,46105,1,8,0:0:0:0:
64,192,46285,1,8,0:0:0:0:
448,192,46405,1,12,0:0:0:0:
320,192,46525,1,12,0:0:0:0:
64,192,46765,1,12,0:0:0:0:
192,192,46885,1,12,0:0:0:0:
448,192,47125,1,12,0:0:0:0:
320,192,47245,1,12,0:0:0:0:
64,192,47485,1,12,0:0:0:0:
192,192,47605,1,12,0:0:0:0:
448,192,47845,128,12,48085:0:0:0:0:
320,192,48085,128,8,48325:0:0:0:0:
64,192,48325,1,2,0:0:0:0:
192,192,48325,1,4,0:0:0:0:
320,192,48565,1,8,0:0:0:0:
192,192,48805,1,8,0:0:0:0:
64,192,49045,1,8,0:0:0:0:
448,192,49285,128,8,49645:0:0:0:0:
192,192,49645,128,8,50245:0:0:0:0:
320,192,50245,1,4,0:0:0:0:
448,192,50245,1,0,0:0:0:70:tom4.wav
64,192,51085,1,0,0:0:0:0:
448,192,51565,128,0,52165:0:0:0:0:
64,192,52165,128,0,53125:0:0:0:70:tick02_edit.wav
448,192,53125,1,0,0:0:0:70:tick02_edit.wav
192,192,53605,1,0,0:0:0:0:
320,192,53845,1,0,0:0:0:0:
448,192,54085,128,0,54565:0:0:0:70:tick02_edit.wav
64,192,54565,128,0,55045:0:0:0:0:
320,192,55045,128,0,55525:0:0:0:70:tick02_edit.wav
192,192,55525,128,0,56005:0:0:0:0:
64,192,56005,128,0,56365:0:0:0:70:tick02_edit.wav
448,192,56365,128,0,56965:0:0:0:0:
64,192,56965,128,0,57445:0:0:0:70:tick02_edit.wav
320,192,57445,128,0,57685:0:0:0:0:
192,192,57685,128,0,57925:0:0:0:0:
448,192,57925,1,4,0:0:0:0:
320,192,58165,1,0,0:0:0:50:amenbreak_kick1.wav
192,192,58285,1,0,0:0:0:50:amenbreak_kick1.wav
448,192,58525,1,0,0:0:0:0:
64,192,58765,1,0,0:0:0:50:amenbreak_kick1.wav
320,192,59125,1,0,0:0:0:0:
192,192,59365,1,0,0:0:0:100:amenbreak_snare1.wav
448,192,59605,1,0,0:0:0:0:
64,192,59845,1,0,0:0:0:50:amenbreak_kick1.wav
192,192,60085,1,0,0:0:0:50:amenbreak_kick1.wav
320,192,60205,1,0,0:0:0:50:amenbreak_kick1.wav
448,192,60445,1,0,0:0:0:50:amenbreak_kick1.wav
64,192,60685,1,0,0:0:0:50:amenbreak_kick1.wav
320,192,61045,1,0,0:0:0:50:amenbreak_kick1.wav
192,192,61285,1,0,0:0:0:50:amenbreak_kick1.wav
64,192,61525,1,0,0:0:0:0:
448,192,61765,1,0,0:0:0:50:amenbreak_kick1.wav
320,192,62005,1,0,0:0:0:100:Drumstart_040.wav
192,192,62245,1,0,0:0:0:50:amenbreak_kick1.wav
64,192,62485,1,0,0:0:0:100:amenbreak_snare1.wav
320,192,62725,1,0,0:0:0:50:amenbreak_kick1.wav
192,192,62965,1,0,0:0:0:100:Drumstart_040.wav
448,192,63205,1,0,0:0:0:100:amenbreak_snare1.wav
320,192,63445,128,0,63685:0:0:0:50:amenbreak_kick1.wav
64,192,63685,1,2,0:0:0:0:
192,192,63685,1,4,0:0:0:0:
320,192,63925,1,8,0:0:0:0:
448,192,64165,1,2,0:0:0:0:
192,192,64405,1,8,0:0:0:0:
320,192,64645,1,4,0:0:0:0:
64,192,64885,1,8,0:0:0:0:
192,192,65125,1,2,0:0:0:0:
320,192,65365,1,8,0:0:0:0:
64,192,65605,1,8,0:0:0:0:
192,192,65725,1,8,0:0:0:0:
448,192,65965,1,8,0:0:0:0:
320,192,66085,1,8,0:0:0:0:
64,192,66325,1,8,0:0:0:0:
192,192,66445,1,8,0:0:0:0:
448,192,66805,1,0,0:0:0:0:
320,192,67045,1,0,0:0:0:0:
192,192,67285,1,0,0:0:0:0:
64,192,67525,128,6,67885:0:0:0:0:
448,192,67525,1,0,0:0:0:70:LR_Clap Loud Long.wav
320,192,67885,1,0,0:0:0:0:
448,192,68125,1,2,0:0:0:0:
64,192,68365,1,2,0:0:0:0:
192,192,68725,1,8,0:0:0:0:
320,192,68965,1,2,0:0:0:0:
448,192,69205,1,8,0:0:0:0:
64,192,69445,1,2,0:0:0:0:
320,192,69685,1,8,0:0:0:0:
192,192,69805,1,0,0:0:0:0:
64,192,70045,128,2,70405:0:0:0:0:
448,192,70405,1,0,0:0:0:0:
320,192,70525,1,2,0:0:0:0:
192,192,70645,1,8,0:0:0:0:
64,192,70765,1,0,0:0:0:0:
192,192,71005,1,2,0:0:0:0:
320,192,71125,1,8,0:0:0:0:
448,192,71245,1,0,0:0:0:0:
64,192,71365,128,6,71725:0:0:0:0:
320,192,71725,1,0,0:0:0:0:
448,192,71965,128,2,72325:0:0:0:0:
192,192,72325,1,0,0:0:0:0:
320,192,72445,1,2,0:0:0:0:
64,192,72685,1,0,0:0:0:0:
448,192,72805,1,2,0:0:0:0:
320,192,73045,1,8,0:0:0:0:
64,192,73285,1,8,0:0:0:0:
192,192,73285,1,4,0:0:0:0:
320,192,73645,1,8,0:0:0:0:
448,192,73645,1,4,0:0:0:0:
64,192,74005,1,4,0:0:0:0:
192,192,74005,1,8,0:0:0:0:
448,192,74245,1,12,0:0:0:0:
320,192,74365,1,8,0:0:0:0:
192,192,74485,1,0,0:0:0:70:tom3.wav
64,192,74605,128,12,74845:0:0:0:0:
192,192,74845,128,0,75205:0:0:0:70:tom3.wav
320,192,75205,1,2,0:0:0:0:
448,192,75205,128,4,75685:0:0:0:0:
192,192,75445,1,8,0:0:0:0:
320,192,75685,128,2,76165:0:0:0:0:
64,192,75925,1,8,0:0:0:0:
192,192,76165,128,2,76645:0:0:0:0:
448,192,76405,1,8,0:0:0:0:
64,192,76645,128,2,77125:0:0:0:0:
320,192,76885,1,8,0:0:0:0:
192,192,77125,1,2,0:0:0:0:
448,192,77125,128,4,77485:0:0:0:0:
64,192,77485,128,8,77725:0:0:0:0:
192,192,77485,1,4,0:0:0:0:
320,192,77725,128,0,78085:0:0:0:70:tom1.wav
64,192,78085,1,4,0:0:0:0:
192,192,78085,1,8,0:0:0:0:
320,192,78265,1,12,0:0:0:0:
448,192,78445,1,12,0:0:0:0:
64,192,78565,1,12,0:0:0:0:
192,192,78745,1,12,0:0:0:0:
320,192,78925,1,12,0:0:0:0:
64,192,79045,1,2,0:0:0:0:
448,192,79045,1,4,0:0:0:0:
192,192,79285,1,8,0:0:0:0:
320,192,79405,1,0,0:0:0:0:
64,192,79645,1,2,0:0:0:0:
192,192,79765,1,8,0:0:0:0:
320,192,80005,1,6,0:0:0:0:
192,192,80125,1,2,0:0:0:0:
448,192,80365,1,0,0:0:0:0:
320,192,80485,1,6,0:0:0:0:
192,192,80725,1,8,0:0:0:0:
64,192,80965,1,8,0:0:0:0:
320,192,80965,1,4,0:0:0:0:
448,192,81205,1,8,0:0:0:0:
192,192,81325,128,8,81565:0:0:0:0:
320,192,81565,128,8,81805:0:0:0:0:
64,192,81805,128,8,82165:0:0:0:0:
448,192,82165,1,0,0:0:0:70:tom3.wav
320,192,82405,1,0,0:0:0:70:tom2.wav
192,192,82645,1,8,0:0:0:0:
64,192,82885,128,0,83125:0:0:0:70:tom1.wav
320,192,83125,1,12,0:0:0:0:
448,192,83125,1,0,0:0:0:70:LR_Clap Loud Long.wav
192,192,83245,128,0,83485:0:0:0:0:
448,192,83485,128,8,83725:0:0:0:0:
320,192,83725,128,8,83965:0:0:0:0:
64,192,83965,128,2,84325:0:0:0:0:
192,192,84325,128,0,84565:0:0:0:70:tom2.wav
320,192,84565,128,8,84805:0:0:0:0:
448,192,84805,128,6,85045:0:0:0:0:
192,192,85045,128,8,85285:0:0:0:0:
320,192,85285,128,2,85525:0:0:0:0:
64,192,85525,128,8,85765:0:0:0:0:
448,192,85765,1,6,0:0:0:0:
192,192,86005,1,8,0:0:0:0:
320,192,86125,128,0,86365:0:0:0:0:
64,192,86365,128,2,86725:0:0:0:0:
320,192,86725,1,2,0:0:0:0:
448,192,86725,128,4,87205:0:0:0:0:
192,192,86965,1,8,0:0:0:0:
320,192,87205,128,2,87685:0:0:0:0:
64,192,87445,1,8,0:0:0:0:
192,192,87685,128,6,87925:0:0:0:0:
320,192,87925,128,8,88165:0:0:0:0:
64,192,88165,128,8,88405:0:0:0:0:
192,192,88405,128,8,88645:0:0:0:0:
320,192,88645,1,8,0:0:0:0:
448,192,88645,128,4,89005:0:0:0:0:
64,192,89005,1,8,0:0:0:0:
320,192,89005,1,4,0:0:0:0:
192,192,89125,128,8,89485:0:0:0:0:
64,192,89485,128,2,89845:0:0:0:0:
320,192,89845,1,2,0:0:0:0:
192,192,89965,1,2,0:0:0:0:
448,192,89965,128,4,90205:0:0:0:0:
64,192,90205,128,8,90565:0:0:0:0:
320,192,90565,1,8,0:0:0:0:
448,192,90565,128,4,91045:0:0:0:0:
192,192,90805,1,8,0:0:0:0:
64,192,91045,128,0,91525:0:0:0:70:tom2.wav
320,192,91285,1,0,0:0:0:70:tom4.wav
192,192,91525,128,12,92005:0:0:0:0:
448,192,91765,1,8,0:0:0:0:
320,192,92005,128,0,92245:0:0:0:0:
192,192,92245,128,0,92485:0:0:0:70:tom1.wav
64,192,92485,1,2,0:0:0:0:
448,192,92485,128,4,92725:0:0:0:0:
320,192,92725,128,8,92965:0:0:0:0:
64,192,92965,128,6,93205:0:0:0:0:
192,192,93205,128,0,93445:0:0:0:70:tom1.wav
320,192,93445,128,0,93685:0:0:0:70:tom1.wav
64,192,93685,1,0,0:0:0:70:tom3.wav
192,192,93805,128,12,94165:0:0:0:0:
448,192,94165,128,8,94405:0:0:0:0:
64,192,94405,1,2,0:0:0:0:
192,192,94405,1,4,0:0:0:0:
320,192,94525,1,8,0:0:0:0:
448,192,94645,1,2,0:0:0:0:
64,192,94765,128,8,95005:0:0:0:0:
192,192,95005,1,8,0:0:0:0:
448,192,95005,128,0,95245:0:0:0:0:
320,192,95245,128,8,95485:0:0:0:0:
192,192,95485,128,8,95725:0:0:0:0:
448,192,95485,1,0,0:0:0:0:
64,192,95725,128,8,95965:0:0:0:0:
192,192,95965,1,8,0:0:0:0:
448,192,95965,128,0,96325:0:0:0:0:
64,192,96325,1,4,0:0:0:0:
320,192,96325,1,2,0:0:0:0:
192,192,96445,1,8,0:0:0:0:
320,192,96565,1,2,0:0:0:0:
448,192,96685,128,8,96925:0:0:0:0:
192,192,96925,1,8,0:0:0:0:
64,192,97045,128,8,97285:0:0:0:0:
448,192,97285,128,8,97525:0:0:0:0:
192,192,97525,128,8,97765:0:0:0:0:
320,192,97765,128,0,98005:0:0:0:70:tom1.wav
448,192,98005,128,0,98245:0:0:0:70:tom3.wav
64,192,98245,1,6,0:0:0:0:
192,192,98365,1,2,0:0:0:0:
448,192,98605,1,2,0:0:0:0:
320,192,98725,1,12,0:0:0:0:
64,192,98965,1,2,0:0:0:0:
192,192,99085,1,2,0:0:0:0:
448,192,99325,1,2,0:0:0:0:
320,192,99445,1,2,0:0:0:0:
64,192,99685,1,8,0:0:0:0:
192,192,99685,1,4,0:0:0:0:
320,192,99925,1,8,0:0:0:0:
64,192,100165,1,6,0:0:0:0:
192,192,100285,1,2,0:0:0:0:
448,192,100525,1,2,0:0:0:0:
320,192,100645,1,12,0:0:0:0:
64,192,100885,1,2,0:0:0:0:
192,192,101005,1,2,0:0:0:0:
320,192,101125,128,4,101605:0:0:0:0:
448,192,101125,1,0,0:0:0:0:
64,192,101605,128,8,102085:0:0:0:0:
192,192,101605,1,4,0:0:0:0:
192,192,102085,1,4,0:0:0:0:
448,192,102085,128,2,102565:0:0:0:0:
64,192,102565,1,4,0:0:0:0:
320,192,102565,128,8,103045:0:0:0:0:
192,192,103045,128,4,103525:0:0:0:0:
448,192,103045,1,0,0:0:0:0:
64,192,103525,128,8,104005:0:0:0:0:
320,192,103525,1,4,0:0:0:0:
448,192,104005,1,4,0:0:0:0:
320,192,104125,1,0,0:0:0:70:tom2.wav
64,192,104365,1,4,0:0:0:0:
192,192,104485,1,0,0:0:0:70:tom3.wav
448,192,104725,1,4,0:0:0:0:
320,192,104845,1,0,0:0:0:70:tom4.wav
192,192,104965,128,2,105325:0:0:0:0:
448,192,105325,1,8,0:0:0:0:
64,192,105565,1,2,0:0:0:0:
192,192,105685,1,8,0:0:0:0:
320,192,105805,1,2,0:0:0:0:
64,192,105925,128,2,106405:0:0:0:0:
448,192,105925,1,4,0:0:0:0:
320,192,106165,1,6,0:0:0:0:
448,192,106405,1,6,0:0:0:0:
192,192,106645,1,6,0:0:0:0:
320,192,106885,1,2,0:0:0:0:
448,192,106885,128,4,107365:0:0:0:0:
192,192,107125,1,6,0:0:0:0:
64,192,107365,1,6,0:0:0:0:
320,192,107605,1,6,0:0:0:0:
64,192,107845,128,4,108325:0:0:0:0:
192,192,107845,1,2,0:0:0:0:
320,192,108085,1,6,0:0:0:0:
192,192,108325,128,6,108805:0:0:0:0:
448,192,108565,1,6,0:0:0:0:
320,192,108805,128,12,109045:0:0:0:0:
192,192,109045,128,8,109285:0:0:0:0:
448,192,109285,128,8,109525:0:0:0:0:
320,192,109525,128,0,109765:0:0:0:70:tom1.wav
64,192,109765,128,4,110245:0:0:0:0:
192,192,109765,1,2,0:0:0:0:
320,192,110005,1,2,0:0:0:0:
448,192,110245,128,12,110725:0:0:0:0:
192,192,110485,1,2,0:0:0:0:
320,192,110725,128,4,111205:0:0:0:0:
64,192,110965,1,0,0:0:0:0:
192,192,111205,128,12,111685:0:0:0:0:
448,192,111445,1,8,0:0:0:0:
64,192,111685,1,4,0:0:0:0:
320,192,111685,1,8,0:0:0:0:
192,192,111925,1,2,0:0:0:0:
320,192,112165,1,12,0:0:0:0:
448,192,112405,1,12,0:0:0:0:
64,192,112645,1,8,0:0:0:0:
192,192,112885,1,8,0:0:0:0:
448,192,113125,1,8,0:0:0:0:
320,192,113245,1,8,0:0:0:0:
192,192,113365,1,8,0:0:0:0:
64,192,113485,1,12,0:0:0:0:
320,192,114085,128,2,116485:0:0:0:0:
448,192,114085,128,4,116485:0:0:0:0:
