osu file format v14

[General]
AudioFilename: 5.mp3
AudioLeadIn: 0
PreviewTime: 66805
Countdown: 0
SampleSet: Soft
StackLeniency: 0.7
Mode: 3
LetterboxInBreaks: 0
SpecialStyle: 0
WidescreenStoryboard: 1

[Editor]
DistanceSpacing: 0.8
BeatDivisor: 4
GridSize: 4
TimelineZoom: 1.8

[Metadata]
Title:Staring at star
TitleUnicode:Staring at star
Artist:MisoilePunch ~Takenoko Soe~
ArtistUnicode:MisoilePunch♪ ~タケノコ添え~
Creator:Murumoo
Version:ADVANCED
Source:SOUND VOLTEX IV HEAVENLY HAVEN
Tags:Wonki ATing Famoss SOUND VOLTEX ULTIMATE TRACKS Dimension Gates Ω -Phase.1- KFC-1807-1 The 6th KAC 受賞者の書き下ろし新曲 SDVX omega konami arcade championship original song MisomyL Ponchi Takenoko Shounen みそみぃる ポン恥♪ タケノコ少 Bemani rhythm video game electronic instrumental
BeatmapID:1936644
BeatmapSetID:920688

[Difficulty]
HPDrainRate:7.5
CircleSize:4
OverallDifficulty:7.5
ApproachRate:5
SliderMultiplier:1.4
SliderTickRate:1

[Events]
//Background and Video events
0,0,"bg.jpg",0,0
//Break Periods
//Storyboard Layer 0 (Background)
//Storyboard Layer 1 (Fail)
//Storyboard Layer 2 (Pass)
//Storyboard Layer 3 (Foreground)
//Storyboard Layer 4 (Overlay)
//Storyboard Sound Samples
Sample,48085,0,"tom1.wav",70
Sample,57925,0,"amenbreak_kick1.wav",50
Sample,104005,0,"tom1.wav",70
Sample,104365,0,"tom2.wav",70
Sample,104725,0,"tom3.wav",70
Sample,111445,0,"tom1.wav",70
Sample,112645,0,"tom1.wav",70
Sample,112885,0,"tom2.wav",70

[TimingPoints]
2245,240,4,2,1,60,1,0
19645,-100,4,2,1,40,0,0
25285,-100,4,2,1,50,0,0
26245,-100,4,2,1,60,0,0
50365,-100,4,2,1,40,0,0
57925,-100,4,2,1,50,0,0
63685,-100,4,2,1,60,0,0
67525,-100,4,2,1,70,0,0
81925,-100,4,2,1,60,0,0
83125,-100,4,2,1,70,0,0
98245,-100,4,2,1,60,0,0

[HitObjects]
64,192,1525,128,0,1765:0:0:0:0:
192,192,1765,128,0,2005:0:0:0:0:
320,192,2005,128,0,2245:0:0:0:0:
64,192,2245,1,2,0:0:0:0:
192,192,2245,1,4,0:0:0:0:
448,192,2245,1,0,0:0:0:0:
64,192,2485,1,0,0:0:0:0:
64,192,2605,128,0,3565:0:0:0:0:
320,192,2845,1,0,0:0:0:70:tom4.wav
192,192,3085,1,0,0:0:0:0:
448,192,3325,1,0,0:0:0:0:
320,192,3445,1,0,0:0:0:0:
192,192,3565,1,0,0:0:0:0:
64,192,3685,1,0,0:0:0:70:tom1.wav
448,192,3685,128,0,4045:0:0:0:0:
320,192,3805,1,0,0:0:0:70:tom3.wav
64,192,3925,1,0,0:0:0:0:
192,192,4045,1,0,0:0:0:70:tom4.wav
64,192,4165,1,4,0:0:0:0:
320,192,4165,1,2,0:0:0:0:
448,192,4165,128,0,4405:0:0:0:0:
192,192,4405,1,2,0:0:0:0:
448,192,4525,1,2,0:0:0:0:
320,192,4585,1,2,0:0:0:0:
64,192,4645,128,4,5005:0:0:0:0:
192,192,4645,1,8,0:0:0:0:
320,192,4765,1,2,0:0:0:0:
448,192,4885,1,0,0:0:0:0:
320,192,5005,1,2,0:0:0:0:
192,192,5065,1,2,0:0:0:0:
64,192,5125,1,6,0:0:0:0:
320,192,5245,1,2,0:0:0:0:
448,192,5245,1,0,0:0:0:0:
192,192,5365,1,2,0:0:0:0:
64,192,5485,128,8,5725:0:0:0:0:
320,192,5485,1,4,0:0:0:0:
448,192,5725,1,8,0:0:0:0:
320,192,5785,1,8,0:0:0:0:
64,192,5845,1,0,0:0:0:70:tom1.wav
192,192,5905,1,0,0:0:0:70:tom2.wav
448,192,5965,1,0,0:0:0:70:tom3.wav
320,192,6025,1,0,0:0:0:70:tom4.wav
64,192,6085,1,2,0:0:0:0:
192,192,6085,128,4,6205:0:0:0:0:
320,192,6205,128,0,6325:0:0:0:0:
448,192,6325,128,0,6445:0:0:0:0:
320,192,6445,1,2,0:0:0:0:
192,192,6505,1,2,0:0:0:0:
64,192,6565,1,8,0:0:0:0:
448,192,6565,1,0,0:0:0:0:
320,192,6685,1,0,0:0:0:0:
64,192,6805,1,2,0:0:0:0:
192,192,6925,1,2,0:0:0:0:
320,192,7045,1,0,0:0:0:0:
64,192,7165,1,8,0:0:0:0:
448,192,7165,1,0,0:0:0:0:
192,192,7285,1,2,0:0:0:0:
320,192,7405,1,2,0:0:0:0:
64,192,7525,1,8,0:0:0:0:
192,192,7525,128,0,7645:0:0:0:0:
320,192,7645,128,8,7765:0:0:0:0:
64,192,7765,128,8,7885:0:0:0:0:
448,192,7765,1,0,0:0:0:0:
192,192,7885,128,8,8005:0:0:0:0:
320,192,8005,1,4,0:0:0:0:
448,192,8005,1,8,0:0:0:0:
64,192,8125,1,2,0:0:0:0:
192,192,8245,1,2,0:0:0:0:
64,192,8365,1,4,0:0:0:0:
320,192,8365,1,8,0:0:0:0:
448,192,8485,1,2,0:0:0:0:
192,192,8605,1,2,0:0:0:0:
64,192,8725,1,4,0:0:0:0:
320,192,8725,1,8,0:0:0:0:
448,192,8845,1,2,0:0:0:0:
64,192,8965,1,2,0:0:0:0:
192,192,9085,1,4,0:0:0:0:
320,192,9085,1,8,0:0:0:0:
448,192,9205,1,2,0:0:0:0:
192,192,9325,1,2,0:0:0:0:
448,192,9445,1,12,0:0:0:0:
320,192,9505,1,0,0:0:0:70:tom1.wav
192,192,9565,1,2,0:0:0:0:
64,192,9625,1,2,0:0:0:0:
320,192,9685,1,8,0:0:0:0:
448,192,9685,1,0,0:0:0:0:
192,192,9805,1,0,0:0:0:70:tom2.wav
320,192,9925,1,4,0:0:0:0:
448,192,9925,1,2,0:0:0:0:
64,192,10005,1,2,0:0:0:0:
192,192,10085,1,0,0:0:0:0:
320,192,10165,1,8,0:0:0:0:
64,192,10245,1,0,0:0:0:0:
448,192,10325,1,2,0:0:0:0:
320,192,10405,1,0,0:0:0:0:
192,192,10485,1,2,0:0:0:0:
448,192,10565,1,0,0:0:0:0:
64,192,10645,1,8,0:0:0:0:
192,192,10725,1,0,0:0:0:0:
320,192,10805,1,2,0:0:0:0:
448,192,10885,1,2,0:0:0:0:
320,192,10965,1,2,0:0:0:0:
192,192,11045,1,2,0:0:0:0:
64,192,11125,1,8,0:0:0:0:
320,192,11205,1,0,0:0:0:70:tom1.wav
448,192,11285,1,2,0:0:0:0:
64,192,11365,1,12,0:0:0:0:
192,192,11445,1,2,0:0:0:0:
448,192,11525,1,12,0:0:0:0:
320,192,11605,1,2,0:0:0:0:
192,192,11685,1,12,0:0:0:0:
64,192,11765,1,2,0:0:0:0:
320,192,11845,1,8,0:0:0:0:
448,192,11845,128,4,12085:0:0:0:0:
192,192,11965,1,0,0:0:0:0:
64,192,12085,128,8,12325:0:0:0:0:
320,192,12205,1,8,0:0:0:0:
192,192,12325,128,8,12565:0:0:0:0:
448,192,12445,1,8,0:0:0:0:
320,192,12565,128,8,12805:0:0:0:0:
64,192,12685,1,8,0:0:0:0:
192,192,12805,1,2,0:0:0:0:
448,192,12805,1,0,0:0:0:0:
320,192,12925,1,2,0:0:0:0:
192,192,13045,1,2,0:0:0:0:
64,192,13165,128,2,13405:0:0:0:0:
448,192,13165,1,4,0:0:0:0:
448,192,13405,1,2,0:0:0:0:
320,192,13525,1,8,0:0:0:0:
192,192,13645,1,2,0:0:0:0:
64,192,13765,1,8,0:0:0:0:
320,192,13765,1,4,0:0:0:0:
448,192,13765,1,0,0:0:0:0:
192,192,13885,1,0,0:0:0:0:
64,192,14005,1,8,0:0:0:0:
320,192,14005,1,0,0:0:0:0:
192,192,14125,1,2,0:0:0:0:
64,192,14245,1,8,0:0:0:0:
448,192,14245,1,0,0:0:0:0:
320,192,14365,1,2,0:0:0:0:
192,192,14485,1,8,0:0:0:0:
448,192,14485,1,0,0:0:0:0:
320,192,14605,1,2,0:0:0:0:
64,192,14725,1,8,0:0:0:0:
448,192,14725,1,0,0:0:0:0:
192,192,14845,1,2,0:0:0:0:
64,192,14965,1,8,0:0:0:0:
320,192,14965,1,0,0:0:0:0:
192,192,15085,1,2,0:0:0:0:
448,192,15205,1,8,0:0:0:0:
320,192,15265,1,8,0:0:0:0:
192,192,15325,1,0,0:0:0:70:tom1.wav
64,192,15385,1,0,0:0:0:70:tom1.wav
448,192,15445,1,0,0:0:0:70:tom2.wav
320,192,15505,1,0,0:0:0:70:tom3.wav
64,192,15565,1,0,0:0:0:70:tom4.wav
192,192,15625,1,0,0:0:0:70:tom4.wav
320,192,15685,1,2,0:0:0:0:
448,192,15685,1,4,0:0:0:0:
64,192,15805,1,2,0:0:0:0:
192,192,15805,1,4,0:0:0:0:
448,192,15925,1,0,0:0:0:0:
64,192,16045,1,2,0:0:0:0:
192,192,16045,1,4,0:0:0:0:
320,192,16165,1,4,0:0:0:0:
448,192,16165,1,2,0:0:0:0:
64,192,16285,1,0,0:0:0:0:
320,192,16405,1,4,0:0:0:0:
448,192,16405,1,2,0:0:0:0:
64,192,16525,1,2,0:0:0:0:
192,192,16525,1,4,0:0:0:0:
320,192,16645,1,0,0:0:0:0:
64,192,16765,1,2,0:0:0:0:
192,192,16765,1,4,0:0:0:0:
320,192,16885,1,4,0:0:0:0:
448,192,16885,1,2,0:0:0:0:
192,192,17005,1,0,0:0:0:0:
64,192,17125,1,8,0:0:0:0:
448,192,17125,1,0,0:0:0:0:
320,192,17185,1,8,0:0:0:0:
192,192,17245,1,2,0:0:0:0:
64,192,17305,1,2,0:0:0:0:
320,192,17365,1,2,0:0:0:0:
448,192,17365,1,4,0:0:0:0:
192,192,17485,1,0,0:0:0:0:
320,192,17605,1,2,0:0:0:0:
448,192,17605,1,0,0:0:0:0:
64,192,17725,1,8,0:0:0:0:
192,192,17725,1,4,0:0:0:0:
448,192,17845,1,2,0:0:0:0:
64,192,17965,1,2,0:0:0:0:
192,192,17965,1,0,0:0:0:0:
320,192,18085,1,8,0:0:0:0:
448,192,18085,1,4,0:0:0:0:
64,192,18205,1,2,0:0:0:0:
320,192,18325,1,2,0:0:0:0:
448,192,18325,1,0,0:0:0:0:
64,192,18445,128,8,19285:0:0:0:0:
192,192,18445,1,4,0:0:0:0:
448,192,19285,1,0,0:0:0:0:
320,192,19345,1,0,0:0:0:0:
192,192,19405,1,0,0:0:0:0:
64,192,19465,1,0,0:0:0:0:
320,192,19525,1,2,0:0:0:0:
448,192,19525,1,4,0:0:0:0:
192,192,19645,1,0,0:0:0:0:
320,192,19765,1,0,0:0:0:0:
192,192,19885,1,0,0:0:0:0:
64,192,20245,1,0,0:0:0:0:
192,192,20305,1,0,0:0:0:0:
448,192,20365,1,0,0:0:0:0:
320,192,20425,1,0,0:0:0:0:
192,192,20485,1,0,0:0:0:70:tick02_edit.wav
64,192,20605,1,0,0:0:0:0:
320,192,20725,1,0,0:0:0:0:
448,192,20845,1,0,0:0:0:0:
192,192,21205,1,0,0:0:0:0:
448,192,21445,1,0,0:0:0:70:tick02_edit.wav
320,192,21565,1,0,0:0:0:0:
192,192,21685,1,0,0:0:0:0:
64,192,21805,1,0,0:0:0:0:
192,192,22405,1,0,0:0:0:70:tick02_edit.wav
64,192,22885,1,0,0:0:0:0:
320,192,23125,1,0,0:0:0:0:
192,192,23365,1,0,0:0:0:70:tick02_edit.wav
64,192,23845,1,0,0:0:0:0:
192,192,23965,1,0,0:0:0:0:
320,192,24085,1,0,0:0:0:0:
448,192,24205,1,0,0:0:0:0:
64,192,24325,1,0,0:0:0:70:tick02_edit.wav
320,192,24445,1,0,0:0:0:0:
192,192,24505,1,0,0:0:0:0:
64,192,24565,1,0,0:0:0:0:
448,192,24685,1,0,0:0:0:0:
192,192,24925,1,0,0:0:0:0:
320,192,25165,1,0,0:0:0:0:
64,192,25285,128,0,26245:0:0:0:70:tick02_edit.wav
448,192,25765,1,0,0:0:0:0:
320,192,25885,1,0,0:0:0:0:
192,192,26005,128,0,26245:0:0:0:0:
320,192,26245,1,2,0:0:0:0:
448,192,26245,1,4,0:0:0:0:
192,192,26425,1,0,0:0:0:0:
320,192,26605,1,2,0:0:0:0:
192,192,26665,1,2,0:0:0:0:
64,192,26725,1,8,0:0:0:0:
448,192,26725,1,0,0:0:0:0:
320,192,26845,1,8,0:0:0:0:
192,192,26965,1,8,0:0:0:0:
448,192,27085,1,2,0:0:0:0:
192,192,27205,1,2,0:0:0:0:
320,192,27205,1,4,0:0:0:0:
64,192,27325,1,0,0:0:0:0:
448,192,27445,1,8,0:0:0:0:
320,192,27505,1,0,0:0:0:0:
192,192,27565,1,2,0:0:0:0:
64,192,27625,1,2,0:0:0:0:
448,192,27685,128,2,27925:0:0:0:0:
192,192,27805,1,2,0:0:0:0:
64,192,27925,128,8,28165:0:0:0:0:
320,192,27925,1,0,0:0:0:0:
192,192,28045,1,0,0:0:0:0:
448,192,28165,1,6,0:0:0:0:
192,192,28285,1,2,0:0:0:0:
320,192,28405,1,8,0:0:0:0:
192,192,28465,1,0,0:0:0:0:
64,192,28525,1,8,0:0:0:0:
448,192,28585,1,8,0:0:0:0:
320,192,28645,1,0,0:0:0:70:tom1.wav
192,192,28705,1,0,0:0:0:70:tom1.wav
448,192,28765,1,0,0:0:0:70:tom2.wav
64,192,28825,1,0,0:0:0:70:tom2.wav
192,192,28885,1,0,0:0:0:70:tom3.wav
320,192,28945,1,0,0:0:0:70:tom3.wav
64,192,29005,1,0,0:0:0:70:tom4.wav
192,192,29065,1,0,0:0:0:70:tom4.wav
320,192,29125,1,2,0:0:0:0:
448,192,29125,128,4,29365:0:0:0:0:
192,192,29245,1,2,0:0:0:0:
64,192,29365,1,8,0:0:0:0:
320,192,29365,1,0,0:0:0:0:
448,192,29485,1,0,0:0:0:0:
64,192,29605,128,2,29845:0:0:0:0:
192,192,29605,1,0,0:0:0:0:
320,192,29725,1,2,0:0:0:0:
448,192,29845,1,8,0:0:0:0:
320,192,29905,1,0,0:0:0:0:
192,192,29965,1,8,0:0:0:0:
64,192,30025,1,8,0:0:0:0:
320,192,30085,128,2,30325:0:0:0:0:
448,192,30085,1,4,0:0:0:0:
192,192,30205,1,2,0:0:0:0:
64,192,30325,1,8,0:0:0:0:
448,192,30325,1,0,0:0:0:0:
320,192,30445,1,0,0:0:0:0:
64,192,30565,1,2,0:0:0:0:
192,192,30625,1,2,0:0:0:0:
320,192,30685,1,2,0:0:0:0:
448,192,30745,1,2,0:0:0:0:
64,192,30805,1,8,0:0:0:0:
192,192,30805,128,4,31045:0:0:0:0:
320,192,30925,1,0,0:0:0:0:
64,192,31045,1,2,0:0:0:0:
448,192,31045,1,4,0:0:0:0:
192,192,31165,1,8,0:0:0:0:
320,192,31165,1,0,0:0:0:0:
448,192,31285,1,2,0:0:0:0:
64,192,31405,1,8,0:0:0:0:
320,192,31405,1,0,0:0:0:0:
192,192,31525,1,2,0:0:0:0:
320,192,31645,1,8,0:0:0:0:
448,192,31645,1,0,0:0:0:0:
64,192,31765,1,2,0:0:0:0:
192,192,31825,1,2,0:0:0:0:
320,192,31885,1,8,0:0:0:0:
448,192,31885,1,0,0:0:0:0:
64,192,32005,128,2,32125:0:0:0:0:
192,192,32125,128,8,32245:0:0:0:0:
448,192,32125,1,0,0:0:0:0:
320,192,32245,128,2,32365:0:0:0:0:
192,192,32365,1,8,0:0:0:0:
448,192,32365,128,0,32485:0:0:0:0:
64,192,32485,128,2,32605:0:0:0:0:
192,192,32605,128,8,32725:0:0:0:0:
448,192,32605,1,0,0:0:0:0:
320,192,32725,128,2,32845:0:0:0:0:
192,192,32845,1,8,0:0:0:0:
448,192,32845,128,0,32965:0:0:0:0:
64,192,32965,128,4,33685:0:0:0:0:
320,192,32965,1,8,0:0:0:0:
320,192,33205,1,2,0:0:0:0:
448,192,33265,1,2,0:0:0:0:
192,192,33325,1,8,0:0:0:0:
320,192,33325,1,0,0:0:0:0:
320,192,33565,1,2,0:0:0:0:
448,192,33565,1,0,0:0:0:0:
192,192,33685,1,8,0:0:0:0:
448,192,33685,1,0,0:0:0:0:
320,192,33805,1,2,0:0:0:0:
192,192,33865,1,2,0:0:0:0:
64,192,33925,1,12,0:0:0:0:
448,192,33985,1,8,0:0:0:0:
192,192,34045,1,0,0:0:0:70:tom1.wav
320,192,34105,1,0,0:0:0:70:tom2.wav
448,192,34165,1,0,0:0:0:70:tom3.wav
64,192,34285,1,8,0:0:0:0:
192,192,34345,1,8,0:0:0:0:
448,192,34405,1,8,0:0:0:0:
320,192,34485,1,8,0:0:0:0:
64,192,34565,1,0,0:0:0:70:tom1.wav
192,192,34645,1,0,0:0:0:70:tom2.wav
320,192,34725,1,0,0:0:0:70:tom4.wav
448,192,34805,1,0,0:0:0:70:tom3.wav
64,192,34885,1,4,0:0:0:0:
192,192,34885,1,8,0:0:0:0:
320,192,35005,1,0,0:0:0:0:
192,192,35065,1,0,0:0:0:0:
64,192,35125,1,0,0:0:0:0:
320,192,35245,1,8,0:0:0:0:
448,192,35245,1,4,0:0:0:0:
192,192,35365,1,0,0:0:0:0:
320,192,35425,1,0,0:0:0:0:
448,192,35485,1,0,0:0:0:0:
64,192,35605,1,8,0:0:0:0:
192,192,35605,1,4,0:0:0:0:
320,192,35725,1,0,0:0:0:0:
192,192,35785,1,0,0:0:0:0:
64,192,35845,1,0,0:0:0:0:
320,192,35965,1,8,0:0:0:0:
448,192,35965,1,4,0:0:0:0:
192,192,36085,1,0,0:0:0:0:
64,192,36205,1,0,0:0:0:0:
448,192,36325,128,0,36805:0:0:0:0:
64,192,36445,1,0,0:0:0:0:
192,192,36565,1,0,0:0:0:0:
320,192,36685,1,0,0:0:0:0:
64,192,36805,1,8,0:0:0:0:
192,192,36805,1,4,0:0:0:0:
320,192,36925,1,8,0:0:0:0:
192,192,36985,1,0,0:0:0:0:
64,192,37045,1,0,0:0:0:0:
320,192,37165,1,4,0:0:0:0:
448,192,37165,1,8,0:0:0:0:
64,192,37285,1,0,0:0:0:0:
192,192,37345,1,0,0:0:0:0:
320,192,37405,1,0,0:0:0:0:
448,192,37465,1,0,0:0:0:0:
192,192,37525,1,0,0:0:0:0:
320,192,37585,1,0,0:0:0:0:
64,192,37645,1,0,0:0:0:0:
192,192,37705,1,0,0:0:0:0:
320,192,37765,1,2,0:0:0:0:
448,192,37765,1,4,0:0:0:0:
192,192,37885,1,0,0:0:0:0:
320,192,38005,1,0,0:0:0:0:
448,192,38125,1,0,0:0:0:0:
64,192,38245,1,0,0:0:0:0:
192,192,38305,1,0,0:0:0:0:
448,192,38365,1,0,0:0:0:0:
320,192,38425,1,0,0:0:0:0:
64,192,38485,1,0,0:0:0:0:
192,192,38545,1,0,0:0:0:0:
320,192,38605,1,2,0:0:0:0:
448,192,38665,1,2,0:0:0:0:
64,192,38725,1,4,0:0:0:0:
192,192,38725,1,2,0:0:0:0:
320,192,38845,1,8,0:0:0:0:
64,192,38965,1,0,0:0:0:0:
192,192,39025,1,0,0:0:0:0:
448,192,39085,1,2,0:0:0:0:
320,192,39145,1,0,0:0:0:0:
192,192,39205,1,0,0:0:0:0:
64,192,39325,1,8,0:0:0:0:
448,192,39325,1,0,0:0:0:0:
192,192,39445,128,2,39685:0:0:0:0:
320,192,39445,1,0,0:0:0:0:
448,192,39565,1,0,0:0:0:0:
64,192,39685,1,8,0:0:0:0:
192,192,39805,1,2,0:0:0:0:
448,192,39925,1,0,0:0:0:0:
320,192,39985,1,0,0:0:0:0:
192,192,40045,1,8,0:0:0:0:
64,192,40105,1,0,0:0:0:0:
448,192,40165,1,2,0:0:0:0:
64,192,40285,1,2,0:0:0:0:
192,192,40285,1,0,0:0:0:0:
320,192,40405,1,8,0:0:0:0:
448,192,40405,128,0,40645:0:0:0:0:
64,192,40645,1,8,0:0:0:0:
192,192,40645,1,0,0:0:0:0:
192,192,40765,1,8,0:0:0:0:
320,192,40885,1,0,0:0:0:70:tom3.wav
320,192,41005,1,8,0:0:0:0:
448,192,41005,1,0,0:0:0:0:
64,192,41125,1,8,0:0:0:0:
192,192,41125,1,0,0:0:0:0:
192,192,41245,1,0,0:0:0:70:tom4.wav
320,192,41365,1,8,0:0:0:0:
320,192,41485,1,8,0:0:0:0:
448,192,41485,1,0,0:0:0:0:
64,192,41605,1,2,0:0:0:0:
192,192,41605,1,4,0:0:0:0:
64,192,41725,1,8,0:0:0:0:
320,192,41725,1,0,0:0:0:0:
192,192,41845,1,8,0:0:0:0:
448,192,41845,1,0,0:0:0:0:
192,192,41965,1,0,0:0:0:0:
448,192,42085,1,8,0:0:0:0:
320,192,42145,1,8,0:0:0:0:
192,192,42205,1,8,0:0:0:0:
448,192,42265,1,8,0:0:0:0:
64,192,42325,1,8,0:0:0:0:
192,192,42385,1,8,0:0:0:0:
320,192,42445,1,8,0:0:0:0:
448,192,42505,1,8,0:0:0:0:
320,192,42685,1,2,0:0:0:0:
448,192,42685,1,0,0:0:0:0:
64,192,42805,1,8,0:0:0:0:
192,192,42805,1,4,0:0:0:0:
320,192,42925,1,12,0:0:0:0:
64,192,43045,1,2,0:0:0:0:
192,192,43105,1,2,0:0:0:0:
320,192,43165,1,2,0:0:0:0:
448,192,43225,1,2,0:0:0:0:
64,192,43285,128,4,43525:0:0:0:0:
192,192,43285,1,8,0:0:0:0:
448,192,43405,1,8,0:0:0:0:
192,192,43525,1,4,0:0:0:0:
320,192,43525,1,2,0:0:0:0:
64,192,43645,1,2,0:0:0:0:
320,192,43765,1,8,0:0:0:0:
448,192,43765,1,0,0:0:0:0:
192,192,43885,1,0,0:0:0:0:
448,192,44005,1,6,0:0:0:0:
320,192,44065,1,0,0:0:0:0:
64,192,44125,1,2,0:0:0:0:
192,192,44185,1,0,0:0:0:0:
448,192,44245,1,8,0:0:0:0:
320,192,44305,1,0,0:0:0:0:
192,192,44365,1,0,0:0:0:0:
64,192,44425,1,0,0:0:0:0:
320,192,44485,1,4,0:0:0:0:
448,192,44485,1,2,0:0:0:0:
192,192,44605,1,2,0:0:0:0:
448,192,44725,1,8,0:0:0:0:
320,192,44785,1,0,0:0:0:0:
192,192,44845,1,2,0:0:0:0:
64,192,44905,1,8,0:0:0:0:
320,192,44965,1,4,0:0:0:0:
448,192,44965,1,2,0:0:0:0:
192,192,45085,1,12,0:0:0:0:
64,192,45205,1,8,0:0:0:0:
192,192,45265,1,8,0:0:0:0:
448,192,45325,1,8,0:0:0:0:
320,192,45385,1,8,0:0:0:0:
64,192,45445,128,2,45925:0:0:0:0:
192,192,45445,1,4,0:0:0:0:
448,192,45565,1,8,0:0:0:0:
320,192,45685,1,8,0:0:0:0:
192,192,45805,1,2,0:0:0:0:
320,192,45925,1,8,0:0:0:0:
448,192,45925,1,0,0:0:0:70:tom3.wav
64,192,46105,1,8,0:0:0:0:
192,192,46105,1,0,0:0:0:70:tom2.wav
320,192,46285,1,8,0:0:0:0:
448,192,46285,1,0,0:0:0:70:tom1.wav
64,192,46405,1,8,0:0:0:0:
192,192,46405,1,4,0:0:0:0:
320,192,46525,1,8,0:0:0:0:
448,192,46525,1,4,0:0:0:0:
192,192,46645,1,2,0:0:0:0:
320,192,46705,1,2,0:0:0:0:
448,192,46765,1,12,0:0:0:0:
64,192,46885,1,8,0:0:0:0:
192,192,46885,1,4,0:0:0:0:
320,192,47005,1,2,0:0:0:0:
192,192,47065,1,2,0:0:0:0:
64,192,47125,1,12,0:0:0:0:
320,192,47245,1,8,0:0:0:0:
448,192,47245,1,4,0:0:0:0:
192,192,47365,1,2,0:0:0:0:
320,192,47425,1,2,0:0:0:0:
448,192,47485,1,12,0:0:0:0:
64,192,47605,1,8,0:0:0:0:
192,192,47605,1,4,0:0:0:0:
320,192,47725,1,2,0:0:0:0:
192,192,47785,1,2,0:0:0:0:
64,192,47845,1,12,0:0:0:0:
448,192,47965,1,8,0:0:0:0:
320,192,48025,1,8,0:0:0:0:
192,192,48085,1,8,0:0:0:0:
64,192,48145,1,0,0:0:0:70:tom2.wav
448,192,48205,1,0,0:0:0:70:tom3.wav
320,192,48265,1,0,0:0:0:70:tom4.wav
64,192,48325,128,2,48565:0:0:0:0:
192,192,48325,1,4,0:0:0:0:
320,192,48565,1,8,0:0:0:0:
448,192,48565,1,0,0:0:0:0:
320,192,48685,1,8,0:0:0:0:
64,192,48805,1,8,0:0:0:0:
192,192,48805,1,0,0:0:0:0:
192,192,48925,1,8,0:0:0:0:
320,192,49045,1,8,0:0:0:0:
448,192,49045,1,0,0:0:0:0:
448,192,49165,1,8,0:0:0:0:
64,192,49285,128,8,49405:0:0:0:0:
192,192,49285,1,0,0:0:0:0:
320,192,49405,1,8,0:0:0:0:
448,192,49405,128,0,49525:0:0:0:0:
64,192,49525,1,8,0:0:0:0:
192,192,49525,128,0,49645:0:0:0:0:
320,192,49645,128,8,49765:0:0:0:0:
448,192,49645,1,0,0:0:0:0:
64,192,49765,1,8,0:0:0:0:
192,192,49825,1,8,0:0:0:0:
448,192,49885,1,8,0:0:0:0:
320,192,49945,1,8,0:0:0:0:
64,192,50005,1,8,0:0:0:0:
192,192,50065,1,0,0:0:0:70:tom1.wav
320,192,50125,1,0,0:0:0:70:tom2.wav
448,192,50185,1,0,0:0:0:70:tom3.wav
64,192,50245,1,4,0:0:0:0:
192,192,50245,1,0,0:0:0:70:tom4.wav
320,192,50485,1,0,0:0:0:0:
320,192,50605,1,0,0:0:0:0:
192,192,50845,1,0,0:0:0:0:
320,192,51085,1,0,0:0:0:0:
448,192,51445,1,0,0:0:0:0:
320,192,51565,1,0,0:0:0:0:
192,192,51685,1,0,0:0:0:0:
64,192,51805,1,0,0:0:0:0:
320,192,51925,1,0,0:0:0:0:
192,192,52045,1,0,0:0:0:0:
320,192,52165,1,0,0:0:0:70:tick02_edit.wav
448,192,52165,1,0,0:0:0:0:
320,192,53005,1,0,0:0:0:0:
192,192,53065,1,0,0:0:0:0:
64,192,53125,1,0,0:0:0:70:tick02_edit.wav
192,192,53605,1,0,0:0:0:0:
320,192,53845,1,0,0:0:0:0:
64,192,54085,1,0,0:0:0:70:tick02_edit.wav
448,192,54085,1,0,0:0:0:0:
192,192,54205,1,0,0:0:0:0:
448,192,54325,1,0,0:0:0:0:
320,192,54445,1,0,0:0:0:0:
192,192,54565,1,0,0:0:0:0:
64,192,54685,1,0,0:0:0:0:
192,192,54805,1,0,0:0:0:0:
320,192,54925,1,0,0:0:0:0:
448,192,55045,1,0,0:0:0:70:tick02_edit.wav
64,192,55165,1,0,0:0:0:0:
320,192,55285,1,0,0:0:0:0:
192,192,55405,1,0,0:0:0:0:
64,192,55525,1,0,0:0:0:0:
320,192,55645,1,0,0:0:0:0:
192,192,55765,1,0,0:0:0:0:
448,192,55885,1,0,0:0:0:0:
64,192,56005,1,0,0:0:0:70:tick02_edit.wav
320,192,56005,1,0,0:0:0:0:
192,192,56245,1,0,0:0:0:0:
320,192,56365,1,0,0:0:0:0:
64,192,56965,128,0,57925:0:0:0:70:tick02_edit.wav
448,192,57445,1,0,0:0:0:0:
320,192,57565,1,0,0:0:0:0:
192,192,57685,128,0,57925:0:0:0:0:
448,192,57925,1,4,0:0:0:0:
192,192,58165,1,0,0:0:0:50:amenbreak_kick1.wav
320,192,58285,1,0,0:0:0:50:amenbreak_kick1.wav
64,192,58405,1,0,0:0:0:100:Drumstart_040.wav
448,192,58405,1,0,0:0:0:0:
192,192,58525,1,0,0:0:0:0:
320,192,58765,1,0,0:0:0:50:amenbreak_kick1.wav
192,192,59125,1,0,0:0:0:0:
64,192,59365,1,0,0:0:0:100:amenbreak_snare1.wav
448,192,59365,1,0,0:0:0:0:
320,192,59605,1,0,0:0:0:0:
64,192,59845,1,0,0:0:0:50:amenbreak_kick1.wav
192,192,59845,1,0,0:0:0:0:
192,192,60085,1,0,0:0:0:50:amenbreak_kick1.wav
448,192,60085,1,0,0:0:0:0:
320,192,60205,1,0,0:0:0:50:amenbreak_kick1.wav
64,192,60445,1,0,0:0:0:50:amenbreak_kick1.wav
448,192,60685,1,0,0:0:0:50:amenbreak_kick1.wav
64,192,61045,1,0,0:0:0:50:amenbreak_kick1.wav
192,192,61285,1,0,0:0:0:50:amenbreak_kick1.wav
320,192,61525,1,0,0:0:0:0:
448,192,61765,1,0,0:0:0:50:amenbreak_kick1.wav
320,192,61845,1,0,0:0:0:50:amenbreak_kick1.wav
192,192,61925,1,0,0:0:0:50:amenbreak_kick1.wav
64,192,62005,1,0,0:0:0:100:Drumstart_040.wav
448,192,62085,1,0,0:0:0:50:amenbreak_kick1.wav
320,192,62165,1,0,0:0:0:50:amenbreak_kick1.wav
64,192,62245,1,0,0:0:0:50:amenbreak_kick1.wav
192,192,62325,1,0,0:0:0:50:amenbreak_kick1.wav
320,192,62405,1,0,0:0:0:50:amenbreak_kick1.wav
448,192,62485,1,0,0:0:0:100:amenbreak_snare1.wav
192,192,62565,1,0,0:0:0:50:amenbreak_kick1.wav
320,192,62645,1,0,0:0:0:50:amenbreak_kick1.wav
64,192,62725,1,0,0:0:0:50:amenbreak_kick1.wav
448,192,62725,1,0,0:0:0:0:
192,192,62805,1,0,0:0:0:50:amenbreak_kick1.wav
320,192,62885,1,0,0:0:0:50:amenbreak_kick1.wav
448,192,62965,1,0,0:0:0:100:Drumstart_040.wav
64,192,63045,1,0,0:0:0:50:amenbreak_kick1.wav
192,192,63125,1,0,0:0:0:50:amenbreak_kick1.wav
448,192,63205,1,0,0:0:0:100:amenbreak_snare1.wav
320,192,63285,1,0,0:0:0:50:amenbreak_kick1.wav
192,192,63365,1,0,0:0:0:50:amenbreak_kick1.wav
64,192,63445,128,0,63685:0:0:0:50:amenbreak_kick1.wav
448,192,63445,128,0,63685:0:0:0:0:
192,192,63685,1,2,0:0:0:0:
320,192,63685,128,4,63925:0:0:0:0:
448,192,63805,1,2,0:0:0:0:
64,192,63925,1,8,0:0:0:0:
192,192,63925,128,0,64165:0:0:0:0:
320,192,64045,1,6,0:0:0:0:
64,192,64165,128,2,64405:0:0:0:0:
448,192,64165,1,0,0:0:0:0:
192,192,64285,1,2,0:0:0:0:
320,192,64405,128,8,64645:0:0:0:0:
448,192,64405,1,0,0:0:0:0:
64,192,64525,1,2,0:0:0:0:
192,192,64645,128,4,64765:0:0:0:0:
448,192,64645,1,0,0:0:0:0:
320,192,64765,128,2,64885:0:0:0:0:
64,192,64885,1,8,0:0:0:0:
448,192,64885,128,0,65005:0:0:0:0:
64,192,65005,128,6,65125:0:0:0:0:
320,192,65125,128,2,65365:0:0:0:0:
448,192,65125,1,0,0:0:0:0:
192,192,65245,1,2,0:0:0:0:
64,192,65365,1,8,0:0:0:0:
448,192,65365,128,0,65605:0:0:0:0:
320,192,65485,1,2,0:0:0:0:
64,192,65605,1,8,0:0:0:0:
192,192,65605,1,0,0:0:0:0:
320,192,65725,1,8,0:0:0:0:
448,192,65725,1,0,0:0:0:0:
320,192,65965,1,8,0:0:0:0:
448,192,65965,1,0,0:0:0:0:
64,192,66085,1,8,0:0:0:0:
192,192,66085,1,0,0:0:0:0:
320,192,66325,1,8,0:0:0:0:
448,192,66325,1,0,0:0:0:0:
320,192,66445,1,8,0:0:0:0:
448,192,66445,1,0,0:0:0:0:
192,192,66805,128,0,67045:0:0:0:0:
320,192,67045,128,0,67285:0:0:0:0:
448,192,67285,128,0,67525:0:0:0:0:
64,192,67525,1,6,0:0:0:0:
192,192,67525,1,0,0:0:0:70:LR_Clap Loud Long.wav
320,192,67645,1,2,0:0:0:0:
64,192,67765,1,8,0:0:0:0:
448,192,67765,1,0,0:0:0:0:
448,192,67885,128,0,68125:0:0:0:0:
64,192,68005,1,2,0:0:0:0:
320,192,68005,1,0,0:0:0:0:
192,192,68125,1,2,0:0:0:0:
320,192,68245,1,8,0:0:0:0:
448,192,68245,1,0,0:0:0:0:
64,192,68365,128,2,68605:0:0:0:0:
192,192,68365,1,0,0:0:0:0:
320,192,68485,1,0,0:0:0:0:
448,192,68605,1,2,0:0:0:0:
320,192,68665,1,2,0:0:0:0:
64,192,68725,1,8,0:0:0:0:
192,192,68725,128,0,68965:0:0:0:0:
448,192,68965,1,2,0:0:0:0:
320,192,69025,1,2,0:0:0:0:
64,192,69085,1,2,0:0:0:0:
192,192,69145,1,2,0:0:0:0:
320,192,69205,128,8,69445:0:0:0:0:
448,192,69205,1,0,0:0:0:0:
64,192,69445,128,2,69685:0:0:0:0:
192,192,69445,1,0,0:0:0:0:
320,192,69565,1,2,0:0:0:0:
192,192,69685,1,8,0:0:0:0:
448,192,69685,1,0,0:0:0:0:
448,192,69805,128,0,70045:0:0:0:0:
64,192,69925,1,2,0:0:0:0:
192,192,69925,1,0,0:0:0:0:
320,192,70045,128,2,70165:0:0:0:0:
64,192,70165,128,8,70285:0:0:0:0:
448,192,70165,1,0,0:0:0:0:
192,192,70285,128,2,70405:0:0:0:0:
448,192,70405,128,0,70525:0:0:0:0:
320,192,70525,1,2,0:0:0:0:
192,192,70585,1,2,0:0:0:0:
64,192,70645,1,8,0:0:0:0:
448,192,70645,128,0,70765:0:0:0:0:
320,192,70765,128,0,70885:0:0:0:0:
64,192,70885,1,2,0:0:0:0:
192,192,70945,1,2,0:0:0:0:
320,192,71005,1,2,0:0:0:0:
448,192,71065,1,2,0:0:0:0:
64,192,71125,1,8,0:0:0:0:
192,192,71125,1,0,0:0:0:0:
320,192,71245,1,0,0:0:0:0:
64,192,71365,128,2,71725:0:0:0:0:
192,192,71365,128,4,71485:0:0:0:0:
320,192,71485,128,2,71605:0:0:0:0:
448,192,71605,128,8,71725:0:0:0:0:
192,192,71725,128,0,71965:0:0:0:0:
320,192,71845,1,2,0:0:0:0:
448,192,71965,1,2,0:0:0:0:
64,192,72085,1,8,0:0:0:0:
320,192,72085,1,0,0:0:0:0:
192,192,72205,1,2,0:0:0:0:
448,192,72325,128,0,72805:0:0:0:0:
320,192,72445,1,2,0:0:0:0:
192,192,72505,1,0,0:0:0:0:
64,192,72565,1,8,0:0:0:0:
320,192,72685,1,0,0:0:0:0:
64,192,72805,1,2,0:0:0:0:
192,192,72865,1,0,0:0:0:70:tom1.wav
320,192,72925,1,0,0:0:0:70:tom4.wav
448,192,72985,1,2,0:0:0:0:
64,192,73045,1,8,0:0:0:0:
192,192,73105,1,0,0:0:0:70:tom2.wav
448,192,73165,1,2,0:0:0:0:
320,192,73225,1,2,0:0:0:0:
64,192,73285,1,8,0:0:0:0:
192,192,73285,1,4,0:0:0:0:
320,192,73405,1,2,0:0:0:0:
192,192,73465,1,0,0:0:0:0:
64,192,73525,1,2,0:0:0:0:
320,192,73645,1,8,0:0:0:0:
448,192,73645,1,4,0:0:0:0:
192,192,73765,1,2,0:0:0:0:
320,192,73825,1,0,0:0:0:0:
448,192,73885,1,2,0:0:0:0:
64,192,74005,1,4,0:0:0:0:
192,192,74005,1,8,0:0:0:0:
320,192,74125,1,2,0:0:0:0:
192,192,74245,1,8,0:0:0:0:
448,192,74245,1,4,0:0:0:0:
64,192,74365,1,8,0:0:0:0:
320,192,74485,1,0,0:0:0:70:tom3.wav
448,192,74485,1,0,0:0:0:0:
64,192,74605,128,8,75205:0:0:0:0:
192,192,74605,128,4,74845:0:0:0:0:
448,192,74845,128,0,74965:0:0:0:70:tom3.wav
320,192,74965,128,0,75085:0:0:0:70:tom2.wav
192,192,75085,128,8,75205:0:0:0:0:
320,192,75205,128,2,75445:0:0:0:0:
448,192,75205,1,4,0:0:0:0:
192,192,75325,1,2,0:0:0:0:
64,192,75445,1,8,0:0:0:0:
448,192,75445,1,0,0:0:0:0:
320,192,75565,1,0,0:0:0:0:
64,192,75685,128,2,75925:0:0:0:0:
192,192,75685,1,0,0:0:0:0:
448,192,75805,1,2,0:0:0:0:
192,192,75925,1,8,0:0:0:0:
320,192,75925,1,0,0:0:0:0:
64,192,76045,1,2,0:0:0:0:
448,192,76165,1,2,0:0:0:0:
320,192,76225,1,2,0:0:0:0:
192,192,76285,1,2,0:0:0:0:
64,192,76345,1,2,0:0:0:0:
448,192,76405,1,8,0:0:0:0:
192,192,76525,1,0,0:0:0:0:
320,192,76645,1,2,0:0:0:0:
448,192,76705,1,2,0:0:0:0:
64,192,76765,1,2,0:0:0:0:
192,192,76825,1,2,0:0:0:0:
320,192,76885,1,8,0:0:0:0:
192,192,77005,1,0,0:0:0:0:
64,192,77125,1,2,0:0:0:0:
448,192,77125,1,4,0:0:0:0:
320,192,77245,1,8,0:0:0:0:
192,192,77305,1,0,0:0:0:70:tom1.wav
64,192,77365,1,2,0:0:0:0:
448,192,77425,1,2,0:0:0:0:
192,192,77485,128,8,77725:0:0:0:0:
320,192,77485,1,4,0:0:0:0:
320,192,77725,1,0,0:0:0:70:tom1.wav
448,192,77725,1,0,0:0:0:0:
64,192,77845,1,0,0:0:0:70:tom1.wav
192,192,77845,1,0,0:0:0:0:
320,192,77965,1,0,0:0:0:70:tom1.wav
448,192,77965,1,0,0:0:0:0:
64,192,78085,1,4,0:0:0:0:
448,192,78085,1,8,0:0:0:0:
192,192,78265,1,8,0:0:0:0:
320,192,78265,1,4,0:0:0:0:
64,192,78445,1,4,0:0:0:0:
192,192,78445,1,8,0:0:0:0:
320,192,78565,1,4,0:0:0:0:
448,192,78565,1,8,0:0:0:0:
64,192,78745,1,8,0:0:0:0:
448,192,78745,1,4,0:0:0:0:
64,192,78925,1,4,0:0:0:0:
192,192,78925,1,8,0:0:0:0:
320,192,79045,1,2,0:0:0:0:
448,192,79045,1,4,0:0:0:0:
192,192,79165,1,2,0:0:0:0:
320,192,79225,1,0,0:0:0:0:
448,192,79285,1,8,0:0:0:0:
64,192,79405,1,0,0:0:0:0:
192,192,79405,1,0,0:0:0:0:
320,192,79525,1,2,0:0:0:0:
192,192,79585,1,0,0:0:0:0:
64,192,79645,1,2,0:0:0:0:
320,192,79765,1,8,0:0:0:0:
448,192,79765,1,0,0:0:0:0:
192,192,79885,1,0,0:0:0:0:
320,192,79945,1,0,0:0:0:0:
448,192,80005,1,6,0:0:0:0:
64,192,80125,1,2,0:0:0:0:
192,192,80125,1,0,0:0:0:0:
320,192,80245,1,8,0:0:0:0:
192,192,80305,1,0,0:0:0:0:
64,192,80365,1,0,0:0:0:0:
448,192,80485,1,6,0:0:0:0:
320,192,80545,1,2,0:0:0:0:
64,192,80605,1,2,0:0:0:0:
192,192,80665,1,2,0:0:0:0:
320,192,80725,1,8,0:0:0:0:
192,192,80845,1,2,0:0:0:0:
320,192,80905,1,2,0:0:0:0:
64,192,80965,1,8,0:0:0:0:
448,192,80965,128,4,81205:0:0:0:0:
64,192,81205,1,8,0:0:0:0:
192,192,81265,1,8,0:0:0:0:
320,192,81325,1,8,0:0:0:0:
448,192,81385,1,8,0:0:0:0:
64,192,81445,1,8,0:0:0:0:
192,192,81505,1,8,0:0:0:0:
320,192,81565,1,8,0:0:0:0:
192,192,81625,1,8,0:0:0:0:
448,192,81685,1,8,0:0:0:0:
320,192,81745,1,8,0:0:0:0:
192,192,81805,1,8,0:0:0:0:
64,192,81865,1,8,0:0:0:0:
448,192,81925,1,0,0:0:0:70:tom2.wav
320,192,82045,1,0,0:0:0:70:tom1.wav
64,192,82165,128,0,82405:0:0:0:70:tom3.wav
192,192,82225,1,0,0:0:0:70:tom4.wav
320,192,82285,1,0,0:0:0:70:tom1.wav
192,192,82405,128,0,82645:0:0:0:70:tom2.wav
448,192,82525,1,0,0:0:0:70:tom3.wav
64,192,82645,1,8,0:0:0:0:
320,192,82645,128,0,82885:0:0:0:0:
192,192,82765,1,8,0:0:0:0:
64,192,82885,1,0,0:0:0:70:tom1.wav
192,192,82945,1,0,0:0:0:0:
320,192,83005,1,2,0:0:0:0:
448,192,83065,1,2,0:0:0:0:
64,192,83125,1,12,0:0:0:0:
192,192,83125,1,0,0:0:0:70:LR_Clap Loud Long.wav
64,192,83245,128,0,83485:0:0:0:0:
448,192,83485,1,8,0:0:0:0:
320,192,83545,1,8,0:0:0:0:
192,192,83605,1,8,0:0:0:0:
64,192,83665,1,8,0:0:0:0:
448,192,83725,1,8,0:0:0:0:
320,192,83785,1,8,0:0:0:0:
192,192,83845,1,8,0:0:0:0:
64,192,83905,1,0,0:0:0:70:tom1.wav
448,192,83965,128,2,84325:0:0:0:0:
320,192,84085,1,8,0:0:0:0:
64,192,84205,1,2,0:0:0:0:
192,192,84265,1,2,0:0:0:0:
320,192,84325,1,0,0:0:0:70:tom2.wav
192,192,84445,1,2,0:0:0:0:
448,192,84565,1,8,0:0:0:0:
320,192,84625,1,8,0:0:0:0:
64,192,84685,1,0,0:0:0:70:tom3.wav
192,192,84745,1,0,0:0:0:70:tom4.wav
320,192,84805,1,2,0:0:0:0:
448,192,84805,128,4,85045:0:0:0:0:
64,192,84925,1,2,0:0:0:0:
192,192,84985,1,2,0:0:0:0:
320,192,85045,1,8,0:0:0:0:
64,192,85165,1,2,0:0:0:0:
192,192,85285,1,2,0:0:0:0:
320,192,85285,128,0,85525:0:0:0:0:
448,192,85405,1,2,0:0:0:0:
64,192,85525,1,8,0:0:0:0:
192,192,85525,1,0,0:0:0:0:
320,192,85645,1,0,0:0:0:0:
192,192,85765,1,2,0:0:0:0:
448,192,85765,1,4,0:0:0:0:
320,192,85885,1,2,0:0:0:0:
64,192,86005,1,8,0:0:0:0:
192,192,86005,1,0,0:0:0:0:
64,192,86125,128,0,86365:0:0:0:0:
448,192,86245,1,2,0:0:0:0:
320,192,86365,1,2,0:0:0:0:
64,192,86485,1,8,0:0:0:0:
192,192,86485,1,0,0:0:0:0:
320,192,86605,1,8,0:0:0:0:
448,192,86605,1,0,0:0:0:0:
64,192,86725,1,6,0:0:0:0:
192,192,86805,1,2,0:0:0:0:
320,192,86885,1,2,0:0:0:0:
448,192,86965,1,8,0:0:0:0:
64,192,87045,1,2,0:0:0:0:
320,192,87125,1,2,0:0:0:0:
192,192,87205,1,2,0:0:0:0:
64,192,87285,1,2,0:0:0:0:
448,192,87365,1,2,0:0:0:0:
192,192,87445,1,8,0:0:0:0:
320,192,87525,1,2,0:0:0:0:
448,192,87605,1,2,0:0:0:0:
64,192,87685,1,2,0:0:0:0:
192,192,87685,1,4,0:0:0:0:
320,192,87805,1,0,0:0:0:70:tom1.wav
192,192,87865,1,0,0:0:0:0:
64,192,87925,1,8,0:0:0:0:
320,192,88045,1,8,0:0:0:0:
448,192,88045,1,0,0:0:0:0:
320,192,88165,1,8,0:0:0:0:
448,192,88165,1,0,0:0:0:0:
64,192,88285,1,8,0:0:0:0:
192,192,88285,1,0,0:0:0:0:
64,192,88405,1,8,0:0:0:0:
192,192,88405,1,0,0:0:0:0:
320,192,88525,1,8,0:0:0:0:
448,192,88525,1,0,0:0:0:0:
64,192,88645,1,8,0:0:0:0:
192,192,88645,1,4,0:0:0:0:
320,192,88765,1,8,0:0:0:0:
192,192,88825,1,0,0:0:0:70:tom2.wav
64,192,88885,1,0,0:0:0:0:
320,192,89005,1,8,0:0:0:0:
448,192,89005,1,4,0:0:0:0:
192,192,89125,1,8,0:0:0:0:
320,192,89185,1,0,0:0:0:0:
448,192,89245,1,2,0:0:0:0:
64,192,89365,1,8,0:0:0:0:
192,192,89425,1,0,0:0:0:70:tom3.wav
448,192,89485,1,2,0:0:0:0:
320,192,89545,1,2,0:0:0:0:
64,192,89605,1,2,0:0:0:0:
192,192,89605,1,4,0:0:0:0:
448,192,89725,1,2,0:0:0:0:
64,192,89845,1,2,0:0:0:0:
320,192,89845,1,0,0:0:0:0:
192,192,89965,1,2,0:0:0:0:
448,192,89965,128,4,90205:0:0:0:0:
64,192,90205,1,8,0:0:0:0:
192,192,90265,1,8,0:0:0:0:
320,192,90325,1,0,0:0:0:70:tom1.wav
448,192,90385,1,0,0:0:0:70:tom2.wav
64,192,90445,1,2,0:0:0:0:
192,192,90505,1,2,0:0:0:0:
320,192,90565,1,8,0:0:0:0:
448,192,90565,1,4,0:0:0:0:
192,192,90645,1,0,0:0:0:70:tom1.wav
64,192,90725,1,2,0:0:0:0:
448,192,90805,1,8,0:0:0:0:
192,192,90885,1,2,0:0:0:0:
320,192,90965,1,2,0:0:0:0:
448,192,91045,1,0,0:0:0:70:tom2.wav
64,192,91125,1,0,0:0:0:70:tom3.wav
320,192,91205,1,2,0:0:0:0:
192,192,91285,1,0,0:0:0:70:tom4.wav
64,192,91365,1,2,0:0:0:0:
448,192,91445,1,2,0:0:0:0:
320,192,91525,1,12,0:0:0:0:
64,192,91605,1,2,0:0:0:0:
192,192,91685,1,2,0:0:0:0:
448,192,91765,1,8,0:0:0:0:
192,192,91845,1,0,0:0:0:0:
320,192,91925,1,0,0:0:0:0:
64,192,92005,1,0,0:0:0:0:
192,192,92065,1,0,0:0:0:0:
320,192,92125,1,2,0:0:0:0:
448,192,92185,1,0,0:0:0:0:
64,192,92245,1,0,0:0:0:70:tom1.wav
192,192,92305,1,0,0:0:0:70:tom2.wav
448,192,92365,1,0,0:0:0:70:tom3.wav
320,192,92425,1,0,0:0:0:70:tom4.wav
64,192,92485,128,2,92725:0:0:0:0:
192,192,92485,1,4,0:0:0:0:
448,192,92605,1,0,0:0:0:0:
320,192,92725,1,8,0:0:0:0:
64,192,92845,1,8,0:0:0:0:
192,192,92905,1,8,0:0:0:0:
320,192,92965,128,2,93205:0:0:0:0:
448,192,92965,1,4,0:0:0:0:
64,192,93085,1,2,0:0:0:0:
448,192,93205,1,0,0:0:0:70:tom1.wav
320,192,93265,1,0,0:0:0:70:tom2.wav
64,192,93325,1,0,0:0:0:70:tom3.wav
192,192,93385,1,0,0:0:0:70:tom4.wav
320,192,93445,1,0,0:0:0:70:tom1.wav
448,192,93445,128,0,93685:0:0:0:0:
192,192,93565,1,0,0:0:0:70:tom2.wav
64,192,93685,1,0,0:0:0:70:tom3.wav
320,192,93805,128,8,94045:0:0:0:0:
448,192,93805,1,4,0:0:0:0:
64,192,94045,1,8,0:0:0:0:
192,192,94105,1,8,0:0:0:0:
320,192,94165,1,8,0:0:0:0:
448,192,94225,1,8,0:0:0:0:
64,192,94285,1,8,0:0:0:0:
192,192,94345,1,8,0:0:0:0:
320,192,94405,1,2,0:0:0:0:
448,192,94405,1,4,0:0:0:0:
64,192,94525,1,8,0:0:0:0:
192,192,94525,1,0,0:0:0:0:
320,192,94645,1,2,0:0:0:0:
64,192,94765,1,8,0:0:0:0:
448,192,94765,128,0,95245:0:0:0:0:
64,192,95005,1,8,0:0:0:0:
320,192,95005,1,0,0:0:0:0:
192,192,95125,1,2,0:0:0:0:
64,192,95245,1,8,0:0:0:0:
320,192,95245,1,0,0:0:0:0:
192,192,95365,128,2,95605:0:0:0:0:
64,192,95485,1,8,0:0:0:0:
448,192,95485,1,0,0:0:0:0:
320,192,95605,128,2,95845:0:0:0:0:
64,192,95725,1,8,0:0:0:0:
448,192,95725,1,0,0:0:0:0:
192,192,95845,1,2,0:0:0:0:
320,192,95965,1,8,0:0:0:0:
448,192,95965,1,0,0:0:0:0:
192,192,96085,1,2,0:0:0:0:
64,192,96205,1,8,0:0:0:0:
320,192,96325,1,4,0:0:0:0:
448,192,96325,1,2,0:0:0:0:
64,192,96445,1,8,0:0:0:0:
192,192,96445,1,0,0:0:0:0:
448,192,96565,1,2,0:0:0:0:
64,192,96685,128,8,97285:0:0:0:0:
192,192,96685,1,0,0:0:0:0:
320,192,96805,1,2,0:0:0:0:
192,192,96925,1,8,0:0:0:0:
448,192,96925,1,0,0:0:0:0:
320,192,97045,1,8,0:0:0:0:
448,192,97045,1,0,0:0:0:0:
192,192,97285,1,8,0:0:0:0:
448,192,97285,1,0,0:0:0:0:
320,192,97365,1,8,0:0:0:0:
192,192,97445,1,8,0:0:0:0:
64,192,97525,1,8,0:0:0:0:
448,192,97525,1,0,0:0:0:0:
320,192,97605,1,8,0:0:0:0:
64,192,97685,1,8,0:0:0:0:
192,192,97765,1,0,0:0:0:70:tom1.wav
448,192,97765,1,0,0:0:0:0:
320,192,97845,1,0,0:0:0:70:tom1.wav
64,192,97925,1,0,0:0:0:70:tom2.wav
192,192,98005,1,0,0:0:0:70:tom3.wav
320,192,98005,1,0,0:0:0:0:
448,192,98085,1,0,0:0:0:70:tom4.wav
320,192,98165,1,0,0:0:0:70:tom4.wav
64,192,98245,1,2,0:0:0:0:
192,192,98245,1,4,0:0:0:0:
320,192,98365,1,2,0:0:0:0:
448,192,98365,1,0,0:0:0:0:
64,192,98605,1,2,0:0:0:0:
448,192,98605,1,0,0:0:0:0:
192,192,98725,1,8,0:0:0:0:
320,192,98725,1,4,0:0:0:0:
320,192,98965,1,2,0:0:0:0:
448,192,98965,1,0,0:0:0:0:
64,192,99085,1,2,0:0:0:0:
192,192,99085,1,0,0:0:0:0:
64,192,99325,1,2,0:0:0:0:
192,192,99325,1,0,0:0:0:0:
320,192,99445,128,2,99685:0:0:0:0:
448,192,99445,1,0,0:0:0:0:
64,192,99685,1,8,0:0:0:0:
192,192,99685,128,4,99925:0:0:0:0:
448,192,99685,1,0,0:0:0:0:
320,192,99925,1,8,0:0:0:0:
192,192,100045,1,2,0:0:0:0:
320,192,100105,1,2,0:0:0:0:
64,192,100165,1,4,0:0:0:0:
448,192,100165,1,2,0:0:0:0:
192,192,100285,1,2,0:0:0:0:
320,192,100285,1,0,0:0:0:0:
64,192,100525,1,2,0:0:0:0:
320,192,100525,1,0,0:0:0:0:
192,192,100645,1,8,0:0:0:0:
448,192,100645,1,4,0:0:0:0:
64,192,100885,1,2,0:0:0:0:
192,192,100885,1,0,0:0:0:0:
320,192,101005,1,2,0:0:0:0:
448,192,101005,1,0,0:0:0:0:
192,192,101125,1,4,0:0:0:0:
448,192,101245,1,2,0:0:0:0:
320,192,101305,1,0,0:0:0:0:
64,192,101365,1,2,0:0:0:0:
192,192,101425,1,0,0:0:0:0:
448,192,101485,1,2,0:0:0:0:
320,192,101545,1,2,0:0:0:0:
64,192,101605,128,8,101845:0:0:0:0:
192,192,101605,1,4,0:0:0:0:
320,192,101725,1,0,0:0:0:0:
448,192,101845,128,0,102085:0:0:0:0:
192,192,101965,1,0,0:0:0:0:
64,192,102085,128,4,102445:0:0:0:0:
320,192,102085,1,2,0:0:0:0:
448,192,102205,1,2,0:0:0:0:
192,192,102325,1,0,0:0:0:0:
448,192,102445,1,2,0:0:0:0:
320,192,102505,1,2,0:0:0:0:
64,192,102565,1,12,0:0:0:0:
192,192,102625,1,0,0:0:0:0:
448,192,102685,1,0,0:0:0:0:
320,192,102745,1,0,0:0:0:0:
192,192,102805,1,2,0:0:0:0:
64,192,102865,1,0,0:0:0:0:
448,192,102925,1,2,0:0:0:0:
320,192,102985,1,0,0:0:0:0:
64,192,103045,1,4,0:0:0:0:
192,192,103045,128,0,103285:0:0:0:0:
320,192,103165,1,2,0:0:0:0:
64,192,103285,1,2,0:0:0:0:
448,192,103285,1,0,0:0:0:0:
192,192,103365,1,0,0:0:0:0:
320,192,103445,1,0,0:0:0:0:
448,192,103525,1,12,0:0:0:0:
64,192,103605,1,0,0:0:0:0:
320,192,103685,1,0,0:0:0:0:
192,192,103765,1,8,0:0:0:0:
64,192,103845,1,0,0:0:0:0:
448,192,103925,1,0,0:0:0:0:
64,192,104005,1,4,0:0:0:0:
192,192,104065,1,0,0:0:0:70:tom1.wav
320,192,104125,1,0,0:0:0:70:tom2.wav
448,192,104185,1,0,0:0:0:70:tom2.wav
64,192,104245,1,2,0:0:0:0:
448,192,104365,1,4,0:0:0:0:
320,192,104425,1,0,0:0:0:70:tom2.wav
192,192,104485,1,0,0:0:0:70:tom3.wav
64,192,104545,1,0,0:0:0:70:tom3.wav
448,192,104605,1,2,0:0:0:0:
192,192,104725,1,4,0:0:0:0:
320,192,104785,1,0,0:0:0:70:tom3.wav
448,192,104845,1,0,0:0:0:70:tom4.wav
64,192,104905,1,0,0:0:0:70:tom4.wav
192,192,104965,1,2,0:0:0:0:
320,192,105085,1,6,0:0:0:0:
192,192,105145,1,0,0:0:0:0:
64,192,105205,1,2,0:0:0:0:
448,192,105265,1,2,0:0:0:0:
320,192,105325,1,8,0:0:0:0:
64,192,105385,1,2,0:0:0:0:
192,192,105445,1,8,0:0:0:0:
320,192,105565,1,2,0:0:0:0:
64,192,105685,1,8,0:0:0:0:
448,192,105685,1,0,0:0:0:0:
192,192,105805,1,2,0:0:0:0:
320,192,105925,1,2,0:0:0:0:
448,192,105925,1,4,0:0:0:0:
64,192,105985,1,0,0:0:0:0:
192,192,106045,1,8,0:0:0:0:
448,192,106105,1,0,0:0:0:0:
320,192,106165,1,6,0:0:0:0:
64,192,106225,1,0,0:0:0:0:
192,192,106285,1,8,0:0:0:0:
320,192,106405,1,2,0:0:0:0:
448,192,106405,1,4,0:0:0:0:
192,192,106525,1,8,0:0:0:0:
64,192,106645,1,2,0:0:0:0:
320,192,106645,1,4,0:0:0:0:
448,192,106765,1,8,0:0:0:0:
64,192,106885,1,2,0:0:0:0:
192,192,106885,1,4,0:0:0:0:
448,192,106945,1,0,0:0:0:0:
320,192,107005,1,8,0:0:0:0:
64,192,107065,1,0,0:0:0:0:
192,192,107125,1,6,0:0:0:0:
448,192,107185,1,0,0:0:0:0:
320,192,107245,1,8,0:0:0:0:
64,192,107365,1,2,0:0:0:0:
192,192,107365,1,4,0:0:0:0:
320,192,107485,1,8,0:0:0:0:
192,192,107605,1,2,0:0:0:0:
448,192,107605,1,4,0:0:0:0:
64,192,107725,1,8,0:0:0:0:
320,192,107845,128,4,108085:0:0:0:0:
448,192,107845,1,2,0:0:0:0:
192,192,107965,1,8,0:0:0:0:
64,192,108085,1,4,0:0:0:0:
448,192,108085,128,2,108325:0:0:0:0:
320,192,108205,1,8,0:0:0:0:
64,192,108325,128,4,108565:0:0:0:0:
192,192,108325,1,2,0:0:0:0:
448,192,108445,1,8,0:0:0:0:
192,192,108565,128,4,108805:0:0:0:0:
320,192,108565,1,2,0:0:0:0:
64,192,108685,1,8,0:0:0:0:
320,192,108805,1,4,0:0:0:0:
448,192,108805,1,8,0:0:0:0:
192,192,108885,1,8,0:0:0:0:
64,192,108965,1,8,0:0:0:0:
448,192,109045,1,8,0:0:0:0:
192,192,109125,1,8,0:0:0:0:
320,192,109205,1,8,0:0:0:0:
448,192,109285,1,8,0:0:0:0:
64,192,109365,1,8,0:0:0:0:
192,192,109445,1,8,0:0:0:0:
448,192,109525,1,0,0:0:0:70:tom1.wav
192,192,109605,1,0,0:0:0:70:tom2.wav
320,192,109685,1,0,0:0:0:70:tom3.wav
64,192,109765,1,6,0:0:0:0:
192,192,109825,1,0,0:0:0:0:
320,192,109885,1,2,0:0:0:0:
448,192,109945,1,0,0:0:0:0:
64,192,110005,1,2,0:0:0:0:
192,192,110065,1,0,0:0:0:0:
448,192,110125,1,2,0:0:0:0:
320,192,110185,1,2,0:0:0:0:
64,192,110245,1,12,0:0:0:0:
192,192,110305,1,0,0:0:0:0:
320,192,110365,1,2,0:0:0:0:
448,192,110425,1,0,0:0:0:0:
64,192,110485,1,2,0:0:0:0:
320,192,110545,1,0,0:0:0:0:
192,192,110605,1,2,0:0:0:0:
64,192,110665,1,2,0:0:0:0:
448,192,110725,1,4,0:0:0:0:
192,192,110785,1,0,0:0:0:0:
320,192,110845,1,2,0:0:0:0:
448,192,110905,1,2,0:0:0:0:
64,192,110965,1,0,0:0:0:0:
192,192,111025,1,0,0:0:0:0:
320,192,111085,1,2,0:0:0:0:
448,192,111145,1,2,0:0:0:0:
64,192,111205,1,12,0:0:0:0:
192,192,111265,1,0,0:0:0:0:
448,192,111325,1,2,0:0:0:0:
320,192,111385,1,2,0:0:0:0:
64,192,111445,1,8,0:0:0:0:
192,192,111505,1,0,0:0:0:0:
448,192,111565,1,2,0:0:0:0:
320,192,111625,1,2,0:0:0:0:
64,192,111685,1,4,0:0:0:0:
192,192,111685,1,8,0:0:0:0:
192,192,111805,1,2,0:0:0:0:
320,192,111925,1,2,0:0:0:0:
448,192,111925,1,0,0:0:0:0:
320,192,112045,1,2,0:0:0:0:
64,192,112165,1,4,0:0:0:0:
192,192,112165,1,8,0:0:0:0:
64,192,112285,1,2,0:0:0:0:
320,192,112405,1,8,0:0:0:0:
448,192,112405,1,4,0:0:0:0:
448,192,112525,1,0,0:0:0:70:tom4.wav
64,192,112645,1,8,0:0:0:0:
192,192,112705,1,0,0:0:0:0:
320,192,112765,1,2,0:0:0:0:
448,192,112825,1,2,0:0:0:0:
64,192,112885,1,8,0:0:0:0:
192,192,112945,1,0,0:0:0:0:
448,192,113005,1,2,0:0:0:0:
320,192,113065,1,2,0:0:0:0:
64,192,113125,1,8,0:0:0:0:
192,192,113125,1,8,0:0:0:70:tom3.wav
320,192,113245,1,8,0:0:0:0:
448,192,113245,1,8,0:0:0:70:tom4.wav
64,192,113365,1,8,0:0:0:0:
192,192,113365,1,0,0:0:0:0:
320,192,113485,128,8,113605:0:0:0:0:
448,192,113485,128,4,113605:0:0:0:0:
64,192,114085,128,2,116485:0:0:0:0:
192,192,114085,128,4,116485:0:0:0:0:
448,192,114085,128,0,116485:0:0:0:0:
