osu file format v14

[General]
AudioFilename: audio.mp3
AudioLeadIn: 0
PreviewTime: 146650
Countdown: 0
SampleSet: Soft
StackLeniency: 0.7
Mode: 3
LetterboxInBreaks: 0
SpecialStyle: 0
WidescreenStoryboard: 1

[Editor]
DistanceSpacing: 0.8
BeatDivisor: 12
GridSize: 4
TimelineZoom: 2.9

[Metadata]
Title:Fin.ArcDeaR Long ver.
TitleUnicode:Fin.ArcDeaR Long ver.
Artist:MisoilePunch ~Takenoko Soe~
ArtistUnicode:MisoilePunch♪ ~タケノコ添え~
Creator:Murumoo
Version:EXHAUST
Source:SOUND VOLTEX IV HEAVENLY HAVEN
Tags:FAMoss _Kobii sdvx 6th kac original song contest MisomyL Ponchi Takenoko Shounen I Re:s video game instrumental
BeatmapID:1900495
BeatmapSetID:908415

[Difficulty]
HPDrainRate:8
CircleSize:4
OverallDifficulty:8
ApproachRate:5
SliderMultiplier:1.4
SliderTickRate:1

[Events]
//Background and Video events
0,0,"bg.jpg",0,0
//Break Periods
//Storyboard Layer 0 (Background)
//Storyboard Layer 1 (Fail)
//Storyboard Layer 2 (Pass)
//Storyboard Layer 3 (Foreground)
//Storyboard Layer 4 (Overlay)
//Storyboard Sound Samples
Sample,55050,0,"tom03.wav",70
Sample,76694,0,"tom04.wav",70
Sample,85250,0,"tom04.wav",70
Sample,86317,0,"tom03.wav",70
Sample,87250,0,"tom02.wav",70
Sample,101983,0,"tom01.wav",70
Sample,137117,0,"tom01.wav",70
Sample,137183,0,"tom02.wav",70
Sample,138983,0,"tom01.wav",70
Sample,139050,0,"tom02.wav",70
Sample,139250,0,"tom01.wav",70
Sample,139317,0,"tom02.wav",70
Sample,139517,0,"tom01.wav",70
Sample,139583,0,"tom02.wav",70
Sample,160917,0,"tom02.wav",70
Sample,177250,0,"tom04.wav",70
Sample,189317,0,"tom01.wav",70

[TimingPoints]
2117,266.666666666667,4,2,1,30,1,0
10650,-100,4,2,1,40,0,0
20250,-10,4,2,1,40,0,0
20267,-1000,4,2,1,40,0,0
20517,-142.857142857143,4,2,1,40,0,0
20583,-100,4,2,1,40,0,0
21317,-100,4,2,1,50,0,0
42650,-111.111111111111,4,2,1,20,0,0
46917,-106.382978723404,4,2,1,20,0,0
47983,-104.166666666667,4,2,1,20,0,0
49050,-102.040816326531,4,2,1,30,0,0
50117,-100,4,2,1,40,0,0
50650,-10,4,2,1,40,0,0
50667,-1000,4,2,1,40,0,0
50917,-142.857142857143,4,2,1,40,0,0
50983,-100,4,2,1,40,0,0
51183,-100,4,2,1,50,0,0
59717,-111.111111111111,4,2,1,50,0,0
60783,-111.111111111111,4,2,1,20,0,0
68250,-100,4,2,1,30,0,0
75717,-100,4,2,1,40,0,0
76783,-100,4,2,1,50,0,0
92783,-10,4,2,1,50,0,0
92800,-1000,4,2,1,50,0,0
93050,-142.857142857143,4,2,1,50,0,0
93117,-100,4,2,1,50,0,0
93850,-100,4,2,1,50,0,1
110917,-105.263157894737,4,2,1,50,0,0
123717,-100,4,2,1,50,0,0
128250,-100,4,2,1,50,0,1
145050,-100,4,2,1,50,0,0
145117,-10,4,2,1,50,0,0
145134,-1000,4,2,1,50,0,0
146117,-1000,4,2,1,20,0,0
146250,-200,4,2,1,20,0,0
146383,-166.666666666667,4,2,1,20,0,0
146517,-142.857142857143,4,2,1,20,0,0
146583,-111.111111111111,4,2,1,20,0,0
154650,-100,4,2,1,40,0,0
155717,-100,4,2,1,50,0,0
162117,-111.111111111111,4,2,1,20,0,0
162383,-108.695652173913,4,2,1,20,0,0
162650,-106.382978723404,4,2,1,20,0,0
162917,-104.166666666667,4,2,1,30,0,0
163183,-102.040816326531,4,2,1,30,0,0
163450,-100,4,2,1,30,0,0
163717,-100,4,2,1,40,0,0
164517,-100,4,2,1,50,0,0
166650,-100,4,2,1,50,0,1
180250,-100,4,2,1,50,0,0

[HitObjects]
448,192,1583,5,0,0:0:0:0:
320,192,1650,1,0,0:0:0:0:
192,192,1717,1,0,0:0:0:0:
64,192,1783,1,0,0:0:0:0:
448,192,1850,1,0,0:0:0:0:
320,192,1917,1,0,0:0:0:0:
64,192,1983,1,0,0:0:0:0:
192,192,2050,1,0,0:0:0:0:
320,192,2117,1,4,0:0:0:0:
448,192,2117,128,0,2783:0:0:0:0:
320,192,2783,1,0,0:0:0:0:
192,192,2917,1,0,0:0:0:0:
320,192,3050,1,0,0:0:0:0:
64,192,3183,1,0,0:0:0:50:tick.wav
448,192,3183,1,0,0:0:0:0:
192,192,3317,1,0,0:0:0:0:
320,192,3450,1,0,0:0:0:0:
64,192,3583,1,0,0:0:0:0:
320,192,3717,1,0,0:0:0:0:
192,192,3783,1,0,0:0:0:0:
64,192,3850,1,0,0:0:0:0:
448,192,3917,1,0,0:0:0:0:
192,192,3983,1,0,0:0:0:0:
320,192,4050,1,0,0:0:0:0:
448,192,4117,1,0,0:0:0:0:
64,192,4183,1,0,0:0:0:0:
192,192,4250,1,0,0:0:0:50:tick.wav
320,192,4250,128,0,4917:0:0:0:0:
448,192,4917,1,0,0:0:0:0:
192,192,5050,1,0,0:0:0:0:
320,192,5183,1,0,0:0:0:0:
64,192,5317,128,0,5583:0:0:0:50:tick.wav
448,192,5317,1,0,0:0:0:0:
192,192,5583,128,0,5850:0:0:0:0:
320,192,5583,1,0,0:0:0:0:
64,192,5850,1,0,0:0:0:0:
448,192,5850,1,0,0:0:0:0:
192,192,6050,1,0,0:0:0:0:
320,192,6050,1,0,0:0:0:0:
64,192,6250,1,0,0:0:0:0:
192,192,6250,1,0,0:0:0:0:
320,192,6383,1,0,0:0:0:50:tick.wav
448,192,6383,1,0,0:0:0:0:
192,192,6517,1,0,0:0:0:0:
64,192,6650,1,0,0:0:0:0:
320,192,6650,1,0,0:0:0:0:
192,192,6783,1,0,0:0:0:0:
448,192,6917,1,0,0:0:0:0:
64,192,7050,1,0,0:0:0:0:
320,192,7050,1,0,0:0:0:0:
192,192,7183,1,0,0:0:0:0:
320,192,7317,1,0,0:0:0:0:
192,192,7450,1,0,0:0:0:50:tick.wav
448,192,7450,1,0,0:0:0:0:
64,192,7583,1,0,0:0:0:0:
448,192,7717,1,0,0:0:0:0:
192,192,7850,1,0,0:0:0:0:
64,192,7983,1,0,0:0:0:0:
320,192,7983,128,0,8250:0:0:0:0:
64,192,8250,128,0,8517:0:0:0:0:
448,192,8250,1,0,0:0:0:0:
192,192,8517,1,0,0:0:0:50:tick.wav
448,192,8517,128,0,9050:0:0:0:0:
320,192,8783,1,0,0:0:0:0:
64,192,9050,1,0,0:0:0:0:
192,192,9050,128,0,9583:0:0:0:0:
320,192,9317,1,0,0:0:0:0:
64,192,9583,128,0,10117:0:0:0:50:tick.wav
448,192,9583,1,0,0:0:0:0:
192,192,9850,1,0,0:0:0:0:
320,192,10117,128,0,10650:0:0:0:0:
448,192,10117,1,0,0:0:0:0:
192,192,10383,1,0,0:0:0:0:
64,192,10650,1,4,0:0:0:0:
448,192,10650,1,0,0:0:0:0:
64,192,10783,1,0,0:0:0:0:
192,192,10917,1,0,0:0:0:0:
192,192,11050,1,0,0:0:0:0:
320,192,11050,1,0,0:0:0:0:
448,192,11183,1,0,0:0:0:0:
448,192,11317,1,0,0:0:0:0:
320,192,11450,1,0,0:0:0:0:
320,192,11583,1,0,0:0:0:0:
192,192,11717,1,0,0:0:0:50:tick.wav
192,192,11850,1,0,0:0:0:0:
64,192,11983,1,0,0:0:0:0:
448,192,11983,1,0,0:0:0:0:
64,192,12117,1,0,0:0:0:0:
320,192,12250,1,0,0:0:0:0:
448,192,12250,1,0,0:0:0:0:
320,192,12383,1,0,0:0:0:0:
64,192,12517,1,0,0:0:0:0:
192,192,12517,1,0,0:0:0:0:
192,192,12650,1,0,0:0:0:0:
64,192,12783,1,0,0:0:0:50:tick.wav
448,192,12783,1,0,0:0:0:0:
448,192,12917,1,0,0:0:0:0:
320,192,13050,1,0,0:0:0:0:
320,192,13183,1,0,0:0:0:0:
64,192,13317,1,0,0:0:0:0:
192,192,13317,1,0,0:0:0:0:
64,192,13450,1,0,0:0:0:0:
320,192,13583,1,0,0:0:0:0:
320,192,13717,1,0,0:0:0:0:
192,192,13850,1,0,0:0:0:50:tick.wav
448,192,13850,1,0,0:0:0:0:
192,192,13983,1,0,0:0:0:0:
64,192,14117,1,0,0:0:0:0:
320,192,14117,1,0,0:0:0:0:
64,192,14250,1,0,0:0:0:0:
192,192,14383,1,0,0:0:0:0:
448,192,14383,1,0,0:0:0:0:
448,192,14517,1,0,0:0:0:0:
64,192,14650,1,0,0:0:0:0:
320,192,14650,1,0,0:0:0:0:
320,192,14783,1,0,0:0:0:0:
64,192,14917,1,0,0:0:0:50:tick.wav
448,192,14917,1,0,0:0:0:0:
64,192,15050,1,0,0:0:0:0:
320,192,15183,1,0,0:0:0:0:
192,192,15317,1,0,0:0:0:0:
320,192,15317,1,0,0:0:0:0:
448,192,15450,1,0,0:0:0:0:
448,192,15583,1,0,0:0:0:0:
64,192,15717,1,0,0:0:0:0:
64,192,15850,1,0,0:0:0:0:
320,192,15983,1,0,0:0:0:50:tick.wav
320,192,16117,1,0,0:0:0:0:
64,192,16250,1,0,0:0:0:0:
448,192,16250,1,0,0:0:0:0:
64,192,16383,1,0,0:0:0:0:
192,192,16517,1,0,0:0:0:0:
320,192,16517,1,0,0:0:0:0:
192,192,16650,1,0,0:0:0:0:
320,192,16783,1,0,0:0:0:0:
448,192,16783,1,0,0:0:0:0:
448,192,16917,1,0,0:0:0:0:
64,192,17050,128,0,17117:0:0:0:50:tick.wav
320,192,17050,128,0,17117:0:0:0:0:
64,192,17183,128,0,17250:0:0:0:0:
320,192,17317,128,0,17383:0:0:0:0:
320,192,17450,128,0,17517:0:0:0:0:
192,192,17583,128,0,17650:0:0:0:0:
448,192,17583,128,0,17650:0:0:0:0:
448,192,17717,128,0,17783:0:0:0:0:
64,192,17850,128,0,17917:0:0:0:0:
64,192,17983,128,0,18050:0:0:0:0:
192,192,18117,128,0,18183:0:0:0:50:tick.wav
320,192,18117,128,0,18183:0:0:0:0:
320,192,18250,128,0,18317:0:0:0:0:
448,192,18383,128,0,18450:0:0:0:0:
448,192,18517,128,0,18583:0:0:0:0:
64,192,18650,128,0,18717:0:0:0:0:
192,192,18650,128,0,18717:0:0:0:0:
192,192,18783,128,0,18850:0:0:0:0:
320,192,18917,128,0,18983:0:0:0:0:
320,192,19050,128,0,19117:0:0:0:0:
64,192,19183,128,0,20250:0:0:0:50:tick.wav
448,192,19183,128,0,19250:0:0:0:0:
448,192,19317,128,0,19383:0:0:0:0:
320,192,19450,128,0,19517:0:0:0:0:
320,192,19583,128,0,19650:0:0:0:0:
192,192,19717,128,0,19783:0:0:0:0:
192,192,19850,128,0,19917:0:0:0:0:
448,192,19983,128,0,20050:0:0:0:0:
448,192,20117,128,0,20183:0:0:0:0:
192,192,20250,1,0,0:0:0:50:tick.wav
320,192,20250,1,0,0:0:0:0:
320,192,20783,1,0,0:0:0:0:
192,192,20850,1,0,0:0:0:0:
64,192,20917,1,0,0:0:0:0:
448,192,20983,1,0,0:0:0:0:
192,192,21050,1,0,0:0:0:0:
320,192,21117,1,0,0:0:0:0:
448,192,21183,1,0,0:0:0:0:
64,192,21250,1,0,0:0:0:0:
192,192,21317,1,2,0:0:0:0:
320,192,21317,1,4,0:0:0:0:
192,192,21517,1,2,0:0:0:0:
448,192,21517,1,4,0:0:0:0:
64,192,21717,1,2,0:0:0:0:
448,192,21717,1,4,0:0:0:0:
192,192,21983,1,0,0:0:0:0:
448,192,22117,1,0,0:0:0:0:
320,192,22250,1,0,0:0:0:0:
64,192,22383,1,0,0:0:0:0:
192,192,22517,1,0,0:0:0:0:
320,192,22650,1,0,0:0:0:0:
448,192,22783,1,0,0:0:0:0:
192,192,22917,1,0,0:0:0:0:
320,192,22983,1,0,0:0:0:0:
448,192,23050,1,0,0:0:0:0:
64,192,23117,1,0,0:0:0:0:
320,192,23183,1,0,0:0:0:0:
192,192,23250,1,0,0:0:0:0:
64,192,23317,1,0,0:0:0:0:
448,192,23383,1,0,0:0:0:0:
192,192,23450,1,2,0:0:0:0:
320,192,23450,1,0,0:0:0:0:
64,192,23650,1,2,0:0:0:0:
320,192,23650,1,0,0:0:0:0:
64,192,23850,1,2,0:0:0:0:
448,192,23850,1,0,0:0:0:0:
320,192,24117,1,0,0:0:0:0:
64,192,24250,1,0,0:0:0:0:
320,192,24383,1,0,0:0:0:0:
192,192,24517,1,0,0:0:0:0:
448,192,24650,1,0,0:0:0:0:
64,192,24783,1,0,0:0:0:0:
320,192,24917,1,2,0:0:0:0:
192,192,24983,1,2,0:0:0:0:
64,192,25050,1,0,0:0:0:70:tom01.wav
448,192,25050,1,0,0:0:0:0:
64,192,25250,1,2,0:0:0:0:
192,192,25250,1,0,0:0:0:0:
320,192,25450,1,2,0:0:0:0:
448,192,25450,1,0,0:0:0:0:
64,192,25583,1,2,0:0:0:0:
448,192,25583,1,4,0:0:0:0:
192,192,25783,1,4,0:0:0:0:
320,192,25783,1,2,0:0:0:0:
64,192,25983,1,4,0:0:0:0:
320,192,25983,1,2,0:0:0:0:
448,192,26250,1,0,0:0:0:0:
64,192,26383,1,0,0:0:0:0:
320,192,26517,1,0,0:0:0:0:
192,192,26650,1,0,0:0:0:0:
448,192,26650,1,0,0:0:0:0:
64,192,26783,1,0,0:0:0:0:
320,192,26917,1,0,0:0:0:0:
192,192,27050,1,0,0:0:0:0:
448,192,27183,1,0,0:0:0:0:
320,192,27317,1,0,0:0:0:0:
64,192,27450,1,0,0:0:0:0:
192,192,27583,1,0,0:0:0:0:
64,192,27717,1,2,0:0:0:0:
320,192,27717,1,0,0:0:0:0:
192,192,27917,1,2,0:0:0:0:
448,192,27917,1,0,0:0:0:0:
64,192,28117,1,2,0:0:0:0:
448,192,28117,1,0,0:0:0:0:
320,192,28383,1,2,0:0:0:0:
192,192,28450,1,2,0:0:0:0:
448,192,28517,1,8,0:0:0:0:
320,192,28517,1,4,0:0:0:0:
64,192,28517,1,0,0:0:0:0:
192,192,28650,1,0,0:0:0:70:tom03.wav
64,192,28783,1,4,0:0:0:0:
448,192,28783,1,8,0:0:0:0:
320,192,28850,1,8,0:0:0:0:
192,192,28917,1,2,0:0:0:0:
448,192,28983,1,2,0:0:0:0:
64,192,29050,1,12,0:0:0:0:
320,192,29050,1,0,0:0:0:70:tom02.wav
192,192,29183,1,2,0:0:0:0:
320,192,29250,1,2,0:0:0:0:
64,192,29317,1,4,0:0:0:0:
448,192,29317,1,0,0:0:0:70:tom01.wav
192,192,29450,1,8,0:0:0:0:
320,192,29450,1,4,0:0:0:0:
192,192,29583,1,8,0:0:0:0:
448,192,29583,1,4,0:0:0:0:
320,192,29717,1,12,0:0:0:0:
192,192,29783,1,8,0:0:0:0:
64,192,29850,1,4,0:0:0:0:
320,192,29850,1,2,0:0:0:0:
448,192,29850,1,0,0:0:0:0:
192,192,29983,1,0,0:0:0:0:
320,192,30050,1,0,0:0:0:0:
448,192,30117,1,8,0:0:0:0:
192,192,30183,1,0,0:0:0:0:
320,192,30250,1,0,0:0:0:0:
64,192,30317,1,0,0:0:0:0:
192,192,30383,1,2,0:0:0:0:
448,192,30383,1,0,0:0:0:0:
320,192,30517,1,2,0:0:0:0:
64,192,30650,1,8,0:0:0:0:
192,192,30650,1,0,0:0:0:0:
192,192,30783,1,2,0:0:0:0:
448,192,30783,1,0,0:0:0:0:
320,192,30917,1,0,0:0:0:0:
448,192,30917,1,0,0:0:0:0:
192,192,31050,1,2,0:0:0:0:
64,192,31117,1,2,0:0:0:0:
320,192,31183,1,8,0:0:0:0:
448,192,31183,1,0,0:0:0:0:
192,192,31250,1,0,0:0:0:0:
64,192,31317,1,0,0:0:0:0:
320,192,31383,1,0,0:0:0:0:
64,192,31450,1,2,0:0:0:0:
448,192,31450,1,0,0:0:0:0:
192,192,31517,1,2,0:0:0:0:
320,192,31583,1,2,0:0:0:0:
192,192,31650,1,2,0:0:0:0:
64,192,31717,1,8,0:0:0:0:
448,192,31717,1,0,0:0:0:0:
192,192,31850,1,2,0:0:0:0:
320,192,31850,1,0,0:0:0:0:
320,192,31983,1,8,0:0:0:0:
448,192,31983,1,0,0:0:0:0:
192,192,32050,1,0,0:0:0:70:tom04.wav
64,192,32117,1,0,0:0:0:70:tom01.wav
320,192,32183,1,0,0:0:0:70:tom02.wav
192,192,32250,1,2,0:0:0:0:
320,192,32317,1,2,0:0:0:0:
448,192,32383,1,4,0:0:0:0:
64,192,32383,1,8,0:0:0:0:
192,192,32583,1,0,0:0:0:0:
448,192,32650,1,8,0:0:0:0:
64,192,32650,1,4,0:0:0:0:
320,192,32783,1,0,0:0:0:0:
64,192,32917,1,2,0:0:0:0:
192,192,32917,1,4,0:0:0:0:
448,192,32917,1,0,0:0:0:0:
320,192,33050,1,0,0:0:0:0:
192,192,33183,1,2,0:0:0:0:
64,192,33250,1,2,0:0:0:0:
320,192,33317,1,8,0:0:0:0:
448,192,33317,128,4,33583:0:0:0:0:
64,192,33583,1,0,0:0:0:70:tom01.wav
192,192,33583,1,0,0:0:0:0:
64,192,33717,1,0,0:0:0:70:tom01.wav
320,192,33717,1,0,0:0:0:0:
192,192,33850,1,8,0:0:0:0:
448,192,33850,1,0,0:0:0:70:tom02.wav
192,192,33983,1,8,0:0:0:0:
320,192,33983,1,0,0:0:0:70:tom02.wav
64,192,34117,1,2,0:0:0:0:
448,192,34117,1,4,0:0:0:0:
192,192,34183,1,0,0:0:0:0:
320,192,34250,1,0,0:0:0:0:
448,192,34317,1,0,0:0:0:0:
64,192,34383,1,8,0:0:0:0:
192,192,34383,1,0,0:0:0:0:
320,192,34450,1,0,0:0:0:0:
448,192,34517,1,2,0:0:0:0:
64,192,34583,1,0,0:0:0:0:
192,192,34650,1,8,0:0:0:0:
320,192,34650,1,0,0:0:0:0:
320,192,34783,1,2,0:0:0:0:
64,192,34917,1,8,0:0:0:0:
448,192,34917,1,0,0:0:0:0:
192,192,35050,1,2,0:0:0:0:
64,192,35183,1,8,0:0:0:0:
320,192,35183,128,0,35317:0:0:0:0:
448,192,35317,128,0,35450:0:0:0:0:
64,192,35450,128,8,35583:0:0:0:0:
320,192,35450,1,0,0:0:0:0:
192,192,35583,1,2,0:0:0:0:
320,192,35650,1,2,0:0:0:0:
64,192,35717,1,8,0:0:0:0:
448,192,35717,1,0,0:0:0:0:
320,192,35850,1,2,0:0:0:0:
192,192,35917,1,2,0:0:0:0:
64,192,35983,1,8,0:0:0:0:
448,192,35983,128,0,36117:0:0:0:0:
320,192,36117,128,2,36250:0:0:0:0:
64,192,36250,1,8,0:0:0:0:
192,192,36250,1,4,0:0:0:0:
320,192,36317,1,0,0:0:0:0:
448,192,36383,1,0,0:0:0:0:
192,192,36450,1,0,0:0:0:0:
320,192,36517,1,2,0:0:0:0:
64,192,36583,1,0,0:0:0:0:
192,192,36650,1,2,0:0:0:0:
320,192,36717,1,0,0:0:0:0:
64,192,36783,1,2,0:0:0:0:
448,192,36783,1,0,0:0:0:0:
448,192,36917,1,8,0:0:0:0:
64,192,37050,1,8,0:0:0:0:
320,192,37050,1,0,0:0:0:0:
320,192,37183,1,8,0:0:0:0:
64,192,37317,1,8,0:0:0:0:
192,192,37317,1,0,0:0:0:0:
64,192,37450,1,8,0:0:0:0:
192,192,37450,1,0,0:0:0:0:
320,192,37583,1,8,0:0:0:0:
448,192,37583,1,0,0:0:0:0:
320,192,37717,1,8,0:0:0:0:
448,192,37717,1,0,0:0:0:0:
192,192,37850,1,8,0:0:0:0:
320,192,37917,1,0,0:0:0:0:
64,192,37983,1,0,0:0:0:0:
192,192,38050,1,0,0:0:0:0:
320,192,38117,1,0,0:0:0:70:tom01.wav
64,192,38183,1,0,0:0:0:0:
448,192,38250,1,0,0:0:0:0:
320,192,38317,1,0,0:0:0:0:
64,192,38383,128,2,39450:0:0:0:0:
192,192,38383,1,4,0:0:0:0:
192,192,38650,1,2,0:0:0:0:
448,192,38650,1,0,0:0:0:0:
320,192,38783,1,2,0:0:0:0:
320,192,38917,1,8,0:0:0:0:
448,192,38917,1,0,0:0:0:0:
192,192,39183,1,2,0:0:0:0:
448,192,39183,1,0,0:0:0:0:
448,192,39317,1,2,0:0:0:0:
320,192,39450,1,2,0:0:0:0:
192,192,39583,1,2,0:0:0:0:
320,192,39650,1,2,0:0:0:0:
64,192,39717,1,8,0:0:0:0:
448,192,39717,1,0,0:0:0:0:
192,192,39850,1,2,0:0:0:0:
64,192,39983,1,8,0:0:0:0:
448,192,39983,1,0,0:0:0:0:
320,192,40050,1,0,0:0:0:70:tom01.wav
192,192,40117,1,2,0:0:0:0:
64,192,40183,1,2,0:0:0:0:
320,192,40250,1,8,0:0:0:0:
448,192,40250,1,4,0:0:0:0:
192,192,40383,1,2,0:0:0:0:
64,192,40517,1,2,0:0:0:0:
320,192,40517,1,4,0:0:0:0:
448,192,40517,1,0,0:0:0:0:
192,192,40605,1,0,0:0:0:0:
320,192,40694,1,0,0:0:0:0:
448,192,40783,1,0,0:0:0:0:
64,192,40872,1,0,0:0:0:0:
320,192,40961,1,0,0:0:0:0:
192,192,41050,1,0,0:0:0:0:
64,192,41139,1,0,0:0:0:0:
448,192,41228,1,0,0:0:0:0:
320,192,41317,1,0,0:0:0:0:
192,192,41405,1,0,0:0:0:0:
448,192,41494,1,0,0:0:0:0:
64,192,41583,1,0,0:0:0:0:
192,192,41650,1,0,0:0:0:0:
320,192,41717,1,0,0:0:0:0:
448,192,41783,1,0,0:0:0:0:
192,192,41850,1,0,0:0:0:0:
320,192,41917,1,0,0:0:0:0:
64,192,41983,1,0,0:0:0:0:
192,192,42050,1,0,0:0:0:0:
448,192,42117,1,0,0:0:0:0:
320,192,42183,1,0,0:0:0:0:
192,192,42250,1,0,0:0:0:0:
64,192,42317,1,0,0:0:0:0:
320,192,42383,1,0,0:0:0:0:
192,192,42450,1,0,0:0:0:0:
448,192,42517,1,0,0:0:0:0:
320,192,42583,1,0,0:0:0:0:
64,192,42650,1,4,0:0:0:0:
192,192,42650,1,0,0:0:0:0:
320,192,42783,1,0,0:0:0:0:
64,192,42917,1,0,0:0:0:0:
192,192,43050,1,0,0:0:0:0:
320,192,43183,1,0,0:0:0:50:tick.wav
192,192,43317,1,0,0:0:0:0:
64,192,43450,1,0,0:0:0:0:
320,192,43583,1,0,0:0:0:0:
64,192,43717,1,0,0:0:0:0:
448,192,43717,1,0,0:0:0:0:
192,192,43850,1,0,0:0:0:0:
320,192,43983,1,0,0:0:0:0:
448,192,44117,1,0,0:0:0:0:
64,192,44250,1,0,0:0:0:50:tick.wav
192,192,44383,1,0,0:0:0:0:
448,192,44517,1,0,0:0:0:0:
320,192,44650,1,0,0:0:0:0:
192,192,44783,1,0,0:0:0:0:
448,192,44783,1,0,0:0:0:0:
320,192,44917,1,0,0:0:0:0:
64,192,45050,1,0,0:0:0:0:
192,192,45183,1,0,0:0:0:0:
320,192,45317,1,0,0:0:0:50:tick.wav
192,192,45450,1,0,0:0:0:0:
448,192,45583,1,0,0:0:0:0:
64,192,45717,1,0,0:0:0:0:
320,192,45850,1,0,0:0:0:0:
448,192,45850,1,0,0:0:0:0:
192,192,45983,1,0,0:0:0:0:
320,192,46117,1,0,0:0:0:0:
64,192,46250,1,0,0:0:0:0:
448,192,46383,1,0,0:0:0:50:tick.wav
320,192,46517,1,0,0:0:0:0:
192,192,46583,1,0,0:0:0:0:
64,192,46650,1,0,0:0:0:0:
320,192,46783,1,0,0:0:0:0:
192,192,46917,1,0,0:0:0:0:
448,192,46917,1,0,0:0:0:0:
64,192,47050,1,0,0:0:0:0:
320,192,47183,1,0,0:0:0:0:
192,192,47317,1,0,0:0:0:0:
64,192,47450,128,0,47583:0:0:0:50:tick.wav
192,192,47583,128,0,47717:0:0:0:0:
320,192,47717,128,0,47850:0:0:0:0:
448,192,47850,128,0,47983:0:0:0:0:
64,192,47983,1,0,0:0:0:0:
192,192,47983,1,0,0:0:0:0:
320,192,48117,1,0,0:0:0:0:
448,192,48250,1,0,0:0:0:0:
192,192,48383,1,0,0:0:0:0:
448,192,48517,128,0,48650:0:0:0:50:tick.wav
320,192,48650,128,0,48783:0:0:0:0:
192,192,48783,128,0,48917:0:0:0:0:
64,192,48917,128,0,49050:0:0:0:0:
192,192,49050,1,2,0:0:0:0:
448,192,49050,1,0,0:0:0:0:
320,192,49183,1,0,0:0:0:0:
64,192,49317,1,2,0:0:0:0:
192,192,49317,1,0,0:0:0:0:
64,192,49450,1,2,0:0:0:0:
192,192,49450,1,0,0:0:0:0:
320,192,49583,1,2,0:0:0:0:
448,192,49583,1,0,0:0:0:50:tick.wav
320,192,49717,1,2,0:0:0:0:
448,192,49717,1,0,0:0:0:0:
64,192,49850,1,8,0:0:0:0:
192,192,49850,1,0,0:0:0:0:
64,192,49983,1,8,0:0:0:0:
192,192,49983,1,0,0:0:0:0:
64,192,50117,128,2,50583:0:0:0:0:
320,192,50117,128,4,50583:0:0:0:0:
448,192,50117,128,0,50583:0:0:0:0:
64,192,50650,1,8,0:0:0:0:
192,192,50650,1,4,0:0:0:0:
448,192,50650,1,0,0:0:0:0:
64,192,51183,1,4,0:0:0:0:
192,192,51183,1,2,0:0:0:0:
448,192,51183,1,0,0:0:0:0:
320,192,51317,1,0,0:0:0:0:
64,192,51450,1,8,0:0:0:0:
192,192,51450,1,0,0:0:0:0:
320,192,51450,1,0,0:0:0:0:
448,192,51583,1,0,0:0:0:0:
64,192,51717,1,2,0:0:0:0:
320,192,51717,1,0,0:0:0:0:
192,192,51850,1,0,0:0:0:0:
64,192,51983,1,8,0:0:0:0:
192,192,51983,1,0,0:0:0:0:
448,192,51983,1,0,0:0:0:0:
320,192,52117,1,0,0:0:0:0:
320,192,52250,128,2,52383:0:0:0:0:
448,192,52250,1,0,0:0:0:0:
192,192,52383,128,0,52517:0:0:0:0:
64,192,52517,128,8,52650:0:0:0:0:
320,192,52517,1,0,0:0:0:0:
448,192,52517,1,0,0:0:0:0:
448,192,52650,128,0,52783:0:0:0:0:
64,192,52783,1,2,0:0:0:0:
192,192,52783,128,0,52917:0:0:0:0:
320,192,52917,128,2,53050:0:0:0:0:
64,192,53050,128,8,53183:0:0:0:0:
192,192,53050,1,0,0:0:0:0:
448,192,53050,1,0,0:0:0:0:
320,192,53183,128,0,53317:0:0:0:0:
64,192,53317,1,2,0:0:0:0:
192,192,53317,1,4,0:0:0:0:
448,192,53317,128,0,53517:0:0:0:0:
192,192,53517,1,8,0:0:0:0:
320,192,53517,1,0,0:0:0:70:tom02.wav
192,192,53717,1,0,0:0:0:70:tom01.wav
320,192,53783,1,0,0:0:0:0:
64,192,53850,1,8,0:0:0:0:
448,192,53850,1,4,0:0:0:0:
320,192,53983,1,2,0:0:0:0:
448,192,54050,1,2,0:0:0:0:
64,192,54117,1,8,0:0:0:0:
192,192,54117,1,0,0:0:0:0:
320,192,54250,1,8,0:0:0:0:
192,192,54317,1,8,0:0:0:0:
64,192,54383,1,2,0:0:0:0:
320,192,54383,1,4,0:0:0:0:
448,192,54383,128,0,54517:0:0:0:0:
192,192,54517,128,0,54650:0:0:0:0:
64,192,54650,1,8,0:0:0:0:
320,192,54650,128,0,54783:0:0:0:0:
64,192,54783,128,2,55050:0:0:0:0:
192,192,54783,1,4,0:0:0:0:
448,192,54783,1,0,0:0:0:0:
320,192,55050,1,8,0:0:0:0:
448,192,55117,1,0,0:0:0:70:tom02.wav
192,192,55183,1,0,0:0:0:70:tom01.wav
64,192,55250,1,0,0:0:0:0:
320,192,55317,1,0,0:0:0:70:tom04.wav
192,192,55383,1,0,0:0:0:0:
64,192,55450,128,2,55583:0:0:0:0:
320,192,55450,1,4,0:0:0:0:
448,192,55450,1,0,0:0:0:0:
192,192,55583,1,0,0:0:0:0:
192,192,55717,128,8,55850:0:0:0:0:
448,192,55717,1,0,0:0:0:0:
320,192,55850,1,0,0:0:0:0:
64,192,55983,1,2,0:0:0:0:
448,192,55983,128,0,56117:0:0:0:0:
320,192,56117,128,2,56250:0:0:0:0:
64,192,56250,1,8,0:0:0:0:
192,192,56250,128,0,56383:0:0:0:0:
64,192,56383,128,2,56517:0:0:0:0:
192,192,56517,1,2,0:0:0:0:
320,192,56517,1,4,0:0:0:0:
448,192,56517,128,0,56783:0:0:0:0:
192,192,56783,1,8,0:0:0:0:
64,192,56917,1,2,0:0:0:0:
320,192,56917,128,4,57183:0:0:0:0:
448,192,56917,1,0,0:0:0:0:
192,192,57183,1,2,0:0:0:0:
64,192,57250,1,2,0:0:0:0:
320,192,57317,1,8,0:0:0:0:
448,192,57317,1,0,0:0:0:0:
192,192,57383,1,8,0:0:0:0:
64,192,57450,1,8,0:0:0:0:
320,192,57517,1,8,0:0:0:0:
64,192,57583,1,2,0:0:0:0:
192,192,57583,1,4,0:0:0:0:
448,192,57583,128,0,57717:0:0:0:0:
320,192,57717,128,0,57850:0:0:0:0:
64,192,57850,1,2,0:0:0:0:
192,192,57917,1,0,0:0:0:0:
320,192,57983,1,2,0:0:0:0:
448,192,57983,1,0,0:0:0:0:
64,192,58117,128,2,58250:0:0:0:0:
192,192,58117,1,0,0:0:0:0:
320,192,58250,128,8,58383:0:0:0:0:
448,192,58250,1,0,0:0:0:0:
64,192,58383,1,8,0:0:0:0:
192,192,58450,1,0,0:0:0:0:
448,192,58517,1,8,0:0:0:0:
320,192,58583,1,0,0:0:0:0:
64,192,58650,128,8,58783:0:0:0:0:
192,192,58650,1,0,0:0:0:0:
192,192,58783,128,8,58917:0:0:0:0:
64,192,58917,1,8,0:0:0:0:
320,192,58917,128,0,59050:0:0:0:0:
448,192,59050,128,8,59183:0:0:0:0:
64,192,59183,1,8,0:0:0:0:
192,192,59183,1,0,0:0:0:70:tom03.wav
320,192,59250,1,0,0:0:0:70:tom02.wav
448,192,59317,1,0,0:0:0:70:tom01.wav
192,192,59383,1,0,0:0:0:70:tom01.wav
64,192,59450,1,0,0:0:0:70:tom02.wav
320,192,59450,1,0,0:0:0:0:
448,192,59517,1,0,0:0:0:70:tom03.wav
192,192,59583,1,0,0:0:0:70:tom04.wav
320,192,59650,1,0,0:0:0:70:tom03.wav
64,192,59717,1,2,0:0:0:0:
448,192,59717,1,4,0:0:0:0:
192,192,59983,1,0,0:0:0:0:
320,192,60250,1,0,0:0:0:0:
192,192,60517,1,0,0:0:0:0:
320,192,61050,1,0,0:0:0:0:
448,192,61317,1,0,0:0:0:0:
192,192,61583,1,0,0:0:0:0:
320,192,61850,1,0,0:0:0:0:
64,192,62117,1,0,0:0:0:0:
192,192,62250,1,0,0:0:0:0:
320,192,62383,1,0,0:0:0:0:
192,192,62650,1,0,0:0:0:0:
320,192,63183,1,0,0:0:0:0:
192,192,63450,1,0,0:0:0:0:
448,192,63717,1,0,0:0:0:0:
64,192,63983,1,0,0:0:0:0:
192,192,64028,1,0,0:0:0:0:
320,192,64072,1,0,0:0:0:0:
448,192,64117,1,0,0:0:0:0:
64,192,64250,1,0,0:0:0:0:
320,192,64383,1,0,0:0:0:0:
192,192,64517,1,0,0:0:0:0:
448,192,64783,1,0,0:0:0:0:
448,192,65050,1,0,0:0:0:0:
320,192,65094,1,0,0:0:0:0:
192,192,65139,1,0,0:0:0:0:
64,192,65183,1,0,0:0:0:0:
320,192,65317,1,0,0:0:0:0:
192,192,65583,1,0,0:0:0:0:
64,192,65850,1,0,0:0:0:0:
448,192,66117,1,0,0:0:0:0:
320,192,66161,1,0,0:0:0:0:
192,192,66205,1,0,0:0:0:0:
64,192,66250,1,0,0:0:0:0:
320,192,66517,1,0,0:0:0:0:
320,192,66650,1,0,0:0:0:0:
192,192,67183,1,0,0:0:0:0:
448,192,67450,128,0,68183:0:0:0:0:
320,192,67717,128,0,68183:0:0:0:0:
192,192,67983,128,0,68183:0:0:0:0:
64,192,68250,1,0,0:0:0:40:BassKickReverbXD_s.wav
192,192,68250,1,0,0:0:0:0:
448,192,68250,128,0,68650:0:0:0:0:
64,192,68517,1,0,0:0:0:70:LR_Hit Snare Soft_edit.wav
192,192,68517,1,0,0:0:0:0:
192,192,68650,128,0,69050:0:0:0:0:
320,192,68783,1,0,0:0:0:0:
448,192,68783,1,0,0:0:0:0:
320,192,69050,128,0,69583:0:0:0:70:LR_Hit Snare Soft_edit.wav
448,192,69050,1,0,0:0:0:0:
64,192,69317,1,0,0:0:0:0:
192,192,69317,1,0,0:0:0:0:
64,192,69583,1,0,0:0:0:70:LR_Hit Snare Soft_edit.wav
192,192,69583,128,0,69850:0:0:0:0:
320,192,69850,1,0,0:0:0:0:
448,192,69850,128,0,70117:0:0:0:0:
64,192,70117,128,0,70383:0:0:0:70:LR_Hit Snare Soft_edit.wav
192,192,70117,1,0,0:0:0:0:
320,192,70383,128,0,70917:0:0:0:40:BassKickReverbXD_s.wav
448,192,70383,1,0,0:0:0:0:
192,192,70650,1,0,0:0:0:70:LR_Hit Snare Soft_edit.wav
448,192,70650,1,0,0:0:0:0:
64,192,70917,128,0,71450:0:0:0:0:
192,192,70917,1,0,0:0:0:0:
192,192,71183,1,0,0:0:0:70:LR_Hit Snare Soft_edit.wav
448,192,71183,1,0,0:0:0:0:
320,192,71450,1,0,0:0:0:0:
448,192,71450,128,0,71983:0:0:0:0:
192,192,71717,1,0,0:0:0:70:LR_Hit Snare Soft_edit.wav
320,192,71717,1,0,0:0:0:0:
64,192,71983,1,0,0:0:0:0:
192,192,71983,128,0,72517:0:0:0:0:
64,192,72250,1,0,0:0:0:70:LR_Hit Snare Soft_edit.wav
320,192,72250,1,0,0:0:0:0:
320,192,72517,1,0,0:0:0:40:BassKickReverbXD_s.wav
448,192,72517,128,0,73317:0:0:0:0:
64,192,72783,1,0,0:0:0:70:LR_Hit Snare Soft_edit.wav
320,192,72783,1,0,0:0:0:0:
64,192,73050,1,0,0:0:0:0:
192,192,73050,1,0,0:0:0:0:
64,192,73317,1,0,0:0:0:70:LR_Hit Snare Soft_edit.wav
320,192,73317,1,0,0:0:0:0:
192,192,73450,1,0,0:0:0:0:
64,192,73583,128,0,74517:0:0:0:0:
448,192,73583,1,0,0:0:0:0:
192,192,73850,1,0,0:0:0:70:LR_Hit Snare Soft_edit.wav
448,192,73850,1,0,0:0:0:0:
192,192,74117,1,0,0:0:0:0:
320,192,74117,1,0,0:0:0:0:
320,192,74383,1,0,0:0:0:70:LR_Hit Snare Soft_edit.wav
448,192,74383,1,0,0:0:0:0:
192,192,74517,1,0,0:0:0:40:BassKickReverbXD_s.wav
64,192,74650,1,0,0:0:0:40:BassKickReverbXD_s.wav
448,192,74650,1,0,0:0:0:0:
448,192,74783,1,0,0:0:0:40:BassKickReverbXD_s.wav
192,192,74917,1,0,0:0:0:70:LR_Hit Snare Soft_edit.wav
320,192,74917,1,0,0:0:0:0:
192,192,75050,1,0,0:0:0:0:
320,192,75183,1,0,0:0:0:70:LR_Hit Snare Soft_edit.wav
448,192,75183,1,0,0:0:0:0:
320,192,75317,1,0,0:0:0:0:
64,192,75450,1,0,0:0:0:70:LR_Hit Snare Soft_edit.wav
192,192,75450,1,0,0:0:0:0:
64,192,75583,1,0,0:0:0:0:
192,192,75717,128,4,75983:0:0:0:0:
320,192,75717,1,2,0:0:0:0:
448,192,75717,1,0,0:0:0:0:
64,192,75850,128,0,75983:0:0:0:0:
320,192,75983,128,0,76250:0:0:0:0:
448,192,76117,128,2,76250:0:0:0:0:
192,192,76250,1,8,0:0:0:0:
320,192,76339,1,0,0:0:0:70:tom01.wav
64,192,76428,1,0,0:0:0:70:tom02.wav
448,192,76428,1,0,0:0:0:0:
192,192,76517,1,0,0:0:0:70:tom03.wav
448,192,76605,1,0,0:0:0:0:
320,192,76694,1,8,0:0:0:0:
64,192,76783,1,2,0:0:0:0:
192,192,76783,1,4,0:0:0:0:
448,192,76783,1,0,0:0:0:0:
320,192,76850,1,0,0:0:0:0:
192,192,76917,1,2,0:0:0:0:
64,192,76983,1,0,0:0:0:0:
320,192,77050,1,0,0:0:0:0:
448,192,77117,1,0,0:0:0:0:
192,192,77183,1,2,0:0:0:0:
320,192,77250,1,0,0:0:0:0:
64,192,77317,1,8,0:0:0:0:
448,192,77317,1,4,0:0:0:0:
192,192,77383,1,0,0:0:0:0:
448,192,77450,1,0,0:0:0:0:
320,192,77517,1,0,0:0:0:0:
64,192,77583,1,2,0:0:0:0:
192,192,77583,1,0,0:0:0:0:
448,192,77650,1,0,0:0:0:0:
320,192,77717,1,2,0:0:0:0:
64,192,77783,1,0,0:0:0:0:
192,192,77850,1,0,0:0:0:0:
320,192,77917,1,0,0:0:0:0:
64,192,77983,1,2,0:0:0:0:
448,192,77983,1,0,0:0:0:0:
192,192,78050,1,0,0:0:0:0:
320,192,78117,1,2,0:0:0:0:
192,192,78183,1,0,0:0:0:0:
64,192,78250,1,2,0:0:0:0:
448,192,78250,1,0,0:0:0:0:
320,192,78317,1,2,0:0:0:0:
64,192,78383,1,8,0:0:0:0:
192,192,78383,1,0,0:0:0:70:tom01.wav
320,192,78450,1,0,0:0:0:0:
448,192,78517,1,2,0:0:0:0:
192,192,78583,1,0,0:0:0:0:
320,192,78650,1,0,0:0:0:0:
64,192,78717,1,0,0:0:0:70:tom02.wav
192,192,78783,1,2,0:0:0:0:
448,192,78783,1,0,0:0:0:0:
320,192,78850,1,0,0:0:0:0:
64,192,78917,128,2,79183:0:0:0:0:
448,192,78917,128,0,79183:0:0:0:0:
192,192,79050,128,2,79183:0:0:0:0:
320,192,79050,128,0,79183:0:0:0:0:
64,192,79317,1,2,0:0:0:0:
192,192,79317,1,0,0:0:0:0:
320,192,79383,1,0,0:0:0:0:
64,192,79450,1,8,0:0:0:0:
448,192,79450,1,0,0:0:0:0:
192,192,79517,1,0,0:0:0:0:
320,192,79583,1,0,0:0:0:0:
64,192,79650,1,0,0:0:0:0:
192,192,79717,1,2,0:0:0:0:
448,192,79783,1,0,0:0:0:0:
64,192,79850,1,2,0:0:0:0:
320,192,79850,1,0,0:0:0:0:
192,192,79917,1,0,0:0:0:0:
448,192,79983,1,0,0:0:0:0:
64,192,80050,1,0,0:0:0:0:
320,192,80117,1,2,0:0:0:0:
192,192,80183,1,0,0:0:0:0:
64,192,80250,1,2,0:0:0:0:
448,192,80250,1,0,0:0:0:0:
320,192,80317,1,0,0:0:0:0:
192,192,80383,1,2,0:0:0:0:
448,192,80450,1,0,0:0:0:0:
64,192,80517,1,8,0:0:0:0:
320,192,80517,1,0,0:0:0:0:
192,192,80583,1,0,0:0:0:0:
448,192,80650,1,2,0:0:0:0:
320,192,80717,1,0,0:0:0:0:
64,192,80783,1,0,0:0:0:70:tom01.wav
192,192,80783,1,0,0:0:0:0:
448,192,80850,1,0,0:0:0:0:
320,192,80917,1,0,0:0:0:0:
192,192,80983,1,0,0:0:0:0:
64,192,81050,1,2,0:0:0:0:
320,192,81050,1,4,0:0:0:0:
448,192,81050,1,0,0:0:0:0:
192,192,81183,1,2,0:0:0:0:
320,192,81250,1,0,0:0:0:0:
448,192,81317,1,0,0:0:0:0:
192,192,81383,1,0,0:0:0:0:
64,192,81450,1,2,0:0:0:0:
320,192,81450,1,0,0:0:0:0:
448,192,81517,1,0,0:0:0:0:
64,192,81583,1,8,0:0:0:0:
192,192,81583,1,4,0:0:0:0:
320,192,81650,1,0,0:0:0:0:
448,192,81717,1,0,0:0:0:0:
192,192,81783,1,0,0:0:0:0:
64,192,81850,1,2,0:0:0:0:
320,192,81917,1,0,0:0:0:0:
192,192,81983,1,2,0:0:0:0:
448,192,81983,1,0,0:0:0:0:
64,192,82050,1,0,0:0:0:0:
320,192,82117,1,0,0:0:0:0:
448,192,82183,1,0,0:0:0:0:
64,192,82250,1,2,0:0:0:0:
192,192,82317,1,0,0:0:0:0:
320,192,82383,1,2,0:0:0:0:
448,192,82383,1,0,0:0:0:0:
64,192,82450,1,0,0:0:0:0:
192,192,82517,1,2,0:0:0:0:
320,192,82583,1,0,0:0:0:0:
64,192,82650,1,8,0:0:0:0:
448,192,82650,1,0,0:0:0:0:
192,192,82717,1,0,0:0:0:0:
320,192,82783,1,0,0:0:0:0:
64,192,82850,1,2,0:0:0:0:
448,192,82917,1,0,0:0:0:0:
320,192,82983,1,0,0:0:0:0:
192,192,83050,1,0,0:0:0:70:tom01.wav
448,192,83050,1,0,0:0:0:0:
64,192,83117,1,0,0:0:0:0:
320,192,83183,1,2,0:0:0:0:
192,192,83250,1,0,0:0:0:0:
448,192,83317,1,2,0:0:0:0:
320,192,83383,1,0,0:0:0:0:
64,192,83450,1,0,0:0:0:0:
192,192,83517,1,0,0:0:0:0:
448,192,83583,1,2,0:0:0:0:
320,192,83650,1,0,0:0:0:0:
64,192,83717,1,8,0:0:0:0:
192,192,83717,1,0,0:0:0:0:
448,192,83783,1,0,0:0:0:0:
320,192,83850,1,0,0:0:0:0:
192,192,83917,1,0,0:0:0:0:
320,192,83983,1,2,0:0:0:0:
448,192,83983,1,4,0:0:0:0:
64,192,84050,1,0,0:0:0:0:
192,192,84117,1,2,0:0:0:0:
320,192,84183,1,0,0:0:0:0:
448,192,84250,1,2,0:0:0:0:
64,192,84317,1,2,0:0:0:0:
192,192,84383,1,8,0:0:0:0:
448,192,84383,1,4,0:0:0:0:
320,192,84450,1,0,0:0:0:0:
64,192,84517,1,8,0:0:0:0:
192,192,84517,1,4,0:0:0:0:
448,192,84583,1,0,0:0:0:0:
320,192,84650,1,2,0:0:0:0:
192,192,84717,1,2,0:0:0:0:
64,192,84783,1,8,0:0:0:0:
448,192,84783,1,0,0:0:0:0:
320,192,84850,1,0,0:0:0:0:
64,192,84917,1,0,0:0:0:70:tom01.wav
192,192,84917,1,0,0:0:0:0:
448,192,84983,1,0,0:0:0:70:tom01.wav
192,192,85050,1,8,0:0:0:0:
320,192,85050,1,0,0:0:0:70:tom02.wav
64,192,85117,1,0,0:0:0:0:
320,192,85183,1,8,0:0:0:0:
448,192,85183,1,0,0:0:0:70:tom03.wav
192,192,85250,1,8,0:0:0:0:
64,192,85317,1,2,0:0:0:0:
320,192,85317,1,4,0:0:0:0:
448,192,85317,1,0,0:0:0:0:
64,192,85583,1,8,0:0:0:0:
320,192,85583,1,0,0:0:0:0:
64,192,85717,1,2,0:0:0:0:
192,192,85717,1,4,0:0:0:0:
448,192,85717,1,0,0:0:0:0:
320,192,85983,1,2,0:0:0:0:
448,192,85983,1,0,0:0:0:0:
64,192,86050,1,2,0:0:0:0:
192,192,86117,1,0,0:0:0:70:tom01.wav
448,192,86117,1,0,0:0:0:0:
320,192,86250,1,8,0:0:0:0:
64,192,86250,1,0,0:0:0:70:tom02.wav
192,192,86317,1,8,0:0:0:0:
64,192,86383,1,2,0:0:0:0:
320,192,86383,1,4,0:0:0:0:
448,192,86383,1,0,0:0:0:0:
192,192,86650,1,8,0:0:0:0:
448,192,86650,1,0,0:0:0:0:
64,192,86783,1,2,0:0:0:0:
320,192,86783,1,4,0:0:0:0:
448,192,86783,1,0,0:0:0:0:
192,192,87050,1,2,0:0:0:0:
320,192,87117,1,2,0:0:0:0:
64,192,87183,1,8,0:0:0:0:
448,192,87183,1,0,0:0:0:70:tom01.wav
192,192,87250,1,8,0:0:0:0:
320,192,87317,1,0,0:0:0:70:tom03.wav
448,192,87383,1,0,0:0:0:70:tom04.wav
64,192,87450,1,2,0:0:0:0:
192,192,87450,1,4,0:0:0:0:
320,192,87517,1,0,0:0:0:0:
64,192,87583,1,2,0:0:0:0:
192,192,87650,1,2,0:0:0:0:
448,192,87717,1,2,0:0:0:0:
64,192,87783,1,0,0:0:0:0:
192,192,87850,1,2,0:0:0:0:
320,192,87917,1,2,0:0:0:0:
64,192,87983,1,8,0:0:0:0:
448,192,87983,1,0,0:0:0:0:
192,192,88050,1,0,0:0:0:0:
320,192,88117,1,8,0:0:0:0:
64,192,88183,1,2,0:0:0:0:
192,192,88250,1,8,0:0:0:0:
448,192,88250,1,0,0:0:0:0:
320,192,88317,1,0,0:0:0:0:
64,192,88383,1,8,0:0:0:0:
192,192,88383,1,0,0:0:0:0:
448,192,88450,1,2,0:0:0:0:
192,192,88517,128,8,88650:0:0:0:0:
320,192,88517,128,4,88650:0:0:0:0:
64,192,88717,128,8,88850:0:0:0:0:
192,192,88717,128,4,88850:0:0:0:0:
320,192,88917,128,8,89117:0:0:0:0:
448,192,88917,128,4,89117:0:0:0:0:
320,192,89183,1,0,0:0:0:70:tom01.wav
448,192,89183,1,0,0:0:0:0:
192,192,89250,1,0,0:0:0:70:tom02.wav
64,192,89317,1,0,0:0:0:70:tom03.wav
448,192,89383,1,0,0:0:0:0:
192,192,89450,1,0,0:0:0:70:tom01.wav
320,192,89517,1,0,0:0:0:70:tom02.wav
64,192,89583,1,2,0:0:0:0:
448,192,89583,1,4,0:0:0:0:
64,192,89717,1,8,0:0:0:0:
320,192,89717,1,0,0:0:0:0:
448,192,89850,1,2,0:0:0:0:
192,192,89917,1,2,0:0:0:0:
64,192,89983,1,8,0:0:0:0:
320,192,89983,1,0,0:0:0:0:
192,192,90117,1,2,0:0:0:0:
320,192,90250,1,8,0:0:0:0:
448,192,90250,1,0,0:0:0:0:
192,192,90383,1,2,0:0:0:0:
320,192,90450,1,2,0:0:0:0:
64,192,90517,1,8,0:0:0:0:
448,192,90517,1,0,0:0:0:0:
448,192,90650,128,2,91183:0:0:0:0:
192,192,90783,1,8,0:0:0:0:
320,192,90783,1,0,0:0:0:0:
64,192,90917,1,2,0:0:0:0:
192,192,90983,1,2,0:0:0:0:
320,192,91050,1,8,0:0:0:0:
64,192,91183,128,0,91450:0:0:0:70:tom01.wav
192,192,91183,1,0,0:0:0:0:
320,192,91317,1,2,0:0:0:0:
192,192,91450,1,0,0:0:0:70:tom01.wav
320,192,91517,1,0,0:0:0:70:tom02.wav
448,192,91583,1,2,0:0:0:0:
192,192,91650,1,2,0:0:0:0:
64,192,91717,1,8,0:0:0:0:
320,192,91717,1,4,0:0:0:0:
448,192,91717,1,0,0:0:0:0:
64,192,91983,1,8,0:0:0:0:
448,192,91983,1,0,0:0:0:0:
320,192,92117,1,8,0:0:0:0:
192,192,92183,1,8,0:0:0:0:
64,192,92250,1,8,0:0:0:0:
192,192,92383,1,8,0:0:0:0:
320,192,92450,1,8,0:0:0:0:
64,192,92517,1,8,0:0:0:0:
448,192,92517,1,0,0:0:0:0:
192,192,92583,1,8,0:0:0:0:
320,192,92650,1,8,0:0:0:0:
192,192,92717,1,8,0:0:0:0:
64,192,92783,1,4,0:0:0:0:
192,192,93317,128,0,93383:0:0:0:0:
320,192,93583,128,0,93650:0:0:0:0:
64,192,93850,1,2,0:0:0:0:
192,192,93850,1,4,0:0:0:0:
448,192,93850,1,0,0:0:0:0:
320,192,93983,1,0,0:0:0:0:
192,192,94050,1,0,0:0:0:0:
64,192,94117,1,8,0:0:0:0:
448,192,94117,1,0,0:0:0:0:
320,192,94250,1,0,0:0:0:0:
64,192,94383,1,2,0:0:0:0:
192,192,94383,1,0,0:0:0:0:
320,192,94450,1,0,0:0:0:0:
448,192,94517,1,0,0:0:0:0:
192,192,94650,1,8,0:0:0:0:
320,192,94650,1,0,0:0:0:0:
64,192,94783,1,0,0:0:0:0:
320,192,94850,1,0,0:0:0:0:
192,192,94917,1,2,0:0:0:0:
448,192,94917,128,4,95050:0:0:0:0:
64,192,95050,1,0,0:0:0:0:
320,192,95050,128,0,95183:0:0:0:0:
192,192,95183,128,8,95317:0:0:0:0:
448,192,95183,1,0,0:0:0:0:
64,192,95317,128,4,95450:0:0:0:0:
320,192,95317,1,0,0:0:0:0:
192,192,95450,1,2,0:0:0:0:
448,192,95450,1,0,0:0:0:0:
320,192,95583,1,0,0:0:0:0:
192,192,95650,1,0,0:0:0:0:
64,192,95717,1,8,0:0:0:0:
448,192,95717,1,0,0:0:0:0:
320,192,95850,1,0,0:0:0:0:
64,192,95983,1,2,0:0:0:0:
320,192,95983,1,4,0:0:0:0:
448,192,95983,1,0,0:0:0:0:
192,192,96117,1,0,0:0:0:0:
320,192,96183,1,0,0:0:0:0:
64,192,96250,1,8,0:0:0:0:
448,192,96250,1,0,0:0:0:0:
192,192,96383,1,0,0:0:0:0:
320,192,96517,1,2,0:0:0:0:
448,192,96517,1,0,0:0:0:0:
192,192,96583,1,0,0:0:0:0:
64,192,96650,1,0,0:0:0:0:
192,192,96783,1,8,0:0:0:0:
320,192,96783,1,0,0:0:0:0:
448,192,96917,1,0,0:0:0:0:
192,192,96983,1,0,0:0:0:0:
64,192,97050,128,2,97183:0:0:0:0:
320,192,97050,1,4,0:0:0:0:
192,192,97183,128,0,97317:0:0:0:0:
448,192,97183,1,0,0:0:0:0:
64,192,97317,1,10,0:0:0:0:
320,192,97317,128,4,97450:0:0:0:0:
192,192,97450,1,2,0:0:0:0:
448,192,97450,128,0,97583:0:0:0:0:
64,192,97583,1,8,0:0:0:0:
320,192,97583,1,4,0:0:0:0:
64,192,97761,1,8,0:0:0:0:
192,192,97761,1,4,0:0:0:0:
320,192,97761,1,0,0:0:0:0:
192,192,97939,1,8,0:0:0:0:
448,192,97939,1,4,0:0:0:0:
64,192,98117,1,2,0:0:0:0:
320,192,98117,1,4,0:0:0:0:
448,192,98117,1,0,0:0:0:0:
192,192,98250,1,0,0:0:0:70:tom01.wav
448,192,98383,1,0,0:0:0:70:tom03.wav
320,192,98450,1,0,0:0:0:70:tom04.wav
64,192,98517,128,8,98783:0:0:0:0:
192,192,98517,1,4,0:0:0:0:
192,192,98783,1,2,0:0:0:0:
320,192,98783,1,4,0:0:0:0:
448,192,98850,1,2,0:0:0:0:
64,192,98917,1,8,0:0:0:0:
192,192,98917,1,0,0:0:0:0:
320,192,99050,1,2,0:0:0:0:
448,192,99117,1,0,0:0:0:0:
64,192,99183,1,8,0:0:0:0:
192,192,99183,128,4,99317:0:0:0:0:
320,192,99317,128,2,99450:0:0:0:0:
448,192,99317,1,0,0:0:0:0:
192,192,99450,1,2,0:0:0:0:
448,192,99450,128,0,99583:0:0:0:0:
64,192,99583,128,8,99850:0:0:0:0:
320,192,99583,1,4,0:0:0:0:
448,192,99850,128,2,100117:0:0:0:0:
64,192,99983,1,8,0:0:0:0:
192,192,99983,1,4,0:0:0:0:
320,192,100117,1,2,0:0:0:0:
192,192,100183,1,2,0:0:0:0:
64,192,100250,128,8,100517:0:0:0:0:
448,192,100250,1,4,0:0:0:0:
320,192,100383,1,2,0:0:0:0:
192,192,100517,1,2,0:0:0:0:
320,192,100583,1,0,0:0:0:0:
64,192,100650,1,8,0:0:0:0:
448,192,100650,128,4,100917:0:0:0:0:
64,192,100917,1,2,0:0:0:0:
192,192,100983,1,0,0:0:0:0:
448,192,101050,1,12,0:0:0:0:
320,192,101117,1,0,0:0:0:0:
64,192,101183,128,2,101450:0:0:0:0:
192,192,101183,1,0,0:0:0:0:
320,192,101450,1,8,0:0:0:0:
448,192,101450,1,4,0:0:0:0:
64,192,101583,1,8,0:0:0:0:
192,192,101583,1,4,0:0:0:0:
320,192,101717,1,2,0:0:0:0:
192,192,101783,1,2,0:0:0:0:
64,192,101850,1,8,0:0:0:0:
448,192,101850,1,0,0:0:0:0:
192,192,101983,1,8,0:0:0:0:
64,192,102050,1,0,0:0:0:70:tom02.wav
320,192,102117,1,2,0:0:0:0:
448,192,102117,1,0,0:0:0:0:
192,192,102183,1,2,0:0:0:0:
64,192,102250,1,8,0:0:0:0:
320,192,102317,1,8,0:0:0:0:
64,192,102383,1,2,0:0:0:0:
192,192,102383,1,4,0:0:0:0:
448,192,102383,1,0,0:0:0:0:
320,192,102517,1,0,0:0:0:0:
192,192,102583,1,0,0:0:0:0:
64,192,102650,1,8,0:0:0:0:
448,192,102650,1,0,0:0:0:0:
320,192,102783,1,0,0:0:0:0:
64,192,102917,1,2,0:0:0:0:
192,192,102917,1,0,0:0:0:0:
320,192,102983,1,0,0:0:0:0:
448,192,103050,1,0,0:0:0:0:
192,192,103183,1,8,0:0:0:0:
320,192,103183,1,0,0:0:0:0:
64,192,103317,1,0,0:0:0:0:
192,192,103383,1,0,0:0:0:0:
320,192,103450,1,2,0:0:0:0:
448,192,103450,128,4,103583:0:0:0:0:
64,192,103583,1,0,0:0:0:0:
320,192,103583,128,0,103717:0:0:0:0:
192,192,103717,128,8,103850:0:0:0:0:
448,192,103717,1,0,0:0:0:0:
64,192,103850,128,4,103983:0:0:0:0:
320,192,103850,1,0,0:0:0:0:
192,192,103983,1,2,0:0:0:0:
448,192,103983,1,0,0:0:0:0:
320,192,104117,1,0,0:0:0:0:
192,192,104183,1,0,0:0:0:0:
64,192,104250,1,8,0:0:0:0:
448,192,104250,1,0,0:0:0:0:
320,192,104383,1,0,0:0:0:0:
64,192,104517,1,2,0:0:0:0:
320,192,104517,1,4,0:0:0:0:
448,192,104517,1,0,0:0:0:0:
192,192,104650,1,0,0:0:0:0:
320,192,104717,1,0,0:0:0:0:
64,192,104783,1,8,0:0:0:0:
448,192,104783,1,0,0:0:0:0:
192,192,104917,1,0,0:0:0:0:
320,192,105050,1,2,0:0:0:0:
448,192,105050,1,0,0:0:0:0:
192,192,105117,1,0,0:0:0:0:
64,192,105183,1,0,0:0:0:0:
192,192,105317,1,8,0:0:0:0:
320,192,105317,1,0,0:0:0:0:
320,192,105450,1,0,0:0:0:0:
448,192,105517,1,0,0:0:0:0:
64,192,105583,1,2,0:0:0:0:
192,192,105583,1,4,0:0:0:0:
320,192,105650,1,0,0:0:0:0:
448,192,105717,1,0,0:0:0:0:
64,192,105783,1,0,0:0:0:0:
192,192,105850,1,8,0:0:0:0:
320,192,105850,1,2,0:0:0:0:
448,192,105917,1,0,0:0:0:0:
64,192,105983,1,2,0:0:0:0:
192,192,106050,1,2,0:0:0:0:
320,192,106117,1,8,0:0:0:0:
448,192,106117,1,0,0:0:0:0:
64,192,106183,1,0,0:0:0:70:tom01.wav
192,192,106250,1,0,0:0:0:70:tom02.wav
320,192,106250,1,0,0:0:0:0:
448,192,106317,1,0,0:0:0:0:
64,192,106383,1,8,0:0:0:0:
192,192,106383,1,0,0:0:0:0:
320,192,106450,1,0,0:0:0:70:tom01.wav
64,192,106517,1,0,0:0:0:70:tom02.wav
320,192,106583,1,0,0:0:0:70:tom03.wav
64,192,106917,128,2,107117:0:0:0:0:
320,192,106917,1,4,0:0:0:0:
448,192,106917,128,0,107117:0:0:0:0:
64,192,107183,1,0,0:0:0:70:tom01.wav
320,192,107183,1,0,0:0:0:0:
448,192,107250,1,0,0:0:0:70:tom02.wav
192,192,107317,1,0,0:0:0:70:tom03.wav
320,192,107383,1,0,0:0:0:70:tom03.wav
64,192,107450,1,0,0:0:0:70:tom01.wav
448,192,107450,1,0,0:0:0:0:
192,192,107517,1,0,0:0:0:70:tom02.wav
448,192,107583,1,0,0:0:0:70:tom03.wav
320,192,107650,1,0,0:0:0:70:tom03.wav
64,192,107717,1,0,0:0:0:70:tom02.wav
192,192,107717,1,0,0:0:0:0:
448,192,107783,1,0,0:0:0:70:tom01.wav
320,192,107850,1,0,0:0:0:70:tom03.wav
192,192,107917,1,0,0:0:0:70:tom03.wav
64,192,107983,1,2,0:0:0:0:
320,192,108050,1,2,0:0:0:0:
64,192,108117,1,8,0:0:0:0:
192,192,108117,1,4,0:0:0:0:
448,192,108117,1,0,0:0:0:0:
320,192,108250,1,0,0:0:0:0:
192,192,108383,1,2,0:0:0:0:
64,192,108450,1,2,0:0:0:0:
320,192,108517,1,8,0:0:0:0:
448,192,108517,1,4,0:0:0:0:
192,192,108650,1,8,0:0:0:0:
320,192,108717,1,8,0:0:0:0:
64,192,108783,1,4,0:0:0:0:
192,192,108783,1,2,0:0:0:0:
448,192,108783,128,0,108917:0:0:0:0:
320,192,108917,128,0,109050:0:0:0:0:
64,192,109050,1,2,0:0:0:0:
192,192,109050,128,8,109183:0:0:0:0:
64,192,109183,128,8,109317:0:0:0:0:
448,192,109183,1,0,0:0:0:0:
320,192,109317,1,8,0:0:0:0:
192,192,109383,1,0,0:0:0:0:
64,192,109450,1,8,0:0:0:0:
448,192,109517,1,8,0:0:0:0:
64,192,109583,1,8,0:0:0:0:
192,192,109583,1,0,0:0:0:0:
320,192,109650,1,8,0:0:0:0:
448,192,109717,1,8,0:0:0:0:
192,192,109783,1,8,0:0:0:0:
64,192,109850,1,4,0:0:0:0:
320,192,109850,1,2,0:0:0:0:
448,192,109850,1,0,0:0:0:0:
64,192,110050,1,4,0:0:0:0:
192,192,110050,1,2,0:0:0:0:
448,192,110050,1,0,0:0:0:0:
192,192,110250,1,0,0:0:0:0:
320,192,110250,1,2,0:0:0:0:
64,192,110383,1,8,0:0:0:0:
192,192,110383,1,4,0:0:0:0:
448,192,110383,1,0,0:0:0:0:
64,192,110583,1,8,0:0:0:0:
320,192,110583,1,4,0:0:0:0:
448,192,110583,1,0,0:0:0:0:
192,192,110783,1,8,0:0:0:0:
448,192,110783,1,4,0:0:0:0:
64,192,110917,1,2,0:0:0:0:
320,192,110917,1,4,0:0:0:0:
448,192,110917,128,0,111983:0:0:0:0:
64,192,111050,1,2,0:0:0:0:
192,192,111317,1,2,0:0:0:0:
320,192,111317,1,0,0:0:0:0:
64,192,111450,1,8,0:0:0:0:
320,192,111450,1,0,0:0:0:0:
64,192,111717,1,2,0:0:0:0:
192,192,111717,1,0,0:0:0:0:
192,192,111850,1,2,0:0:0:0:
64,192,111983,128,2,112072:0:0:0:0:
192,192,112072,128,0,112161:0:0:0:0:
320,192,112161,128,0,112250:0:0:0:0:
448,192,112250,128,0,112339:0:0:0:0:
64,192,112339,128,0,112428:0:0:0:0:
320,192,112428,128,0,112517:0:0:0:0:
64,192,112517,1,0,0:0:0:0:
192,192,112517,1,8,0:0:0:0:
64,192,112650,1,0,0:0:0:0:
448,192,112650,1,2,0:0:0:0:
192,192,112783,128,2,112872:0:0:0:0:
320,192,112872,128,0,112961:0:0:0:0:
192,192,112961,128,0,113050:0:0:0:0:
64,192,113050,128,2,113583:0:0:0:0:
448,192,113050,1,0,0:0:0:0:
448,192,113183,1,2,0:0:0:0:
192,192,113450,1,2,0:0:0:0:
320,192,113450,1,0,0:0:0:0:
192,192,113583,1,8,0:0:0:0:
448,192,113583,128,0,113983:0:0:0:0:
64,192,113850,1,2,0:0:0:0:
192,192,113850,1,0,0:0:0:0:
320,192,113983,1,2,0:0:0:0:
192,192,114117,128,2,114383:0:0:0:0:
448,192,114117,1,0,0:0:0:0:
64,192,114250,1,2,0:0:0:0:
448,192,114383,1,0,0:0:0:0:
320,192,114517,1,2,0:0:0:0:
192,192,114583,1,2,0:0:0:0:
64,192,114650,1,8,0:0:0:0:
448,192,114650,128,4,114917:0:0:0:0:
320,192,114783,1,2,0:0:0:0:
192,192,114917,1,0,0:0:0:0:
320,192,115050,1,2,0:0:0:0:
192,192,115117,1,0,0:0:0:0:
64,192,115183,128,4,115450:0:0:0:0:
448,192,115183,1,2,0:0:0:0:
320,192,115317,1,2,0:0:0:0:
192,192,115583,1,2,0:0:0:0:
320,192,115583,128,0,115850:0:0:0:0:
64,192,115717,1,8,0:0:0:0:
448,192,115717,1,4,0:0:0:0:
64,192,115983,1,2,0:0:0:0:
192,192,115983,128,0,116250:0:0:0:0:
320,192,116117,1,2,0:0:0:0:
448,192,116117,1,0,0:0:0:0:
320,192,116383,1,2,0:0:0:0:
448,192,116383,128,0,116650:0:0:0:0:
64,192,116650,1,2,0:0:0:0:
192,192,116650,1,0,0:0:0:0:
64,192,116783,128,8,117050:0:0:0:0:
320,192,116783,1,0,0:0:0:0:
192,192,117050,1,2,0:0:0:0:
320,192,117050,128,0,117317:0:0:0:0:
64,192,117317,1,2,0:0:0:0:
448,192,117317,128,0,117583:0:0:0:0:
192,192,117450,1,2,0:0:0:0:
320,192,117450,1,0,0:0:0:0:
192,192,117717,128,2,117983:0:0:0:0:
320,192,117717,1,0,0:0:0:0:
64,192,117850,1,8,0:0:0:0:
448,192,117850,1,0,0:0:0:0:
320,192,118117,128,2,118383:0:0:0:0:
448,192,118117,1,0,0:0:0:0:
64,192,118250,1,2,0:0:0:0:
192,192,118250,1,0,0:0:0:0:
64,192,118517,128,2,118783:0:0:0:0:
192,192,118517,1,0,0:0:0:0:
320,192,118650,1,2,0:0:0:0:
448,192,118650,1,0,0:0:0:0:
192,192,118917,1,8,0:0:0:0:
448,192,118917,128,0,119183:0:0:0:0:
64,192,119183,1,0,0:0:0:70:tom01.wav
320,192,119183,1,0,0:0:0:0:
192,192,119317,1,0,0:0:0:0:
320,192,119383,1,0,0:0:0:0:
64,192,119450,128,2,119717:0:0:0:0:
448,192,119450,1,4,0:0:0:0:
192,192,119717,1,2,0:0:0:0:
448,192,119717,1,0,0:0:0:0:
320,192,119850,1,0,0:0:0:0:
64,192,119983,1,8,0:0:0:0:
320,192,119983,128,0,120250:0:0:0:0:
320,192,120383,1,2,0:0:0:0:
448,192,120383,1,0,0:0:0:0:
64,192,120517,1,0,0:0:0:0:
192,192,120517,128,0,120783:0:0:0:0:
320,192,120783,1,2,0:0:0:0:
448,192,120783,1,0,0:0:0:0:
64,192,120917,1,2,0:0:0:0:
192,192,121050,1,8,0:0:0:0:
448,192,121050,1,0,0:0:0:0:
320,192,121183,1,2,0:0:0:0:
64,192,121317,128,2,121583:0:0:0:0:
192,192,121317,1,0,0:0:0:0:
320,192,121583,128,2,121850:0:0:0:0:
448,192,121583,1,0,0:0:0:0:
64,192,121850,1,2,0:0:0:0:
192,192,121850,128,0,122117:0:0:0:0:
64,192,122117,1,8,0:0:0:0:
448,192,122117,128,0,122383:0:0:0:0:
64,192,122383,128,0,122650:0:0:0:0:
192,192,122517,1,2,0:0:0:0:
320,192,122517,1,0,0:0:0:0:
448,192,122650,128,0,122917:0:0:0:0:
64,192,122917,1,2,0:0:0:0:
192,192,122917,128,0,123183:0:0:0:0:
64,192,123183,128,8,123317:0:0:0:0:
448,192,123183,1,0,0:0:0:0:
192,192,123317,128,0,123450:0:0:0:0:
320,192,123450,128,0,123583:0:0:0:70:tom02.wav
448,192,123450,1,0,0:0:0:0:
192,192,123583,1,2,0:0:0:0:
320,192,123650,1,2,0:0:0:0:
64,192,123717,1,2,0:0:0:0:
192,192,123717,1,4,0:0:0:0:
448,192,123717,1,0,0:0:0:0:
64,192,123850,1,2,0:0:0:0:
192,192,123983,1,8,0:0:0:0:
320,192,123983,1,0,0:0:0:0:
320,192,124117,1,0,0:0:0:0:
192,192,124250,1,2,0:0:0:0:
448,192,124250,1,0,0:0:0:0:
448,192,124383,1,2,0:0:0:0:
64,192,124517,1,0,0:0:0:0:
64,192,124650,1,8,0:0:0:0:
448,192,124650,1,0,0:0:0:0:
320,192,124783,1,0,0:0:0:0:
320,192,124917,1,2,0:0:0:0:
448,192,124917,1,0,0:0:0:0:
64,192,125050,1,8,0:0:0:0:
192,192,125050,1,0,0:0:0:0:
192,192,125183,1,0,0:0:0:0:
320,192,125317,1,2,0:0:0:0:
448,192,125317,1,0,0:0:0:0:
192,192,125450,1,2,0:0:0:0:
320,192,125517,1,2,0:0:0:0:
64,192,125583,1,8,0:0:0:0:
192,192,125583,1,4,0:0:0:0:
448,192,125583,128,0,125850:0:0:0:0:
64,192,125850,1,8,0:0:0:0:
192,192,125850,1,4,0:0:0:0:
320,192,125850,1,0,0:0:0:0:
320,192,125983,1,2,0:0:0:0:
320,192,126117,1,2,0:0:0:0:
64,192,126250,1,8,0:0:0:0:
192,192,126250,1,4,0:0:0:0:
448,192,126250,1,0,0:0:0:0:
192,192,126383,1,2,0:0:0:0:
192,192,126517,1,2,0:0:0:0:
64,192,126650,1,8,0:0:0:0:
320,192,126650,1,4,0:0:0:0:
448,192,126650,1,0,0:0:0:0:
64,192,126783,1,2,0:0:0:0:
64,192,126917,1,2,0:0:0:0:
192,192,127050,1,8,0:0:0:0:
320,192,127050,1,4,0:0:0:0:
448,192,127050,1,0,0:0:0:0:
64,192,127183,1,8,0:0:0:0:
320,192,127183,1,4,0:0:0:0:
192,192,127317,1,2,0:0:0:0:
320,192,127383,1,2,0:0:0:0:
64,192,127450,1,8,0:0:0:0:
448,192,127450,1,0,0:0:0:0:
192,192,127517,1,0,0:0:0:70:tom01.wav
320,192,127583,1,0,0:0:0:70:tom02.wav
448,192,127650,1,0,0:0:0:70:tom03.wav
64,192,127717,1,4,0:0:0:0:
192,192,127717,1,8,0:0:0:0:
448,192,127850,1,8,0:0:0:0:
320,192,127917,1,8,0:0:0:0:
64,192,127983,1,8,0:0:0:0:
192,192,127983,1,4,0:0:0:0:
320,192,128117,1,2,0:0:0:0:
192,192,128183,1,2,0:0:0:0:
64,192,128250,128,4,128517:0:0:0:0:
320,192,128250,1,8,0:0:0:0:
448,192,128250,128,0,128517:0:0:0:0:
192,192,128517,1,2,0:0:0:0:
320,192,128517,1,0,0:0:0:0:
64,192,128650,1,2,0:0:0:0:
192,192,128783,1,8,0:0:0:0:
448,192,128783,1,0,0:0:0:0:
64,192,128917,1,2,0:0:0:0:
192,192,128917,128,0,129183:0:0:0:0:
64,192,129183,1,2,0:0:0:0:
448,192,129183,128,0,129317:0:0:0:0:
192,192,129317,1,8,0:0:0:0:
320,192,129317,128,0,129450:0:0:0:0:
64,192,129450,128,0,129717:0:0:0:0:
320,192,129583,1,2,0:0:0:0:
448,192,129583,1,0,0:0:0:0:
192,192,129717,128,2,129850:0:0:0:0:
64,192,129850,1,8,0:0:0:0:
320,192,129850,128,0,129983:0:0:0:0:
448,192,129983,128,0,130117:0:0:0:0:
64,192,130117,1,2,0:0:0:0:
192,192,130117,128,0,130383:0:0:0:0:
320,192,130250,1,0,0:0:0:0:
64,192,130383,1,8,0:0:0:0:
448,192,130383,128,0,130650:0:0:0:0:
320,192,130517,128,0,130650:0:0:0:0:
64,192,130650,1,2,0:0:0:0:
192,192,130650,1,0,0:0:0:0:
320,192,130783,1,2,0:0:0:0:
448,192,130783,1,0,0:0:0:0:
64,192,130917,1,8,0:0:0:0:
192,192,130917,1,0,0:0:0:0:
192,192,131050,128,2,131317:0:0:0:0:
448,192,131050,1,0,0:0:0:0:
64,192,131183,1,0,0:0:0:0:
320,192,131317,1,2,0:0:0:0:
448,192,131317,1,0,0:0:0:0:
64,192,131450,1,8,0:0:0:0:
320,192,131450,128,0,131717:0:0:0:0:
192,192,131583,1,0,0:0:0:0:
64,192,131717,1,2,0:0:0:0:
448,192,131717,1,0,0:0:0:0:
192,192,131850,1,2,0:0:0:0:
320,192,131850,1,0,0:0:0:0:
64,192,131983,1,8,0:0:0:0:
448,192,131983,1,0,0:0:0:0:
320,192,132117,1,0,0:0:0:0:
64,192,132250,1,2,0:0:0:0:
192,192,132250,1,4,0:0:0:0:
448,192,132250,128,0,132517:0:0:0:0:
64,192,132517,1,8,0:0:0:0:
192,192,132517,1,0,0:0:0:0:
64,192,132650,1,4,0:0:0:0:
320,192,132650,128,0,132917:0:0:0:0:
448,192,132650,1,0,0:0:0:0:
192,192,132783,1,2,0:0:0:0:
64,192,132917,1,2,0:0:0:0:
448,192,132917,1,0,0:0:0:0:
192,192,133050,1,8,0:0:0:0:
320,192,133050,1,0,0:0:0:0:
64,192,133183,1,2,0:0:0:0:
192,192,133183,128,0,133450:0:0:0:0:
448,192,133450,1,2,0:0:0:0:
64,192,133583,1,8,0:0:0:0:
320,192,133583,1,0,0:0:0:0:
192,192,133717,1,0,0:0:0:0:
448,192,133850,1,2,0:0:0:0:
320,192,133917,1,2,0:0:0:0:
64,192,133983,1,8,0:0:0:0:
192,192,133983,1,4,0:0:0:0:
64,192,134117,1,8,0:0:0:0:
320,192,134117,1,4,0:0:0:0:
448,192,134117,1,0,0:0:0:0:
64,192,134383,1,8,0:0:0:0:
192,192,134383,1,4,0:0:0:0:
448,192,134383,1,0,0:0:0:0:
192,192,134517,1,2,0:0:0:0:
192,192,134650,1,2,0:0:0:0:
64,192,134783,1,8,0:0:0:0:
320,192,134783,1,4,0:0:0:0:
448,192,134783,1,0,0:0:0:0:
320,192,134917,1,2,0:0:0:0:
320,192,135050,1,2,0:0:0:0:
64,192,135183,1,8,0:0:0:0:
192,192,135183,1,4,0:0:0:0:
448,192,135183,1,0,0:0:0:0:
64,192,135317,1,2,0:0:0:0:
64,192,135450,1,2,0:0:0:0:
192,192,135583,1,8,0:0:0:0:
320,192,135583,1,4,0:0:0:0:
448,192,135583,1,0,0:0:0:0:
448,192,135717,1,2,0:0:0:0:
448,192,135850,1,2,0:0:0:0:
64,192,135983,1,8,0:0:0:0:
320,192,135983,1,0,0:0:0:0:
448,192,136050,1,0,0:0:0:70:tom01.wav
192,192,136117,1,0,0:0:0:70:tom02.wav
320,192,136183,1,0,0:0:0:70:tom03.wav
64,192,136250,1,4,0:0:0:0:
448,192,136250,1,8,0:0:0:0:
320,192,136383,1,2,0:0:0:0:
64,192,136517,1,4,0:0:0:0:
192,192,136517,1,8,0:0:0:0:
448,192,136517,1,0,0:0:0:0:
320,192,136583,1,0,0:0:0:0:
192,192,136650,1,0,0:0:0:0:
448,192,136717,1,0,0:0:0:0:
64,192,136783,1,8,0:0:0:0:
320,192,136783,1,0,0:0:0:0:
192,192,136850,1,8,0:0:0:0:
448,192,136917,1,8,0:0:0:0:
320,192,136983,1,0,0:0:0:0:
64,192,137050,1,8,0:0:0:0:
192,192,137050,1,0,0:0:0:0:
448,192,137117,1,8,0:0:0:0:
320,192,137183,1,8,0:0:0:0:
64,192,137250,1,0,0:0:0:0:
192,192,137317,1,8,0:0:0:0:
448,192,137317,1,0,0:0:0:0:
320,192,137383,1,0,0:0:0:70:tom01.wav
64,192,137450,1,0,0:0:0:70:tom02.wav
192,192,137517,1,0,0:0:0:0:
320,192,137583,1,8,0:0:0:0:
448,192,137583,1,0,0:0:0:0:
64,192,137650,1,0,0:0:0:70:tom01.wav
448,192,137717,1,0,0:0:0:70:tom02.wav
192,192,137717,1,0,0:0:0:0:
320,192,137783,1,0,0:0:0:70:tom02.wav
192,192,137850,1,0,0:0:0:70:tom03.wav
64,192,137850,1,0,0:0:0:0:
448,192,137917,1,0,0:0:0:70:tom03.wav
64,192,137983,1,0,0:0:0:70:tom04.wav
320,192,137983,1,0,0:0:0:0:
192,192,138050,1,0,0:0:0:70:tom04.wav
64,192,138117,1,8,0:0:0:0:
320,192,138117,1,4,0:0:0:0:
448,192,138117,1,0,0:0:0:0:
64,192,138317,1,8,0:0:0:0:
192,192,138317,1,4,0:0:0:0:
448,192,138317,1,0,0:0:0:0:
64,192,138517,1,8,0:0:0:0:
192,192,138517,1,4,0:0:0:0:
448,192,138517,1,0,0:0:0:0:
64,192,138650,1,8,0:0:0:0:
320,192,138650,1,4,0:0:0:0:
448,192,138650,1,0,0:0:0:0:
192,192,138717,1,0,0:0:0:0:
320,192,138783,1,0,0:0:0:0:
64,192,138850,1,0,0:0:0:0:
192,192,138917,1,8,0:0:0:0:
448,192,138917,1,0,0:0:0:0:
320,192,138983,1,8,0:0:0:0:
64,192,139050,1,8,0:0:0:0:
192,192,139117,1,0,0:0:0:0:
320,192,139183,1,8,0:0:0:0:
448,192,139183,1,0,0:0:0:0:
64,192,139250,1,8,0:0:0:0:
192,192,139317,1,8,0:0:0:0:
448,192,139383,1,0,0:0:0:0:
320,192,139450,1,8,0:0:0:0:
64,192,139450,1,0,0:0:0:0:
192,192,139517,1,8,0:0:0:0:
320,192,139583,1,8,0:0:0:0:
64,192,139650,1,0,0:0:0:0:
192,192,139717,1,0,0:0:0:70:tom01.wav
448,192,139717,1,0,0:0:0:0:
320,192,139783,1,0,0:0:0:70:tom01.wav
192,192,139850,1,0,0:0:0:70:tom02.wav
64,192,139850,1,0,0:0:0:0:
448,192,139917,1,0,0:0:0:70:tom02.wav
320,192,139983,1,0,0:0:0:70:tom01.wav
192,192,139983,1,0,0:0:0:0:
64,192,140050,1,0,0:0:0:70:tom03.wav
448,192,140117,1,0,0:0:0:70:tom04.wav
320,192,140117,1,0,0:0:0:0:
192,192,140183,1,2,0:0:0:0:
64,192,140183,1,0,0:0:0:70:tom04.wav
448,192,140250,1,4,0:0:0:0:
320,192,140250,1,0,0:0:0:70:tom01.wav
192,192,140450,1,4,0:0:0:0:
320,192,140450,1,0,0:0:0:70:tom01.wav
64,192,140650,1,4,0:0:0:0:
192,192,140650,1,0,0:0:0:70:tom01.wav
64,192,140783,1,8,0:0:0:0:
320,192,140783,1,4,0:0:0:0:
448,192,140783,1,0,0:0:0:0:
192,192,140850,1,0,0:0:0:0:
320,192,140917,1,0,0:0:0:0:
448,192,140983,1,0,0:0:0:0:
64,192,141050,1,2,0:0:0:0:
320,192,141117,1,0,0:0:0:0:
192,192,141183,1,0,0:0:0:0:
64,192,141250,1,0,0:0:0:0:
320,192,141317,1,8,0:0:0:0:
448,192,141317,1,4,0:0:0:0:
192,192,141383,1,0,0:0:0:0:
64,192,141450,1,0,0:0:0:0:
448,192,141517,1,0,0:0:0:0:
320,192,141583,1,2,0:0:0:0:
64,192,141650,1,0,0:0:0:0:
192,192,141717,1,0,0:0:0:0:
320,192,141783,1,0,0:0:0:0:
64,192,141850,1,4,0:0:0:0:
192,192,141850,1,8,0:0:0:0:
448,192,141850,1,0,0:0:0:0:
320,192,141917,1,0,0:0:0:0:
192,192,141983,1,0,0:0:0:0:
64,192,142050,1,0,0:0:0:0:
448,192,142117,1,2,0:0:0:0:
192,192,142183,1,0,0:0:0:0:
320,192,142250,1,0,0:0:0:0:
448,192,142317,1,0,0:0:0:0:
64,192,142383,1,8,0:0:0:0:
192,192,142383,1,4,0:0:0:0:
320,192,142450,1,0,0:0:0:0:
448,192,142517,1,0,0:0:0:0:
64,192,142583,1,0,0:0:0:0:
192,192,142650,1,2,0:0:0:0:
448,192,142717,1,0,0:0:0:0:
320,192,142783,1,0,0:0:0:0:
192,192,142850,1,0,0:0:0:0:
64,192,142917,1,8,0:0:0:0:
320,192,142917,1,4,0:0:0:0:
448,192,142917,1,0,0:0:0:0:
192,192,142983,1,0,0:0:0:0:
320,192,143050,1,0,0:0:0:0:
448,192,143117,1,0,0:0:0:0:
64,192,143183,1,8,0:0:0:0:
192,192,143183,1,4,0:0:0:0:
320,192,143250,1,0,0:0:0:0:
64,192,143317,1,2,0:0:0:0:
192,192,143383,1,0,0:0:0:0:
320,192,143450,1,2,0:0:0:0:
448,192,143450,1,0,0:0:0:0:
192,192,143517,1,0,0:0:0:0:
64,192,143583,1,8,0:0:0:0:
320,192,143650,1,0,0:0:0:0:
192,192,143717,1,8,0:0:0:0:
448,192,143717,1,0,0:0:0:0:
64,192,143783,1,0,0:0:0:0:
320,192,143850,1,8,0:0:0:0:
192,192,143917,1,0,0:0:0:0:
64,192,143983,1,2,0:0:0:0:
448,192,143983,1,4,0:0:0:0:
320,192,144050,1,0,0:0:0:0:
192,192,144117,1,8,0:0:0:0:
448,192,144183,1,0,0:0:0:0:
64,192,144250,1,8,0:0:0:0:
320,192,144250,1,0,0:0:0:0:
192,192,144317,1,0,0:0:0:0:
320,192,144383,1,8,0:0:0:0:
448,192,144450,1,0,0:0:0:0:
64,192,144517,1,8,0:0:0:0:
192,192,144517,1,0,0:0:0:0:
320,192,144583,1,8,0:0:0:0:
64,192,144650,1,0,0:0:0:70:tom01.wav
192,192,144650,1,0,0:0:0:0:
320,192,144717,1,0,0:0:0:70:tom01.wav
448,192,144717,1,0,0:0:0:0:
64,192,144783,1,0,0:0:0:70:tom02.wav
192,192,144783,1,0,0:0:0:0:
320,192,144850,1,0,0:0:0:70:tom02.wav
448,192,144850,1,0,0:0:0:0:
64,192,144917,1,0,0:0:0:70:tom03.wav
192,192,144917,1,0,0:0:0:0:
320,192,144983,1,0,0:0:0:70:tom03.wav
448,192,144983,1,0,0:0:0:0:
192,192,145050,1,0,0:0:0:0:
448,192,146650,1,0,0:0:0:0:
192,192,146917,1,0,0:0:0:0:
320,192,147183,1,4,0:0:0:0:
448,192,147183,1,0,0:0:0:0:
192,192,147317,1,0,0:0:0:0:
64,192,147450,1,0,0:0:0:0:
448,192,147583,1,0,0:0:0:0:
192,192,147717,1,0,0:0:0:0:
320,192,147850,1,0,0:0:0:0:
448,192,147983,1,0,0:0:0:0:
64,192,148117,1,0,0:0:0:0:
448,192,148250,1,0,0:0:0:50:tick.wav
320,192,148383,1,0,0:0:0:0:
192,192,148517,1,0,0:0:0:0:
64,192,148650,1,0,0:0:0:0:
320,192,148783,1,0,0:0:0:0:
192,192,148917,1,0,0:0:0:0:
320,192,149050,1,0,0:0:0:0:
448,192,149072,1,0,0:0:0:0:
64,192,149183,1,0,0:0:0:0:
192,192,149317,1,0,0:0:0:50:tick.wav
320,192,149450,1,0,0:0:0:0:
448,192,149583,1,0,0:0:0:0:
64,192,149717,1,0,0:0:0:0:
320,192,149850,1,0,0:0:0:0:
192,192,149983,1,0,0:0:0:0:
64,192,150117,1,0,0:0:0:0:
448,192,150250,1,0,0:0:0:0:
64,192,150383,1,0,0:0:0:50:tick.wav
192,192,150517,1,0,0:0:0:0:
320,192,150650,1,0,0:0:0:0:
448,192,150783,1,0,0:0:0:0:
192,192,150917,1,0,0:0:0:0:
64,192,151117,1,0,0:0:0:0:
448,192,151205,1,0,0:0:0:0:
320,192,151317,1,0,0:0:0:0:
192,192,151450,1,0,0:0:0:50:tick.wav
448,192,151450,1,0,0:0:0:0:
320,192,151583,1,0,0:0:0:0:
64,192,151717,1,0,0:0:0:0:
448,192,151850,1,0,0:0:0:0:
64,192,152005,1,0,0:0:0:0:
192,192,152005,1,0,0:0:0:0:
320,192,152117,1,0,0:0:0:0:
64,192,152272,1,0,0:0:0:0:
192,192,152383,1,0,0:0:0:0:
320,192,152450,1,0,0:0:0:0:
64,192,152517,1,0,0:0:0:50:tick.wav
448,192,152517,1,0,0:0:0:0:
192,192,152650,1,0,0:0:0:0:
320,192,152783,1,0,0:0:0:0:
64,192,152917,1,0,0:0:0:0:
192,192,153050,1,0,0:0:0:0:
448,192,153050,1,0,0:0:0:0:
64,192,153183,1,0,0:0:0:0:
320,192,153339,1,0,0:0:0:0:
192,192,153450,1,0,0:0:0:0:
64,192,153517,1,0,0:0:0:0:
320,192,153583,1,0,0:0:0:50:tick.wav
448,192,153583,1,0,0:0:0:0:
192,192,153717,1,0,0:0:0:0:
448,192,153850,1,0,0:0:0:0:
320,192,153983,1,0,0:0:0:0:
64,192,154117,1,0,0:0:0:0:
192,192,154250,1,0,0:0:0:0:
320,192,154383,1,0,0:0:0:0:
192,192,154517,1,0,0:0:0:0:
64,192,154650,128,2,154783:0:0:0:0:
320,192,154650,1,4,0:0:0:0:
448,192,154650,1,0,0:0:0:0:
192,192,154783,128,0,154917:0:0:0:0:
320,192,154917,128,0,155050:0:0:0:0:
64,192,155050,1,2,0:0:0:0:
448,192,155050,128,0,155183:0:0:0:0:
192,192,155183,1,8,0:0:0:0:
320,192,155183,1,0,0:0:0:0:
64,192,155317,1,8,0:0:0:0:
320,192,155317,1,0,0:0:0:0:
192,192,155450,1,8,0:0:0:0:
448,192,155450,1,0,0:0:0:0:
64,192,155583,1,8,0:0:0:0:
320,192,155583,1,0,0:0:0:0:
64,192,155717,1,2,0:0:0:0:
192,192,155717,1,4,0:0:0:0:
448,192,155717,1,0,0:0:0:0:
320,192,155850,1,2,0:0:0:0:
192,192,155917,1,0,0:0:0:0:
64,192,155983,1,2,0:0:0:0:
448,192,155983,1,0,0:0:0:0:
320,192,156117,1,0,0:0:0:0:
64,192,156250,1,2,0:0:0:0:
192,192,156250,1,0,0:0:0:0:
320,192,156317,1,0,0:0:0:0:
448,192,156383,1,0,0:0:0:0:
192,192,156517,1,2,0:0:0:0:
320,192,156517,1,0,0:0:0:0:
64,192,156650,1,0,0:0:0:0:
320,192,156717,1,0,0:0:0:0:
192,192,156783,1,2,0:0:0:0:
448,192,156783,128,0,156917:0:0:0:0:
64,192,156917,1,0,0:0:0:0:
320,192,156917,128,0,157050:0:0:0:0:
192,192,157050,128,2,157183:0:0:0:0:
448,192,157050,1,0,0:0:0:0:
64,192,157183,128,0,157317:0:0:0:0:
320,192,157183,1,0,0:0:0:0:
192,192,157317,1,2,0:0:0:0:
448,192,157317,1,0,0:0:0:0:
320,192,157450,1,0,0:0:0:0:
192,192,157517,1,0,0:0:0:0:
64,192,157583,1,2,0:0:0:0:
448,192,157583,1,0,0:0:0:0:
320,192,157717,1,0,0:0:0:0:
64,192,157850,1,2,0:0:0:0:
320,192,157850,1,0,0:0:0:0:
192,192,157983,1,0,0:0:0:0:
320,192,158050,1,0,0:0:0:0:
64,192,158117,1,2,0:0:0:0:
448,192,158117,1,0,0:0:0:0:
192,192,158250,1,0,0:0:0:0:
320,192,158383,1,2,0:0:0:0:
448,192,158383,1,0,0:0:0:0:
192,192,158450,1,0,0:0:0:0:
64,192,158517,1,0,0:0:0:0:
192,192,158650,1,2,0:0:0:0:
320,192,158650,1,0,0:0:0:0:
320,192,158783,1,0,0:0:0:0:
448,192,158850,1,0,0:0:0:0:
64,192,158917,1,2,0:0:0:0:
192,192,158917,1,0,0:0:0:0:
320,192,159050,1,0,0:0:0:0:
192,192,159183,1,8,0:0:0:0:
448,192,159183,1,0,0:0:0:0:
64,192,159250,1,0,0:0:0:0:
320,192,159317,1,0,0:0:0:70:tom01.wav
192,192,159383,1,0,0:0:0:70:tom02.wav
64,192,159450,1,8,0:0:0:0:
448,192,159450,1,0,0:0:0:0:
320,192,159517,1,0,0:0:0:0:
64,192,159583,1,8,0:0:0:0:
192,192,159583,1,0,0:0:0:0:
448,192,159650,1,2,0:0:0:0:
192,192,159717,1,8,0:0:0:0:
320,192,159717,1,0,0:0:0:0:
64,192,159783,1,0,0:0:0:70:tom02.wav
320,192,159850,1,0,0:0:0:70:tom01.wav
64,192,159917,1,8,0:0:0:0:
64,192,160250,128,2,160450:0:0:0:0:
192,192,160250,1,4,0:0:0:0:
448,192,160250,128,0,160450:0:0:0:0:
64,192,160517,1,2,0:0:0:0:
448,192,160517,1,0,0:0:0:0:
192,192,160650,1,8,0:0:0:0:
320,192,160650,1,4,0:0:0:0:
320,192,160783,1,8,0:0:0:0:
448,192,160783,1,0,0:0:0:0:
192,192,160850,1,0,0:0:0:70:tom01.wav
64,192,160917,1,2,0:0:0:0:
448,192,160983,1,2,0:0:0:0:
192,192,161050,1,8,0:0:0:0:
320,192,161117,1,0,0:0:0:70:tom02.wav
64,192,161183,1,0,0:0:0:70:tom03.wav
448,192,161183,1,0,0:0:0:0:
192,192,161250,1,0,0:0:0:70:tom04.wav
320,192,161317,1,2,0:0:0:0:
448,192,161317,1,0,0:0:0:0:
64,192,161383,1,2,0:0:0:0:
192,192,161450,1,8,0:0:0:0:
320,192,161450,1,4,0:0:0:0:
448,192,161583,1,2,0:0:0:0:
320,192,161650,1,0,0:0:0:0:
64,192,161717,1,2,0:0:0:0:
192,192,161783,1,0,0:0:0:0:
320,192,161850,1,8,0:0:0:0:
448,192,161850,1,4,0:0:0:0:
64,192,161983,1,4,0:0:0:0:
192,192,161983,1,0,0:0:0:0:
448,192,162117,128,0,162183:0:0:0:0:
448,192,162250,128,0,162317:0:0:0:0:
64,192,162383,128,0,162450:0:0:0:0:
64,192,162517,128,0,162583:0:0:0:0:
320,192,162650,128,0,162717:0:0:0:0:
320,192,162783,128,0,162850:0:0:0:0:
192,192,162917,128,0,162983:0:0:0:0:
192,192,163050,128,0,163117:0:0:0:0:
64,192,163183,128,0,163717:0:0:0:0:
448,192,163183,128,0,163250:0:0:0:0:
448,192,163317,128,0,163383:0:0:0:0:
320,192,163450,128,0,163517:0:0:0:0:
320,192,163583,128,0,163650:0:0:0:0:
192,192,163717,128,0,163783:0:0:0:0:
448,192,163717,128,0,163783:0:0:0:0:
64,192,163850,128,0,163917:0:0:0:0:
320,192,163850,128,0,163917:0:0:0:0:
320,192,163983,128,0,164050:0:0:0:0:
448,192,163983,128,0,164050:0:0:0:0:
64,192,164117,128,0,164183:0:0:0:0:
192,192,164117,128,0,164183:0:0:0:0:
448,192,164250,1,0,0:0:0:0:
320,192,164294,1,0,0:0:0:0:
64,192,164339,1,0,0:0:0:0:
192,192,164383,1,0,0:0:0:0:
448,192,164428,1,0,0:0:0:0:
320,192,164472,1,0,0:0:0:0:
64,192,164517,1,2,0:0:0:0:
192,192,164517,1,4,0:0:0:0:
320,192,164650,1,0,0:0:0:0:
64,192,164783,1,0,0:0:0:70:tom01.wav
448,192,164783,1,0,0:0:0:0:
320,192,164872,1,0,0:0:0:70:tom01.wav
192,192,164961,1,0,0:0:0:70:tom02.wav
448,192,165050,1,0,0:0:0:0:
64,192,165050,1,0,0:0:0:70:tom02.wav
192,192,165139,1,0,0:0:0:70:tom03.wav
320,192,165228,1,0,0:0:0:70:tom04.wav
64,192,165317,1,8,0:0:0:0:
192,192,165317,1,4,0:0:0:0:
448,192,165317,1,0,0:0:0:0:
320,192,165450,1,0,0:0:0:70:tom03.wav
448,192,165517,1,8,0:0:0:0:
64,192,165583,1,8,0:0:0:0:
192,192,165583,1,0,0:0:0:0:
320,192,165650,1,8,0:0:0:0:
448,192,165717,1,8,0:0:0:0:
192,192,165783,1,8,0:0:0:0:
64,192,165850,1,0,0:0:0:70:tom01.wav
320,192,165850,1,0,0:0:0:0:
192,192,166050,1,0,0:0:0:70:tom02.wav
448,192,166050,1,0,0:0:0:0:
192,192,166250,1,0,0:0:0:70:tom03.wav
320,192,166250,1,0,0:0:0:0:
64,192,166517,1,2,0:0:0:0:
192,192,166561,1,2,0:0:0:0:
320,192,166605,1,2,0:0:0:0:
64,192,166650,1,4,0:0:0:0:
448,192,166650,128,2,167050:0:0:0:0:
320,192,166917,1,2,0:0:0:0:
192,192,167050,1,2,0:0:0:0:
320,192,167117,1,0,0:0:0:0:
64,192,167183,128,8,167450:0:0:0:0:
448,192,167183,1,0,0:0:0:0:
192,192,167450,1,2,0:0:0:0:
448,192,167450,128,0,167650:0:0:0:0:
320,192,167583,1,2,0:0:0:0:
64,192,167650,128,2,167850:0:0:0:0:
192,192,167717,1,8,0:0:0:0:
448,192,167850,128,2,167983:0:0:0:0:
64,192,167983,1,8,0:0:0:0:
192,192,167983,128,0,168117:0:0:0:0:
320,192,168117,128,2,168250:0:0:0:0:
192,192,168250,1,8,0:0:0:0:
448,192,168250,128,0,168383:0:0:0:0:
64,192,168383,1,8,0:0:0:0:
320,192,168383,1,0,0:0:0:0:
192,192,168517,1,2,0:0:0:0:
448,192,168517,1,4,0:0:0:0:
64,192,168650,1,0,0:0:0:0:
192,192,168717,1,0,0:0:0:0:
448,192,168783,1,8,0:0:0:0:
320,192,168850,1,0,0:0:0:0:
64,192,168917,1,4,0:0:0:0:
192,192,168917,1,2,0:0:0:0:
448,192,169050,1,0,0:0:0:0:
320,192,169117,1,0,0:0:0:0:
192,192,169183,1,2,0:0:0:0:
64,192,169250,1,2,0:0:0:0:
448,192,169317,1,12,0:0:0:0:
192,192,169383,1,0,0:0:0:0:
320,192,169450,1,0,0:0:0:0:
448,192,169517,1,0,0:0:0:0:
64,192,169583,1,2,0:0:0:0:
192,192,169583,1,0,0:0:0:0:
192,192,169717,1,4,0:0:0:0:
448,192,169717,1,2,0:0:0:0:
64,192,169850,1,2,0:0:0:0:
320,192,169850,1,4,0:0:0:0:
64,192,169983,1,8,0:0:0:0:
192,192,169983,1,4,0:0:0:0:
448,192,169983,128,0,170250:0:0:0:0:
192,192,170250,1,2,0:0:0:0:
320,192,170317,1,2,0:0:0:0:
64,192,170383,1,8,0:0:0:0:
448,192,170383,1,4,0:0:0:0:
320,192,170517,1,0,0:0:0:0:
64,192,170650,1,8,0:0:0:0:
192,192,170650,1,0,0:0:0:0:
320,192,170717,1,8,0:0:0:0:
448,192,170783,1,0,0:0:0:70:tom02.wav
192,192,170850,1,0,0:0:0:70:tom01.wav
64,192,170917,1,0,0:0:0:70:tom03.wav
320,192,170917,1,0,0:0:0:0:
448,192,170983,1,0,0:0:0:70:tom04.wav
192,192,171050,1,8,0:0:0:0:
320,192,171117,1,8,0:0:0:0:
64,192,171183,1,0,0:0:0:70:tom01.wav
448,192,171183,1,0,0:0:0:0:
192,192,171250,1,0,0:0:0:70:tom02.wav
448,192,171317,1,0,0:0:0:70:tom04.wav
320,192,171383,1,0,0:0:0:70:tom03.wav
64,192,171450,1,0,0:0:0:70:tom01.wav
192,192,171450,1,0,0:0:0:0:
448,192,171517,1,0,0:0:0:70:tom02.wav
320,192,171583,1,0,0:0:0:70:tom03.wav
192,192,171650,1,0,0:0:0:70:tom04.wav
64,192,171717,1,0,0:0:0:70:tom01.wav
448,192,171717,1,0,0:0:0:0:
320,192,171783,1,0,0:0:0:70:tom01.wav
192,192,171850,1,0,0:0:0:70:tom01.wav
64,192,171917,1,0,0:0:0:70:tom01.wav
320,192,171983,1,0,0:0:0:70:tom02.wav
448,192,171983,1,0,0:0:0:0:
192,192,172050,1,0,0:0:0:70:tom03.wav
64,192,172117,1,0,0:0:0:70:tom04.wav
448,192,172183,1,0,0:0:0:70:tom04.wav
192,192,172250,1,8,0:0:0:0:
320,192,172250,1,0,0:0:0:0:
64,192,172317,1,0,0:0:0:0:
320,192,172383,1,8,0:0:0:0:
448,192,172383,1,0,0:0:0:0:
192,192,172450,1,8,0:0:0:0:
64,192,172517,1,8,0:0:0:0:
320,192,172517,1,0,0:0:0:0:
448,192,172583,1,0,0:0:0:0:
64,192,172650,1,8,0:0:0:0:
192,192,172650,1,0,0:0:0:0:
320,192,172717,1,8,0:0:0:0:
64,192,172783,1,2,0:0:0:0:
448,192,172783,1,4,0:0:0:0:
192,192,172850,1,0,0:0:0:0:
320,192,172917,1,2,0:0:0:0:
448,192,172983,1,2,0:0:0:0:
64,192,173050,1,2,0:0:0:0:
320,192,173117,1,0,0:0:0:0:
192,192,173183,1,2,0:0:0:0:
64,192,173250,1,0,0:0:0:0:
448,192,173317,1,8,0:0:0:0:
192,192,173383,1,0,0:0:0:0:
320,192,173450,1,8,0:0:0:0:
192,192,173517,1,8,0:0:0:0:
64,192,173583,1,2,0:0:0:0:
448,192,173650,1,0,0:0:0:0:
320,192,173717,1,2,0:0:0:0:
192,192,173783,1,0,0:0:0:0:
64,192,173850,128,8,173983:0:0:0:0:
448,192,173850,1,0,0:0:0:0:
320,192,173983,128,2,174117:0:0:0:0:
64,192,174117,1,0,0:0:0:0:
192,192,174117,128,0,174250:0:0:0:0:
448,192,174250,128,2,174383:0:0:0:0:
64,192,174383,1,8,0:0:0:0:
320,192,174383,1,0,0:0:0:0:
192,192,174450,1,0,0:0:0:0:
448,192,174517,1,2,0:0:0:0:
320,192,174583,1,8,0:0:0:0:
192,192,174650,1,8,0:0:0:0:
448,192,174717,1,0,0:0:0:0:
64,192,174783,1,2,0:0:0:0:
192,192,174850,1,0,0:0:0:0:
320,192,174917,1,2,0:0:0:0:
448,192,174917,1,0,0:0:0:0:
192,192,174983,1,0,0:0:0:0:
64,192,175050,1,0,0:0:0:0:
448,192,175117,1,0,0:0:0:0:
320,192,175183,1,8,0:0:0:0:
64,192,175250,1,0,0:0:0:0:
192,192,175317,1,2,0:0:0:0:
320,192,175383,1,0,0:0:0:0:
448,192,175450,1,8,0:0:0:0:
64,192,175517,1,0,0:0:0:0:
320,192,175583,1,2,0:0:0:0:
192,192,175650,1,8,0:0:0:0:
64,192,175717,1,8,0:0:0:0:
448,192,175783,1,0,0:0:0:0:
320,192,175850,1,2,0:0:0:0:
192,192,175917,1,0,0:0:0:0:
64,192,175983,1,8,0:0:0:0:
320,192,176117,1,2,0:0:0:0:
448,192,176117,1,0,0:0:0:0:
64,192,176183,1,2,0:0:0:0:
192,192,176250,1,8,0:0:0:0:
448,192,176250,1,4,0:0:0:0:
320,192,176317,1,0,0:0:0:0:
64,192,176383,1,0,0:0:0:0:
192,192,176450,1,0,0:0:0:0:
320,192,176517,1,8,0:0:0:0:
448,192,176517,1,0,0:0:0:0:
192,192,176583,1,0,0:0:0:70:tom01.wav
64,192,176650,1,0,0:0:0:70:tom02.wav
448,192,176650,1,0,0:0:0:0:
320,192,176717,1,0,0:0:0:70:tom03.wav
64,192,176783,1,8,0:0:0:0:
192,192,176783,1,0,0:0:0:0:
448,192,176850,1,8,0:0:0:0:
192,192,176917,1,8,0:0:0:0:
320,192,176917,1,0,0:0:0:0:
64,192,176983,1,0,0:0:0:0:
320,192,177050,1,0,0:0:0:70:tom01.wav
448,192,177050,1,0,0:0:0:0:
192,192,177117,1,0,0:0:0:70:tom02.wav
320,192,177183,1,2,0:0:0:0:
448,192,177183,1,0,0:0:0:70:tom03.wav
192,192,177250,1,2,0:0:0:0:
320,192,177317,128,4,177583:0:0:0:0:
448,192,177317,128,8,177583:0:0:0:0:
64,192,177583,1,0,0:0:0:70:tom01.wav
192,192,177583,1,0,0:0:0:0:
320,192,177650,1,0,0:0:0:70:tom02.wav
448,192,177717,1,0,0:0:0:70:tom03.wav
64,192,177783,1,0,0:0:0:70:tom04.wav
320,192,177850,1,0,0:0:0:70:tom01.wav
448,192,177850,1,0,0:0:0:0:
192,192,177917,1,0,0:0:0:70:tom02.wav
64,192,177983,1,2,0:0:0:0:
320,192,178050,1,2,0:0:0:0:
64,192,178117,1,0,0:0:0:70:tom01.wav
192,192,178117,1,0,0:0:0:0:
448,192,178183,1,0,0:0:0:70:tom02.wav
320,192,178250,1,2,0:0:0:0:
64,192,178317,1,2,0:0:0:0:
192,192,178383,1,2,0:0:0:0:
448,192,178383,1,0,0:0:0:0:
320,192,178450,1,2,0:0:0:0:
64,192,178517,1,8,0:0:0:0:
192,192,178517,1,4,0:0:0:0:
448,192,178517,128,0,178650:0:0:0:0:
320,192,178650,128,2,178783:0:0:0:0:
192,192,178783,1,2,0:0:0:0:
320,192,178850,1,2,0:0:0:0:
64,192,178917,128,8,179050:0:0:0:0:
448,192,178917,1,4,0:0:0:0:
320,192,179050,1,8,0:0:0:0:
192,192,179117,1,8,0:0:0:0:
64,192,179183,1,2,0:0:0:0:
448,192,179183,128,4,179317:0:0:0:0:
192,192,179317,128,0,179450:0:0:0:0:
448,192,179450,1,8,0:0:0:0:
320,192,179450,128,0,179583:0:0:0:0:
192,192,179517,1,0,0:0:0:70:tom01.wav
64,192,179583,128,0,179717:0:0:0:70:tom02.wav
448,192,179717,1,0,0:0:0:0:
320,192,179717,1,8,0:0:0:0:
64,192,179850,1,4,0:0:0:0:
448,192,179850,1,8,0:0:0:0:
320,192,179917,1,8,0:0:0:0:
192,192,179983,1,8,0:0:0:0:
64,192,179983,1,4,0:0:0:0:
448,192,180050,1,8,0:0:0:0:
192,192,180117,1,8,0:0:0:0:
320,192,180117,1,4,0:0:0:0:
64,192,180183,1,8,0:0:0:0:
320,192,180250,1,2,0:0:0:0:
448,192,180250,1,4,0:0:0:0:
192,192,180450,1,0,0:0:0:0:
320,192,180450,1,0,0:0:0:0:
192,192,180650,1,0,0:0:0:0:
448,192,180650,1,0,0:0:0:0:
64,192,180783,1,0,0:0:0:0:
448,192,180783,1,0,0:0:0:0:
320,192,180917,1,2,0:0:0:0:
192,192,180983,1,2,0:0:0:0:
64,192,181050,1,4,0:0:0:0:
320,192,181050,1,8,0:0:0:0:
448,192,181050,1,0,0:0:0:0:
192,192,181183,1,0,0:0:0:0:
64,192,181317,1,2,0:0:0:0:
320,192,181317,1,0,0:0:0:0:
448,192,181317,1,0,0:0:0:0:
320,192,181450,1,2,0:0:0:0:
64,192,181583,1,8,0:0:0:0:
192,192,181583,1,0,0:0:0:0:
448,192,181583,1,0,0:0:0:0:
192,192,181717,1,0,0:0:0:0:
64,192,181850,128,2,181983:0:0:0:0:
320,192,181850,1,0,0:0:0:0:
192,192,181983,128,2,182117:0:0:0:0:
448,192,181983,1,0,0:0:0:0:
64,192,182117,1,8,0:0:0:0:
320,192,182117,128,0,182250:0:0:0:0:
448,192,182250,128,0,182383:0:0:0:0:
64,192,182383,1,2,0:0:0:0:
192,192,182383,1,0,0:0:0:0:
192,192,182517,1,2,0:0:0:0:
64,192,182650,1,8,0:0:0:0:
320,192,182650,1,0,0:0:0:0:
448,192,182650,1,0,0:0:0:0:
320,192,182783,1,0,0:0:0:0:
192,192,182917,1,2,0:0:0:0:
448,192,182917,128,0,183050:0:0:0:0:
64,192,183050,1,2,0:0:0:0:
320,192,183050,128,0,183183:0:0:0:0:
192,192,183183,128,8,183317:0:0:0:0:
448,192,183183,1,0,0:0:0:0:
64,192,183317,128,0,183450:0:0:0:0:
192,192,183450,1,2,0:0:0:0:
320,192,183450,1,0,0:0:0:0:
320,192,183583,1,2,0:0:0:0:
64,192,183717,1,8,0:0:0:0:
192,192,183717,1,0,0:0:0:0:
448,192,183717,1,0,0:0:0:0:
448,192,183850,1,0,0:0:0:0:
64,192,183983,128,2,184117:0:0:0:0:
320,192,183983,1,0,0:0:0:0:
192,192,184117,128,2,184250:0:0:0:0:
448,192,184117,1,0,0:0:0:0:
64,192,184250,1,8,0:0:0:0:
320,192,184250,128,0,184383:0:0:0:0:
448,192,184383,128,0,184517:0:0:0:0:
64,192,184517,1,2,0:0:0:0:
192,192,184517,1,0,0:0:0:0:
192,192,184650,1,2,0:0:0:0:
64,192,184783,1,8,0:0:0:0:
320,192,184783,1,0,0:0:0:0:
448,192,184783,1,0,0:0:0:0:
320,192,184917,1,0,0:0:0:0:
192,192,185050,1,0,0:0:0:70:tom01.wav
448,192,185050,128,0,185183:0:0:0:0:
64,192,185183,1,2,0:0:0:0:
320,192,185183,128,0,185317:0:0:0:0:
192,192,185317,128,8,185450:0:0:0:0:
448,192,185317,1,4,0:0:0:0:
64,192,185450,128,0,185583:0:0:0:0:
320,192,185583,1,2,0:0:0:0:
448,192,185583,1,0,0:0:0:0:
192,192,185672,1,0,0:0:0:0:
64,192,185761,1,0,0:0:0:0:
192,192,185850,1,4,0:0:0:0:
448,192,185850,1,8,0:0:0:0:
320,192,185939,1,0,0:0:0:0:
448,192,186028,1,0,0:0:0:0:
64,192,186117,1,2,0:0:0:0:
192,192,186117,1,0,0:0:0:0:
320,192,186205,1,0,0:0:0:0:
448,192,186294,1,0,0:0:0:0:
64,192,186383,1,8,0:0:0:0:
320,192,186383,1,0,0:0:0:0:
192,192,186472,1,0,0:0:0:0:
64,192,186561,1,0,0:0:0:0:
320,192,186650,1,2,0:0:0:0:
448,192,186650,1,0,0:0:0:0:
192,192,186739,1,0,0:0:0:0:
64,192,186828,1,0,0:0:0:0:
192,192,186917,1,8,0:0:0:0:
448,192,186917,1,0,0:0:0:0:
320,192,187005,1,0,0:0:0:0:
448,192,187094,1,0,0:0:0:0:
64,192,187183,1,2,0:0:0:0:
192,192,187183,1,0,0:0:0:0:
320,192,187272,1,0,0:0:0:0:
192,192,187361,1,0,0:0:0:0:
64,192,187450,1,8,0:0:0:0:
448,192,187450,1,0,0:0:0:0:
320,192,187539,1,0,0:0:0:70:tom02.wav
192,192,187628,1,0,0:0:0:0:
64,192,187717,1,2,0:0:0:0:
448,192,187717,1,4,0:0:0:0:
320,192,187783,1,0,0:0:0:0:
192,192,187850,1,2,0:0:0:0:
448,192,187917,1,2,0:0:0:0:
64,192,187983,1,8,0:0:0:0:
192,192,188050,1,0,0:0:0:0:
320,192,188117,1,0,0:0:0:0:
64,192,188183,1,0,0:0:0:0:
448,192,188250,1,2,0:0:0:0:
320,192,188317,1,2,0:0:0:0:
192,192,188383,1,2,0:0:0:0:
64,192,188450,1,2,0:0:0:0:
320,192,188517,1,12,0:0:0:0:
192,192,188583,1,0,0:0:0:0:
448,192,188650,1,2,0:0:0:0:
320,192,188717,1,0,0:0:0:0:
64,192,188783,1,2,0:0:0:0:
192,192,188850,1,2,0:0:0:0:
320,192,188917,1,8,0:0:0:0:
448,192,188917,1,0,0:0:0:0:
64,192,188983,1,4,0:0:0:0:
192,192,189050,1,0,0:0:0:0:
320,192,189117,1,0,0:0:0:0:
64,192,189183,1,2,0:0:0:0:
192,192,189183,1,0,0:0:0:0:
448,192,189317,1,4,0:0:0:0:
64,192,189405,1,0,0:0:0:70:tom01.wav
448,192,189494,1,0,0:0:0:70:tom02.wav
192,192,189583,1,0,0:0:0:70:tom02.wav
320,192,189672,1,0,0:0:0:70:tom03.wav
192,192,189761,1,0,0:0:0:70:tom04.wav
64,192,189850,1,4,0:0:0:0:
320,192,189850,1,2,0:0:0:0:
448,192,189850,1,0,0:0:0:0:
192,192,189983,1,8,0:0:0:0:
448,192,189983,1,0,0:0:0:0:
64,192,190117,1,2,0:0:0:0:
320,192,190117,1,0,0:0:0:0:
448,192,190183,1,2,0:0:0:0:
64,192,190250,1,8,0:0:0:0:
192,192,190250,1,0,0:0:0:0:
320,192,190383,1,2,0:0:0:0:
448,192,190383,1,0,0:0:0:0:
64,192,190517,1,8,0:0:0:0:
192,192,190517,1,0,0:0:0:0:
320,192,190650,1,2,0:0:0:0:
448,192,190650,1,0,0:0:0:0:
192,192,190717,1,2,0:0:0:0:
64,192,190783,1,8,0:0:0:0:
448,192,190783,1,0,0:0:0:0:
192,192,190917,1,2,0:0:0:0:
320,192,190917,1,0,0:0:0:0:
64,192,191050,1,8,0:0:0:0:
448,192,191050,1,0,0:0:0:0:
192,192,191183,1,2,0:0:0:0:
320,192,191183,1,0,0:0:0:0:
64,192,191250,1,2,0:0:0:0:
320,192,191317,1,8,0:0:0:0:
448,192,191317,1,4,0:0:0:0:
64,192,191450,1,2,0:0:0:0:
192,192,191450,1,0,0:0:0:0:
320,192,191583,1,8,0:0:0:0:
448,192,191583,1,0,0:0:0:0:
64,192,191717,1,2,0:0:0:0:
192,192,191717,1,0,0:0:0:0:
448,192,191783,1,2,0:0:0:0:
64,192,191850,1,8,0:0:0:0:
320,192,191850,1,0,0:0:0:0:
192,192,191983,1,2,0:0:0:0:
448,192,191983,1,0,0:0:0:0:
64,192,192050,1,0,0:0:0:0:
320,192,192117,1,8,0:0:0:0:
448,192,192117,1,0,0:0:0:0:
192,192,192183,1,0,0:0:0:0:
64,192,192250,1,2,0:0:0:0:
448,192,192317,1,2,0:0:0:0:
64,192,192383,1,8,0:0:0:0:
192,192,192383,1,4,0:0:0:0:
320,192,192450,1,0,0:0:0:0:
448,192,192517,1,2,0:0:0:0:
192,192,192583,1,0,0:0:0:0:
64,192,192650,1,8,0:0:0:0:
448,192,192650,1,0,0:0:0:0:
320,192,192717,1,0,0:0:0:0:
192,192,192783,1,2,0:0:0:0:
64,192,192850,1,2,0:0:0:0:
320,192,192917,1,8,0:0:0:0:
448,192,192917,1,0,0:0:0:0:
192,192,192983,1,0,0:0:0:0:
64,192,193050,1,2,0:0:0:0:
320,192,193117,1,0,0:0:0:0:
192,192,193183,1,8,0:0:0:0:
448,192,193183,1,0,0:0:0:0:
64,192,193250,1,0,0:0:0:0:
320,192,193317,1,2,0:0:0:0:
448,192,193383,1,2,0:0:0:0:
64,192,193450,1,8,0:0:0:0:
192,192,193450,1,4,0:0:0:0:
320,192,193517,1,0,0:0:0:0:
448,192,193583,1,2,0:0:0:0:
192,192,193650,1,0,0:0:0:0:
320,192,193717,1,8,0:0:0:0:
448,192,193717,1,0,0:0:0:0:
64,192,193783,1,0,0:0:0:0:
192,192,193850,1,2,0:0:0:0:
320,192,193917,1,2,0:0:0:0:
64,192,193983,1,8,0:0:0:0:
448,192,193983,1,0,0:0:0:0:
192,192,194050,1,0,0:0:0:0:
320,192,194117,1,2,0:0:0:0:
448,192,194117,1,4,0:0:0:0:
64,192,194250,1,8,0:0:0:0:
192,192,194250,1,0,0:0:0:0:
320,192,194383,1,2,0:0:0:0:
448,192,194383,1,0,0:0:0:0:
64,192,194450,1,2,0:0:0:0:
192,192,194517,1,8,0:0:0:0:
448,192,194517,1,0,0:0:0:0:
64,192,194650,1,2,0:0:0:0:
320,192,194650,1,4,0:0:0:0:
192,192,194783,1,8,0:0:0:0:
448,192,194783,1,0,0:0:0:0:
64,192,194917,1,2,0:0:0:0:
320,192,194917,1,0,0:0:0:0:
448,192,194983,1,2,0:0:0:0:
64,192,195050,1,8,0:0:0:0:
192,192,195050,1,0,0:0:0:0:
320,192,195117,1,0,0:0:0:0:
64,192,195183,1,2,0:0:0:0:
448,192,195183,1,0,0:0:0:0:
192,192,195317,1,8,0:0:0:0:
320,192,195317,1,0,0:0:0:0:
64,192,195450,1,2,0:0:0:0:
448,192,195450,1,0,0:0:0:0:
192,192,195517,1,2,0:0:0:0:
320,192,195583,1,8,0:0:0:0:
448,192,195583,1,4,0:0:0:0:
64,192,195717,1,2,0:0:0:0:
192,192,195717,1,0,0:0:0:0:
320,192,195850,1,8,0:0:0:0:
448,192,195850,1,0,0:0:0:0:
192,192,195917,1,0,0:0:0:0:
64,192,195983,1,2,0:0:0:0:
320,192,196050,1,2,0:0:0:0:
448,192,196117,1,8,0:0:0:0:
192,192,196183,1,0,0:0:0:0:
64,192,196250,1,2,0:0:0:0:
320,192,196250,1,0,0:0:0:0:
448,192,196317,1,0,0:0:0:0:
64,192,196383,1,8,0:0:0:0:
192,192,196383,1,0,0:0:0:0:
320,192,196450,1,0,0:0:0:0:
64,192,196517,1,2,0:0:0:0:
448,192,196517,1,0,0:0:0:0:
192,192,196583,1,2,0:0:0:0:
320,192,196650,1,8,0:0:0:0:
448,192,196650,1,4,0:0:0:0:
64,192,196717,1,0,0:0:0:0:
192,192,196783,1,2,0:0:0:0:
448,192,196783,1,0,0:0:0:0:
320,192,196850,1,0,0:0:0:0:
64,192,196917,1,8,0:0:0:0:
192,192,196917,1,4,0:0:0:0:
448,192,196983,1,0,0:0:0:0:
192,192,197050,1,2,0:0:0:0:
320,192,197050,1,0,0:0:0:0:
64,192,197117,1,2,0:0:0:0:
320,192,197183,1,8,0:0:0:0:
448,192,197183,1,4,0:0:0:0:
192,192,197250,1,0,0:0:0:0:
320,192,197317,128,8,197383:0:0:0:0:
448,192,197317,128,0,197383:0:0:0:0:
320,192,197450,128,4,197517:0:0:0:0:
448,192,197450,128,8,197517:0:0:0:0:
64,192,197583,128,8,197650:0:0:0:0:
192,192,197583,128,0,197650:0:0:0:0:
64,192,197717,128,4,197783:0:0:0:0:
192,192,197717,128,8,197783:0:0:0:0:
192,192,197850,128,8,197917:0:0:0:0:
320,192,197850,128,4,197917:0:0:0:0:
448,192,197850,128,0,197917:0:0:0:0:
192,192,197983,128,8,198050:0:0:0:0:
320,192,197983,128,4,198050:0:0:0:0:
448,192,197983,128,0,198050:0:0:0:0:
64,192,198117,128,8,198183:0:0:0:0:
320,192,198117,128,4,198183:0:0:0:0:
448,192,198117,128,0,198183:0:0:0:0:
64,192,198250,128,8,198317:0:0:0:0:
320,192,198250,128,4,198317:0:0:0:0:
448,192,198250,128,0,198317:0:0:0:0:
64,192,198383,128,4,198650:0:0:0:0:
192,192,198383,1,0,0:0:0:50:tick.wav
448,192,198383,1,0,0:0:0:0:
320,192,198517,1,0,0:0:0:0:
192,192,198650,1,0,0:0:0:0:
448,192,198650,128,0,198917:0:0:0:0:
320,192,198783,1,0,0:0:0:0:
64,192,198917,128,0,199050:0:0:0:0:
192,192,198917,1,0,0:0:0:0:
192,192,199050,128,0,199183:0:0:0:0:
64,192,199183,1,0,0:0:0:0:
320,192,199183,128,0,199317:0:0:0:0:
448,192,199317,128,0,199450:0:0:0:0:
64,192,199450,128,0,199717:0:0:0:50:tick.wav
320,192,199450,1,0,0:0:0:0:
192,192,199583,1,0,0:0:0:0:
320,192,199717,1,0,0:0:0:0:
448,192,199717,128,0,199983:0:0:0:0:
64,192,199850,1,0,0:0:0:0:
192,192,199983,128,0,200117:0:0:0:0:
320,192,199983,1,0,0:0:0:0:
320,192,200117,128,0,200250:0:0:0:0:
64,192,200250,128,0,200383:0:0:0:0:
448,192,200250,1,0,0:0:0:0:
192,192,200383,128,0,200517:0:0:0:0:
64,192,200517,128,0,201050:0:0:0:50:tick.wav
448,192,200517,128,0,200650:0:0:0:0:
320,192,200650,128,0,200783:0:0:0:0:
192,192,200783,128,0,200917:0:0:0:0:
448,192,200917,128,0,201050:0:0:0:0:
192,192,201050,128,0,201183:0:0:0:0:
320,192,201050,128,0,201583:0:0:0:0:
64,192,201183,128,0,201317:0:0:0:0:
448,192,201317,128,0,201450:0:0:0:0:
192,192,201450,128,0,201583:0:0:0:0:
64,192,201583,128,0,202117:0:0:0:50:tick.wav
448,192,201583,128,0,201850:0:0:0:0:
320,192,201717,128,0,201850:0:0:0:0:
192,192,201850,128,0,202117:0:0:0:0:
320,192,201983,128,0,202117:0:0:0:0:
448,192,202117,128,0,202583:0:0:0:0:
320,192,202250,128,0,202583:0:0:0:0:
192,192,202383,128,0,202650:0:0:0:0:
64,192,202517,128,0,202650:0:0:0:0:
320,192,202650,128,0,205850:0:0:0:50:tick.wav
448,192,202650,128,0,205850:0:0:0:0:
