osu file format v14

[General]
AudioFilename: Finale.ogg
AudioLeadIn: 0
PreviewTime: 56250
Countdown: 0
SampleSet: Soft
StackLeniency: 0.7
Mode: 3
LetterboxInBreaks: 0
SpecialStyle: 0
WidescreenStoryboard: 1

[Editor]
Bookmarks: 50116
DistanceSpacing: 1.1
BeatDivisor: 4
GridSize: 16
TimelineZoom: 3.1

[Metadata]
Title:Fin.ArcDeaR
TitleUnicode:Fin.ArcDeaR
Artist:MisoilePunch ~Takenoko Soe~
ArtistUnicode:MisoilePunch♪ ~タケノコ添え~
Creator:Takane6
Version:Noch's EXHAUST
Source:SOUND VOLTEX IV HEAVENLY HAVEN
Tags:SDVX MisomyL Ponchi♪ Ponchi タケノコ少年 Takenoko Shounen The 6th KAC KONAMI Arcade Championship オリジナル楽曲コンテスト Original Song Contest Excellence Award Finale Arcana Dear Amusement Bemani Electronic Instrumental Video Game Noch Einen
BeatmapID:4408419
BeatmapSetID:2085557

[Difficulty]
HPDrainRate:8
CircleSize:7
OverallDifficulty:8
ApproachRate:5
SliderMultiplier:1.4
SliderTickRate:1

[Events]
//Background and Video events
0,0,"fin.jpg",0,0
//Break Periods
//Storyboard Layer 0 (Background)
//Storyboard Layer 1 (Fail)
//Storyboard Layer 2 (Pass)
//Storyboard Layer 3 (Foreground)
//Storyboard Layer 4 (Overlay)
//Storyboard Sound Samples

[TimingPoints]
1450,266.666666666667,4,2,1,30,1,0
22783,-111.111111111111,4,2,1,30,0,0
30783,-100,4,2,1,30,0,0
56916,-100,4,2,1,30,0,1
73983,-100,4,2,1,30,0,0
93450,-100,4,2,1,30,0,1
107050,-100,4,2,1,30,0,0

[HitObjects]
402,192,916,5,0,0:0:0:0:
329,192,983,1,0,0:0:0:0:
256,192,1049,1,0,0:0:0:0:
36,192,1116,1,0,0:0:0:0:
475,192,1183,1,0,0:0:0:0:
402,192,1249,1,0,0:0:0:0:
329,192,1316,1,0,0:0:0:0:
109,192,1383,1,0,0:0:0:0:
36,192,1450,1,2,0:0:0:0:
256,192,1450,1,4,0:0:0:0:
475,192,1450,1,8,0:0:0:0:
36,192,1650,1,2,0:0:0:0:
256,192,1650,1,4,0:0:0:0:
475,192,1650,1,8,0:0:0:0:
36,192,1850,1,8,0:0:0:0:
256,192,1850,1,4,0:0:0:0:
475,192,1850,1,2,0:0:0:0:
182,192,2116,1,0,0:0:0:0:
36,192,2250,1,0,0:0:0:0:
329,192,2383,1,0,0:0:0:0:
109,192,2516,1,0,0:0:0:0:
182,192,2650,1,0,0:0:0:0:
256,192,2783,1,0,0:0:0:0:
182,192,2916,1,0,0:0:0:0:
109,192,3050,1,0,0:0:0:0:
329,192,3116,1,0,0:0:0:0:
256,192,3183,1,0,0:0:0:0:
182,192,3250,1,0,0:0:0:0:
475,192,3316,1,0,0:0:0:0:
402,192,3383,1,0,0:0:0:0:
329,192,3450,1,0,0:0:0:0:
182,192,3516,1,0,0:0:0:0:
36,192,3583,1,8,0:0:0:0:
402,192,3583,1,4,0:0:0:0:
475,192,3583,1,2,0:0:0:0:
36,192,3783,1,8,0:0:0:0:
402,192,3783,1,4,0:0:0:0:
475,192,3783,1,2,0:0:0:0:
36,192,3983,1,2,0:0:0:0:
402,192,3983,1,4,0:0:0:0:
475,192,3983,1,8,0:0:0:0:
182,192,4250,1,0,0:0:0:0:
329,192,4383,1,0,0:0:0:0:
475,192,4516,1,0,0:0:0:0:
256,192,4650,1,0,0:0:0:0:
402,192,4783,1,0,0:0:0:0:
182,192,4916,1,0,0:0:0:0:
329,192,5050,1,2,0:0:0:0:
182,192,5116,1,2,0:0:0:0:
36,192,5183,1,2,0:0:0:0:
475,192,5183,1,0,0:0:0:0:
109,192,5316,1,0,0:0:0:0:
402,192,5383,1,2,0:0:0:0:
475,192,5383,1,0,0:0:0:0:
256,192,5450,1,0,0:0:0:0:
182,192,5516,1,0,0:0:0:0:
109,192,5583,1,2,0:0:0:0:
402,192,5583,1,0,0:0:0:0:
329,192,5650,1,0,0:0:0:0:
36,192,5716,1,0,0:0:0:0:
256,192,5716,1,4,0:0:0:0:
475,192,5716,1,8,0:0:0:0:
36,192,5916,1,4,0:0:0:0:
475,192,5916,1,8,0:0:0:0:
36,192,6116,1,8,0:0:0:0:
475,192,6116,1,4,0:0:0:0:
182,192,6383,1,0,0:0:0:0:
402,192,6516,1,0,0:0:0:0:
109,192,6650,1,0,0:0:0:0:
329,192,6783,1,4,0:0:0:0:
475,192,6783,1,0,0:0:0:0:
36,192,6916,1,0,0:0:0:0:
402,192,7050,1,0,0:0:0:0:
109,192,7183,1,0,0:0:0:0:
182,192,7316,1,0,0:0:0:0:
475,192,7450,1,0,0:0:0:0:
109,192,7583,1,0,0:0:0:0:
402,192,7716,1,0,0:0:0:0:
36,192,7850,1,8,0:0:0:0:
109,192,7850,1,4,0:0:0:0:
475,192,7850,1,2,0:0:0:0:
36,192,8050,1,8,0:0:0:0:
109,192,8050,1,4,0:0:0:0:
475,192,8050,1,2,0:0:0:0:
36,192,8250,1,2,0:0:0:0:
109,192,8250,1,4,0:0:0:0:
475,192,8250,1,8,0:0:0:0:
329,192,8516,1,4,0:0:0:0:
475,192,8516,1,2,0:0:0:0:
256,192,8583,1,2,0:0:0:0:
36,192,8650,1,8,0:0:0:0:
182,192,8650,1,0,0:0:0:0:
329,192,8783,1,8,0:0:0:0:
475,192,8783,1,0,0:0:0:0:
36,192,8916,128,4,9450:0:0:0:0:
256,192,8916,1,2,0:0:0:0:
402,192,8916,1,0,0:0:0:0:
182,192,9050,1,2,0:0:0:0:
256,192,9116,1,2,0:0:0:0:
329,192,9183,1,8,0:0:0:0:
475,192,9183,1,2,0:0:0:0:
182,192,9316,1,2,0:0:0:0:
329,192,9383,1,2,0:0:0:0:
109,192,9450,1,2,0:0:0:0:
475,192,9450,128,0,9983:0:0:0:0:
256,192,9516,1,2,0:0:0:0:
402,192,9583,1,8,0:0:0:0:
182,192,9650,1,8,0:0:0:0:
329,192,9716,1,2,0:0:0:0:
109,192,9783,1,2,0:0:0:0:
256,192,9850,1,8,0:0:0:0:
36,192,9916,1,8,0:0:0:0:
182,192,9983,128,2,10116:0:0:0:0:
329,192,9983,1,4,0:0:0:0:
402,192,9983,1,0,0:0:0:0:
109,192,10116,128,0,10250:0:0:0:0:
36,192,10250,128,8,10383:0:0:0:0:
475,192,10250,1,0,0:0:0:0:
402,192,10316,1,0,0:0:0:0:
329,192,10383,1,0,0:0:0:0:
182,192,10450,1,0,0:0:0:0:
402,192,10516,1,2,0:0:0:0:
475,192,10516,128,0,10650:0:0:0:0:
109,192,10650,128,2,10783:0:0:0:0:
182,192,10650,1,0,0:0:0:0:
256,192,10783,1,8,0:0:0:0:
402,192,10783,128,0,10916:0:0:0:0:
36,192,10916,128,2,11050:0:0:0:0:
109,192,10916,1,0,0:0:0:0:
329,192,11050,1,0,0:0:0:0:
402,192,11183,1,2,0:0:0:0:
256,192,11250,1,2,0:0:0:0:
36,192,11316,1,8,0:0:0:0:
109,192,11316,1,0,0:0:0:0:
182,192,11450,1,0,0:0:0:0:
329,192,11516,1,0,0:0:0:0:
475,192,11583,128,2,11716:0:0:0:0:
256,192,11650,1,2,0:0:0:0:
36,192,11716,128,2,11850:0:0:0:0:
329,192,11783,1,2,0:0:0:0:
109,192,11850,128,8,11983:0:0:0:0:
475,192,11850,1,0,0:0:0:0:
256,192,11983,128,2,12116:0:0:0:0:
109,192,12116,1,2,0:0:0:0:
402,192,12116,128,8,12316:0:0:0:0:
182,192,12250,1,2,0:0:0:0:
475,192,12316,128,2,12516:0:0:0:0:
256,192,12383,1,2,0:0:0:0:
182,192,12450,1,2,0:0:0:0:
36,192,12516,128,8,12716:0:0:0:0:
109,192,12516,1,0,0:0:0:0:
402,192,12716,128,0,12916:0:0:0:0:
36,192,12783,1,8,0:0:0:0:
182,192,12783,1,0,0:0:0:0:
329,192,12916,128,0,13050:0:0:0:0:
182,192,13050,128,4,13183:0:0:0:0:
256,192,13050,1,0,0:0:0:0:
475,192,13050,1,0,0:0:0:0:
36,192,13183,128,0,13450:0:0:0:0:
256,192,13316,1,2,0:0:0:0:
329,192,13383,1,2,0:0:0:0:
109,192,13450,128,8,13716:0:0:0:0:
402,192,13450,1,0,0:0:0:0:
475,192,13450,1,0,0:0:0:0:
256,192,13716,128,2,13983:0:0:0:0:
402,192,13716,1,8,0:0:0:0:
36,192,13850,1,8,0:0:0:0:
109,192,13850,1,2,0:0:0:0:
402,192,13983,128,8,14250:0:0:0:0:
475,192,13983,1,2,0:0:0:0:
182,192,14116,1,8,0:0:0:0:
256,192,14116,1,2,0:0:0:0:
36,192,14250,1,2,0:0:0:0:
109,192,14250,1,4,0:0:0:0:
329,192,14250,128,8,14383:0:0:0:0:
182,192,14383,1,0,0:0:0:0:
256,192,14450,1,0,0:0:0:0:
329,192,14516,128,8,14650:0:0:0:0:
475,192,14516,1,0,0:0:0:0:
109,192,14583,1,0,0:0:0:0:
182,192,14650,1,0,0:0:0:0:
256,192,14716,1,0,0:0:0:0:
36,192,14783,128,8,14916:0:0:0:0:
402,192,14783,1,0,0:0:0:0:
109,192,14916,128,2,15050:0:0:0:0:
256,192,14983,1,2,0:0:0:0:
402,192,15050,1,8,0:0:0:0:
475,192,15050,128,0,15183:0:0:0:0:
36,192,15183,1,2,0:0:0:0:
182,192,15183,128,0,15450:0:0:0:0:
329,192,15316,1,8,0:0:0:0:
475,192,15316,1,0,0:0:0:0:
256,192,15450,128,0,15583:0:0:0:0:
36,192,15583,1,8,0:0:0:0:
402,192,15583,128,0,15716:0:0:0:0:
182,192,15716,128,2,15850:0:0:0:0:
329,192,15783,1,2,0:0:0:0:
36,192,15850,1,8,0:0:0:0:
475,192,15850,128,0,15983:0:0:0:0:
109,192,15983,128,2,16116:0:0:0:0:
256,192,16050,1,2,0:0:0:0:
402,192,16116,128,8,16250:0:0:0:0:
475,192,16116,1,0,0:0:0:0:
36,192,16250,128,2,16383:0:0:0:0:
182,192,16250,1,0,0:0:0:0:
329,192,16383,1,8,0:0:0:0:
402,192,16383,1,4,0:0:0:0:
475,192,16383,1,0,0:0:0:0:
109,192,16450,1,0,0:0:0:0:
182,192,16516,1,0,0:0:0:0:
256,192,16583,1,0,0:0:0:0:
36,192,16650,1,2,0:0:0:0:
402,192,16650,1,0,0:0:0:0:
182,192,16716,1,0,0:0:0:0:
475,192,16783,1,2,0:0:0:0:
256,192,16850,1,0,0:0:0:0:
36,192,16916,128,2,17050:0:0:0:0:
329,192,16916,1,0,0:0:0:0:
109,192,17050,128,2,17183:0:0:0:0:
402,192,17050,1,0,0:0:0:0:
182,192,17183,128,2,17316:0:0:0:0:
475,192,17183,1,0,0:0:0:0:
36,192,17316,1,2,0:0:0:0:
329,192,17316,128,0,17583:0:0:0:0:
182,192,17450,1,2,0:0:0:0:
475,192,17450,1,8,0:0:0:0:
109,192,17583,1,8,0:0:0:0:
402,192,17583,128,2,17716:0:0:0:0:
36,192,17716,1,2,0:0:0:0:
329,192,17716,128,8,17850:0:0:0:0:
256,192,17850,128,8,17983:0:0:0:0:
475,192,17850,1,2,0:0:0:0:
182,192,17983,1,8,0:0:0:0:
402,192,17983,1,0,0:0:0:0:
109,192,18072,1,8,0:0:0:0:
329,192,18161,1,8,0:0:0:0:
36,192,18250,1,8,0:0:0:0:
256,192,18250,1,0,0:0:0:0:
475,192,18338,1,8,0:0:0:0:
402,192,18427,1,8,0:0:0:0:
36,192,18516,128,8,20650:0:0:0:0:
109,192,18516,1,4,0:0:0:0:
329,192,18516,1,0,0:0:0:0:
329,192,18783,1,2,0:0:0:0:
256,192,18872,1,2,0:0:0:0:
182,192,18961,1,2,0:0:0:0:
402,192,19050,1,8,0:0:0:0:
475,192,19050,1,0,0:0:0:0:
182,192,19316,1,2,0:0:0:0:
329,192,19583,1,4,0:0:0:0:
475,192,19583,1,8,0:0:0:0:
402,192,19583,1,0,0:0:0:0:
256,192,19716,1,2,0:0:0:0:
182,192,19783,1,2,0:0:0:0:
109,192,19850,1,8,0:0:0:0:
475,192,19850,1,0,0:0:0:0:
402,192,20116,1,8,0:0:0:0:
475,192,20116,1,0,0:0:0:0:
109,192,20183,1,2,0:0:0:0:
182,192,20250,1,2,0:0:0:0:
256,192,20316,1,2,0:0:0:0:
329,192,20383,1,8,0:0:0:0:
402,192,20383,1,4,0:0:0:0:
475,192,20383,1,0,0:0:0:0:
109,192,20650,1,2,0:0:0:0:
182,192,20650,1,4,0:0:0:0:
256,192,20650,128,0,22783:0:0:0:0:
329,192,20738,1,0,0:0:0:0:
402,192,20827,1,0,0:0:0:0:
109,192,20916,1,0,0:0:0:0:
182,192,21005,1,0,0:0:0:0:
402,192,21094,1,0,0:0:0:0:
36,192,21183,1,0,0:0:0:0:
475,192,21272,1,0,0:0:0:0:
182,192,21361,1,0,0:0:0:0:
402,192,21450,1,0,0:0:0:0:
109,192,21538,1,0,0:0:0:0:
329,192,21627,1,0,0:0:0:0:
36,192,21716,1,0,0:0:0:0:
475,192,21783,1,0,0:0:0:0:
402,192,21850,1,0,0:0:0:0:
329,192,21916,1,0,0:0:0:0:
109,192,21983,1,0,0:0:0:0:
402,192,22050,1,0,0:0:0:0:
182,192,22116,1,0,0:0:0:0:
109,192,22183,1,0,0:0:0:0:
36,192,22250,1,0,0:0:0:0:
329,192,22316,1,0,0:0:0:0:
109,192,22383,1,0,0:0:0:0:
402,192,22450,1,0,0:0:0:0:
182,192,22516,1,0,0:0:0:0:
475,192,22583,1,0,0:0:0:0:
109,192,22650,1,0,0:0:0:0:
402,192,22716,1,0,0:0:0:0:
36,192,22783,1,0,0:0:0:0:
182,192,22783,1,0,0:0:0:0:
256,192,22916,1,0,0:0:0:0:
402,192,23050,1,0,0:0:0:0:
475,192,23183,1,0,0:0:0:0:
36,192,23316,1,0,0:0:0:0:
475,192,23450,1,0,0:0:0:0:
402,192,23583,1,0,0:0:0:0:
256,192,23716,1,0,0:0:0:0:
109,192,23850,1,0,0:0:0:0:
182,192,23850,1,0,0:0:0:0:
329,192,23983,1,0,0:0:0:0:
256,192,24116,1,0,0:0:0:0:
182,192,24250,1,0,0:0:0:0:
36,192,24383,1,0,0:0:0:0:
109,192,24516,1,0,0:0:0:0:
182,192,24650,1,0,0:0:0:0:
256,192,24783,1,0,0:0:0:0:
109,192,24916,1,0,0:0:0:0:
329,192,24916,1,0,0:0:0:0:
182,192,25050,1,0,0:0:0:0:
402,192,25183,1,0,0:0:0:0:
256,192,25316,1,0,0:0:0:0:
475,192,25450,1,0,0:0:0:0:
329,192,25583,1,0,0:0:0:0:
256,192,25716,1,0,0:0:0:0:
182,192,25850,1,0,0:0:0:0:
36,192,25983,1,0,0:0:0:0:
475,192,25983,1,0,0:0:0:0:
402,192,26116,1,0,0:0:0:0:
256,192,26250,1,0,0:0:0:0:
109,192,26383,1,0,0:0:0:0:
329,192,26516,1,0,0:0:0:0:
256,192,26650,1,0,0:0:0:0:
109,192,26716,1,0,0:0:0:0:
402,192,26783,1,0,0:0:0:0:
329,192,26916,1,0,0:0:0:0:
182,192,27050,1,0,0:0:0:0:
256,192,27050,1,0,0:0:0:0:
109,192,27183,1,0,0:0:0:0:
475,192,27316,1,0,0:0:0:0:
329,192,27450,1,0,0:0:0:0:
402,192,27583,1,0,0:0:0:0:
475,192,27716,1,0,0:0:0:0:
402,192,27850,1,0,0:0:0:0:
329,192,27983,1,0,0:0:0:0:
182,192,28116,1,0,0:0:0:0:
256,192,28116,1,0,0:0:0:0:
109,192,28250,1,0,0:0:0:0:
402,192,28383,1,0,0:0:0:0:
256,192,28516,1,0,0:0:0:0:
329,192,28650,1,0,0:0:0:0:
402,192,28783,1,0,0:0:0:0:
329,192,28916,1,0,0:0:0:0:
256,192,29050,1,0,0:0:0:0:
109,192,29183,1,0,0:0:0:0:
182,192,29183,1,0,0:0:0:0:
329,192,29316,1,0,0:0:0:0:
36,192,29450,1,0,0:0:0:0:
475,192,29450,1,0,0:0:0:0:
402,192,29583,1,0,0:0:0:0:
36,192,29716,1,0,0:0:0:0:
256,192,29716,1,0,0:0:0:0:
109,192,29850,1,0,0:0:0:0:
329,192,29850,1,0,0:0:0:0:
182,192,29983,1,0,0:0:0:0:
402,192,29983,1,0,0:0:0:0:
256,192,30116,1,0,0:0:0:0:
475,192,30116,1,0,0:0:0:0:
182,192,30183,1,0,0:0:0:0:
36,192,30250,1,8,0:0:0:0:
109,192,30250,128,0,30783:0:0:0:0:
402,192,30250,1,0,0:0:0:0:
475,192,30650,1,0,0:0:0:0:
402,192,30716,1,0,0:0:0:0:
36,192,30783,1,8,0:0:0:0:
182,192,30783,1,0,0:0:0:0:
329,192,30783,1,0,0:0:0:0:
109,192,31316,1,2,0:0:0:0:
256,192,31316,128,4,31450:0:0:0:0:
475,192,31316,1,0,0:0:0:0:
329,192,31450,128,0,31583:0:0:0:0:
36,192,31583,1,8,0:0:0:0:
182,192,31583,128,0,31716:0:0:0:0:
256,192,31716,128,0,31983:0:0:0:0:
402,192,31850,1,2,0:0:0:0:
109,192,31983,128,0,32116:0:0:0:0:
329,192,32116,128,8,32250:0:0:0:0:
475,192,32116,1,0,0:0:0:0:
36,192,32250,128,0,32383:0:0:0:0:
256,192,32383,128,2,32516:0:0:0:0:
402,192,32383,1,0,0:0:0:0:
182,192,32516,128,0,32650:0:0:0:0:
109,192,32650,128,8,32783:0:0:0:0:
475,192,32650,1,0,0:0:0:0:
402,192,32783,128,0,32916:0:0:0:0:
182,192,32916,128,2,33050:0:0:0:0:
329,192,32916,1,0,0:0:0:0:
109,192,33050,128,0,33183:0:0:0:0:
36,192,33183,128,8,33316:0:0:0:0:
402,192,33183,1,0,0:0:0:0:
256,192,33316,128,0,33450:0:0:0:0:
36,192,33450,1,4,0:0:0:0:
182,192,33450,1,2,0:0:0:0:
475,192,33450,128,0,33850:0:0:0:0:
182,192,33650,1,2,0:0:0:0:
329,192,33650,128,0,33850:0:0:0:0:
36,192,33850,1,2,0:0:0:0:
109,192,33916,1,0,0:0:0:0:
182,192,33983,1,4,0:0:0:0:
329,192,33983,1,8,0:0:0:0:
475,192,33983,128,0,34116:0:0:0:0:
36,192,34116,128,2,34250:0:0:0:0:
182,192,34250,128,8,34383:0:0:0:0:
402,192,34250,1,0,0:0:0:0:
256,192,34383,128,8,34516:0:0:0:0:
475,192,34383,1,0,0:0:0:0:
36,192,34516,128,4,34783:0:0:0:0:
109,192,34516,1,2,0:0:0:0:
402,192,34516,1,0,0:0:0:0:
182,192,34650,128,0,34783:0:0:0:0:
256,192,34783,1,8,0:0:0:0:
329,192,34783,128,0,35183:0:0:0:0:
36,192,34916,1,4,0:0:0:0:
402,192,34916,128,2,35183:0:0:0:0:
475,192,34916,128,0,35183:0:0:0:0:
36,192,35183,1,8,0:0:0:0:
182,192,35183,1,0,0:0:0:0:
256,192,35250,1,8,0:0:0:0:
329,192,35316,1,8,0:0:0:0:
109,192,35383,1,2,0:0:0:0:
402,192,35450,1,2,0:0:0:0:
182,192,35516,1,2,0:0:0:0:
36,192,35583,1,2,0:0:0:0:
256,192,35583,128,4,35716:0:0:0:0:
475,192,35583,1,0,0:0:0:0:
329,192,35716,1,0,0:0:0:0:
402,192,35783,1,0,0:0:0:0:
256,192,35850,128,8,35983:0:0:0:0:
475,192,35850,1,0,0:0:0:0:
182,192,35983,1,0,0:0:0:0:
109,192,36050,1,0,0:0:0:0:
36,192,36116,1,2,0:0:0:0:
256,192,36116,128,0,36250:0:0:0:0:
329,192,36250,1,2,0:0:0:0:
402,192,36250,128,0,36383:0:0:0:0:
109,192,36383,1,8,0:0:0:0:
182,192,36383,128,0,36516:0:0:0:0:
256,192,36516,1,2,0:0:0:0:
329,192,36516,128,0,36650:0:0:0:0:
36,192,36650,128,4,36916:0:0:0:0:
402,192,36650,1,2,0:0:0:0:
475,192,36650,1,0,0:0:0:0:
402,192,36783,1,2,0:0:0:0:
109,192,36916,1,8,0:0:0:0:
256,192,36916,1,2,0:0:0:0:
329,192,37050,1,2,0:0:0:0:
402,192,37050,1,4,0:0:0:0:
475,192,37050,128,0,37316:0:0:0:0:
182,192,37316,128,2,37450:0:0:0:0:
329,192,37383,1,2,0:0:0:0:
36,192,37450,1,8,0:0:0:0:
475,192,37450,128,0,37583:0:0:0:0:
182,192,37516,1,8,0:0:0:0:
329,192,37583,128,8,37716:0:0:0:0:
109,192,37650,1,8,0:0:0:0:
256,192,37716,128,4,37850:0:0:0:0:
402,192,37716,1,2,0:0:0:0:
475,192,37716,1,0,0:0:0:0:
182,192,37850,128,0,37983:0:0:0:0:
329,192,37983,1,8,0:0:0:0:
402,192,37983,1,2,0:0:0:0:
256,192,38050,1,0,0:0:0:0:
109,192,38116,1,8,0:0:0:0:
182,192,38116,1,0,0:0:0:0:
329,192,38250,1,2,0:0:0:0:
475,192,38250,1,8,0:0:0:0:
36,192,38383,1,8,0:0:0:0:
182,192,38383,1,0,0:0:0:0:
402,192,38516,1,2,0:0:0:0:
475,192,38516,1,8,0:0:0:0:
256,192,38583,1,0,0:0:0:0:
36,192,38650,1,8,0:0:0:0:
109,192,38650,1,0,0:0:0:0:
256,192,38716,1,0,0:0:0:0:
402,192,38783,128,2,38916:0:0:0:0:
475,192,38783,1,8,0:0:0:0:
256,192,38916,128,8,39050:0:0:0:0:
329,192,38916,1,0,0:0:0:0:
109,192,39050,128,8,39183:0:0:0:0:
182,192,39050,1,2,0:0:0:0:
329,192,39183,128,8,39316:0:0:0:0:
475,192,39183,1,0,0:0:0:0:
36,192,39316,1,8,0:0:0:0:
182,192,39316,128,0,39450:0:0:0:0:
402,192,39383,1,8,0:0:0:0:
256,192,39450,128,2,39583:0:0:0:0:
475,192,39516,1,2,0:0:0:0:
36,192,39583,1,8,0:0:0:0:
109,192,39583,128,0,39716:0:0:0:0:
402,192,39650,1,8,0:0:0:0:
182,192,39716,128,2,39850:0:0:0:0:
329,192,39716,1,0,0:0:0:0:
36,192,39850,1,4,0:0:0:0:
256,192,39850,128,2,41183:0:0:0:0:
475,192,39850,1,0,0:0:0:0:
402,192,39916,1,0,0:0:0:0:
329,192,39983,1,2,0:0:0:0:
182,192,40050,1,0,0:0:0:0:
36,192,40116,1,0,0:0:0:0:
109,192,40183,1,0,0:0:0:0:
182,192,40250,1,2,0:0:0:0:
329,192,40316,1,0,0:0:0:0:
36,192,40383,1,8,0:0:0:0:
402,192,40383,1,4,0:0:0:0:
475,192,40383,1,0,0:0:0:0:
182,192,40472,1,0,0:0:0:0:
329,192,40561,1,0,0:0:0:0:
109,192,40650,1,2,0:0:0:0:
182,192,40716,1,0,0:0:0:0:
402,192,40783,1,0,0:0:0:0:
329,192,40850,1,0,0:0:0:0:
182,192,40916,1,0,0:0:0:0:
36,192,41005,1,0,0:0:0:0:
329,192,41094,1,0,0:0:0:0:
109,192,41183,128,0,41450:0:0:0:0:
402,192,41250,1,0,0:0:0:0:
256,192,41316,1,2,0:0:0:0:
182,192,41383,1,2,0:0:0:0:
329,192,41450,128,2,41716:0:0:0:0:
475,192,41450,1,8,0:0:0:0:
36,192,41583,1,2,0:0:0:0:
182,192,41650,1,0,0:0:0:0:
475,192,41716,128,0,41983:0:0:0:0:
36,192,41850,1,2,0:0:0:0:
109,192,41916,1,0,0:0:0:0:
182,192,41983,128,2,42116:0:0:0:0:
402,192,41983,1,0,0:0:0:0:
329,192,42050,1,0,0:0:0:0:
36,192,42116,1,2,0:0:0:0:
256,192,42116,128,0,42383:0:0:0:0:
329,192,42250,1,0,0:0:0:0:
402,192,42316,1,0,0:0:0:0:
109,192,42383,1,2,0:0:0:0:
475,192,42383,128,0,42650:0:0:0:0:
256,192,42450,1,0,0:0:0:0:
36,192,42516,1,8,0:0:0:0:
402,192,42516,1,0,0:0:0:0:
256,192,42650,128,0,42916:0:0:0:0:
36,192,42783,1,2,0:0:0:0:
402,192,42850,1,0,0:0:0:0:
109,192,42916,128,0,43183:0:0:0:0:
329,192,42983,1,0,0:0:0:0:
475,192,43050,1,0,0:0:0:0:
256,192,43116,1,0,0:0:0:0:
36,192,43183,1,2,0:0:0:0:
402,192,43183,128,0,43316:0:0:0:0:
256,192,43316,128,0,43450:0:0:0:0:
475,192,43383,1,0,0:0:0:0:
109,192,43450,128,2,43583:0:0:0:0:
402,192,43450,1,0,0:0:0:0:
182,192,43583,1,8,0:0:0:0:
329,192,43583,128,0,43716:0:0:0:0:
475,192,43716,1,0,0:0:0:0:
256,192,43783,1,0,0:0:0:0:
36,192,43850,128,2,43983:0:0:0:0:
402,192,43850,1,0,0:0:0:0:
182,192,43916,1,0,0:0:0:0:
329,192,43983,1,0,0:0:0:0:
402,192,44050,1,0,0:0:0:0:
36,192,44116,1,4,0:0:0:0:
109,192,44116,1,2,0:0:0:0:
475,192,44116,128,0,45450:0:0:0:0:
256,192,44183,1,0,0:0:0:0:
402,192,44250,1,0,0:0:0:0:
182,192,44316,1,0,0:0:0:0:
329,192,44383,1,0,0:0:0:0:
36,192,44472,1,0,0:0:0:0:
182,192,44516,1,2,0:0:0:0:
329,192,44561,1,0,0:0:0:0:
36,192,44650,1,8,0:0:0:0:
109,192,44650,1,2,0:0:0:0:
256,192,44650,1,4,0:0:0:0:
402,192,44738,1,0,0:0:0:0:
109,192,44827,1,0,0:0:0:0:
182,192,44916,1,2,0:0:0:0:
256,192,44983,1,0,0:0:0:0:
329,192,45050,1,0,0:0:0:0:
402,192,45116,1,0,0:0:0:0:
109,192,45183,1,0,0:0:0:0:
256,192,45250,1,0,0:0:0:0:
402,192,45316,1,2,0:0:0:0:
36,192,45383,1,0,0:0:0:0:
182,192,45450,128,0,45716:0:0:0:0:
329,192,45516,1,0,0:0:0:0:
475,192,45583,1,2,0:0:0:0:
402,192,45650,1,0,0:0:0:0:
109,192,45716,128,8,45983:0:0:0:0:
256,192,45716,1,2,0:0:0:0:
475,192,45805,1,0,0:0:0:0:
402,192,45894,1,0,0:0:0:0:
329,192,45983,128,0,46250:0:0:0:0:
182,192,46072,1,0,0:0:0:0:
109,192,46161,1,0,0:0:0:0:
36,192,46250,1,2,0:0:0:0:
475,192,46250,128,0,46383:0:0:0:0:
256,192,46316,1,0,0:0:0:0:
109,192,46383,128,2,46516:0:0:0:0:
402,192,46383,1,0,0:0:0:0:
329,192,46450,1,0,0:0:0:0:
182,192,46516,128,0,46650:0:0:0:0:
402,192,46583,1,0,0:0:0:0:
109,192,46650,128,2,46783:0:0:0:0:
256,192,46650,1,0,0:0:0:0:
475,192,46716,1,0,0:0:0:0:
36,192,46783,1,8,0:0:0:0:
329,192,46783,128,0,46983:0:0:0:0:
109,192,46850,1,0,0:0:0:0:
182,192,46916,1,0,0:0:0:0:
256,192,46983,128,0,47183:0:0:0:0:
402,192,47050,1,2,0:0:0:0:
475,192,47116,1,0,0:0:0:0:
182,192,47183,128,0,47316:0:0:0:0:
329,192,47250,1,0,0:0:0:0:
109,192,47316,1,2,0:0:0:0:
475,192,47316,128,0,47583:0:0:0:0:
182,192,47383,1,2,0:0:0:0:
36,192,47450,1,8,0:0:0:0:
256,192,47450,1,0,0:0:0:0:
109,192,47583,1,8,0:0:0:0:
329,192,47583,1,0,0:0:0:0:
402,192,47583,128,0,47850:0:0:0:0:
256,192,47716,1,2,0:0:0:0:
182,192,47783,1,2,0:0:0:0:
109,192,47850,128,2,48116:0:0:0:0:
475,192,47850,1,8,0:0:0:0:
402,192,47916,1,2,0:0:0:0:
329,192,47983,1,2,0:0:0:0:
182,192,48050,1,2,0:0:0:0:
36,192,48116,128,8,48383:0:0:0:0:
475,192,48116,1,0,0:0:0:0:
402,192,48183,1,2,0:0:0:0:
329,192,48250,1,8,0:0:0:0:
256,192,48316,1,8,0:0:0:0:
182,192,48383,1,2,0:0:0:0:
402,192,48383,1,4,0:0:0:0:
475,192,48383,128,0,48650:0:0:0:0:
36,192,48650,1,2,0:0:0:0:
109,192,48650,1,0,0:0:0:0:
256,192,48783,1,2,0:0:0:0:
402,192,48783,128,4,49050:0:0:0:0:
475,192,48783,128,0,49050:0:0:0:0:
182,192,49050,1,2,0:0:0:0:
329,192,49116,1,2,0:0:0:0:
109,192,49183,1,2,0:0:0:0:
475,192,49183,1,0,0:0:0:0:
256,192,49250,1,2,0:0:0:0:
402,192,49316,1,8,0:0:0:0:
329,192,49383,1,8,0:0:0:0:
36,192,49450,128,4,49716:0:0:0:0:
182,192,49450,1,2,0:0:0:0:
256,192,49450,1,0,0:0:0:0:
329,192,49716,1,8,0:0:0:0:
402,192,49716,1,0,0:0:0:0:
36,192,49850,128,4,50116:0:0:0:0:
182,192,49850,128,2,50116:0:0:0:0:
475,192,49850,1,0,0:0:0:0:
475,192,50116,1,2,0:0:0:0:
329,192,50161,1,2,0:0:0:0:
182,192,50205,1,2,0:0:0:0:
36,192,50250,1,2,0:0:0:0:
402,192,50250,1,0,0:0:0:0:
256,192,50316,1,2,0:0:0:0:
109,192,50383,1,2,0:0:0:0:
182,192,50450,1,2,0:0:0:0:
256,192,50516,1,2,0:0:0:0:
402,192,50516,1,4,0:0:0:0:
475,192,50516,1,0,0:0:0:0:
36,192,50583,1,0,0:0:0:0:
109,192,50650,1,0,0:0:0:0:
182,192,50716,1,0,0:0:0:0:
329,192,50783,1,2,0:0:0:0:
475,192,50783,1,0,0:0:0:0:
182,192,50916,1,2,0:0:0:0:
329,192,50983,1,0,0:0:0:0:
36,192,51050,1,2,0:0:0:0:
475,192,51050,1,0,0:0:0:0:
182,192,51183,1,2,0:0:0:0:
402,192,51183,1,0,0:0:0:0:
109,192,51316,1,8,0:0:0:0:
329,192,51316,1,2,0:0:0:0:
256,192,51383,1,0,0:0:0:0:
182,192,51450,1,8,0:0:0:0:
475,192,51450,1,2,0:0:0:0:
402,192,51516,1,0,0:0:0:0:
36,192,51583,128,12,51983:0:0:0:0:
329,192,51583,1,2,0:0:0:0:
182,192,51783,128,12,51983:0:0:0:0:
329,192,51783,1,2,0:0:0:0:
329,192,51983,128,6,52250:0:0:0:0:
475,192,51983,128,8,52250:0:0:0:0:
36,192,52250,1,2,0:0:0:0:
182,192,52316,1,2,0:0:0:0:
329,192,52383,1,8,0:0:0:0:
475,192,52450,1,8,0:0:0:0:
109,192,52516,1,2,0:0:0:0:
256,192,52583,1,2,0:0:0:0:
36,192,52650,1,4,0:0:0:0:
402,192,52650,128,2,53716:0:0:0:0:
475,192,52650,1,0,0:0:0:0:
182,192,52783,1,8,0:0:0:0:
329,192,52783,1,0,0:0:0:0:
36,192,52916,1,2,0:0:0:0:
109,192,52983,1,2,0:0:0:0:
182,192,53050,1,8,0:0:0:0:
329,192,53050,1,0,0:0:0:0:
36,192,53183,1,2,0:0:0:0:
182,192,53316,1,8,0:0:0:0:
329,192,53316,1,0,0:0:0:0:
36,192,53450,1,2,0:0:0:0:
109,192,53516,1,2,0:0:0:0:
182,192,53583,1,8,0:0:0:0:
329,192,53583,1,0,0:0:0:0:
109,192,53716,1,2,0:0:0:0:
256,192,53716,128,0,54250:0:0:0:0:
402,192,53850,1,8,0:0:0:0:
475,192,53850,1,0,0:0:0:0:
36,192,53983,1,2,0:0:0:0:
182,192,54050,1,2,0:0:0:0:
402,192,54116,1,8,0:0:0:0:
475,192,54116,1,0,0:0:0:0:
36,192,54250,1,2,0:0:0:0:
109,192,54250,128,0,54783:0:0:0:0:
402,192,54316,1,2,0:0:0:0:
329,192,54383,1,2,0:0:0:0:
256,192,54450,1,2,0:0:0:0:
402,192,54516,1,2,0:0:0:0:
475,192,54516,1,0,0:0:0:0:
329,192,54583,1,2,0:0:0:0:
256,192,54650,1,2,0:0:0:0:
182,192,54716,1,2,0:0:0:0:
36,192,54783,128,8,55850:0:0:0:0:
329,192,54783,1,4,0:0:0:0:
475,192,54783,128,0,55850:0:0:0:0:
109,192,55050,1,8,0:0:0:0:
182,192,55116,1,8,0:0:0:0:
256,192,55183,1,8,0:0:0:0:
329,192,55250,1,8,0:0:0:0:
182,192,55316,1,8,0:0:0:0:
256,192,55383,1,8,0:0:0:0:
329,192,55450,1,8,0:0:0:0:
402,192,55516,1,8,0:0:0:0:
109,192,55583,1,8,0:0:0:0:
182,192,55650,1,8,0:0:0:0:
256,192,55716,1,8,0:0:0:0:
329,192,55783,1,8,0:0:0:0:
402,192,55850,1,4,0:0:0:0:
109,192,55883,1,0,0:0:0:0:
475,192,56383,128,0,56916:0:0:0:0:
329,192,56650,128,0,56916:0:0:0:0:
36,192,56916,1,2,0:0:0:0:
109,192,56916,1,4,0:0:0:0:
182,192,56916,128,0,57050:0:0:0:0:
329,192,57050,1,0,0:0:0:0:
256,192,57116,1,0,0:0:0:0:
182,192,57183,1,8,0:0:0:0:
475,192,57183,128,0,57316:0:0:0:0:
36,192,57316,1,0,0:0:0:0:
329,192,57450,1,2,0:0:0:0:
182,192,57516,1,0,0:0:0:0:
36,192,57583,1,0,0:0:0:0:
475,192,57583,128,0,57716:0:0:0:0:
109,192,57716,1,8,0:0:0:0:
402,192,57716,1,0,0:0:0:0:
256,192,57850,1,0,0:0:0:0:
182,192,57983,128,4,58250:0:0:0:0:
402,192,57983,1,2,0:0:0:0:
475,192,57983,1,0,0:0:0:0:
36,192,58116,128,0,58250:0:0:0:0:
329,192,58250,1,8,0:0:0:0:
475,192,58250,1,0,0:0:0:0:
36,192,58383,128,4,58650:0:0:0:0:
475,192,58383,128,0,58516:0:0:0:0:
256,192,58516,1,2,0:0:0:0:
182,192,58650,1,0,0:0:0:0:
256,192,58716,1,0,0:0:0:0:
329,192,58783,128,8,59050:0:0:0:0:
475,192,58783,1,0,0:0:0:0:
182,192,58916,128,0,59050:0:0:0:0:
36,192,59050,1,4,0:0:0:0:
109,192,59050,1,2,0:0:0:0:
475,192,59050,1,0,0:0:0:0:
402,192,59116,1,0,0:0:0:0:
329,192,59183,1,0,0:0:0:0:
402,192,59250,1,0,0:0:0:0:
36,192,59316,128,8,59450:0:0:0:0:
475,192,59316,1,0,0:0:0:0:
182,192,59450,1,0,0:0:0:0:
329,192,59583,1,2,0:0:0:0:
402,192,59650,1,0,0:0:0:0:
36,192,59716,128,0,59850:0:0:0:0:
475,192,59716,1,0,0:0:0:0:
109,192,59850,1,8,0:0:0:0:
256,192,59850,1,0,0:0:0:0:
329,192,59983,1,0,0:0:0:0:
36,192,60116,1,2,0:0:0:0:
182,192,60116,128,4,60383:0:0:0:0:
475,192,60116,1,0,0:0:0:0:
329,192,60250,128,0,60383:0:0:0:0:
109,192,60383,1,8,0:0:0:0:
402,192,60383,1,0,0:0:0:0:
182,192,60516,128,2,60650:0:0:0:0:
329,192,60516,128,0,60650:0:0:0:0:
36,192,60650,128,8,60827:0:0:0:0:
256,192,60650,1,4,0:0:0:0:
475,192,60650,128,0,60827:0:0:0:0:
109,192,60827,128,2,61005:0:0:0:0:
256,192,60827,1,4,0:0:0:0:
402,192,60827,128,8,61005:0:0:0:0:
182,192,61005,1,4,0:0:0:0:
256,192,61005,1,8,0:0:0:0:
329,192,61005,1,2,0:0:0:0:
36,192,61183,1,2,0:0:0:0:
109,192,61183,1,0,0:0:0:0:
475,192,61183,128,0,61450:0:0:0:0:
256,192,61316,1,2,0:0:0:0:
329,192,61316,128,8,61450:0:0:0:0:
36,192,61450,1,2,0:0:0:0:
182,192,61516,1,2,0:0:0:0:
329,192,61583,128,2,61850:0:0:0:0:
402,192,61583,1,4,0:0:0:0:
475,192,61583,128,8,61850:0:0:0:0:
109,192,61850,128,2,62116:0:0:0:0:
256,192,61916,1,2,0:0:0:0:
402,192,61983,1,8,0:0:0:0:
475,192,61983,1,0,0:0:0:0:
182,192,62116,1,2,0:0:0:0:
109,192,62183,1,0,0:0:0:0:
36,192,62250,1,8,0:0:0:0:
402,192,62250,128,4,62516:0:0:0:0:
475,192,62250,1,0,0:0:0:0:
256,192,62383,1,2,0:0:0:0:
329,192,62383,128,0,62516:0:0:0:0:
109,192,62516,1,2,0:0:0:0:
182,192,62516,1,0,0:0:0:0:
36,192,62650,1,8,0:0:0:0:
475,192,62650,128,0,62916:0:0:0:0:
402,192,62650,128,4,62916:0:0:0:0:
182,192,62916,1,2,0:0:0:0:
329,192,62916,128,0,63183:0:0:0:0:
36,192,63050,1,12,0:0:0:0:
109,192,63050,1,2,0:0:0:0:
256,192,63183,1,2,0:0:0:0:
109,192,63250,1,0,0:0:0:0:
329,192,63316,1,4,0:0:0:0:
402,192,63316,1,8,0:0:0:0:
475,192,63316,1,0,0:0:0:0:
182,192,63450,1,2,0:0:0:0:
329,192,63516,1,0,0:0:0:0:
109,192,63583,1,2,0:0:0:0:
256,192,63650,1,0,0:0:0:0:
36,192,63716,1,8,0:0:0:0:
402,192,63716,128,4,63983:0:0:0:0:
475,192,63716,128,0,63983:0:0:0:0:
109,192,63850,1,2,0:0:0:0:
182,192,63983,1,2,0:0:0:0:
256,192,64050,1,0,0:0:0:0:
36,192,64116,1,8,0:0:0:0:
329,192,64116,1,0,0:0:0:0:
475,192,64116,1,0,0:0:0:0:
109,192,64183,1,0,0:0:0:0:
182,192,64250,1,2,0:0:0:0:
402,192,64250,128,0,64516:0:0:0:0:
109,192,64383,1,2,0:0:0:0:
36,192,64516,1,8,0:0:0:0:
256,192,64516,1,4,0:0:0:0:
475,192,64516,128,0,64650:0:0:0:0:
182,192,64650,1,2,0:0:0:0:
329,192,64650,128,0,64783:0:0:0:0:
109,192,64783,1,2,0:0:0:0:
475,192,64783,128,0,65050:0:0:0:0:
182,192,64916,1,2,0:0:0:0:
36,192,65050,1,8,0:0:0:0:
329,192,65050,128,0,65183:0:0:0:0:
256,192,65183,128,2,65316:0:0:0:0:
475,192,65183,1,0,0:0:0:0:
182,192,65316,128,8,65450:0:0:0:0:
402,192,65316,1,0,0:0:0:0:
36,192,65450,1,2,0:0:0:0:
109,192,65450,1,4,0:0:0:0:
475,192,65450,1,0,0:0:0:0:
256,192,65516,1,0,0:0:0:0:
329,192,65583,1,0,0:0:0:0:
402,192,65650,1,0,0:0:0:0:
182,192,65716,128,8,65850:0:0:0:0:
475,192,65716,1,0,0:0:0:0:
36,192,65850,1,0,0:0:0:0:
329,192,65983,1,2,0:0:0:0:
402,192,66050,1,0,0:0:0:0:
182,192,66116,128,0,66250:0:0:0:0:
475,192,66116,1,0,0:0:0:0:
36,192,66250,1,8,0:0:0:0:
109,192,66250,1,0,0:0:0:0:
256,192,66383,1,0,0:0:0:0:
329,192,66450,1,0,0:0:0:0:
182,192,66516,128,4,66783:0:0:0:0:
402,192,66516,1,2,0:0:0:0:
475,192,66516,1,0,0:0:0:0:
109,192,66650,128,0,66783:0:0:0:0:
329,192,66783,1,8,0:0:0:0:
475,192,66783,1,0,0:0:0:0:
109,192,66916,128,4,67183:0:0:0:0:
182,192,66916,128,0,67050:0:0:0:0:
402,192,67050,1,2,0:0:0:0:
329,192,67183,1,0,0:0:0:0:
182,192,67250,1,0,0:0:0:0:
36,192,67316,1,8,0:0:0:0:
475,192,67316,128,0,67583:0:0:0:0:
402,192,67450,128,0,67583:0:0:0:0:
36,192,67583,1,4,0:0:0:0:
109,192,67583,1,2,0:0:0:0:
329,192,67583,1,0,0:0:0:0:
256,192,67650,1,0,0:0:0:0:
182,192,67716,1,0,0:0:0:0:
256,192,67783,1,0,0:0:0:0:
36,192,67850,1,8,0:0:0:0:
329,192,67850,128,0,67983:0:0:0:0:
475,192,67983,1,0,0:0:0:0:
36,192,68116,1,2,0:0:0:0:
182,192,68183,1,0,0:0:0:0:
329,192,68250,128,0,68383:0:0:0:0:
475,192,68250,1,0,0:0:0:0:
109,192,68383,1,8,0:0:0:0:
256,192,68383,1,0,0:0:0:0:
402,192,68516,1,0,0:0:0:0:
36,192,68650,1,4,0:0:0:0:
109,192,68650,128,2,68783:0:0:0:0:
475,192,68650,1,0,0:0:0:0:
256,192,68783,128,0,68916:0:0:0:0:
402,192,68916,128,8,69050:0:0:0:0:
475,192,68916,1,0,0:0:0:0:
182,192,69050,1,2,0:0:0:0:
329,192,69116,1,0,0:0:0:0:
36,192,69183,1,8,0:0:0:0:
475,192,69183,1,0,0:0:0:0:
182,192,69250,1,8,0:0:0:0:
329,192,69316,1,8,0:0:0:0:
256,192,69383,1,0,0:0:0:0:
182,192,69450,1,8,0:0:0:0:
475,192,69450,1,0,0:0:0:0:
402,192,69516,1,8,0:0:0:0:
109,192,69583,1,8,0:0:0:0:
36,192,69650,1,0,0:0:0:0:
36,192,69983,1,4,0:0:0:0:
256,192,69983,128,8,71583:0:0:0:0:
475,192,69983,1,0,0:0:0:0:
475,192,70250,1,2,0:0:0:0:
329,192,70316,1,2,0:0:0:0:
182,192,70383,1,2,0:0:0:0:
36,192,70450,1,2,0:0:0:0:
475,192,70516,128,2,70650:0:0:0:0:
182,192,70583,1,2,0:0:0:0:
402,192,70650,128,2,70783:0:0:0:0:
109,192,70716,1,2,0:0:0:0:
329,192,70783,128,2,70916:0:0:0:0:
36,192,70850,1,2,0:0:0:0:
182,192,70916,128,2,71050:0:0:0:0:
402,192,70983,1,2,0:0:0:0:
109,192,71050,128,2,71183:0:0:0:0:
329,192,71116,1,2,0:0:0:0:
36,192,71183,128,4,71316:0:0:0:0:
475,192,71183,1,8,0:0:0:0:
402,192,71316,128,0,71450:0:0:0:0:
109,192,71450,128,2,71583:0:0:0:0:
329,192,71450,1,0,0:0:0:0:
402,192,71516,1,2,0:0:0:0:
36,192,71583,1,8,0:0:0:0:
475,192,71583,128,4,71716:0:0:0:0:
109,192,71716,1,8,0:0:0:0:
402,192,71716,128,0,71850:0:0:0:0:
182,192,71783,1,8,0:0:0:0:
36,192,71850,128,2,71983:0:0:0:0:
256,192,71850,1,4,0:0:0:0:
329,192,71850,1,0,0:0:0:0:
109,192,71983,128,0,72116:0:0:0:0:
182,192,72116,1,2,0:0:0:0:
329,192,72116,128,8,72250:0:0:0:0:
402,192,72250,128,8,72383:0:0:0:0:
256,192,72316,1,8,0:0:0:0:
109,192,72383,1,8,0:0:0:0:
475,192,72383,128,2,72516:0:0:0:0:
36,192,72516,128,8,72650:0:0:0:0:
182,192,72583,1,8,0:0:0:0:
329,192,72650,1,2,0:0:0:0:
402,192,72650,128,8,72783:0:0:0:0:
109,192,72783,128,8,72916:0:0:0:0:
256,192,72850,1,8,0:0:0:0:
36,192,72916,1,2,0:0:0:0:
402,192,72916,1,4,0:0:0:0:
475,192,72916,128,0,73116:0:0:0:0:
109,192,73116,128,4,73316:0:0:0:0:
182,192,73116,1,2,0:0:0:0:
329,192,73116,1,0,0:0:0:0:
36,192,73316,1,2,0:0:0:0:
256,192,73316,128,4,73450:0:0:0:0:
329,192,73450,1,8,0:0:0:0:
402,192,73450,1,4,0:0:0:0:
475,192,73450,1,0,0:0:0:0:
182,192,73650,1,4,0:0:0:0:
256,192,73650,1,8,0:0:0:0:
329,192,73650,1,0,0:0:0:0:
36,192,73850,1,8,0:0:0:0:
109,192,73850,1,4,0:0:0:0:
182,192,73850,1,0,0:0:0:0:
36,192,73983,1,2,0:0:0:0:
256,192,73983,128,4,76116:0:0:0:0:
475,192,73983,1,0,0:0:0:0:
475,192,74116,1,2,0:0:0:0:
475,192,74383,1,2,0:0:0:0:
36,192,74516,1,8,0:0:0:0:
109,192,74516,1,0,0:0:0:0:
402,192,74783,1,2,0:0:0:0:
402,192,74916,1,2,0:0:0:0:
36,192,75050,1,0,0:0:0:0:
109,192,75138,1,0,0:0:0:0:
402,192,75183,1,2,0:0:0:0:
182,192,75227,1,0,0:0:0:0:
329,192,75316,1,0,0:0:0:0:
109,192,75405,1,0,0:0:0:0:
402,192,75450,1,2,0:0:0:0:
182,192,75494,1,0,0:0:0:0:
36,192,75583,1,8,0:0:0:0:
475,192,75583,1,0,0:0:0:0:
402,192,75716,1,2,0:0:0:0:
109,192,75850,1,2,0:0:0:0:
329,192,75850,1,0,0:0:0:0:
402,192,75938,1,0,0:0:0:0:
109,192,75983,1,2,0:0:0:0:
475,192,76027,1,0,0:0:0:0:
36,192,76116,1,2,0:0:0:0:
36,192,76250,1,2,0:0:0:0:
36,192,76516,1,2,0:0:0:0:
329,192,76650,1,8,0:0:0:0:
402,192,76650,1,0,0:0:0:0:
475,192,76650,128,0,76916:0:0:0:0:
109,192,76916,1,2,0:0:0:0:
109,192,77050,1,2,0:0:0:0:
256,192,77183,1,0,0:0:0:0:
475,192,77183,128,0,77450:0:0:0:0:
109,192,77316,1,2,0:0:0:0:
36,192,77450,1,0,0:0:0:0:
329,192,77450,128,0,77716:0:0:0:0:
109,192,77583,1,2,0:0:0:0:
182,192,77650,1,0,0:0:0:0:
256,192,77716,128,8,77983:0:0:0:0:
475,192,77716,1,0,0:0:0:0:
402,192,77850,1,2,0:0:0:0:
109,192,77983,1,0,0:0:0:0:
182,192,77983,128,0,78250:0:0:0:0:
402,192,78116,1,2,0:0:0:0:
109,192,78250,128,2,78650:0:0:0:0:
329,192,78250,1,0,0:0:0:0:
329,192,78383,1,2,0:0:0:0:
329,192,78650,128,2,79050:0:0:0:0:
475,192,78650,1,0,0:0:0:0:
36,192,78783,1,8,0:0:0:0:
182,192,78783,1,0,0:0:0:0:
182,192,79050,128,2,79450:0:0:0:0:
475,192,79050,1,0,0:0:0:0:
475,192,79183,1,2,0:0:0:0:
402,192,79450,128,2,79850:0:0:0:0:
475,192,79450,1,0,0:0:0:0:
182,192,79716,1,2,0:0:0:0:
109,192,79850,128,8,80383:0:0:0:0:
329,192,79850,1,0,0:0:0:0:
256,192,80116,1,2,0:0:0:0:
402,192,80183,1,2,0:0:0:0:
36,192,80250,128,2,80383:0:0:0:0:
329,192,80250,1,0,0:0:0:0:
256,192,80316,1,2,0:0:0:0:
182,192,80383,1,2,0:0:0:0:
402,192,80383,1,8,0:0:0:0:
475,192,80383,1,4,0:0:0:0:
256,192,80516,1,2,0:0:0:0:
256,192,80650,1,2,0:0:0:0:
36,192,80783,1,8,0:0:0:0:
109,192,80783,1,4,0:0:0:0:
475,192,80783,1,0,0:0:0:0:
256,192,80916,1,2,0:0:0:0:
256,192,81050,1,2,0:0:0:0:
36,192,81183,1,2,0:0:0:0:
402,192,81183,1,4,0:0:0:0:
475,192,81183,1,8,0:0:0:0:
256,192,81316,1,2,0:0:0:0:
256,192,81450,1,2,0:0:0:0:
36,192,81583,1,4,0:0:0:0:
109,192,81583,1,8,0:0:0:0:
329,192,81583,1,0,0:0:0:0:
182,192,81716,1,2,0:0:0:0:
475,192,81783,1,2,0:0:0:0:
329,192,81850,1,2,0:0:0:0:
182,192,81916,1,2,0:0:0:0:
36,192,81983,1,8,0:0:0:0:
402,192,81983,1,4,0:0:0:0:
475,192,81983,1,0,0:0:0:0:
256,192,82050,1,2,0:0:0:0:
109,192,82116,1,2,0:0:0:0:
256,192,82183,1,2,0:0:0:0:
36,192,82250,1,8,0:0:0:0:
402,192,82250,1,4,0:0:0:0:
475,192,82250,1,0,0:0:0:0:
109,192,82316,1,0,0:0:0:0:
182,192,82383,1,2,0:0:0:0:
256,192,82450,1,2,0:0:0:0:
36,192,82516,1,2,0:0:0:0:
329,192,82516,1,4,0:0:0:0:
475,192,82516,1,8,0:0:0:0:
109,192,82650,1,0,0:0:0:0:
182,192,82716,1,0,0:0:0:0:
36,192,82783,1,8,0:0:0:0:
256,192,82783,1,0,0:0:0:0:
402,192,82916,1,8,0:0:0:0:
329,192,82983,1,0,0:0:0:0:
256,192,83050,1,8,0:0:0:0:
475,192,83050,1,0,0:0:0:0:
109,192,83116,1,8,0:0:0:0:
402,192,83183,1,8,0:0:0:0:
256,192,83250,1,0,0:0:0:0:
36,192,83316,1,8,0:0:0:0:
109,192,83316,1,0,0:0:0:0:
402,192,83383,1,8,0:0:0:0:
182,192,83450,1,8,0:0:0:0:
329,192,83516,1,0,0:0:0:0:
109,192,83583,1,8,0:0:0:0:
475,192,83583,1,0,0:0:0:0:
329,192,83716,1,2,0:0:0:0:
182,192,83783,1,2,0:0:0:0:
36,192,83850,1,2,0:0:0:0:
329,192,83916,1,2,0:0:0:0:
109,192,83938,1,0,0:0:0:0:
402,192,83983,1,2,0:0:0:0:
182,192,84027,1,0,0:0:0:0:
475,192,84050,1,2,0:0:0:0:
36,192,84116,1,4,0:0:0:0:
256,192,84116,1,8,0:0:0:0:
329,192,84116,1,0,0:0:0:0:
109,192,84316,1,4,0:0:0:0:
329,192,84316,1,8,0:0:0:0:
402,192,84316,1,0,0:0:0:0:
182,192,84516,1,8,0:0:0:0:
402,192,84516,1,4,0:0:0:0:
475,192,84516,1,0,0:0:0:0:
36,192,84650,1,2,0:0:0:0:
109,192,84650,1,4,0:0:0:0:
329,192,84650,1,8,0:0:0:0:
256,192,84738,1,0,0:0:0:0:
182,192,84827,1,0,0:0:0:0:
36,192,84916,1,8,0:0:0:0:
475,192,84916,1,0,0:0:0:0:
329,192,85050,1,8,0:0:0:0:
256,192,85116,1,0,0:0:0:0:
182,192,85183,1,8,0:0:0:0:
475,192,85183,1,0,0:0:0:0:
36,192,85250,1,8,0:0:0:0:
256,192,85316,1,8,0:0:0:0:
109,192,85383,1,0,0:0:0:0:
329,192,85450,1,8,0:0:0:0:
475,192,85450,1,0,0:0:0:0:
182,192,85516,1,8,0:0:0:0:
256,192,85583,1,8,0:0:0:0:
329,192,85650,1,0,0:0:0:0:
36,192,85716,1,2,0:0:0:0:
475,192,85783,1,2,0:0:0:0:
109,192,85850,1,2,0:0:0:0:
402,192,85916,1,2,0:0:0:0:
256,192,85983,1,2,0:0:0:0:
109,192,86050,1,2,0:0:0:0:
329,192,86116,1,2,0:0:0:0:
182,192,86183,1,2,0:0:0:0:
36,192,86250,1,2,0:0:0:0:
475,192,86250,1,0,0:0:0:0:
329,192,86316,1,0,0:0:0:0:
182,192,86383,1,0,0:0:0:0:
402,192,86450,1,2,0:0:0:0:
475,192,86450,1,0,0:0:0:0:
256,192,86516,1,0,0:0:0:0:
182,192,86583,1,0,0:0:0:0:
109,192,86650,1,2,0:0:0:0:
402,192,86650,1,0,0:0:0:0:
36,192,86716,1,0,0:0:0:0:
256,192,86783,1,2,0:0:0:0:
402,192,86783,1,4,0:0:0:0:
475,192,86783,1,8,0:0:0:0:
182,192,86872,1,0,0:0:0:0:
475,192,86916,1,0,0:0:0:0:
109,192,86961,1,0,0:0:0:0:
36,192,87050,1,0,0:0:0:0:
402,192,87050,1,0,0:0:0:0:
329,192,87138,1,0,0:0:0:0:
36,192,87183,1,0,0:0:0:0:
256,192,87227,1,0,0:0:0:0:
182,192,87316,1,2,0:0:0:0:
402,192,87316,1,4,0:0:0:0:
475,192,87316,1,8,0:0:0:0:
256,192,87405,1,0,0:0:0:0:
109,192,87450,1,0,0:0:0:0:
329,192,87494,1,0,0:0:0:0:
109,192,87583,1,0,0:0:0:0:
402,192,87583,1,0,0:0:0:0:
182,192,87672,1,0,0:0:0:0:
402,192,87716,1,0,0:0:0:0:
256,192,87761,1,0,0:0:0:0:
36,192,87850,1,8,0:0:0:0:
109,192,87850,1,2,0:0:0:0:
329,192,87850,1,4,0:0:0:0:
402,192,87938,1,0,0:0:0:0:
36,192,87983,1,0,0:0:0:0:
256,192,88027,1,0,0:0:0:0:
109,192,88116,1,0,0:0:0:0:
475,192,88116,1,0,0:0:0:0:
182,192,88205,1,0,0:0:0:0:
475,192,88250,1,0,0:0:0:0:
256,192,88294,1,0,0:0:0:0:
36,192,88383,1,2,0:0:0:0:
109,192,88383,1,4,0:0:0:0:
329,192,88383,1,8,0:0:0:0:
402,192,88472,1,0,0:0:0:0:
36,192,88516,1,0,0:0:0:0:
256,192,88561,1,0,0:0:0:0:
109,192,88650,1,0,0:0:0:0:
475,192,88650,1,0,0:0:0:0:
182,192,88738,1,0,0:0:0:0:
475,192,88783,1,0,0:0:0:0:
256,192,88827,1,0,0:0:0:0:
36,192,88916,1,8,0:0:0:0:
109,192,88916,1,4,0:0:0:0:
402,192,88916,1,2,0:0:0:0:
329,192,88983,1,0,0:0:0:0:
256,192,89050,1,0,0:0:0:0:
109,192,89183,1,2,0:0:0:0:
329,192,89183,1,0,0:0:0:0:
109,192,89316,1,2,0:0:0:0:
329,192,89316,1,0,0:0:0:0:
182,192,89450,1,2,0:0:0:0:
402,192,89450,1,0,0:0:0:0:
182,192,89583,1,8,0:0:0:0:
402,192,89583,1,0,0:0:0:0:
36,192,89716,1,8,0:0:0:0:
256,192,89716,1,0,0:0:0:0:
475,192,89716,1,0,0:0:0:0:
36,192,89850,1,8,0:0:0:0:
256,192,89850,1,0,0:0:0:0:
475,192,89850,1,0,0:0:0:0:
182,192,89983,1,2,0:0:0:0:
329,192,89983,1,0,0:0:0:0:
36,192,90072,1,2,0:0:0:0:
475,192,90072,1,0,0:0:0:0:
109,192,90161,1,2,0:0:0:0:
402,192,90161,1,0,0:0:0:0:
182,192,90250,1,2,0:0:0:0:
329,192,90250,1,0,0:0:0:0:
109,192,90338,1,2,0:0:0:0:
402,192,90383,1,0,0:0:0:0:
182,192,90427,1,2,0:0:0:0:
36,192,90516,128,4,91050:0:0:0:0:
256,192,90516,1,0,0:0:0:0:
475,192,90516,128,0,91050:0:0:0:0:
109,192,91050,1,4,0:0:0:0:
402,192,91050,1,0,0:0:0:0:
182,192,91116,1,0,0:0:0:0:
256,192,91183,1,0,0:0:0:0:
329,192,91250,1,0,0:0:0:0:
402,192,91316,1,0,0:0:0:0:
256,192,91450,1,0,0:0:0:0:
36,192,91516,1,0,0:0:0:0:
182,192,91583,1,0,0:0:0:0:
329,192,91650,1,0,0:0:0:0:
475,192,91716,1,0,0:0:0:0:
36,192,91850,1,0,0:0:0:0:
109,192,91916,1,0,0:0:0:0:
256,192,91983,1,0,0:0:0:0:
402,192,92050,1,0,0:0:0:0:
36,192,92116,1,4,0:0:0:0:
475,192,92116,128,0,92650:0:0:0:0:
182,192,92250,128,0,92383:0:0:0:0:
256,192,92383,128,0,92516:0:0:0:0:
329,192,92516,128,0,92650:0:0:0:0:
36,192,92650,1,2,0:0:0:0:
109,192,92650,1,8,0:0:0:0:
36,192,92850,1,2,0:0:0:0:
109,192,92850,1,8,0:0:0:0:
36,192,93050,1,2,0:0:0:0:
109,192,93050,1,8,0:0:0:0:
182,192,93316,1,2,0:0:0:0:
256,192,93361,1,2,0:0:0:0:
329,192,93405,1,2,0:0:0:0:
36,192,93450,128,4,93716:0:0:0:0:
402,192,93450,1,8,0:0:0:0:
475,192,93450,1,0,0:0:0:0:
182,192,93716,1,2,0:0:0:0:
109,192,93850,1,2,0:0:0:0:
256,192,93916,1,2,0:0:0:0:
36,192,93983,128,8,94250:0:0:0:0:
402,192,93983,1,0,0:0:0:0:
475,192,93983,1,0,0:0:0:0:
182,192,94250,1,2,0:0:0:0:
329,192,94250,128,0,94383:0:0:0:0:
109,192,94316,1,2,0:0:0:0:
36,192,94383,1,2,0:0:0:0:
402,192,94450,128,2,94583:0:0:0:0:
109,192,94516,1,8,0:0:0:0:
256,192,94516,1,0,0:0:0:0:
475,192,94650,128,2,94783:0:0:0:0:
329,192,94716,1,2,0:0:0:0:
36,192,94783,128,8,94916:0:0:0:0:
182,192,94783,1,0,0:0:0:0:
329,192,94916,128,2,95050:0:0:0:0:
182,192,94983,1,2,0:0:0:0:
36,192,95050,1,8,0:0:0:0:
475,192,95050,128,0,95183:0:0:0:0:
256,192,95183,1,2,0:0:0:0:
402,192,95183,128,0,95316:0:0:0:0:
182,192,95250,1,2,0:0:0:0:
36,192,95316,1,8,0:0:0:0:
109,192,95316,128,4,95450:0:0:0:0:
329,192,95316,1,2,0:0:0:0:
256,192,95450,1,0,0:0:0:0:
329,192,95516,1,0,0:0:0:0:
109,192,95583,1,8,0:0:0:0:
402,192,95583,128,0,95716:0:0:0:0:
36,192,95716,128,4,96116:0:0:0:0:
256,192,95716,1,2,0:0:0:0:
475,192,95716,128,0,96116:0:0:0:0:
329,192,95850,1,0,0:0:0:0:
256,192,95916,1,0,0:0:0:0:
182,192,95983,1,2,0:0:0:0:
256,192,96050,1,2,0:0:0:0:
109,192,96116,1,8,0:0:0:0:
329,192,96116,1,0,0:0:0:0:
182,192,96183,1,0,0:0:0:0:
402,192,96250,1,0,0:0:0:0:
329,192,96316,1,0,0:0:0:0:
36,192,96383,128,2,96516:0:0:0:0:
256,192,96383,1,0,0:0:0:0:
475,192,96383,1,0,0:0:0:0:
182,192,96516,128,2,96650:0:0:0:0:
402,192,96516,1,0,0:0:0:0:
109,192,96650,1,2,0:0:0:0:
329,192,96650,128,0,96783:0:0:0:0:
36,192,96783,1,4,0:0:0:0:
256,192,96783,1,8,0:0:0:0:
475,192,96783,128,0,97050:0:0:0:0:
109,192,97050,128,2,97183:0:0:0:0:
256,192,97116,1,2,0:0:0:0:
36,192,97183,1,8,0:0:0:0:
402,192,97183,128,4,97316:0:0:0:0:
475,192,97316,128,0,97450:0:0:0:0:
36,192,97450,128,8,98516:0:0:0:0:
329,192,97450,1,0,0:0:0:0:
256,192,97516,1,8,0:0:0:0:
182,192,97583,1,2,0:0:0:0:
475,192,97650,1,2,0:0:0:0:
402,192,97716,1,2,0:0:0:0:
329,192,97783,1,2,0:0:0:0:
109,192,97850,1,8,0:0:0:0:
182,192,97850,1,0,0:0:0:0:
402,192,97983,1,2,0:0:0:0:
256,192,98050,1,2,0:0:0:0:
109,192,98116,1,2,0:0:0:0:
256,192,98183,1,2,0:0:0:0:
402,192,98250,1,2,0:0:0:0:
329,192,98316,1,2,0:0:0:0:
182,192,98383,1,2,0:0:0:0:
109,192,98450,1,2,0:0:0:0:
256,192,98516,128,2,99050:0:0:0:0:
475,192,98516,1,0,0:0:0:0:
329,192,98583,1,2,0:0:0:0:
402,192,98650,1,2,0:0:0:0:
109,192,98716,1,2,0:0:0:0:
182,192,98783,1,2,0:0:0:0:
329,192,98850,1,2,0:0:0:0:
36,192,98916,1,2,0:0:0:0:
182,192,98983,1,2,0:0:0:0:
329,192,99050,1,8,0:0:0:0:
475,192,99050,128,0,99583:0:0:0:0:
36,192,99183,1,8,0:0:0:0:
182,192,99183,1,0,0:0:0:0:
109,192,99316,1,8,0:0:0:0:
256,192,99316,1,0,0:0:0:0:
182,192,99450,1,8,0:0:0:0:
329,192,99450,1,0,0:0:0:0:
36,192,99583,1,2,0:0:0:0:
256,192,99583,1,4,0:0:0:0:
402,192,99583,1,0,0:0:0:0:
109,192,99650,1,0,0:0:0:0:
182,192,99716,1,0,0:0:0:0:
109,192,99783,1,0,0:0:0:0:
36,192,99850,1,2,0:0:0:0:
475,192,99850,1,0,0:0:0:0:
402,192,99916,1,0,0:0:0:0:
182,192,99983,1,2,0:0:0:0:
329,192,99983,1,0,0:0:0:0:
402,192,100050,1,0,0:0:0:0:
36,192,100116,1,8,0:0:0:0:
475,192,100116,1,0,0:0:0:0:
109,192,100183,1,0,0:0:0:0:
182,192,100250,1,0,0:0:0:0:
329,192,100383,1,2,0:0:0:0:
475,192,100383,1,0,0:0:0:0:
182,192,100450,1,0,0:0:0:0:
329,192,100516,1,2,0:0:0:0:
475,192,100516,1,0,0:0:0:0:
256,192,100583,1,0,0:0:0:0:
182,192,100650,128,0,100783:0:0:0:0:
109,192,100783,128,2,100916:0:0:0:0:
475,192,100783,1,0,0:0:0:0:
329,192,100916,128,0,101050:0:0:0:0:
256,192,101050,1,2,0:0:0:0:
402,192,101050,128,0,101316:0:0:0:0:
182,192,101116,1,2,0:0:0:0:
36,192,101183,1,8,0:0:0:0:
109,192,101183,1,0,0:0:0:0:
182,192,101316,1,2,0:0:0:0:
475,192,101316,1,0,0:0:0:0:
256,192,101383,1,0,0:0:0:0:
329,192,101450,1,0,0:0:0:0:
109,192,101516,1,0,0:0:0:0:
182,192,101583,1,2,0:0:0:0:
402,192,101583,1,0,0:0:0:0:
256,192,101650,1,0,0:0:0:0:
36,192,101716,1,2,0:0:0:0:
109,192,101716,1,0,0:0:0:0:
402,192,101783,1,0,0:0:0:0:
329,192,101850,1,0,0:0:0:0:
182,192,101916,1,0,0:0:0:0:
109,192,101983,1,0,0:0:0:0:
256,192,102116,1,2,0:0:0:0:
475,192,102116,1,0,0:0:0:0:
182,192,102183,1,0,0:0:0:0:
109,192,102250,1,8,0:0:0:0:
402,192,102250,1,0,0:0:0:0:
329,192,102316,1,0,0:0:0:0:
36,192,102383,1,2,0:0:0:0:
256,192,102383,1,0,0:0:0:0:
109,192,102450,1,0,0:0:0:0:
182,192,102516,1,0,0:0:0:0:
329,192,102583,1,0,0:0:0:0:
109,192,102650,1,2,0:0:0:0:
475,192,102650,1,0,0:0:0:0:
256,192,102716,1,0,0:0:0:0:
402,192,102783,1,0,0:0:0:0:
329,192,102916,1,2,0:0:0:0:
182,192,102916,1,0,0:0:0:0:
109,192,102983,1,2,0:0:0:0:
36,192,103050,1,8,0:0:0:0:
256,192,103050,1,0,0:0:0:0:
475,192,103050,1,0,0:0:0:0:
402,192,103116,1,0,0:0:0:0:
329,192,103183,1,0,0:0:0:0:
182,192,103250,1,0,0:0:0:0:
36,192,103316,1,8,0:0:0:0:
475,192,103316,1,0,0:0:0:0:
329,192,103383,1,8,0:0:0:0:
182,192,103450,1,8,0:0:0:0:
109,192,103516,1,0,0:0:0:0:
36,192,103583,1,8,0:0:0:0:
256,192,103583,1,0,0:0:0:0:
329,192,103650,1,8,0:0:0:0:
402,192,103716,1,8,0:0:0:0:
475,192,103783,1,0,0:0:0:0:
109,192,103850,1,2,0:0:0:0:
182,192,103916,1,2,0:0:0:0:
402,192,103983,1,2,0:0:0:0:
329,192,104050,1,2,0:0:0:0:
36,192,104116,128,4,104650:0:0:0:0:
256,192,104116,1,8,0:0:0:0:
475,192,104116,128,0,104650:0:0:0:0:
402,192,104250,1,2,0:0:0:0:
256,192,104316,1,2,0:0:0:0:
109,192,104383,1,2,0:0:0:0:
182,192,104450,1,2,0:0:0:0:
329,192,104516,1,2,0:0:0:0:
256,192,104583,1,2,0:0:0:0:
182,192,104650,128,2,104783:0:0:0:0:
329,192,104783,128,2,104916:0:0:0:0:
182,192,104850,1,2,0:0:0:0:
402,192,104916,128,2,105050:0:0:0:0:
109,192,104983,1,2,0:0:0:0:
475,192,105050,128,2,105183:0:0:0:0:
36,192,105116,1,2,0:0:0:0:
329,192,105183,128,2,105316:0:0:0:0:
182,192,105250,1,2,0:0:0:0:
36,192,105316,1,8,0:0:0:0:
256,192,105316,1,2,0:0:0:0:
475,192,105316,128,4,105450:0:0:0:0:
402,192,105450,128,0,105583:0:0:0:0:
182,192,105583,128,2,105716:0:0:0:0:
256,192,105650,1,2,0:0:0:0:
109,192,105716,128,4,105850:0:0:0:0:
329,192,105716,1,8,0:0:0:0:
475,192,105716,1,0,0:0:0:0:
36,192,105850,128,8,105983:0:0:0:0:
256,192,105850,1,0,0:0:0:0:
329,192,105916,1,8,0:0:0:0:
182,192,105983,1,4,0:0:0:0:
402,192,105983,128,2,106116:0:0:0:0:
475,192,105983,1,0,0:0:0:0:
329,192,106116,128,0,106250:0:0:0:0:
109,192,106116,1,0,0:0:0:0:
36,192,106250,128,8,106383:0:0:0:0:
256,192,106250,1,2,0:0:0:0:
109,192,106383,128,8,106516:0:0:0:0:
329,192,106383,1,0,0:0:0:0:
182,192,106516,128,8,106650:0:0:0:0:
402,192,106516,1,0,0:0:0:0:
36,192,106650,1,8,0:0:0:0:
329,192,106650,128,0,106783:0:0:0:0:
109,192,106783,1,8,0:0:0:0:
402,192,106783,128,0,106916:0:0:0:0:
182,192,106850,1,8,0:0:0:0:
256,192,106916,1,8,0:0:0:0:
475,192,106916,128,0,107050:0:0:0:0:
329,192,106983,1,0,0:0:0:0:
36,192,107050,128,4,107116:0:0:0:0:
109,192,107050,1,2,0:0:0:0:
182,192,107050,128,0,107116:0:0:0:0:
329,192,107250,128,0,107316:0:0:0:0:
475,192,107250,128,0,107316:0:0:0:0:
109,192,107450,128,0,107583:0:0:0:0:
402,192,107450,128,0,107583:0:0:0:0:
36,192,107583,128,0,107650:0:0:0:0:
329,192,107583,128,0,107650:0:0:0:0:
256,192,107716,1,2,0:0:0:0:
109,192,107783,128,2,107850:0:0:0:0:
182,192,107783,128,0,107850:0:0:0:0:
402,192,107850,1,4,0:0:0:0:
475,192,107850,1,8,0:0:0:0:
36,192,107983,128,0,108116:0:0:0:0:
109,192,107983,128,0,108116:0:0:0:0:
256,192,108116,1,4,0:0:0:0:
402,192,108116,1,2,0:0:0:0:
475,192,108116,1,0,0:0:0:0:
36,192,108250,1,8,0:0:0:0:
109,192,108250,1,0,0:0:0:0:
182,192,108383,1,2,0:0:0:0:
329,192,108383,1,0,0:0:0:0:
402,192,108450,1,2,0:0:0:0:
36,192,108516,1,8,0:0:0:0:
475,192,108516,1,0,0:0:0:0:
109,192,108650,1,2,0:0:0:0:
256,192,108650,1,0,0:0:0:0:
329,192,108783,1,8,0:0:0:0:
475,192,108783,1,0,0:0:0:0:
36,192,108916,1,2,0:0:0:0:
182,192,108916,1,0,0:0:0:0:
256,192,108983,1,2,0:0:0:0:
329,192,109050,1,8,0:0:0:0:
402,192,109050,1,0,0:0:0:0:
109,192,109183,1,2,0:0:0:0:
182,192,109183,1,0,0:0:0:0:
329,192,109316,1,8,0:0:0:0:
475,192,109316,1,0,0:0:0:0:
256,192,109450,1,2,0:0:0:0:
402,192,109450,1,0,0:0:0:0:
182,192,109516,1,2,0:0:0:0:
109,192,109583,1,8,0:0:0:0:
329,192,109583,1,0,0:0:0:0:
36,192,109716,1,2,0:0:0:0:
182,192,109716,1,0,0:0:0:0:
256,192,109850,1,8,0:0:0:0:
402,192,109850,1,0,0:0:0:0:
109,192,109983,1,2,0:0:0:0:
182,192,109983,1,0,0:0:0:0:
256,192,110050,1,2,0:0:0:0:
329,192,110116,1,8,0:0:0:0:
475,192,110116,1,0,0:0:0:0:
36,192,110250,1,2,0:0:0:0:
109,192,110250,1,0,0:0:0:0:
402,192,110250,1,0,0:0:0:0:
182,192,110383,1,8,0:0:0:0:
329,192,110383,1,0,0:0:0:0:
256,192,110516,1,2,0:0:0:0:
475,192,110516,1,0,0:0:0:0:
329,192,110583,1,2,0:0:0:0:
182,192,110650,1,8,0:0:0:0:
402,192,110650,1,0,0:0:0:0:
109,192,110783,1,2,0:0:0:0:
329,192,110783,1,0,0:0:0:0:
36,192,110916,1,8,0:0:0:0:
475,192,110916,1,0,0:0:0:0:
109,192,111050,1,2,0:0:0:0:
402,192,111050,1,0,0:0:0:0:
256,192,111116,1,2,0:0:0:0:
182,192,111183,1,8,0:0:0:0:
329,192,111183,1,0,0:0:0:0:
182,192,111316,1,2,0:0:0:0:
329,192,111316,1,0,0:0:0:0:
109,192,111450,1,8,0:0:0:0:
402,192,111450,1,0,0:0:0:0:
475,192,111450,1,0,0:0:0:0:
36,192,111583,1,2,0:0:0:0:
182,192,111583,1,0,0:0:0:0:
329,192,111650,1,2,0:0:0:0:
109,192,111716,1,8,0:0:0:0:
256,192,111716,1,0,0:0:0:0:
475,192,111716,1,0,0:0:0:0:
182,192,111850,1,2,0:0:0:0:
329,192,111850,1,0,0:0:0:0:
402,192,111983,1,8,0:0:0:0:
475,192,111983,1,0,0:0:0:0:
182,192,112116,1,2,0:0:0:0:
256,192,112116,1,0,0:0:0:0:
329,192,112183,1,2,0:0:0:0:
109,192,112250,1,8,0:0:0:0:
402,192,112250,1,0,0:0:0:0:
36,192,112383,1,2,0:0:0:0:
256,192,112383,1,0,0:0:0:0:
475,192,112383,1,0,0:0:0:0:
182,192,112472,1,0,0:0:0:0:
402,192,112516,1,8,0:0:0:0:
109,192,112561,1,0,0:0:0:0:
256,192,112650,1,2,0:0:0:0:
329,192,112738,1,0,0:0:0:0:
36,192,112783,1,8,0:0:0:0:
402,192,112827,1,0,0:0:0:0:
109,192,112916,1,2,0:0:0:0:
182,192,112916,1,0,0:0:0:0:
475,192,112916,1,0,0:0:0:0:
329,192,113005,1,0,0:0:0:0:
36,192,113050,1,8,0:0:0:0:
256,192,113094,1,0,0:0:0:0:
182,192,113183,1,2,0:0:0:0:
109,192,113272,1,0,0:0:0:0:
402,192,113316,1,8,0:0:0:0:
182,192,113361,1,0,0:0:0:0:
256,192,113450,1,2,0:0:0:0:
329,192,113538,1,0,0:0:0:0:
36,192,113583,1,8,0:0:0:0:
402,192,113627,1,0,0:0:0:0:
256,192,113716,1,2,0:0:0:0:
182,192,113805,1,0,0:0:0:0:
329,192,113850,1,8,0:0:0:0:
402,192,113850,1,0,0:0:0:0:
475,192,113850,1,0,0:0:0:0:
109,192,113894,1,0,0:0:0:0:
36,192,113983,1,2,0:0:0:0:
182,192,114072,1,0,0:0:0:0:
475,192,114116,1,8,0:0:0:0:
256,192,114161,1,0,0:0:0:0:
329,192,114250,1,2,0:0:0:0:
109,192,114338,1,0,0:0:0:0:
402,192,114383,1,8,0:0:0:0:
256,192,114427,1,0,0:0:0:0:
36,192,114516,1,2,0:0:0:0:
475,192,114516,1,0,0:0:0:0:
109,192,114583,1,0,0:0:0:0:
182,192,114650,1,8,0:0:0:0:
329,192,114650,1,0,0:0:0:0:
402,192,114716,1,0,0:0:0:0:
475,192,114783,1,2,0:0:0:0:
256,192,114850,1,2,0:0:0:0:
36,192,114916,1,8,0:0:0:0:
109,192,114916,1,0,0:0:0:0:
329,192,114983,1,0,0:0:0:0:
182,192,115050,1,2,0:0:0:0:
402,192,115116,1,0,0:0:0:0:
36,192,115183,1,8,0:0:0:0:
256,192,115183,1,0,0:0:0:0:
109,192,115250,1,0,0:0:0:0:
182,192,115316,1,2,0:0:0:0:
329,192,115383,1,2,0:0:0:0:
109,192,115450,1,8,0:0:0:0:
475,192,115450,1,0,0:0:0:0:
256,192,115516,1,0,0:0:0:0:
36,192,115583,1,8,0:0:0:0:
402,192,115583,1,0,0:0:0:0:
182,192,115650,1,0,0:0:0:0:
109,192,115716,1,8,0:0:0:0:
329,192,115716,1,0,0:0:0:0:
256,192,115783,1,0,0:0:0:0:
182,192,115850,1,8,0:0:0:0:
402,192,115850,1,0,0:0:0:0:
329,192,115916,1,0,0:0:0:0:
256,192,115983,1,8,0:0:0:0:
475,192,115983,1,0,0:0:0:0:
402,192,116050,1,0,0:0:0:0:
36,192,116116,1,8,0:0:0:0:
109,192,116116,1,4,0:0:0:0:
329,192,116116,1,0,0:0:0:0:
182,192,116250,1,0,0:0:0:0:
256,192,116383,1,0,0:0:0:0:
329,192,116516,1,0,0:0:0:0:
