osu file format v14

[General]
AudioFilename: audio.mp3
AudioLeadIn: 0
PreviewTime: 66825
Countdown: 0
SampleSet: Normal
StackLeniency: 0.2
Mode: 1
LetterboxInBreaks: 0
WidescreenStoryboard: 0

[Editor]
Bookmarks: 9225,11145,14985,17865,18825,25545,34185,41865,49545,57225,61065,62985,66825
DistanceSpacing: 1.1
BeatDivisor: 4
GridSize: 32
TimelineZoom: 2.6

[Metadata]
Title:Staring at star
TitleUnicode:Staring at star
Artist:MisoilePunch ~ Takenoko soe ~
ArtistUnicode:MisoilePunch♪ ~タケノコ添え~
Creator:Yuguiboy
Version:Stellar Oni
Source:SOUND VOLTEX IV HEAVENLY HAVEN
Tags:SDVX maximaxiU
BeatmapID:1689214
BeatmapSetID:804553

[Difficulty]
HPDrainRate:5
CircleSize:2
OverallDifficulty:7
ApproachRate:10
SliderMultiplier:1.4
SliderTickRate:1

[Events]
//Background and Video events
0,0,"788977.jpg",0,0
//Break Periods
//Storyboard Layer 0 (Background)
//Storyboard Layer 1 (Fail)
//Storyboard Layer 2 (Pass)
//Storyboard Layer 3 (Foreground)
//Storyboard Sound Samples

[TimingPoints]
825,240,4,1,0,50,1,0
1545,240,4,1,0,50,1,0
66825,-100,4,1,0,50,0,1
82185,-100,4,1,0,50,0,0
82425,-100,4,1,0,50,0,1
97545,-100,4,1,0,50,0,0

[HitObjects]
259,191,825,5,0,0:0:0:0:
249,188,1065,1,0,0:0:0:0:
249,188,1305,1,8,0:0:0:0:
249,188,1545,1,4,0:0:0:0:
256,193,1785,1,8,0:0:0:0:
256,193,1905,1,0,0:0:0:0:
256,193,2145,1,0,0:0:0:0:
256,193,2385,1,8,0:0:0:0:
256,193,2625,1,0,0:0:0:0:
256,193,2745,1,8,0:0:0:0:
256,193,2865,1,0,0:0:0:0:
256,193,2985,1,8,0:0:0:0:
256,193,3045,1,0,0:0:0:0:
256,193,3105,1,8,0:0:0:0:
263,192,3165,1,8,0:0:0:0:
263,192,3225,1,0,0:0:0:0:
263,192,3285,1,0,0:0:0:0:
263,192,3345,1,0,0:0:0:0:
263,192,3405,1,0,0:0:0:0:
263,192,3465,1,8,0:0:0:0:
263,192,3705,1,0,0:0:0:0:
263,192,3765,1,0,0:0:0:0:
263,192,3825,1,0,0:0:0:0:
263,192,3885,1,0,0:0:0:0:
263,192,3945,1,8,0:0:0:0:
270,188,4065,1,0,0:0:0:0:
270,188,4185,1,8,0:0:0:0:
255,190,4305,1,0,0:0:0:0:
255,190,4365,1,8,0:0:0:0:
255,190,4425,1,8,0:0:0:0:
255,190,4545,1,0,0:0:0:0:
255,190,4665,1,0,0:0:0:0:
255,190,4785,1,8,0:0:0:0:
255,190,4905,1,0,0:0:0:0:
255,190,5025,1,8,0:0:0:0:
255,190,5085,1,8,0:0:0:0:
255,190,5145,1,0,0:0:0:0:
255,190,5205,1,0,0:0:0:0:
255,190,5265,1,0,0:0:0:0:
255,190,5325,1,0,0:0:0:0:
255,190,5385,1,8,0:0:0:0:
255,190,5505,1,0,0:0:0:0:
255,190,5625,1,0,0:0:0:0:
255,190,5745,1,8,0:0:0:0:
255,190,5805,1,0,0:0:0:0:
255,190,5865,1,8,0:0:0:0:
255,190,5985,1,0,0:0:0:0:
255,190,6105,1,0,0:0:0:0:
250,185,6225,1,8,0:0:0:0:
250,185,6345,1,0,0:0:0:0:
250,185,6405,1,0,0:0:0:0:
250,185,6465,1,8,0:0:0:0:
257,192,6585,1,8,0:0:0:0:
257,192,6705,1,0,0:0:0:0:
257,192,6765,1,0,0:0:0:0:
257,192,6825,1,8,0:0:0:0:
257,192,6945,1,4,0:0:0:0:
257,192,7065,1,4,0:0:0:0:
257,192,7185,1,4,0:0:0:0:
257,192,7305,1,12,0:0:0:0:
257,192,7425,1,0,0:0:0:0:
257,184,7545,1,0,0:0:0:0:
257,184,7665,1,12,0:0:0:0:
257,184,7785,1,0,0:0:0:0:
251,181,7905,1,0,0:0:0:0:
251,181,8025,1,12,0:0:0:0:
251,181,8145,1,0,0:0:0:0:
251,181,8265,1,0,0:0:0:0:
251,181,8385,1,12,0:0:0:0:
251,181,8505,1,0,0:0:0:0:
251,181,8625,1,0,0:0:0:0:
251,187,8745,1,8,0:0:0:0:
251,187,8805,1,8,0:0:0:0:
251,187,8865,1,0,0:0:0:0:
251,187,8925,1,0,0:0:0:0:
251,187,8985,1,8,0:0:0:0:
251,187,9045,1,8,0:0:0:0:
246,190,9105,1,0,0:0:0:0:
251,187,9165,1,0,0:0:0:0:
251,187,9225,1,8,0:0:0:0:
256,185,9305,1,0,0:0:0:0:
255,192,9385,1,0,0:0:0:0:
251,187,9465,1,8,0:0:0:0:
256,185,9545,1,8,0:0:0:0:
253,182,9625,1,0,0:0:0:0:
251,187,9705,1,0,0:0:0:0:
256,185,9785,1,8,0:0:0:0:
257,187,9865,1,8,0:0:0:0:
256,191,9945,1,0,0:0:0:0:
256,185,10025,1,8,0:0:0:0:
257,187,10105,1,8,0:0:0:0:
256,191,10185,1,0,0:0:0:0:
256,185,10265,1,0,0:0:0:0:
257,187,10345,1,8,0:0:0:0:
258,196,10425,1,8,0:0:0:0:
256,185,10505,1,0,0:0:0:0:
257,187,10585,1,0,0:0:0:0:
258,196,10665,1,8,0:0:0:0:
256,185,10745,1,8,0:0:0:0:
257,183,10825,1,0,0:0:0:0:
256,183,10905,1,0,0:0:0:0:
257,183,10985,1,8,0:0:0:0:
257,183,11065,1,8,0:0:0:0:
257,183,11145,1,0,0:0:0:0:
257,183,11265,1,0,0:0:0:0:
257,183,11385,1,8,0:0:0:0:
257,183,11505,1,0,0:0:0:0:
257,183,11565,1,0,0:0:0:0:
253,191,11625,1,8,0:0:0:0:
249,183,11745,1,8,0:0:0:0:
249,183,11805,1,8,0:0:0:0:
253,191,11865,1,0,0:0:0:0:
249,183,11985,1,0,0:0:0:0:
249,183,12045,1,0,0:0:0:0:
253,191,12105,1,8,0:0:0:0:
238,175,12225,1,8,0:0:0:0:
238,175,12285,1,8,0:0:0:0:
238,175,12345,1,0,0:0:0:0:
238,175,12405,1,0,0:0:0:0:
243,181,12465,1,8,0:0:0:0:
253,191,12705,1,8,0:0:0:0:
253,191,12765,1,0,0:0:0:0:
253,191,12825,1,8,0:0:0:0:
253,191,13065,1,8,0:0:0:0:
253,191,13185,1,0,0:0:0:0:
253,191,13305,1,8,0:0:0:0:
253,191,13425,1,0,0:0:0:0:
253,191,13545,1,8,0:0:0:0:
249,195,13665,1,0,0:0:0:0:
253,191,13785,1,8,0:0:0:0:
249,195,13905,1,0,0:0:0:0:
253,191,13965,1,0,0:0:0:0:
254,192,14025,1,8,0:0:0:0:
241,193,14145,1,0,0:0:0:0:
254,192,14265,1,8,0:0:0:0:
258,185,14385,1,0,0:0:0:0:
257,185,14445,1,0,0:0:0:0:
255,184,14505,1,8,0:0:0:0:
255,184,14565,1,0,0:0:0:0:
255,184,14625,1,0,0:0:0:0:
260,186,14685,1,0,0:0:0:0:
258,188,14745,1,8,0:0:0:0:
255,184,14805,1,8,0:0:0:0:
255,184,14865,1,0,0:0:0:0:
258,188,14925,1,0,0:0:0:0:
258,188,14985,1,8,0:0:0:0:
272,188,15105,1,8,0:0:0:0:
258,188,15225,1,0,0:0:0:0:
255,184,15345,1,8,0:0:0:0:
258,188,15465,1,8,0:0:0:0:
272,188,15585,1,0,0:0:0:0:
272,188,15705,1,8,0:0:0:0:
272,188,15825,1,8,0:0:0:0:
272,188,15945,1,0,0:0:0:0:
272,188,16065,1,8,0:0:0:0:
272,188,16185,1,8,0:0:0:0:
272,188,16305,1,0,0:0:0:0:
249,188,16425,1,8,0:0:0:0:
249,188,16485,1,8,0:0:0:0:
249,188,16545,1,0,0:0:0:0:
249,188,16605,1,0,0:0:0:0:
249,188,16665,1,8,0:0:0:0:
259,191,16785,1,8,0:0:0:0:
256,189,16905,1,0,0:0:0:0:
259,191,16965,1,0,0:0:0:0:
256,189,17025,1,8,0:0:0:0:
256,189,17145,1,8,0:0:0:0:
256,189,17265,1,0,0:0:0:0:
256,189,17325,1,0,0:0:0:0:
256,189,17385,1,8,0:0:0:0:
256,189,17505,1,8,0:0:0:0:
256,189,17625,1,0,0:0:0:0:
256,189,17685,1,0,0:0:0:0:
256,189,17745,1,8,0:0:0:0:
263,188,17865,1,8,0:0:0:0:
264,188,17925,1,8,0:0:0:0:
264,188,17985,1,8,0:0:0:0:
263,188,18045,1,8,0:0:0:0:
263,188,18105,1,8,0:0:0:0:
264,188,18165,1,8,0:0:0:0:
264,188,18225,1,8,0:0:0:0:
263,188,18285,1,8,0:0:0:0:
263,188,18345,1,0,0:0:0:0:
264,188,18405,1,0,0:0:0:0:
264,188,18465,1,0,0:0:0:0:
263,188,18525,1,0,0:0:0:0:
263,188,18585,1,8,0:0:0:0:
264,188,18645,1,8,0:0:0:0:
264,188,18705,1,0,0:0:0:0:
263,188,18765,1,0,0:0:0:0:
263,188,18825,1,8,0:0:0:0:
250,191,19785,1,0,0:0:0:0:
252,191,20745,1,8,0:0:0:0:
252,191,21705,1,8,0:0:0:0:
252,191,22185,1,0,0:0:0:0:
252,191,22665,1,8,0:0:0:0:
253,188,23625,1,0,0:0:0:0:
257,195,24585,1,8,0:0:0:0:
257,188,25305,1,0,0:0:0:0:
257,188,25345,1,0,0:0:0:0:
257,188,25385,1,0,0:0:0:0:
257,188,25425,1,0,0:0:0:0:
257,188,25465,1,0,0:0:0:0:
257,188,25505,1,0,0:0:0:0:
257,188,25545,1,8,0:0:0:0:
272,200,25725,1,8,0:0:0:0:
262,196,25905,1,0,0:0:0:0:
262,196,25965,1,0,0:0:0:0:
262,196,26025,1,8,0:0:0:0:
262,196,26145,1,4,0:0:0:0:
262,196,26265,1,4,0:0:0:0:
262,196,26505,1,8,0:0:0:0:
262,196,26625,1,0,0:0:0:0:
262,196,26745,1,0,0:0:0:0:
262,196,26865,1,8,0:0:0:0:
262,196,26925,1,8,0:0:0:0:
262,196,26985,1,8,0:0:0:0:
262,196,27105,1,0,0:0:0:0:
262,196,27225,1,8,0:0:0:0:
255,197,27345,1,0,0:0:0:0:
251,191,27465,1,0,0:0:0:0:
251,191,27585,1,0,0:0:0:0:
260,197,27705,1,8,0:0:0:0:
251,191,27825,1,8,0:0:0:0:
252,192,27885,1,8,0:0:0:0:
252,192,27945,1,0,0:0:0:0:
251,191,28005,1,0,0:0:0:0:
251,191,28065,1,8,0:0:0:0:
252,192,28125,1,8,0:0:0:0:
252,192,28185,1,0,0:0:0:0:
251,191,28245,1,0,0:0:0:0:
251,191,28305,1,0,0:0:0:0:
252,192,28365,1,0,0:0:0:0:
252,192,28425,1,8,0:0:0:0:
251,191,28545,1,0,0:0:0:0:
252,192,28665,1,8,0:0:0:0:
251,191,28785,1,0,0:0:0:0:
252,192,28845,1,0,0:0:0:0:
252,192,28905,1,8,0:0:0:0:
254,198,29025,1,0,0:0:0:0:
250,199,29145,1,8,0:0:0:0:
250,199,29205,1,8,0:0:0:0:
250,199,29265,1,8,0:0:0:0:
250,199,29325,1,8,0:0:0:0:
250,199,29385,1,0,0:0:0:0:
261,206,29445,1,0,0:0:0:0:
267,198,29505,1,0,0:0:0:0:
257,194,29565,1,0,0:0:0:0:
257,194,29625,1,8,0:0:0:0:
258,197,29745,1,0,0:0:0:0:
257,194,29865,1,8,0:0:0:0:
258,197,29925,1,0,0:0:0:0:
258,197,29985,1,0,0:0:0:0:
257,194,30045,1,0,0:0:0:0:
257,194,30105,1,8,0:0:0:0:
258,197,30225,1,0,0:0:0:0:
257,194,30345,1,0,0:0:0:0:
258,197,30465,1,8,0:0:0:0:
253,196,30585,1,0,0:0:0:0:
253,196,30645,1,0,0:0:0:0:
253,196,30705,1,8,0:0:0:0:
253,196,30825,1,0,0:0:0:0:
253,196,30945,1,8,0:0:0:0:
253,196,31065,1,0,0:0:0:0:
253,196,31125,1,0,0:0:0:0:
253,196,31185,1,8,0:0:0:0:
261,190,31305,1,0,0:0:0:0:
259,190,31425,1,8,0:0:0:0:
253,195,31545,1,0,0:0:0:0:
253,195,31665,1,8,0:0:0:0:
253,195,31785,1,0,0:0:0:0:
253,195,31905,1,8,0:0:0:0:
264,194,32025,1,0,0:0:0:0:
264,194,32085,1,0,0:0:0:0:
264,194,32145,1,8,0:0:0:0:
264,194,32265,1,12,0:0:0:0:
264,194,32505,1,4,0:0:0:0:
264,194,32625,1,12,0:0:0:0:
264,194,32865,1,0,0:0:0:0:
256,192,32925,1,0,0:0:0:0:
256,192,32985,1,8,0:0:0:0:
256,192,33105,1,0,0:0:0:0:
256,192,33165,1,0,0:0:0:0:
256,192,33225,1,8,0:0:0:0:
256,192,33285,1,8,0:0:0:0:
256,192,33345,1,0,0:0:0:0:
256,192,33405,1,0,0:0:0:0:
256,192,33465,1,8,0:0:0:0:
256,192,33525,1,0,0:0:0:0:
256,192,33585,1,0,0:0:0:0:
256,192,33645,1,0,0:0:0:0:
256,192,33705,1,8,0:0:0:0:
256,192,33765,1,0,0:0:0:0:
256,192,33825,1,0,0:0:0:0:
256,192,33885,1,0,0:0:0:0:
256,192,33945,1,8,0:0:0:0:
253,181,34005,1,0,0:0:0:0:
253,181,34065,1,0,0:0:0:0:
256,184,34125,1,0,0:0:0:0:
256,192,34185,1,12,0:0:0:0:
251,192,34305,1,0,0:0:0:0:
251,192,34365,1,0,0:0:0:0:
256,192,34425,1,0,0:0:0:0:
251,192,34545,1,12,0:0:0:0:
251,192,34665,1,0,0:0:0:0:
251,192,34725,1,0,0:0:0:0:
256,192,34785,1,0,0:0:0:0:
251,192,34905,1,12,0:0:0:0:
251,192,35025,1,0,0:0:0:0:
251,192,35085,1,0,0:0:0:0:
256,192,35145,1,0,0:0:0:0:
251,192,35265,1,12,0:0:0:0:
246,193,35385,1,8,0:0:0:0:
251,192,35445,1,8,0:0:0:0:
251,192,35505,1,8,0:0:0:0:
246,193,35625,1,8,0:0:0:0:
242,192,35685,1,0,0:0:0:0:
241,193,35745,1,0,0:0:0:0:
246,193,35805,1,0,0:0:0:0:
246,193,35865,1,8,0:0:0:0:
242,192,35925,1,0,0:0:0:0:
241,193,35985,1,8,0:0:0:0:
239,193,36045,1,0,0:0:0:0:
251,192,36105,1,8,0:0:0:0:
251,192,36225,1,8,0:0:0:0:
247,192,36285,1,0,0:0:0:0:
251,192,36345,1,0,0:0:0:0:
251,192,36465,1,0,0:0:0:0:
251,192,36585,1,0,0:0:0:0:
251,192,36645,1,8,0:0:0:0:
251,192,36705,1,0,0:0:0:0:
251,192,36765,1,8,0:0:0:0:
251,192,36825,1,8,0:0:0:0:
238,176,36885,1,0,0:0:0:0:
238,176,36945,1,0,0:0:0:0:
237,177,37005,1,8,0:0:0:0:
237,177,37065,1,8,0:0:0:0:
238,176,37185,1,0,0:0:0:0:
237,177,37305,1,0,0:0:0:0:
244,181,37425,1,0,0:0:0:0:
244,181,37545,1,8,0:0:0:0:
244,181,37605,1,8,0:0:0:0:
244,181,37665,1,0,0:0:0:0:
244,181,37725,1,0,0:0:0:0:
244,181,37785,1,8,0:0:0:0:
247,187,37845,1,8,0:0:0:0:
251,191,37905,1,0,0:0:0:0:
251,191,37965,1,0,0:0:0:0:
251,191,38025,1,8,0:0:0:0:
242,179,38145,1,0,0:0:0:0:
250,178,38265,1,0,0:0:0:0:
250,178,38325,1,0,0:0:0:0:
250,178,38385,1,8,0:0:0:0:
250,178,38445,1,8,0:0:0:0:
250,178,38505,1,0,0:0:0:0:
234,166,38625,1,8,0:0:0:0:
234,166,38745,1,0,0:0:0:0:
229,178,38865,1,0,0:0:0:0:
241,175,38985,1,8,0:0:0:0:
246,182,39105,1,8,0:0:0:0:
260,189,39225,1,0,0:0:0:0:
260,189,39285,1,0,0:0:0:0:
260,189,39345,1,8,0:0:0:0:
260,189,39405,1,8,0:0:0:0:
261,198,39465,1,8,0:0:0:0:
256,196,39585,1,0,0:0:0:0:
261,198,39705,1,8,0:0:0:0:
264,192,39825,1,8,0:0:0:0:
267,185,39945,1,8,0:0:0:0:
264,192,40065,1,8,0:0:0:0:
261,193,40185,1,0,0:0:0:0:
264,192,40305,1,8,0:0:0:0:
261,193,40425,1,8,0:0:0:0:
264,192,40545,1,0,0:0:0:0:
261,193,40665,1,8,0:0:0:0:
264,192,40785,1,0,0:0:0:0:
261,193,40905,1,0,0:0:0:0:
272,187,41025,1,8,0:0:0:0:
273,187,41145,1,8,0:0:0:0:
272,187,41265,1,0,0:0:0:0:
273,187,41385,1,0,0:0:0:0:
272,187,41445,1,0,0:0:0:0:
272,187,41505,1,8,0:0:0:0:
273,187,41565,1,8,0:0:0:0:
273,187,41625,1,0,0:0:0:0:
272,187,41685,1,0,0:0:0:0:
272,187,41745,1,8,0:0:0:0:
266,183,41805,1,8,0:0:0:0:
270,180,41985,1,0,0:0:0:0:
268,181,42045,1,0,0:0:0:0:
266,182,42105,1,8,0:0:0:0:
260,191,42225,1,8,0:0:0:0:
261,190,42345,1,8,0:0:0:0:
260,191,42465,1,0,0:0:0:0:
260,191,42585,1,8,0:0:0:0:
260,191,42645,1,0,0:0:0:0:
260,191,42705,1,0,0:0:0:0:
260,191,42765,1,0,0:0:0:0:
260,191,42825,1,8,0:0:0:0:
260,191,42945,1,0,0:0:0:0:
260,191,43065,1,8,0:0:0:0:
260,191,43185,1,0,0:0:0:0:
260,191,43305,1,8,0:0:0:0:
267,192,43365,1,0,0:0:0:0:
266,184,43425,1,0,0:0:0:0:
267,186,43485,1,0,0:0:0:0:
267,192,43545,1,8,0:0:0:0:
267,192,43605,1,8,0:0:0:0:
267,192,43665,1,0,0:0:0:0:
267,192,43725,1,0,0:0:0:0:
267,192,43785,1,8,0:0:0:0:
269,200,43905,1,8,0:0:0:0:
271,197,44025,1,8,0:0:0:0:
269,200,44085,1,0,0:0:0:0:
269,200,44145,1,0,0:0:0:0:
271,197,44205,1,0,0:0:0:0:
271,197,44265,1,8,0:0:0:0:
304,196,44385,1,8,0:0:0:0:
291,197,44505,1,8,0:0:0:0:
291,197,44565,1,0,0:0:0:0:
291,197,44625,1,8,0:0:0:0:
291,197,44685,1,8,0:0:0:0:
296,185,44745,1,0,0:0:0:0:
291,197,44865,1,0,0:0:0:0:
298,197,44985,1,0,0:0:0:0:
300,196,45105,1,8,0:0:0:0:
298,197,45165,1,0,0:0:0:0:
298,197,45225,1,0,0:0:0:0:
298,197,45405,1,0,0:0:0:0:
298,197,45585,1,0,0:0:0:0:
307,197,45705,1,8,0:0:0:0:
309,199,45765,1,8,0:0:0:0:
307,197,45825,1,8,0:0:0:0:
317,197,45945,1,0,0:0:0:0:
307,197,46065,1,8,0:0:0:0:
307,197,46125,1,8,0:0:0:0:
307,197,46185,1,8,0:0:0:0:
316,201,46305,1,0,0:0:0:0:
307,197,46425,1,8,0:0:0:0:
307,197,46485,1,8,0:0:0:0:
307,197,46545,1,8,0:0:0:0:
307,197,46665,1,0,0:0:0:0:
307,197,46785,1,8,0:0:0:0:
307,197,46845,1,8,0:0:0:0:
307,197,46905,1,8,0:0:0:0:
307,197,47025,1,0,0:0:0:0:
307,197,47145,1,8,0:0:0:0:
307,197,47205,1,0,0:0:0:0:
307,197,47265,1,8,0:0:0:0:
307,197,47325,1,0,0:0:0:0:
307,197,47385,1,8,0:0:0:0:
307,197,47445,1,0,0:0:0:0:
307,197,47505,1,8,0:0:0:0:
307,197,47565,1,0,0:0:0:0:
307,197,47625,1,8,0:0:0:0:
250,193,47745,1,0,0:0:0:0:
250,193,47865,1,0,0:0:0:0:
250,193,47985,1,8,0:0:0:0:
250,193,48105,1,8,0:0:0:0:
256,194,48225,1,0,0:0:0:0:
256,194,48345,1,8,0:0:0:0:
256,194,48465,1,8,0:0:0:0:
256,194,48585,1,8,0:0:0:0:
256,194,48705,1,8,0:0:0:0:
255,193,48825,1,8,0:0:0:0:
255,193,48945,1,0,0:0:0:0:
255,193,49065,1,8,0:0:0:0:
255,193,49125,1,8,0:0:0:0:
255,193,49185,1,8,0:0:0:0:
255,193,49245,1,8,0:0:0:0:
255,193,49305,1,0,0:0:0:0:
255,193,49365,1,0,0:0:0:0:
255,193,49425,1,8,0:0:0:0:
255,193,49485,1,8,0:0:0:0:
255,193,49545,1,0,0:0:0:0:
247,197,50745,1,8,0:0:0:0:
247,197,50865,1,8,0:0:0:0:
247,197,50925,1,8,0:0:0:0:
247,197,50985,1,8,0:0:0:0:
247,197,51105,1,0,0:0:0:0:
247,197,51225,1,0,0:0:0:0:
247,197,51345,1,0,0:0:0:0:
257,190,51465,1,8,0:0:0:0:
247,193,52305,1,0,0:0:0:0:
247,193,52365,1,0,0:0:0:0:
247,193,52425,1,0,0:0:0:0:
257,196,52905,1,8,0:0:0:0:
257,196,53145,1,0,0:0:0:0:
255,193,53385,1,0,0:0:0:0:
246,195,53505,1,0,0:0:0:0:
245,196,53625,1,8,0:0:0:0:
246,195,53745,1,0,0:0:0:0:
245,196,53865,1,8,0:0:0:0:
247,203,53985,1,0,0:0:0:0:
246,203,54105,1,0,0:0:0:0:
235,192,54225,1,0,0:0:0:0:
235,192,54345,1,8,0:0:0:0:
235,192,54465,1,0,0:0:0:0:
235,192,54585,1,0,0:0:0:0:
239,197,54705,1,0,0:0:0:0:
239,197,54825,1,8,0:0:0:0:
239,197,54945,1,0,0:0:0:0:
239,197,55065,1,8,0:0:0:0:
239,197,55185,1,0,0:0:0:0:
247,179,55305,1,8,0:0:0:0:
253,192,55545,1,8,0:0:0:0:
253,192,55665,1,0,0:0:0:0:
244,177,56265,1,0,0:0:0:0:
255,194,56745,1,0,0:0:0:0:
255,194,56865,1,8,0:0:0:0:
255,194,56925,1,8,0:0:0:0:
255,194,56985,1,0,0:0:0:0:
255,194,57045,1,8,0:0:0:0:
255,194,57105,1,8,0:0:0:0:
245,190,57165,1,8,0:0:0:0:
255,194,57225,1,0,0:0:0:0:
266,189,57465,1,0,0:0:0:0:
254,194,57585,1,0,0:0:0:0:
254,194,57705,1,8,0:0:0:0:
254,194,57945,1,0,0:0:0:0:
254,194,58065,1,0,0:0:0:0:
255,202,58305,1,0,0:0:0:0:
258,195,58545,1,0,0:0:0:0:
258,195,58605,1,0,0:0:0:0:
258,195,58665,1,8,0:0:0:0:
267,184,58785,1,0,0:0:0:0:
286,183,59025,1,8,0:0:0:0:
286,183,59145,1,0,0:0:0:0:
254,190,59385,1,0,0:0:0:0:
254,190,59505,1,0,0:0:0:0:
254,190,59565,1,0,0:0:0:0:
246,185,59625,1,8,0:0:0:0:
261,186,59745,1,0,0:0:0:0:
261,186,59985,1,0,0:0:0:0:
261,186,60225,1,0,0:0:0:0:
261,186,60465,1,0,0:0:0:0:
261,186,60525,1,0,0:0:0:0:
256,191,60585,1,8,0:0:0:0:
256,191,60705,1,0,0:0:0:0:
254,200,60825,1,0,0:0:0:0:
254,200,60885,1,0,0:0:0:0:
254,200,60945,1,0,0:0:0:0:
254,200,61005,1,0,0:0:0:0:
254,200,61065,1,8,0:0:0:0:
245,196,61145,1,0,0:0:0:0:
245,196,61225,1,0,0:0:0:0:
242,194,61305,1,8,0:0:0:0:
245,196,61385,1,0,0:0:0:0:
245,196,61465,1,8,0:0:0:0:
242,194,61545,1,8,0:0:0:0:
245,196,61625,1,0,0:0:0:0:
245,196,61705,1,0,0:0:0:0:
249,197,61785,1,8,0:0:0:0:
255,196,61865,1,0,0:0:0:0:
255,196,61945,1,8,0:0:0:0:
249,197,62025,1,8,0:0:0:0:
255,196,62105,1,0,0:0:0:0:
263,199,62185,1,0,0:0:0:0:
263,199,62265,1,8,0:0:0:0:
263,199,62345,1,0,0:0:0:0:
263,199,62425,1,8,0:0:0:0:
254,195,62505,1,8,0:0:0:0:
254,195,62745,1,8,0:0:0:0:
254,195,62785,1,8,0:0:0:0:
254,195,62825,1,8,0:0:0:0:
254,195,62865,1,8,0:0:0:0:
254,195,62905,1,8,0:0:0:0:
254,195,62945,1,8,0:0:0:0:
246,192,62985,1,0,0:0:0:0:
261,189,63105,1,0,0:0:0:0:
254,195,63165,1,0,0:0:0:0:
250,198,63225,1,8,0:0:0:0:
251,198,63345,1,0,0:0:0:0:
250,198,63465,1,0,0:0:0:0:
251,198,63585,1,8,0:0:0:0:
251,197,63705,1,8,0:0:0:0:
251,198,63825,1,0,0:0:0:0:
251,197,63945,1,0,0:0:0:0:
244,195,64065,1,0,0:0:0:0:
251,197,64185,1,8,0:0:0:0:
264,189,64305,1,0,0:0:0:0:
264,189,64425,1,0,0:0:0:0:
264,189,64545,1,8,0:0:0:0:
263,194,64665,1,8,0:0:0:0:
264,189,64785,1,8,0:0:0:0:
257,189,64845,1,8,0:0:0:0:
256,189,64905,1,8,0:0:0:0:
264,189,65025,1,8,0:0:0:0:
264,189,65265,1,8,0:0:0:0:
265,191,65385,1,8,0:0:0:0:
265,191,65625,1,8,0:0:0:0:
264,189,65745,1,8,0:0:0:0:
273,192,66105,1,0,0:0:0:0:
273,192,66345,1,0,0:0:0:0:
276,184,66585,1,0,0:0:0:0:
276,184,66825,1,8,0:0:0:0:
265,189,66945,1,0,0:0:0:0:
265,188,67005,1,0,0:0:0:0:
265,188,67065,1,8,0:0:0:0:
265,189,67185,1,8,0:0:0:0:
265,188,67305,1,0,0:0:0:0:
265,189,67425,1,0,0:0:0:0:
265,188,67545,1,8,0:0:0:0:
265,189,67665,1,0,0:0:0:0:
265,188,67725,1,8,0:0:0:0:
260,193,67785,1,0,0:0:0:0:
256,187,67905,1,0,0:0:0:0:
256,187,67965,1,0,0:0:0:0:
260,193,68025,1,8,0:0:0:0:
256,187,68145,1,0,0:0:0:0:
251,191,68265,1,0,0:0:0:0:
250,191,68325,1,0,0:0:0:0:
248,191,68385,1,0,0:0:0:0:
251,191,68445,1,0,0:0:0:0:
254,192,68505,1,8,0:0:0:0:
250,198,68625,1,0,0:0:0:0:
254,192,68745,1,8,0:0:0:0:
256,192,68865,1,0,0:0:0:0:
254,192,68925,1,0,0:0:0:0:
254,192,68985,1,8,0:0:0:0:
248,197,69105,1,8,0:0:0:0:
254,192,69225,1,0,0:0:0:0:
248,197,69345,1,0,0:0:0:0:
256,193,69465,1,8,0:0:0:0:
255,202,69585,1,0,0:0:0:0:
248,192,69705,1,8,0:0:0:0:
255,202,69825,1,0,0:0:0:0:
255,202,69885,1,0,0:0:0:0:
255,202,69945,1,8,0:0:0:0:
271,188,70065,1,0,0:0:0:0:
262,186,70185,1,0,0:0:0:0:
262,186,70245,1,0,0:0:0:0:
262,186,70305,1,0,0:0:0:0:
262,186,70365,1,0,0:0:0:0:
262,186,70425,1,8,0:0:0:0:
262,186,70545,1,0,0:0:0:0:
251,184,70665,1,8,0:0:0:0:
251,183,70785,1,0,0:0:0:0:
251,184,70905,1,8,0:0:0:0:
259,191,71025,1,0,0:0:0:0:
251,184,71145,1,0,0:0:0:0:
245,189,71265,1,8,0:0:0:0:
245,189,71325,1,0,0:0:0:0:
245,189,71385,1,0,0:0:0:0:
256,196,71505,1,8,0:0:0:0:
256,196,71625,1,8,0:0:0:0:
256,196,71745,1,0,0:0:0:0:
256,196,71865,1,8,0:0:0:0:
266,207,71925,1,0,0:0:0:0:
256,196,71985,1,8,0:0:0:0:
260,203,72045,1,0,0:0:0:0:
256,196,72105,1,8,0:0:0:0:
256,196,72165,1,0,0:0:0:0:
247,190,72225,1,0,0:0:0:0:
256,196,72285,1,0,0:0:0:0:
256,196,72345,1,0,0:0:0:0:
259,196,72465,1,0,0:0:0:0:
256,196,72525,1,0,0:0:0:0:
256,196,72585,1,8,0:0:0:0:
259,196,72705,1,0,0:0:0:0:
256,196,72825,1,0,0:0:0:0:
259,196,72945,1,8,0:0:0:0:
256,196,73065,1,0,0:0:0:0:
259,196,73185,1,0,0:0:0:0:
256,196,73305,1,8,0:0:0:0:
249,186,73425,1,0,0:0:0:0:
249,186,73485,1,0,0:0:0:0:
249,186,73545,1,8,0:0:0:0:
249,186,73665,1,8,0:0:0:0:
249,186,73725,1,0,0:0:0:0:
249,186,73785,1,0,0:0:0:0:
251,194,73905,1,8,0:0:0:0:
251,194,74025,1,8,0:0:0:0:
243,178,74145,1,0,0:0:0:0:
251,194,74265,1,8,0:0:0:0:
247,185,74385,1,0,0:0:0:0:
244,191,74445,1,0,0:0:0:0:
251,194,74505,1,8,0:0:0:0:
259,185,74625,1,8,0:0:0:0:
259,186,74745,1,8,0:0:0:0:
259,185,74865,1,0,0:0:0:0:
259,186,74985,1,0,0:0:0:0:
277,181,75105,1,0,0:0:0:0:
259,186,75225,1,8,0:0:0:0:
253,184,75345,1,8,0:0:0:0:
254,194,75465,1,8,0:0:0:0:
254,194,75525,1,8,0:0:0:0:
254,194,75585,1,0,0:0:0:0:
254,194,75645,1,0,0:0:0:0:
254,194,75705,1,8,0:0:0:0:
254,194,75825,1,0,0:0:0:0:
254,194,75945,1,8,0:0:0:0:
254,194,76005,1,8,0:0:0:0:
254,194,76065,1,0,0:0:0:0:
254,194,76125,1,0,0:0:0:0:
254,194,76185,1,8,0:0:0:0:
254,194,76305,1,0,0:0:0:0:
254,194,76425,1,8,0:0:0:0:
254,194,76545,1,8,0:0:0:0:
254,194,76605,1,0,0:0:0:0:
254,194,76665,1,0,0:0:0:0:
254,194,76785,1,8,0:0:0:0:
258,186,77025,1,12,0:0:0:0:
258,186,77145,1,12,0:0:0:0:
258,186,77265,1,12,0:0:0:0:
258,186,77385,1,12,0:0:0:0:
258,186,77565,1,12,0:0:0:0:
253,191,77745,1,4,0:0:0:0:
253,191,77865,1,12,0:0:0:0:
249,197,78045,1,12,0:0:0:0:
237,187,78225,1,12,0:0:0:0:
258,193,78345,1,12,0:0:0:0:
257,192,78465,1,0,0:0:0:0:
258,193,78525,1,0,0:0:0:0:
258,193,78585,1,8,0:0:0:0:
257,192,78705,1,12,0:0:0:0:
257,192,78825,1,0,0:0:0:0:
258,193,78885,1,0,0:0:0:0:
258,193,78945,1,8,0:0:0:0:
257,192,79065,1,12,0:0:0:0:
257,192,79185,1,0,0:0:0:0:
258,193,79245,1,0,0:0:0:0:
258,193,79305,1,8,0:0:0:0:
257,192,79425,1,12,0:0:0:0:
257,192,79545,1,0,0:0:0:0:
258,193,79605,1,0,0:0:0:0:
258,193,79665,1,8,0:0:0:0:
257,192,79785,1,12,0:0:0:0:
258,193,79905,1,0,0:0:0:0:
257,192,80025,1,0,0:0:0:0:
258,193,80145,1,8,0:0:0:0:
257,192,80265,1,12,0:0:0:0:
257,192,80505,1,8,0:0:0:0:
250,192,80565,1,8,0:0:0:0:
249,192,80625,1,0,0:0:0:0:
248,192,80685,1,0,0:0:0:0:
248,192,80745,1,8,0:0:0:0:
250,192,80805,1,8,0:0:0:0:
249,192,80865,1,0,0:0:0:0:
255,195,80925,1,8,0:0:0:0:
248,192,80985,1,8,0:0:0:0:
250,192,81045,1,0,0:0:0:0:
249,192,81105,1,0,0:0:0:0:
255,195,81165,1,0,0:0:0:0:
267,189,81225,1,8,0:0:0:0:
267,189,81345,1,0,0:0:0:0:
267,189,81465,1,0,0:0:0:0:
267,189,81525,1,0,0:0:0:0:
258,195,81585,1,8,0:0:0:0:
267,189,81705,1,0,0:0:0:0:
267,189,81945,1,8,0:0:0:0:
257,192,82185,1,8,0:0:0:0:
257,192,82245,1,0,0:0:0:0:
257,192,82305,1,0,0:0:0:0:
257,192,82365,1,0,0:0:0:0:
257,192,82425,1,8,0:0:0:0:
257,192,82545,1,0,0:0:0:0:
247,186,82785,1,8,0:0:0:0:
247,186,82905,1,8,0:0:0:0:
259,164,82965,1,8,0:0:0:0:
259,164,83025,1,8,0:0:0:0:
259,164,83085,1,8,0:0:0:0:
245,169,83145,1,8,0:0:0:0:
245,169,83205,1,0,0:0:0:0:
245,169,83265,1,0,0:0:0:0:
245,169,83325,1,0,0:0:0:0:
245,169,83385,1,8,0:0:0:0:
245,198,83445,1,8,0:0:0:0:
245,169,83505,1,0,0:0:0:0:
245,169,83565,1,0,0:0:0:0:
246,188,83625,1,8,0:0:0:0:
256,197,83685,1,0,0:0:0:0:
255,197,83745,1,0,0:0:0:0:
251,197,83805,1,0,0:0:0:0:
247,193,83865,1,8,0:0:0:0:
247,193,83925,1,8,0:0:0:0:
247,193,83985,1,0,0:0:0:0:
247,193,84045,1,0,0:0:0:0:
247,193,84105,1,8,0:0:0:0:
247,193,84225,1,0,0:0:0:0:
247,193,84285,1,0,0:0:0:0:
247,193,84345,1,8,0:0:0:0:
247,193,84465,1,0,0:0:0:0:
241,174,84585,1,0,0:0:0:0:
242,182,84645,1,0,0:0:0:0:
241,182,84705,1,0,0:0:0:0:
254,221,84765,1,0,0:0:0:0:
244,193,84825,1,8,0:0:0:0:
245,202,84945,1,0,0:0:0:0:
244,201,85065,1,8,0:0:0:0:
246,188,85125,1,0,0:0:0:0:
246,187,85185,1,0,0:0:0:0:
234,181,85245,1,0,0:0:0:0:
236,173,85305,1,8,0:0:0:0:
244,177,85425,1,0,0:0:0:0:
244,177,85545,1,0,0:0:0:0:
244,177,85605,1,0,0:0:0:0:
244,177,85665,1,0,0:0:0:0:
244,177,85725,1,0,0:0:0:0:
244,177,85785,1,8,0:0:0:0:
241,166,85845,1,8,0:0:0:0:
241,166,85905,1,8,0:0:0:0:
241,166,85965,1,8,0:0:0:0:
241,166,86025,1,0,0:0:0:0:
241,166,86105,1,0,0:0:0:0:
241,166,86185,1,0,0:0:0:0:
241,166,86265,1,8,0:0:0:0:
241,166,86345,1,0,0:0:0:0:
241,166,86425,1,8,0:0:0:0:
241,166,86505,1,8,0:0:0:0:
241,166,86585,1,0,0:0:0:0:
241,166,86665,1,0,0:0:0:0:
241,166,86745,1,8,0:0:0:0:
232,151,86825,1,0,0:0:0:0:
232,152,86905,1,0,0:0:0:0:
232,151,86985,1,8,0:0:0:0:
255,191,87105,1,0,0:0:0:0:
255,191,87165,1,0,0:0:0:0:
255,191,87225,1,8,0:0:0:0:
255,191,87345,1,8,0:0:0:0:
255,191,87465,1,8,0:0:0:0:
255,191,87585,1,8,0:0:0:0:
252,182,87705,1,8,0:0:0:0:
252,182,87825,1,8,0:0:0:0:
252,182,87945,1,8,0:0:0:0:
255,192,88065,1,8,0:0:0:0:
255,192,88125,1,0,0:0:0:0:
255,192,88185,1,0,0:0:0:0:
262,196,88245,1,8,0:0:0:0:
255,192,88305,1,8,0:0:0:0:
255,192,88425,1,8,0:0:0:0:
249,199,88485,1,8,0:0:0:0:
255,192,88545,1,0,0:0:0:0:
249,196,88605,1,0,0:0:0:0:
255,192,88665,1,8,0:0:0:0:
255,192,88785,1,0,0:0:0:0:
255,192,88845,1,0,0:0:0:0:
255,192,88905,1,8,0:0:0:0:
251,162,89025,1,0,0:0:0:0:
251,162,89145,1,8,0:0:0:0:
251,162,89265,1,0,0:0:0:0:
257,189,89505,1,8,0:0:0:0:
257,189,89565,1,8,0:0:0:0:
257,189,89625,1,0,0:0:0:0:
257,189,89685,1,0,0:0:0:0:
257,189,89745,1,0,0:0:0:0:
257,189,89805,1,0,0:0:0:0:
257,189,89865,1,8,0:0:0:0:
257,189,89945,1,0,0:0:0:0:
246,186,90025,1,0,0:0:0:0:
246,186,90105,1,8,0:0:0:0:
253,197,90185,1,0,0:0:0:0:
254,196,90265,1,0,0:0:0:0:
254,196,90345,1,8,0:0:0:0:
261,192,90425,1,0,0:0:0:0:
261,192,90505,1,0,0:0:0:0:
261,192,90585,1,8,0:0:0:0:
261,192,90665,1,0,0:0:0:0:
261,192,90745,1,0,0:0:0:0:
261,192,90825,1,8,0:0:0:0:
261,192,90905,1,0,0:0:0:0:
261,192,90985,1,0,0:0:0:0:
261,192,91065,1,8,0:0:0:0:
261,192,91145,1,0,0:0:0:0:
261,192,91225,1,8,0:0:0:0:
267,192,91305,1,0,0:0:0:0:
261,192,91385,1,8,0:0:0:0:
261,192,91465,1,8,0:0:0:0:
267,192,91545,1,8,0:0:0:0:
266,187,91625,1,0,0:0:0:0:
264,182,91705,1,0,0:0:0:0:
264,182,91785,1,8,0:0:0:0:
265,202,91905,1,0,0:0:0:0:
265,190,92025,1,8,0:0:0:0:
266,190,92145,1,8,0:0:0:0:
265,190,92205,1,8,0:0:0:0:
265,190,92265,1,0,0:0:0:0:
266,190,92385,1,0,0:0:0:0:
265,190,92505,1,8,0:0:0:0:
266,190,92565,1,0,0:0:0:0:
266,190,92625,1,0,0:0:0:0:
260,195,92685,1,0,0:0:0:0:
260,195,92745,1,8,0:0:0:0:
255,196,92805,1,8,0:0:0:0:
254,197,92865,1,0,0:0:0:0:
260,195,92925,1,0,0:0:0:0:
247,197,92985,1,0,0:0:0:0:
246,192,93105,1,8,0:0:0:0:
259,195,93345,1,8,0:0:0:0:
259,195,93405,1,8,0:0:0:0:
248,199,93465,1,0,0:0:0:0:
248,199,93525,1,0,0:0:0:0:
248,199,93585,1,8,0:0:0:0:
248,199,93645,1,8,0:0:0:0:
251,197,93705,1,0,0:0:0:0:
248,199,93825,1,8,0:0:0:0:
251,197,93945,1,0,0:0:0:0:
248,199,94005,1,0,0:0:0:0:
248,199,94065,1,8,0:0:0:0:
241,197,94185,1,0,0:0:0:0:
241,197,94305,1,8,0:0:0:0:
236,186,94425,1,0,0:0:0:0:
233,188,94545,1,8,0:0:0:0:
243,186,94665,1,0,0:0:0:0:
260,189,94785,1,8,0:0:0:0:
260,185,94905,1,0,0:0:0:0:
261,180,95025,1,8,0:0:0:0:
260,185,95145,1,0,0:0:0:0:
248,188,95265,1,8,0:0:0:0:
256,192,95325,1,8,0:0:0:0:
256,192,95385,1,0,0:0:0:0:
256,192,95445,1,0,0:0:0:0:
256,192,95505,1,8,0:0:0:0:
256,192,95565,1,8,0:0:0:0:
256,192,95625,1,0,0:0:0:0:
262,188,95745,1,8,0:0:0:0:
262,188,95865,1,0,0:0:0:0:
262,188,95925,1,0,0:0:0:0:
262,188,95985,1,8,0:0:0:0:
262,197,96105,1,0,0:0:0:0:
261,197,96225,1,8,0:0:0:0:
251,192,96345,1,8,0:0:0:0:
251,192,96585,1,0,0:0:0:0:
251,192,96665,1,0,0:0:0:0:
251,192,96745,1,0,0:0:0:0:
251,192,96825,1,8,0:0:0:0:
251,192,96905,1,8,0:0:0:0:
251,192,96985,1,8,0:0:0:0:
258,190,97065,1,0,0:0:0:0:
251,192,97145,1,0,0:0:0:0:
251,192,97225,1,8,0:0:0:0:
251,195,97305,1,8,0:0:0:0:
251,192,97385,1,0,0:0:0:0:
251,192,97465,1,0,0:0:0:0:
251,195,97545,1,8,0:0:0:0:
251,192,97665,1,0,0:0:0:0:
251,192,97905,1,0,0:0:0:0:
251,192,97965,1,0,0:0:0:0:
251,192,98025,1,8,0:0:0:0:
251,192,98265,1,0,0:0:0:0:
251,192,98385,1,0,0:0:0:0:
251,192,98505,1,8,0:0:0:0:
258,194,98625,1,0,0:0:0:0:
266,193,98745,1,8,0:0:0:0:
258,194,98865,1,0,0:0:0:0:
261,194,98925,1,0,0:0:0:0:
261,194,98985,1,8,0:0:0:0:
258,194,99105,1,0,0:0:0:0:
261,194,99225,1,8,0:0:0:0:
258,194,99345,1,0,0:0:0:0:
261,194,99405,1,0,0:0:0:0:
261,194,99465,1,8,0:0:0:0:
258,194,99585,1,0,0:0:0:0:
263,185,99825,1,0,0:0:0:0:
263,185,99885,1,0,0:0:0:0:
263,185,99945,1,8,0:0:0:0:
260,192,100185,1,0,0:0:0:0:
260,192,100305,1,0,0:0:0:0:
266,189,100425,1,8,0:0:0:0:
260,192,100545,1,0,0:0:0:0:
266,189,100605,1,8,0:0:0:0:
266,189,100665,1,0,0:0:0:0:
260,192,100725,1,8,0:0:0:0:
260,192,100785,1,0,0:0:0:0:
266,189,100905,1,8,0:0:0:0:
260,192,101065,1,8,0:0:0:0:
260,192,101225,1,8,0:0:0:0:
270,187,101385,1,0,0:0:0:0:
260,186,101505,1,0,0:0:0:0:
257,185,101565,1,0,0:0:0:0:
257,184,101625,1,0,0:0:0:0:
253,184,101745,1,0,0:0:0:0:
257,184,101865,1,8,0:0:0:0:
253,184,101925,1,8,0:0:0:0:
253,184,101985,1,0,0:0:0:0:
257,184,102045,1,0,0:0:0:0:
257,184,102105,1,8,0:0:0:0:
253,184,102165,1,0,0:0:0:0:
253,184,102225,1,0,0:0:0:0:
257,184,102285,1,0,0:0:0:0:
257,184,102345,1,8,0:0:0:0:
253,184,102465,1,0,0:0:0:0:
257,184,102525,1,0,0:0:0:0:
257,184,102585,1,8,0:0:0:0:
231,192,102645,1,8,0:0:0:0:
253,184,102705,1,0,0:0:0:0:
257,184,102765,1,0,0:0:0:0:
257,184,102825,1,8,0:0:0:0:
269,189,102885,1,8,0:0:0:0:
253,184,102945,1,0,0:0:0:0:
250,189,103005,1,0,0:0:0:0:
250,189,103065,1,8,0:0:0:0:
250,199,103125,1,0,0:0:0:0:
250,199,103185,1,8,0:0:0:0:
250,198,103245,1,8,0:0:0:0:
243,200,103305,1,8,0:0:0:0:
243,200,103365,1,8,0:0:0:0:
243,200,103425,1,8,0:0:0:0:
243,200,103485,1,8,0:0:0:0:
243,200,103545,1,0,0:0:0:0:
243,200,103605,1,0,0:0:0:0:
243,200,103665,1,8,0:0:0:0:
243,200,103725,1,8,0:0:0:0:
243,200,103785,1,8,0:0:0:0:
243,200,103845,1,8,0:0:0:0:
243,200,103905,1,0,0:0:0:0:
243,200,103965,1,0,0:0:0:0:
243,200,104025,1,0,0:0:0:0:
243,200,104085,1,0,0:0:0:0:
243,200,104145,1,0,0:0:0:0:
243,200,104205,1,0,0:0:0:0:
243,200,104265,1,0,0:0:0:0:
243,200,104325,1,0,0:0:0:0:
243,200,104385,1,8,0:0:0:0:
243,200,104445,1,8,0:0:0:0:
243,200,104505,1,0,0:0:0:0:
243,200,104565,1,0,0:0:0:0:
243,200,104625,1,8,0:0:0:0:
243,200,104685,1,0,0:0:0:0:
243,200,104745,1,8,0:0:0:0:
243,200,104865,1,0,0:0:0:0:
243,200,104925,1,0,0:0:0:0:
243,200,104985,1,8,0:0:0:0:
243,200,105105,1,0,0:0:0:0:
243,200,105225,1,8,0:0:0:0:
233,201,105285,1,8,0:0:0:0:
233,201,105345,1,0,0:0:0:0:
233,201,105405,1,0,0:0:0:0:
232,201,105465,1,8,0:0:0:0:
233,201,105525,1,0,0:0:0:0:
233,201,105585,1,0,0:0:0:0:
233,201,105645,1,0,0:0:0:0:
232,201,105705,1,8,0:0:0:0:
256,197,105825,1,0,0:0:0:0:
258,197,105945,1,8,0:0:0:0:
239,195,106065,1,0,0:0:0:0:
241,196,106185,1,8,0:0:0:0:
239,195,106245,1,8,0:0:0:0:
239,195,106305,1,0,0:0:0:0:
241,196,106365,1,0,0:0:0:0:
241,196,106425,1,8,0:0:0:0:
239,195,106485,1,0,0:0:0:0:
239,195,106545,1,0,0:0:0:0:
241,196,106605,1,0,0:0:0:0:
241,196,106665,1,8,0:0:0:0:
239,195,106785,1,0,0:0:0:0:
241,196,106905,1,8,0:0:0:0:
239,195,107025,1,0,0:0:0:0:
241,196,107145,1,8,0:0:0:0:
253,195,107265,1,0,0:0:0:0:
255,197,107385,1,0,0:0:0:0:
253,195,107505,1,0,0:0:0:0:
255,197,107625,1,8,0:0:0:0:
253,195,107745,1,0,0:0:0:0:
255,197,107865,1,8,0:0:0:0:
253,195,107985,1,0,0:0:0:0:
255,197,108105,1,8,0:0:0:0:
253,195,108185,1,0,0:0:0:0:
255,197,108265,1,0,0:0:0:0:
255,197,108345,1,8,0:0:0:0:
253,195,108425,1,0,0:0:0:0:
255,197,108505,1,0,0:0:0:0:
255,197,108585,1,8,0:0:0:0:
253,195,108665,1,0,0:0:0:0:
255,197,108745,1,0,0:0:0:0:
255,197,108825,1,0,0:0:0:0:
253,195,108905,1,0,0:0:0:0:
255,197,108985,1,0,0:0:0:0:
256,203,109065,1,8,0:0:0:0:
254,204,109125,1,0,0:0:0:0:
254,204,109185,1,0,0:0:0:0:
256,203,109245,1,0,0:0:0:0:
256,203,109305,1,8,0:0:0:0:
254,204,109365,1,8,0:0:0:0:
254,204,109425,1,0,0:0:0:0:
256,203,109485,1,0,0:0:0:0:
257,188,109545,1,8,0:0:0:0:
264,198,109605,1,0,0:0:0:0:
263,198,109665,1,0,0:0:0:0:
262,198,109725,1,0,0:0:0:0:
262,198,109785,1,8,0:0:0:0:
264,198,109845,1,8,0:0:0:0:
263,198,109905,1,0,0:0:0:0:
262,198,109965,1,0,0:0:0:0:
262,198,110025,1,8,0:0:0:0:
264,198,110085,1,0,0:0:0:0:
263,198,110145,1,0,0:0:0:0:
262,198,110205,1,0,0:0:0:0:
262,198,110265,1,8,0:0:0:0:
264,198,110325,1,8,0:0:0:0:
263,198,110385,1,0,0:0:0:0:
262,198,110445,1,0,0:0:0:0:
262,198,110505,1,8,0:0:0:0:
264,198,110565,1,0,0:0:0:0:
263,198,110625,1,0,0:0:0:0:
262,198,110685,1,0,0:0:0:0:
262,198,110745,1,8,0:0:0:0:
264,198,110805,1,8,0:0:0:0:
263,198,110865,1,0,0:0:0:0:
262,198,110925,1,0,0:0:0:0:
262,198,110985,1,8,0:0:0:0:
259,192,111105,1,0,0:0:0:0:
262,198,111225,1,8,0:0:0:0:
259,192,111345,1,0,0:0:0:0:
254,197,111405,1,0,0:0:0:0:
251,197,111465,1,8,0:0:0:0:
251,197,111585,1,0,0:0:0:0:
251,197,111705,1,8,0:0:0:0:
251,197,111765,1,8,0:0:0:0:
251,197,111825,1,0,0:0:0:0:
251,197,111885,1,0,0:0:0:0:
251,197,111945,1,8,0:0:0:0:
251,197,112065,1,0,0:0:0:0:
251,197,112185,1,8,0:0:0:0:
251,197,112305,1,0,0:0:0:0:
251,197,112425,1,8,0:0:0:0:
251,197,112545,1,8,0:0:0:0:
251,197,112665,1,8,0:0:0:0:
251,197,112785,1,12,0:0:0:0:
253,196,113385,1,12,0:0:0:0:
256,192,113625,8,12,115785,0:0:0:0:
