osu file format v14

[General]
AudioFilename: audio.ogg
AudioLeadIn: 0
PreviewTime: 87998
Countdown: 0
SampleSet: Soft
StackLeniency: 0.8
Mode: 0
LetterboxInBreaks: 0
WidescreenStoryboard: 1

[Editor]
Bookmarks: 138544
DistanceSpacing: 1.3
BeatDivisor: 4
GridSize: 8
TimelineZoom: 1.700001

[Metadata]
Title:Bloomin'
TitleUnicode:Bl∞min'
Artist:MisoilePunch -Forever-
ArtistUnicode:MisoilePunch♪ -Forever-
Creator:R3m
Version:SupaV's ADVANCED
Source:SOUND VOLTEX EXCEED GEAR
Tags:instrumental electronic video game sdvx hexa diver konami arcade bemani championship original song misomyl ponchi Allice CallieCube Paradogi GYGY Anxient Cynplytholowazy SupaV Nozuchi Jemzuu
BeatmapID:3852832
BeatmapSetID:1809888

[Difficulty]
HPDrainRate:4
CircleSize:3.6
OverallDifficulty:6
ApproachRate:8
SliderMultiplier:1.28
SliderTickRate:1

[Events]
//Background and Video events
0,0,"bg.jpg",0,0
//Break Periods
//Storyboard Layer 0 (Background)
//Storyboard Layer 1 (Fail)
//Storyboard Layer 2 (Pass)
//Storyboard Layer 3 (Foreground)
//Storyboard Layer 4 (Overlay)
//Storyboard Sound Samples

[TimingPoints]
1054,256.410256410256,4,2,1,60,1,0
2079,-100,4,2,1,5,0,0
2592,-100,4,2,1,15,0,0
3105,-100,4,2,1,30,0,0
3618,-100,4,2,1,40,0,0
4130,256.410256410256,4,2,1,60,1,0
4130,-166.666666666667,4,2,1,60,0,0
7720,-125,4,2,1,60,0,0
8233,-142.857142857143,4,2,1,60,0,0
11310,-100,4,2,1,60,0,0
12336,-90.9090909090909,4,2,1,60,0,0
19515,-83.3333333333333,4,2,1,60,0,0
20797,256.410256410256,4,2,1,60,1,0
20797,-142.857142857143,4,2,1,60,0,0
22848,256.410256410256,4,2,2,60,1,0
22848,-200,4,2,2,60,0,0
23040,-200,4,2,1,45,0,0
30541,-142.857142857143,4,2,1,45,0,0
31053,-125,4,2,1,50,0,0
31309,-125,4,2,2,50,0,0
31438,-125,4,2,1,50,0,0
31566,-125,4,2,2,50,0,0
32079,-125,4,2,1,50,0,0
32335,-125,4,2,2,50,0,0
32976,-125,4,2,1,50,0,0
33361,-125,4,2,2,50,0,0
34002,-125,4,2,1,50,0,0
34130,-125,4,2,2,50,0,0
34387,-100,4,2,1,50,0,0
35156,-100,4,2,1,55,0,0
37207,-100,4,2,1,60,0,0
38746,-142.857142857143,4,2,1,60,0,0
39259,-111.111111111111,4,2,1,60,0,0
51566,-166.666666666667,4,2,1,40,0,0
53617,-166.666666666667,4,2,2,40,0,0
54643,-166.666666666667,4,2,1,50,0,0
55669,-90.9090909090909,4,2,1,60,0,0
60028,-166.666666666667,4,2,1,60,0,0
61823,512.820512820513,4,2,1,60,1,0
64002,-100,4,2,1,40,0,0
65925,-200,4,2,1,40,0,0
66951,512.820512820513,4,2,2,40,1,0
66951,-200,4,2,2,40,0,0
70797,-200,4,2,1,40,0,0
78233,-142.857142857143,4,2,1,40,0,0
79258,-100,4,2,1,60,0,0
79771,-100,4,2,1,35,0,0
80284,-100,4,2,1,38,0,0
80797,-100,4,2,1,44,0,0
81310,428.571428571429,4,2,1,53,1,0
81738,-100,4,2,1,55,0,0
82167,-100,4,2,1,59,0,0
82595,342.857142857143,4,2,1,62,1,0
82937,-100,4,2,1,64,0,0
83280,301.507537688442,4,2,1,66,1,0
83581,-100,4,2,1,68,0,0
83883,280.373831775701,4,2,1,72,1,0
84163,-100,4,2,1,75,0,0
84167,-100,4,2,1,75,0,0
84443,256.410256410256,4,2,1,75,1,0
84451,-100,4,2,1,78,0,0
84707,-100,4,2,1,80,0,0
84963,-100,4,2,1,83,0,0
85220,-100,4,2,1,85,0,0
85476,-100,4,2,1,88,0,0
85733,-100,4,2,1,90,0,0
85989,-100,4,2,1,60,0,0
87007,-200,4,2,1,60,0,0
88032,256.410256410256,4,2,1,60,1,0
88032,-100,4,2,1,60,0,0
92134,-86.9565217391304,4,2,2,60,0,0
92142,-86.9565217391304,4,2,2,70,0,0
92335,-86.9565217391304,4,2,1,60,0,0
95724,-100,4,2,1,60,0,0
96237,-100,4,3,3,60,0,0
96373,-100,4,3,1,60,0,0
96749,-100,4,3,3,60,0,0
96886,-100,4,3,1,60,0,0
97262,-100,4,3,3,60,0,0
97399,-100,4,3,1,60,0,0
98416,-86.9565217391304,4,3,1,60,0,0
98424,-86.9565217391304,4,2,1,60,0,0
102647,-86.9565217391304,4,2,1,30,0,0
102775,-86.9565217391304,4,2,1,35,0,0
102904,-86.9565217391304,4,2,1,45,0,0
103032,-86.9565217391304,4,2,1,50,0,0
103160,-86.9565217391304,4,2,1,55,0,0
103288,-86.9565217391304,4,2,1,60,0,0
103416,-86.9565217391304,4,2,1,65,0,0
103545,-86.9565217391304,4,2,1,70,0,0
103673,-86.9565217391304,4,2,1,80,0,0
103801,-86.9565217391304,4,2,1,85,0,0
103929,-86.9565217391304,4,2,1,90,0,0
103993,-86.9565217391304,4,2,1,70,0,0
104442,-100,4,2,1,70,0,0
104450,-100,4,2,2,70,0,0
104706,-100,4,2,1,60,0,0
106493,-86.9565217391304,4,2,1,60,0,0
107390,-125,4,2,1,60,0,0
108544,-125,4,2,2,60,0,0
109057,-100,4,2,2,60,0,0
109570,-86.9565217391304,4,2,1,60,0,0
111117,-86.9565217391304,4,3,1,70,0,0
111621,-111.111111111111,4,3,1,70,0,0
111630,-111.111111111111,4,2,1,70,0,0
112142,-111.111111111111,4,2,1,55,0,0
112647,-142.857142857143,4,2,1,55,0,0
113673,256.410256410256,4,2,1,60,1,0
113673,-86.9565217391304,4,2,1,55,0,0
113681,-86.9565217391304,4,2,1,60,0,0
121878,-100,4,3,3,60,0,0
121886,-100,4,3,3,70,0,0
122134,-100,4,3,1,70,0,0
122390,-100,4,3,3,70,0,0
122647,-100,4,3,1,70,0,0
122903,-100,4,3,3,70,0,0
123160,-100,4,3,1,70,0,0
123416,-100,4,3,3,70,0,0
123488,-100,4,3,1,70,0,0
123929,-100,4,3,3,70,0,0
124130,-100,4,3,1,60,0,0
125476,-100,4,3,1,50,0,0
125980,-90.9090909090909,4,3,1,70,0,0
132134,-90.9090909090909,4,3,3,70,0,0
132335,-90.9090909090909,4,3,1,70,0,0
132390,-90.9090909090909,4,3,1,50,0,0
132399,-90.9090909090909,4,3,1,55,0,0
132647,-90.9090909090909,4,3,1,60,0,0
132903,-90.9090909090909,4,3,1,70,0,0
133288,-90.9090909090909,4,3,1,75,0,0
133673,-100,4,2,1,75,0,0
133681,-100,4,2,1,60,0,0
134442,256.410256410256,4,2,1,60,1,0
134442,-166.666666666667,4,2,1,60,0,0
135732,-166.666666666667,4,2,1,50,0,0
136758,-166.666666666667,4,2,1,30,0,0
137271,-166.666666666667,4,2,1,20,0,0
137719,-166.666666666667,4,2,1,35,0,0
138031,-166.666666666667,4,2,1,45,0,0
138104,-166.666666666667,4,2,1,55,0,0
138288,-166.666666666667,4,2,1,65,0,0
138416,-166.666666666667,4,2,1,60,0,0
138424,-166.666666666667,4,2,1,5,0,0

[Colours]
Combo1 : 0,152,242
Combo2 : 65,222,56
Combo3 : 95,203,243
Combo4 : 60,194,56

[HitObjects]
512,14,4130,6,0,B|377:-54|250:79|360:154|239:297|93:209,1,537.59998359375,4|2,3:1|0:0,0:0:0:0:
0,69,6182,2,0,B|79:111|79:111|5:331|5:331|99:386,1,422.399987109375,4|2,3:2|0:0,0:0:0:0:
162,340,7720,2,0,B|154:309|154:309|156:305|156:305|146:262,2,68.2666666666667,10|8|4,3:2|3:0|3:0,0:0:0:0:
246,381,8233,6,0,B|434:351|434:351|513:338|531:257|486:192|409:202|409:202|206:233,1,627.199980859376,4|2,3:1|0:0,0:0:0:0:
74,128,10284,6,0,P|26:18|128:85,1,313.599990429688,6|2,3:2|0:0,0:0:0:0:
162,152,11310,6,0,B|209:144|209:144|235:160|235:160|292:149,1,128,0|0,3:0|3:2,0:0:0:0:
351,100,11695,1,0,3:2:0:0:
351,100,11759,1,0,3:0:0:0:
351,100,11823,2,0,L|401:110,3,32,8|0|0|0,3:2|3:0|3:2|3:0,0:0:0:0:
416,129,12079,1,4,3:1:0:0:
512,0,12336,6,0,B|456:38|456:38|384:11,1,140.800004296875,6|0,3:2|3:0,0:0:0:0:
303,0,12720,2,0,P|291:63|277:154,1,140.800004296875,8|0,3:1|3:0,0:0:0:0:
328,208,13105,2,0,B|259:226|259:226|202:178,1,140.800004296875,8|0,3:1|3:0,0:0:0:0:
126,151,13489,2,0,P|114:81|102:12,1,140.800004296875,8|0,3:1|3:0,0:0:0:0:
18,1,13874,2,0,P|25:39|33:85,1,70.4000021484376,8|0,3:1|3:0,0:0:0:0:
0,148,14130,2,0,L|7:182,3,35.2000010742188,8|8|8|8,3:2|3:2|3:2|3:2,0:0:0:0:
44,204,14387,6,0,B|82:261|82:261|41:328,1,140.800004296875,6|0,3:2|3:0,0:0:0:0:
102,383,14771,2,0,P|177:361|257:348,1,140.800004296875,8|0,3:1|3:0,0:0:0:0:
316,383,15156,2,0,B|353:321|353:321|315:264,1,140.800004296875,8|0,3:1|3:0,0:0:0:0:
309,179,15541,2,0,P|384:201|464:214,1,140.800004296875,8|0,3:1|3:0,0:0:0:0:
511,265,15925,2,0,P|500:306|488:353,1,70.4000021484376,8|0,3:1|3:0,0:0:0:0:
424,383,16182,2,0,L|375:370,3,35.2000010742188,10|10|10|10,3:2|3:2|3:2|3:2,0:0:0:0:
355,349,16438,5,6,3:2:0:0:
277,383,16566,2,0,P|270:343|261:298,1,70.4000021484376,0|0,3:0|3:0,0:0:0:0:
298,236,16823,1,8,3:1:0:0:
298,236,16951,2,0,P|331:211|379:222,1,70.4000021484376,0|0,3:0|3:0,0:0:0:0:
428,258,17207,1,8,3:1:0:0:
494,205,17336,2,0,P|487:165|478:120,1,70.4000021484376,0|0,3:0|3:0,0:0:0:0:
500,56,17592,1,8,3:1:0:0:
500,56,17720,2,0,P|470:38|419:52,1,70.4000021484376,0|0,3:0|3:0,0:0:0:0:
369,94,17977,2,0,P|362:54|353:9,1,70.4000021484376,8|2,3:1|3:2,0:0:0:0:
274,5,18233,2,0,L|263:47,3,35.2000010742188,10|10|10|10,3:2|3:2|3:2|3:2,0:0:0:0:
237,71,18489,6,0,B|197:65|197:65|174:77|174:77|128:71,1,105.600003222656,12|0,3:1|0:0,0:0:0:0:
103,42,18746,2,0,L|63:52,11,35.2000010742188,8|8|8|8|8|8|8|8|8|8|8|8,3:2|3:2|3:2|3:2|3:2|3:2|3:2|3:2|3:2|3:2|3:2|3:2,0:0:0:0:
32,79,19515,6,0,L|20:131,3,38.399998828125,8|8|8|8,3:1|3:1|3:1|3:1,0:0:0:0:
0,156,19771,2,0,L|12:208,3,38.399998828125,8|8|8|8,3:1|3:1|3:1|3:1,0:0:0:0:
40,227,20028,2,0,L|28:279,3,38.399998828125,8|8|8|8,3:1|3:1|3:1|3:1,0:0:0:0:
0,298,20284,2,0,L|12:350,3,38.399998828125,8|8|8|8,3:1|3:1|3:1|3:1,0:0:0:0:
181,382,20797,6,0,B|239:319|321:363|321:363|354:322|354:322|458:396|526:312|526:312|390:277|407:186|407:186|414:244|461:258,1,671.999979492188,6|2,3:2|0:2,0:0:0:0:
488,182,22848,6,0,L|466:77,1,96,4|2,0:3|0:0,0:0:0:0:
312,15,23874,2,0,P|338:0|372:1,1,64,2|2,0:0|0:0,0:0:0:0:
388,80,24259,2,0,P|362:95|328:94,1,64,2|2,0:0|0:0,0:0:0:0:
192,0,24900,6,0,P|198:29|206:67,1,64,2|2,0:1|0:0,0:0:0:0:
255,125,25284,1,2,0:0:0:0:
37,353,26566,2,0,L|30:394,2,32,2|2|2,0:0|0:0|0:0,0:0:0:0:
1,276,26951,6,0,P|35:265|98:251,1,96,2|2,0:1|0:0,0:0:0:0:
229,206,27977,2,0,P|244:178|243:146,1,64,2|2,0:1|0:0,0:0:0:0:
164,130,28360,2,0,P|148:157|149:189,1,64,2|2,0:0|0:0,0:0:0:0:
283,307,29002,6,0,P|249:296|214:289,1,64,2|2,0:1|0:0,0:0:0:0:
141,333,29387,1,2,0:0:0:0:
346,185,30541,6,0,P|353:229|363:287,1,89.5999972656251,2|2,0:1|0:3,0:0:0:0:
481,383,31053,6,0,P|514:350|504:296,1,102.4,6|4,3:2|0:1,0:0:0:0:
441,256,31438,1,2,0:0:0:0:
441,256,31566,2,0,P|451:206|463:142,1,102.4,4|4,0:1|0:1,0:0:0:0:
512,0,32079,2,0,P|475:31|416:21,1,102.4,2|4,3:1|0:1,0:0:0:0:
261,0,32592,2,0,B|274:56|274:56|255:88|255:88|270:151,1,153.6,6|0,0:1|3:0,0:0:0:0:
331,198,33105,6,0,P|293:228|226:215,1,102.4,2|4,3:1|0:1,0:0:0:0:
176,174,33489,2,0,P|137:144|70:157,1,102.4,2|2,0:0|0:0,0:0:0:0:
1,238,34002,2,0,P|10:292|17:349,1,102.4,2|0,3:1|0:0,0:0:0:0:
87,382,34387,2,0,L|131:370,3,32,8|0|0|0,3:1|0:0|3:0|0:0,0:0:0:0:
151,349,34643,2,0,L|195:361,3,32,8|0|4|0,3:3|0:0|3:3|0:0,0:0:0:0:
222,345,34900,6,0,B|245:321|245:321|230:278,1,64,8|0,3:1|0:0,0:0:0:0:
285,226,35156,2,0,B|337:209|383:269|325:261|373:328|451:308,1,192,6|0,3:2|0:0,0:0:0:0:
487,244,35669,6,0,P|478:209|468:164,1,64,8|8,3:1|3:1,0:0:0:0:
506,106,35925,2,0,B|441:92|441:92|395:131|395:131|319:115,1,192,6|0,3:2|0:0,0:0:0:0:
247,122,36438,1,2,3:2:0:0:
360,0,36695,2,0,P|397:6|438:14,1,64,8|0,3:1|0:0,0:0:0:0:
505,1,36951,2,0,L|513:44,3,32,10|10|10|10,3:2|3:2|3:2|3:2,0:0:0:0:
511,73,37207,6,0,P|496:142|480:215,1,128,6|8,3:2|3:1,0:0:0:0:
508,278,37592,2,0,P|478:296|440:286,1,64,10|8,3:1|3:1,0:0:0:0:
382,244,37848,2,0,P|352:226|314:236,1,64,10|8,3:1|3:1,0:0:0:0:
242,215,38105,6,0,B|252:263|252:263|237:296|237:296|251:353,1,128,2|10,3:2|3:2,0:0:0:0:
317,382,38489,1,10,3:2:0:0:
477,366,38746,6,0,B|508:334|508:334|483:292,1,89.5999972656251,2|2,0:0|0:3,0:0:0:0:
511,135,39259,6,0,P|448:147|378:161,1,115.199996484375,6|2,3:1|0:0,0:0:0:0:
247,98,39771,2,0,P|241:69|235:41,1,57.5999982421876,8|0,3:1|0:0,0:0:0:0:
162,5,40028,6,0,P|109:-3|76:57,1,115.199996484375,6|2,3:2|0:0,0:0:0:0:
101,117,40412,1,2,3:2:0:0:
1,244,40669,1,2,3:2:0:0:
1,244,40797,2,2,L|70:258,1,57.5999982421876,10|2,3:2|3:2,3:2:0:0:
122,208,41053,6,0,P|135:229|136:264,1,57.5999982421876,2|2,0:0|0:0,0:0:0:0:
176,332,41310,2,0,B|231:342|231:342|273:306|273:306|354:322,1,172.799994726563,6|2,3:2|3:2,0:0:0:0:
396,368,41823,1,8,3:1:0:0:
508,253,42079,6,0,B|456:209|456:209|341:227,1,172.799994726563,6|2,3:2|3:2,0:0:0:0:
193,255,42720,1,2,3:2:0:0:
193,255,42848,2,0,P|199:222|206:186,1,57.5999982421876,8|0,3:1|0:0,0:0:0:0:
193,117,43105,6,0,L|181:72,3,28.7999991210938,10|10|10|10,3:2|3:2|3:2|3:2,0:0:0:0:
190,49,43361,2,0,B|121:-1|121:-1|34:30,1,172.799994726563,6|2,3:2|3:2,0:0:0:0:
2,101,43874,1,8,3:1:0:0:
112,217,44130,6,0,B|94:278|94:278|117:315|117:315|99:391,1,172.799994726563,6|2,3:2|3:2,0:0:0:0:
263,382,44771,1,2,3:2:0:0:
263,382,44900,2,0,P|253:340|246:307,1,57.5999982421876,8|0,3:1|0:0,0:0:0:0:
192,269,45156,1,2,3:2:0:0:
304,154,45412,6,0,B|389:184|389:184|456:127,1,172.799994726563,6|2,3:2|3:2,0:0:0:0:
511,76,45925,1,8,3:1:0:0:
368,1,46182,6,0,B|301:54|301:54|212:27,1,172.799994726563,6|2,3:2|3:2,0:0:0:0:
57,3,46823,1,8,3:1:0:0:
8,67,46951,1,8,3:1:0:0:
8,67,47079,1,8,3:1:0:0:
61,126,47207,6,0,P|95:118|135:108,1,57.5999982421876,8|8,3:1|3:1,0:0:0:0:
180,61,47464,2,0,P|219:101|209:157,1,115.199996484375,6|2,3:2|0:0,0:0:0:0:
149,208,47848,1,2,0:0:0:0:
316,360,48233,6,0,B|358:353|358:353|390:372|390:372|442:363,1,115.199996484375,6|0,3:2|0:0,0:0:0:0:
484,311,48618,2,0,B|514:342|514:342|505:385,2,86.3999973632813,2|2|8,3:2|3:2|3:1,0:0:0:0:
408,216,49194,5,2,3:2:0:0:
505,144,49386,5,2,3:2:0:0:
441,93,49515,6,0,P|399:103|367:109,1,57.5999982421876,6|0,3:2|0:0,0:0:0:0:
327,164,49771,1,2,0:0:0:0:
327,164,49900,2,0,P|313:193|322:241,1,57.5999982421876,2|8,3:2|3:1,0:0:0:0:
354,287,50156,1,2,0:0:0:0:
300,346,50284,6,0,P|246:298|150:322,1,172.799994726563,6|2,3:2|3:2,0:0:0:0:
81,353,50797,1,2,3:2:0:0:
1,213,51053,2,0,B|9:247|21:306,2,86.3999973632813,8|0|10,3:1|0:0|3:2,0:0:0:0:
58,141,51566,5,2,3:1:0:0:
294,52,53618,5,4,0:3:0:0:
487,2,54130,1,2,0:0:0:0:
434,194,54643,2,0,P|418:132|403:68,1,115.199996484375,2|2,0:1|0:0,0:0:0:0:
226,0,55412,1,14,3:0:0:0:
168,159,55669,6,0,P|119:105|51:123,1,140.800004296875,6|2,3:1|3:2,0:0:0:0:
2,179,56053,2,0,P|12:240|26:320,1,140.800004296875,8|2,3:1|3:2,0:0:0:0:
83,380,56438,2,0,P|132:326|200:344,1,140.800004296875,8|0,3:1|3:0,0:0:0:0:
264,383,56823,2,0,P|276:313|287:244,1,140.800004296875,8|2,3:1|3:2,0:0:0:0:
333,173,57207,2,0,P|326:138|321:103,1,70.4000021484376,8|0,3:1|0:0,0:0:0:0:
349,23,57464,2,0,L|396:33,3,35.2000010742188,8|10|10|10,3:1|3:2|3:2|3:2,0:0:0:0:
417,54,57720,5,10,3:1:0:0:
488,8,57848,2,0,P|495:37|505:88,1,70.4000021484376,0|0,3:0|3:0,0:0:0:0:
512,165,58105,1,8,3:1:0:0:
512,165,58233,2,0,P|471:170|440:147,1,70.4000021484376,0|2,3:0|3:2,0:0:0:0:
370,120,58489,1,8,3:1:0:0:
298,166,58618,2,0,P|305:195|315:246,1,70.4000021484376,0|0,3:0|3:0,0:0:0:0:
342,319,58874,1,8,3:1:0:0:
342,319,59002,2,0,P|371:296|415:303,1,70.4000021484376,2|2,3:2|3:2,0:0:0:0:
478,257,59259,2,0,P|485:286|495:337,1,70.4000021484376,8|10,3:1|3:2,0:0:0:0:
431,383,59515,2,0,L|380:374,3,35.2000010742188,10|10|10|2,3:2|3:2|3:2|3:0,0:0:0:0:
184,382,60028,6,0,B|3:265|3:265|188:166|188:166|161:280,1,537.59998359375,6|2,3:2|3:1,0:0:0:0:
501,256,65925,6,0,P|505:288|513:324,1,64,2|2,0:0|0:0,0:0:0:0:
471,384,66951,1,4,0:3:0:0:
321,310,67976,6,0,L|331:267,1,32,2|2,0:0|0:0,0:0:0:0:
346,255,68361,2,0,L|338:223,1,32,2|2,0:0|0:0,0:0:0:0:
389,161,69002,1,2,0:0:0:0:
196,2,70540,2,0,L|205:42,1,32,2|2,0:0|0:2,0:0:0:0:
258,89,71053,6,0,P|306:100|340:63,1,96,2|2,0:1|0:0,0:0:0:0:
381,2,72079,1,2,0:2:0:0:
470,88,72848,1,2,0:0:0:0:
470,88,73105,1,2,0:0:0:0:
390,220,74130,6,0,B|363:224|363:224|337:209,2,48,2|2|2,0:0|0:0|0:0,0:0:0:0:
463,177,75156,2,0,L|474:222,1,32,2|2,0:1|0:0,0:0:0:0:
502,237,75540,1,2,0:0:0:0:
453,328,76181,6,0,P|450:348|445:375,2,48,2|2|2,0:0|0:0|0:0,0:0:0:0:
398,265,77207,2,0,P|373:264|351:277,1,48,2|2,0:1|0:0,0:0:0:0:
144,317,78233,6,0,L|154:383,2,67.1999979492188,2|2|2,0:0|0:0|0:0,0:0:0:0:
207,263,79258,2,0,P|172:236|105:248,1,96,6|0,3:2|0:0,0:0:0:0:
81,248,79771,6,0,P|74:214|65:177,1,64,2|2,3:2|0:2,0:0:0:0:
7,127,80284,2,0,P|14:93|23:56,1,64,2|2,3:2|0:2,0:0:0:0:
76,2,80797,2,0,L|114:11,3,32,2|2|2|2,3:2|0:2|0:2|0:2,0:0:0:0:
156,20,81310,6,0,P|165:64|175:123,1,96,6|2,3:2|0:2,0:0:0:0:
201,145,81738,2,0,P|193:179|187:218,1,64,2|2,3:2|0:2,0:0:0:0:
131,268,82167,2,0,L|140:308,3,32,2|2|2|2,3:2|0:2|0:2|0:2,0:0:0:0:
156,347,82595,6,0,B|188:353|236:364,1,64,6|2,3:2|0:2,0:0:0:0:
285,310,82937,2,0,L|328:301,3,32,2|2|2|2,3:2|0:2|0:2|0:2,0:0:0:0:
363,304,83280,6,0,P|371:330|385:380,1,64,6|2,3:2|0:2,0:0:0:0:
462,382,83581,2,0,L|475:332,3,32,2|2|2|2,3:2|0:2|0:2|0:2,0:0:0:0:
498,316,83883,6,0,P|490:274|482:233,1,64,6|2,3:2|0:2,0:0:0:0:
508,174,84163,2,0,L|456:161,3,32,2|2|2|2,3:2|0:2|0:2|0:2,0:0:0:0:
435,184,84443,6,0,P|403:191|361:199,1,64,2|2,3:2|0:2,0:0:0:0:
294,225,84699,2,0,P|262:218|220:210,1,64,2|2,3:2|0:2,0:0:0:0:
148,220,84955,6,0,L|139:177,3,32,2|2|2|2,3:2|0:2|0:2|0:2,0:0:0:0:
111,158,85212,2,0,L|120:115,3,32,2|2|2|2,3:2|0:2|0:2|0:2,0:0:0:0:
144,95,85468,2,0,L|135:52,3,32,2|2|2|2,3:2|0:2|0:2|0:2,0:0:0:0:
111,30,85725,2,0,L|119:-6,3,32,2|2|2|2,3:2|0:2|0:2|0:2,0:0:0:0:
449,0,87007,6,0,L|476:132,1,128,2|2,0:0|0:0,0:0:0:0:
509,379,88032,6,0,B|426:385|390:289|390:289|327:370|246:328,1,320,6|0,3:2|0:0,0:0:0:0:
183,283,88801,2,0,L|97:298,1,64,2|2,0:0|0:0,0:0:0:0:
66,357,89057,6,0,P|36:307|68:232,1,128,6|2,3:2|0:0,0:0:0:0:
113,88,89570,2,0,B|104:47|104:47|96:42|96:42|86:-4,2,96,8|8|8,3:1|3:1|3:1,0:0:0:0:
261,164,90211,1,0,3:0:0:0:
261,164,90275,1,0,3:0:0:0:
261,164,90339,6,0,P|274:97|290:18,1,128,6|8,3:1|3:1,0:0:0:0:
361,2,90724,1,8,3:1:0:0:
361,2,90788,1,8,3:1:0:0:
361,2,90852,2,0,L|369:47,3,32,8|8|8|8,3:1|3:1|3:1|3:1,0:0:0:0:
399,59,91108,2,0,L|391:104,3,32,4|4|4|4,3:0|3:0|3:0|3:0,0:0:0:0:
366,123,91365,2,0,L|374:168,3,32,8|8|8|8,3:0|3:0|3:0|3:0,0:0:0:0:
392,190,91621,6,0,P|430:224|476:213,1,96,4|4,3:0|3:0,0:0:0:0:
500,186,91878,2,0,P|506:152|514:111,1,64,8|4,3:1|3:0,0:0:0:0:
511,34,92134,6,0,B|472:7|422:30|464:49|412:76|361:45,1,147.200002807617,6|8,3:2|3:1,0:0:0:0:
309,3,92519,1,8,3:0:0:0:
309,3,92647,2,0,P|299:42|291:88,1,73.6000014038086,2|0,3:2|0:0,0:0:0:0:
230,136,92903,1,8,3:1:0:0:
230,136,93031,2,0,P|240:175|248:221,1,73.6000014038086,6|0,3:2|0:0,0:0:0:0:
207,287,93288,1,0,3:0:0:0:
207,287,93352,1,0,3:0:0:0:
207,287,93416,6,0,P|174:262|126:271,1,73.6000014038086,8|0,3:1|3:0,0:0:0:0:
55,278,93673,2,0,B|45:325|45:325|54:342|54:342|38:403,2,110.400002105713,4|0|2,3:0|3:0|3:2,0:0:0:0:
93,198,94185,6,0,P|83:156|71:103,1,73.6000014038086,6|0,3:2|0:0,0:0:0:0:
16,67,94442,1,8,3:1:0:0:
16,67,94570,2,0,P|45:43|92:42,1,73.6000014038086,6|0,3:2|0:0,0:0:0:0:
162,4,94826,1,2,3:2:0:0:
162,4,94955,1,2,3:2:0:0:
232,56,95083,6,0,B|284:68|284:68|303:103|303:103|362:117,1,147.200002807617,4|0,3:1|3:0,0:0:0:0:
425,169,95467,2,0,P|450:141|444:96,1,73.6000014038086,8|2,3:1|3:2,0:0:0:0:
471,32,95724,6,0,L|517:20,2,42.6666666666667,8|8|8,3:1|3:1|3:1,0:0:0:0:
394,46,95980,6,0,L|360:12,2,42.6666666666667,6|0|0,3:0|0:0|0:0,0:0:0:0:
449,106,96237,6,0,P|440:152|429:213,1,85.3333333333333,12|2,3:3|0:2,0:0:0:0:
456,263,96493,2,0,P|479:267|511:275,2,32,10|10|10,3:2|3:2|3:2,0:0:0:0:
382,289,96749,1,8,3:3:0:0:
253,164,97006,2,0,P|259:141|266:111,2,42.6666666666667,10|10|10,3:2|3:2|3:2,0:0:0:0:
209,229,97262,6,0,P|219:287|231:367,1,128,12|10,3:3|3:2,0:0:0:0:
149,381,97647,2,0,P|106:332|38:342,2,128,0|0|4,0:0|0:0|3:0,0:0:0:0:
294,280,98416,6,0,B|306:331|306:331|296:342|296:342|307:392,2,110.400002105713,6|0|6,3:2|3:2|3:2,0:0:0:0:
370,171,98993,5,0,3:2:0:0:
258,100,99185,5,6,3:2:0:0:
319,36,99314,6,0,B|376:12|365:66|430:39,1,110.400002105713,6|0,3:1|0:0,0:0:0:0:
462,39,99570,6,0,L|475:-26,2,49.0666676025391,8|8|8,3:1|3:1|3:1,0:0:0:0:
475,120,99826,6,0,L|519:156,2,49.0666676025391,4|4|4,3:0|3:0|3:0,0:0:0:0:
397,94,100083,5,2,3:0:0:0:
257,191,100339,6,0,B|200:183|200:183|172:209|172:209|105:199,1,147.200002807617,6|8,3:2|3:1,0:0:0:0:
44,156,100724,1,8,3:0:0:0:
0,232,100852,2,0,L|9:278,3,36.8000007019043,4|0|4|0,3:0|3:0|3:0|3:0,3:0:0:0:
41,295,101108,2,0,L|32:341,3,36.8000007019043,8|0|0|4,3:1|0:0|0:0|3:0,0:0:0:0:
51,372,101365,6,0,P|90:379|125:345,1,73.6000014038086,6|2,3:2|3:2,0:0:0:0:
185,305,101621,2,0,P|224:298|259:332,1,73.6000014038086,8|0,3:1|0:0,0:0:0:0:
333,370,101878,1,10,3:2:0:0:
333,370,101942,1,10,3:2:0:0:
333,370,102006,1,10,3:2:0:0:
381,296,102134,2,0,P|374:256|365:206,1,73.6000014038086,8|0,3:1|0:0,0:0:0:0:
432,163,102390,6,0,P|449:238|463:324,1,147.200002807617,6|8,3:2|3:2,0:0:0:0:
405,383,102775,1,8,3:2:0:0:
405,383,102903,2,0,P|360:374|317:367,1,73.6000014038086,8|8,3:2|3:2,0:0:0:0:
256,323,103160,2,0,P|211:332|168:339,1,73.6000014038086,8|8,3:2|3:2,0:0:0:0:
108,382,103416,6,0,P|94:353|108:292,1,73.6000014038086,8|8,3:1|3:1,0:0:0:0:
143,239,103673,1,8,3:1:0:0:
143,239,103801,1,8,3:1:0:0:
81,175,103929,6,0,P|54:181|24:189,2,49.0666676025391,8|4|4,3:1|3:0|3:0,0:0:0:0:
145,123,104185,6,0,P|171:129|202:137,2,49.0666676025391,14|4|4,3:0|0:3|0:3,0:0:0:0:
76,69,104442,6,0,P|87:16|162:5,1,128,6|2,3:2|3:2,0:0:0:0:
222,62,104826,1,2,3:2:0:0:
222,62,104890,1,2,3:2:0:0:
222,62,104955,1,8,3:1:0:0:
286,9,105083,2,0,B|334:54|334:54|300:189,1,192,2|2,3:2|3:2,0:0:0:0:
306,343,105724,2,0,P|250:351|188:299,2,128,2|8|2,3:2|3:1|3:2,0:0:0:0:
382,308,106365,1,0,0:0:0:0:
449,365,106493,6,0,P|461:327|471:287,1,73.6000014038086,6|0,3:2|0:0,0:0:0:0:
511,216,106749,1,8,3:1:0:0:
440,161,106878,2,0,P|447:124|456:81,1,73.6000014038086,2|0,3:2|0:0,0:0:0:0:
504,16,107134,2,0,P|478:-1|421:6,1,73.6000014038086,2|0,3:2|0:0,0:0:0:0:
376,54,107390,6,0,B|237:53|82:2|82:2|182:36|175:129,1,460.8,6|4,3:2|3:0,0:0:0:0:
218,375,109057,2,0,B|261:368|261:368|274:380|274:380|323:371,2,96,2|2|2,0:0|0:0|0:0,0:0:0:0:
143,322,109570,5,12,3:1:0:0:
143,322,109698,2,0,P|68:380|16:359,1,147.200002807617,0|8,3:0|3:1,0:0:0:0:
2,280,110083,2,0,P|8:240|15:203,1,73.6000014038086,2|2,3:2|3:2,0:0:0:0:
1,120,110339,1,8,3:1:0:0:
1,120,110467,2,0,P|42:112|86:103,1,73.6000014038086,2|2,3:2|3:2,0:0:0:0:
141,48,110724,1,8,3:1:0:0:
218,90,110852,2,0,P|239:115|236:157,1,73.6000014038086,2|0,3:2|0:0,0:0:0:0:
203,235,111108,6,0,P|243:244|286:252,1,73.6000014038086,8|0,3:1|3:2,0:0:0:0:
307,280,111301,2,0,P|347:270|390:263,1,73.6000014038086,8|0,0:1|0:0,0:0:0:0:
418,283,111493,1,8,3:1:0:0:
490,242,111621,6,0,B|469:165|469:165|509:109|509:109|483:20,1,230.39999296875,6|2,3:2|0:0,0:0:0:0:
269,0,112647,2,0,P|313:96|384:78,1,179.19999453125,2|2,0:3|0:1,0:0:0:0:
31,149,113673,6,0,P|14:74|-3:-13,2,147.200002807617,6|8|2,3:1|3:1|3:2,0:0:0:0:
1,232,114314,1,2,3:2:0:0:
1,232,114442,2,0,P|36:246|85:218,1,73.6000014038086,8|2,3:1|0:0,0:0:0:0:
138,181,114698,6,0,P|147:215|159:262,1,73.6000014038086,2|2,3:2|3:2,0:0:0:0:
160,344,114955,1,8,3:1:0:0:
160,344,115083,2,0,P|191:351|258:367,1,73.6000014038086,2|0,3:2|0:0,0:0:0:0:
317,378,115339,1,2,3:2:0:0:
317,378,115403,1,2,3:2:0:0:
317,378,115467,2,0,P|339:344|327:303,1,73.6000014038086,8|2,3:1|0:0,0:0:0:0:
306,228,115724,6,0,B|339:204|389:235|354:243|407:277|461:245,1,147.200002807617,2|8,3:2|3:1,0:0:0:0:
510,200,116108,2,0,P|487:143|405:145,1,147.200002807617,2|2,0:2|3:2,0:0:0:0:
320,140,116493,2,0,P|312:107|300:53,1,73.6000014038086,8|2,0:1|3:2,0:0:0:0:
243,3,116749,6,0,P|211:32|217:78,1,73.6000014038086,2|2,3:2|3:2,0:0:0:0:
216,153,117006,1,8,3:1:0:0:
216,153,117134,2,0,P|177:144|128:132,1,73.6000014038086,2|0,3:2|0:0,0:0:0:0:
66,165,117390,1,2,3:2:0:0:
66,165,117455,1,2,3:2:0:0:
66,165,117519,2,0,L|52:115,3,36.8000007019043,8|8|8|8,3:1|3:1|3:1|3:1,0:0:0:0:
25,97,117775,2,0,L|39:47,3,36.8000007019043,8|8|4|4,3:0|3:0|3:0|3:0,0:0:0:0:
48,19,118031,6,0,B|96:10|96:10|137:36|137:36|202:24,1,147.200002807617,12|2,3:1|3:2,0:0:0:0:
271,4,118416,1,8,3:1:0:0:
346,164,118673,2,0,P|302:101|227:118,1,147.200002807617,6|0,3:2|3:0,0:0:0:0:
164,155,119057,2,0,P|171:191|180:245,1,73.6000014038086,8|0,3:1|3:0,0:0:0:0:
244,285,119314,2,0,P|237:321|228:375,1,73.6000014038086,8|2,3:1|3:2,0:0:0:0:
146,381,119570,1,8,3:1:0:0:
146,381,119634,1,8,3:1:0:0:
146,381,119698,6,0,P|94:315|24:334,1,147.200002807617,8|4,3:1|3:0,0:0:0:0:
4,246,120083,1,8,3:1:0:0:
4,246,120211,2,0,P|44:238|99:227,1,73.6000014038086,2|8,3:2|3:1,0:0:0:0:
126,160,120467,2,0,P|85:152|31:141,1,73.6000014038086,8|4,3:0|3:0,0:0:0:0:
1,74,120724,6,0,B|49:66|49:66|75:27|75:27|136:17,1,147.200002807617,6|0,3:2|3:0,0:0:0:0:
212,0,121108,2,0,P|218:35|230:96,1,73.6000014038086,8|2,3:1|3:2,0:0:0:0:
280,142,121365,6,0,P|277:165|270:194,2,49.0666676025391,8|8|8,3:1|3:1|3:1,0:0:0:0:
340,86,121621,6,0,P|337:63|330:34,2,49.0666676025391,8|8|8,3:1|3:1|3:1,0:0:0:0:
398,145,121878,6,0,B|424:166|424:166|405:238,1,85.3333333333333,12|0,3:0|0:0,0:0:0:0:
381,289,122134,2,0,L|394:339,2,42.6666666666667,10|10|10,0:2|0:2|0:2,0:0:0:0:
309,256,122390,1,8,0:0:0:0:
177,343,122647,2,0,P|185:376|190:396,2,42.6666666666667,10|10|10,0:2|0:2|0:2,0:0:0:0:
111,300,122903,6,0,P|84:271|104:215,1,85.3333333333333,12|0,0:0|0:0,0:0:0:0:
44,163,123160,2,0,L|-8:149,2,42.6666666666667,10|10|10,0:2|0:2|0:2,0:0:0:0:
67,91,123416,2,0,L|15:77,2,42.6666666666667,10|10|10,0:2|0:2|0:2,0:0:0:0:
101,22,123673,2,0,L|49:8,2,42.6666666666667,10|10|10,0:2|0:2|0:2,0:0:0:0:
184,0,123929,6,0,P|192:28|211:104,1,85.3333333333333,12|0,0:0|0:0,0:0:0:0:
265,132,124185,2,0,L|309:121,2,42.6666666666667,10|10|10,0:2|0:2|0:2,0:0:0:0:
204,183,124442,1,12,3:0:0:0:
263,324,124698,2,0,P|259:353|253:394,2,42.6666666666667,10|10|10,0:2|0:2|0:2,0:0:0:0:
329,282,124955,6,0,P|361:289|409:299,1,64,6|0,3:2|0:0,0:0:0:0:
467,340,125211,1,10,0:2:0:0:
467,340,125339,2,0,P|496:305|476:227,1,128,0|8,0:0|0:1,0:0:0:0:
435,158,125724,2,0,P|441:127|450:88,1,64,8|8,0:1|0:1,0:1:0:0:
379,48,125980,6,0,B|326:41|326:41|287:64|287:64|222:54,1,140.800004296875,12|0,3:1|0:0,0:0:0:0:
178,5,126365,2,0,B|153:73|153:73|196:133,1,140.800004296875,8|0,0:1|0:0,0:0:0:0:
225,206,126749,2,0,B|177:214|177:214|138:193|138:193|81:199,1,140.800004296875,8|0,0:1|0:0,0:0:0:0:
39,266,127134,2,0,B|0:210|0:210|24:142,1,140.800004296875,8|0,0:1|0:0,0:0:0:0:
95,95,127519,2,0,P|88:61|77:15,1,70.4000021484376,8|0,0:1|0:0,0:0:0:0:
160,1,127775,2,0,L|171:44,3,35.2000010742188,10|10|10|10,0:2|0:2|0:2|0:2,0:0:0:0:
198,65,128031,6,0,B|255:107|255:107|322:79,1,140.800004296875,8|0,0:1|0:0,0:0:0:0:
387,28,128416,2,0,P|401:92|419:186,1,140.800004296875,8|0,0:1|0:0,0:0:0:0:
482,217,128801,2,0,B|425:259|425:259|358:231,1,140.800004296875,8|0,0:1|0:0,0:0:0:0:
286,190,129185,2,0,P|272:254|254:348,1,140.800004296875,8|0,0:1|0:0,0:0:0:0:
322,383,129570,2,0,P|358:375|399:366,1,70.4000021484376,8|0,0:1|0:0,0:0:0:0:
473,350,129826,2,0,L|484:394,2,35.2000010742188,10|10|10,0:2|0:2|0:2,0:0:0:0:
424,280,130083,5,6,0:2:0:0:
424,280,130211,2,0,P|431:242|438:198,1,70.4000021484376,2|2,0:2|0:2,0:0:0:0:
496,151,130467,1,8,0:1:0:0:
496,151,130596,2,0,P|466:127|421:125,1,70.4000021484376,2|2,0:2|0:2,0:0:0:0:
367,172,130852,1,8,0:1:0:0:
299,120,130980,2,0,P|307:83|320:31,1,70.4000021484376,2|2,0:2|0:2,0:0:0:0:
249,6,131237,1,8,0:1:0:0:
249,6,131366,2,0,P|222:24|174:17,1,70.4000021484376,2|2,0:2|0:2,0:0:0:0:
104,0,131621,2,0,P|65:6|15:16,1,70.4000021484376,8|2,0:1|0:2,0:0:0:0:
1,90,131878,2,0,L|51:100,3,35.2000010742188,8|0|2|2,0:1|0:0|0:2|0:2,0:0:0:0:
76,86,132134,5,4,0:0:0:0:
47,252,132390,2,0,L|37:301,3,35.2000010742188,8|8|8|8,0:1|0:1|0:1|0:1,0:0:0:0:
6,313,132647,2,0,L|16:362,3,35.2000010742188,8|8|8|8,0:1|0:1|0:1|0:1,0:0:0:0:
43,377,132903,2,0,L|92:387,3,35.2000010742188,8|8|8|8,0:1|0:1|0:1|0:1,0:0:0:0:
111,357,133160,2,0,L|160:367,3,35.2000010742188,8|8|8|8,0:1|0:1|0:1|0:1,0:0:0:0:
183,345,133416,2,0,L|232:355,3,35.2000010742188,8|8|8|8,0:1|0:1|0:1|0:1,0:0:0:0:
246,379,133673,6,0,P|278:373|321:366,1,64,2|2,0:0|0:0,0:0:0:0:
376,319,133929,2,0,P|408:324|451:332,1,64,2|2,0:0|0:3,0:0:0:0:
510,195,134442,6,0,B|399:288|253:186|341:95|200:-13|82:96,1,499.199984765625,6|2,3:1|0:0,0:0:0:0:
256,192,136237,12,0,138544,0:0:0:0:
