osu file format v14

[General]
AudioFilename: audio.ogg
AudioLeadIn: 0
PreviewTime: 87998
Countdown: 0
SampleSet: Soft
StackLeniency: 0.3
Mode: 0
LetterboxInBreaks: 0
WidescreenStoryboard: 1

[Editor]
DistanceSpacing: 0.8
BeatDivisor: 4
GridSize: 32
TimelineZoom: 3.399999

[Metadata]
Title:Bloomin'
TitleUnicode:Bl∞min'
Artist:MisoilePunch -Forever-
ArtistUnicode:MisoilePunch♪ -Forever-
Creator:R3m
Version:GYGY's INFINITE
Source:SOUND VOLTEX EXCEED GEAR
Tags:instrumental electronic video game sdvx hexa diver konami arcade bemani championship original song misomyl ponchi Allice CallieCube Paradogi GYGY Anxient Cynplytholowazy SupaV Nozuchi Jemzuu
BeatmapID:3866502
BeatmapSetID:1809888

[Difficulty]
HPDrainRate:5
CircleSize:4
OverallDifficulty:8.7
ApproachRate:9.5
SliderMultiplier:2.2
SliderTickRate:1

[Events]
//Background and Video events
0,0,"bg.jpg",0,0
//Break Periods
2,23048,30016
2,66951,77708
//Storyboard Layer 0 (Background)
//Storyboard Layer 1 (Fail)
//Storyboard Layer 2 (Pass)
//Storyboard Layer 3 (Foreground)
//Storyboard Layer 4 (Overlay)
//Storyboard Sound Samples

[TimingPoints]
1054,256.410256410256,4,2,1,60,1,0
2079,-100,4,2,1,5,0,0
2592,-100,4,2,1,15,0,0
3105,-100,4,2,1,30,0,0
3618,-100,4,2,1,40,0,0
4130,256.410256410256,4,2,1,60,1,0
4130,-136.986301369863,4,2,1,60,0,0
12336,-83.3333333333333,4,2,1,60,0,0
18489,-333.333333333333,4,2,1,60,0,0
18746,-83.3333333333333,4,2,1,60,0,0
20797,256.410256410256,4,2,1,60,1,0
20797,-71.4285714285714,4,2,1,60,0,0
21053,-90.9090909090909,4,2,1,60,0,0
21310,-125,4,2,1,60,0,0
21566,-200,4,2,1,60,0,0
21823,-76.9230769230769,4,2,1,60,0,0
22848,256.410256410256,4,2,2,60,1,0
22848,-76.9230769230769,4,2,2,60,0,0
23040,-76.9230769230769,4,2,1,45,0,0
30541,-200,4,2,1,45,0,0
31053,-200,4,2,1,50,0,0
31309,-200,4,2,2,50,0,0
31438,-200,4,2,1,50,0,0
31566,-100,4,2,2,50,0,0
31823,-142.857142857143,4,2,2,50,0,0
32079,-166.666666666667,4,2,1,50,0,0
32335,-166.666666666667,4,2,2,50,0,0
32976,-166.666666666667,4,2,1,50,0,0
33105,-125,4,2,1,50,0,0
33361,-125,4,2,2,50,0,0
34002,-125,4,2,1,50,0,0
34130,-125,4,2,2,50,0,0
34386,-125,4,2,1,50,0,0
35156,-200,4,2,1,55,0,0
37207,-111.111111111111,4,2,1,60,0,0
38105,-250,4,2,1,60,0,0
39259,-100,4,2,1,60,0,0
51566,-100,4,2,1,40,0,0
53618,-333.333333333333,4,2,2,40,0,0
54130,-500,4,2,2,40,0,0
54643,-166.666666666667,4,2,1,50,0,0
55669,-58.8235294117647,4,2,1,60,0,0
57207,-76.9230769230769,4,2,1,60,0,0
57720,-58.8235294117647,4,2,1,60,0,0
59259,-76.9230769230769,4,2,1,60,0,0
60028,-142.857142857143,4,2,1,60,0,0
60541,-90.9090909090909,4,2,1,60,0,0
60797,-111.111111111111,4,2,1,60,0,0
61053,-142.857142857143,4,2,1,60,0,0
61310,-200,4,2,1,60,0,0
61566,-333.333333333333,4,2,1,60,0,0
61823,512.820512820513,4,2,1,60,1,0
61823,-250,4,2,1,60,0,0
64002,-500,4,2,1,40,0,0
66951,512.820512820513,4,2,2,40,1,0
66951,-500,4,2,2,40,0,0
70797,-250,4,2,1,40,0,0
79259,-83.3333333333334,4,2,1,60,0,0
79771,-83.3333333333334,4,2,1,35,0,0
80284,-83.3333333333334,4,2,1,38,0,0
80797,-166.666666666667,4,2,1,44,0,0
81310,428.571428571429,4,2,1,53,1,0
81738,-100,4,2,1,55,0,0
82167,-100,4,2,1,59,0,0
82595,342.857142857143,4,2,1,62,1,0
82595,-76.9230769230769,4,2,1,62,0,0
82937,-76.9230769230769,4,2,1,64,0,0
83280,301.507537688442,4,2,1,66,1,0
83280,-71.4285714285714,4,2,1,66,0,0
83581,-71.4285714285714,4,2,1,68,0,0
83883,280.373831775701,4,2,1,72,1,0
83883,-66.6666666666667,4,2,1,72,0,0
84163,-66.6666666666667,4,2,1,75,0,0
84167,-66.6666666666667,4,2,1,75,0,0
84443,256.410256410256,4,2,1,75,1,0
84443,-55.5555555555556,4,2,1,75,0,0
84451,-55.5555555555556,4,2,1,78,0,0
84707,-55.5555555555556,4,2,1,80,0,0
84955,-66.6666666666667,4,2,1,80,0,0
84963,-66.6666666666667,4,2,1,83,0,0
85220,-66.6666666666667,4,2,1,85,0,0
85476,-66.6666666666667,4,2,1,88,0,0
85733,-66.6666666666667,4,2,1,90,0,0
85989,-66.6666666666667,4,2,1,60,0,0
87007,-500,4,2,1,60,0,0
88032,256.410256410256,4,2,1,60,1,0
88032,-142.857142857143,4,2,1,60,0,0
89570,-76.9230769230769,4,2,1,60,0,0
90339,-142.857142857143,4,2,1,60,0,0
91365,-111.111111111111,4,2,1,60,0,0
91621,-90.9090909090909,4,2,1,60,0,0
92134,-83.3333333333333,4,2,2,60,0,1
92142,-83.3333333333333,4,2,2,70,0,1
92335,-83.3333333333333,4,2,1,60,0,1
96237,-83.3333333333333,4,3,3,60,0,1
96373,-83.3333333333333,4,3,1,60,0,1
96493,-99.9999999999999,4,3,1,60,0,1
96749,-99.9999999999999,4,3,3,60,0,1
96886,-99.9999999999999,4,3,1,60,0,1
97262,-99.9999999999999,4,3,3,60,0,1
97399,-99.9999999999999,4,3,1,60,0,1
97775,-100,4,3,1,60,0,1
97967,-166.666666666667,4,3,1,60,0,1
98424,-166.666666666667,4,2,1,60,0,1
98544,-166.666666666667,4,2,1,60,0,1
98608,-111.111111111111,4,2,1,60,0,1
98737,-166.666666666667,4,2,1,60,0,1
98801,-83.3333333333334,4,2,1,60,0,1
98929,-166.666666666667,4,2,1,60,0,1
98993,-66.6666666666667,4,2,1,60,0,1
99121,-166.666666666667,4,2,1,60,0,1
99185,-66.6666666666667,4,2,1,60,0,1
100083,-71.4285714285714,4,2,1,60,0,1
100339,-166.666666666667,4,2,1,60,0,1
100596,-83.3333333333333,4,2,1,60,0,1
102134,-250,4,2,1,60,0,1
102390,-100,4,2,1,60,0,1
102647,-100,4,2,1,30,0,1
102775,-100,4,2,1,35,0,1
102904,-100,4,2,1,45,0,1
103032,-100,4,2,1,50,0,1
103160,-100,4,2,1,55,0,1
103288,-100,4,2,1,60,0,1
103416,-100,4,2,1,65,0,1
103545,-100,4,2,1,70,0,1
103673,-100,4,2,1,80,0,1
103801,-100,4,2,1,85,0,1
103929,-100,4,2,1,90,0,1
103993,-100,4,2,1,70,0,1
104442,-200,4,2,1,70,0,1
104450,-200,4,2,2,70,0,1
104706,-200,4,2,1,60,0,1
105339,-125,4,2,1,60,0,1
105980,-76.9230769230769,4,2,1,60,0,1
106237,-111.111111111111,4,2,1,60,0,1
106493,-71.4285714285714,4,2,1,60,0,1
107390,-181.818181818182,4,2,1,60,0,0
108544,-181.818181818182,4,2,2,60,0,0
109570,-83.3333333333333,4,2,1,60,0,1
111108,-83.3333333333333,4,3,1,70,0,1
111621,-83.3333333333333,4,3,1,70,0,0
111630,-83.3333333333333,4,2,1,70,0,0
112142,-83.3333333333333,4,2,1,55,0,0
112647,-1000,4,2,1,55,0,0
113673,256.410256410256,4,2,1,60,1,0
113673,-83.3333333333333,4,2,1,55,0,1
113681,-83.3333333333333,4,2,1,60,0,1
115724,-125,4,2,1,60,0,1
115980,-83.3333333333333,4,2,1,60,0,1
120083,-66.6666666666667,4,2,1,60,0,1
120724,-90.9090909090909,4,2,1,60,0,1
121878,-90.9090909090909,4,3,3,60,0,0
121886,-90.9090909090909,4,3,3,70,0,0
122134,-90.9090909090909,4,3,1,70,0,0
122390,-90.9090909090909,4,3,3,70,0,0
122647,-90.9090909090909,4,3,1,70,0,0
122903,-90.9090909090909,4,3,3,70,0,0
123160,-90.9090909090909,4,3,1,70,0,0
123416,-90.9090909090909,4,3,3,70,0,0
123488,-90.9090909090909,4,3,1,70,0,0
123929,-90.9090909090909,4,3,3,70,0,0
124130,-90.9090909090909,4,3,1,60,0,0
125476,-90.9090909090909,4,3,1,50,0,0
125980,-62.5,4,3,1,70,0,0
127519,-76.9230769230769,4,3,1,70,0,0
129570,-66.6666666666667,4,3,1,70,0,0
131878,-125,4,3,1,70,0,0
132134,-62.5,4,3,3,70,0,0
132335,-62.5,4,3,1,70,0,0
132390,-76.9230769230769,4,3,1,50,0,0
132399,-76.9230769230769,4,3,1,55,0,0
132647,-76.9230769230769,4,3,1,60,0,0
132903,-76.9230769230769,4,3,1,70,0,0
133288,-76.9230769230769,4,3,1,75,0,0
133673,-500,4,2,1,75,0,0
133681,-500,4,2,1,60,0,0
134442,256.410256410256,4,2,1,60,1,0
135732,-500,4,2,1,50,0,0
136758,-500,4,2,1,30,0,0
137271,-500,4,2,1,20,0,0
137719,-500,4,2,1,35,0,0
138031,-500,4,2,1,45,0,0
138104,-500,4,2,1,55,0,0
138288,-500,4,2,1,65,0,0
138416,-500,4,2,1,60,0,0
138424,-500,4,2,1,5,0,0

[Colours]
Combo1 : 0,152,242
Combo2 : 65,222,56
Combo3 : 95,203,243
Combo4 : 60,194,56

[HitObjects]
256,192,1182,12,0,3618,0:0:0:0:
348,57,4130,6,0,B|387:121|436:145|498:134|542:106|559:64|545:7|484:-15|440:-20|402:0|376:73|399:138|428:163|435:161|444:159|477:180|493:220|461:288|404:296|376:253,1,602.250016541291,4|0,3:1|0:0,0:0:0:0:
332,212,5156,6,0,P|334:187|350:161,3,40.1500011027527,2|2|2|2,0:0|0:0|0:0|0:0,0:0:0:0:
304,306,5412,2,0,P|286:287|278:258,3,40.1500011027527,2|2|2|2,0:0|0:0|0:0|0:0,0:0:0:0:
186,260,5669,1,2,0:0:0:0:
173,248,5733,1,2,0:0:0:0:
159,240,5797,1,2,0:0:0:0:
143,235,5861,1,2,0:0:0:0:
127,234,5925,1,2,0:0:0:0:
104,242,5989,1,2,0:0:0:0:
82,264,6053,1,2,0:0:0:0:
46,273,6118,1,2,0:0:0:0:
9,257,6182,6,0,B|68:209|133:245|146:294|141:296|136:299|142:354|201:380|267:346|267:346|215:35,1,602.250016541291,4|0,3:2|0:0,0:0:0:0:
158,21,7207,5,2,0:0:0:0:
146,17,7271,1,2,0:0:0:0:
133,16,7336,1,2,0:0:0:0:
121,19,7400,1,2,0:0:0:0:
110,25,7464,2,0,P|89:44|73:70,3,40.1500011027527,2|2|2|2,0:0|0:0|0:0|0:0,0:0:0:0:
153,116,7720,6,0,B|204:103|204:103|213:107|213:107|298:83,2,107.066669607341,10|8|4,3:2|3:0|3:0,0:0:0:0:
417,46,8233,6,0,B|437:90|419:162|305:215|235:74|293:24|293:24|358:29|382:116|323:156|318:154|313:152|272:195|294:261|367:278,1,602.250016541291,4|0,3:1|0:0,0:0:0:0:
411,238,9259,6,0,P|431:241|471:258,3,40.1500011027527,0|2|2|2,0:0|0:0|0:0|0:0,0:0:0:0:
407,319,9515,2,0,P|421:333|443:370,3,40.1500011027527,2|2|2|2,0:0|0:0|0:0|0:0,0:0:0:0:
326,345,9771,2,0,P|324:364|312:405,3,40.1500011027527,2|2|2|2,0:0|0:0|0:0|0:0,0:0:0:0:
235,300,10028,1,2,0:0:0:0:
210,295,10092,1,2,0:0:0:0:
189,301,10156,1,2,0:0:0:0:
178,318,10220,1,2,0:0:0:0:
182,330,10284,6,0,B|231:373|347:380|406:328|352:227|237:213|166:250|127:307|134:312|140:319|83:381|-58:347|10:181|99:250,1,602.250016541291,6|0,3:2|0:0,0:0:0:0:
161,206,11310,6,0,L|176:156,3,40.1500011027527,0|0|0|0,3:0|3:0|3:0|3:0,0:0:0:0:
104,126,11566,2,0,L|89:76,3,40.1500011027527,0|0|0|0,3:2|3:0|3:2|3:0,0:0:0:0:
181,76,11823,1,8,3:2:0:0:
206,78,11887,1,0,3:0:0:0:
232,80,11951,1,0,3:2:0:0:
258,82,12015,1,0,3:0:0:0:
284,84,12079,1,4,3:1:0:0:
396,318,12336,5,6,3:2:0:0:
235,180,12464,1,0,3:0:0:0:
235,180,12592,1,0,3:0:0:0:
481,285,12720,5,8,3:1:0:0:
495,79,12848,1,0,3:0:0:0:
495,79,12976,1,0,3:0:0:0:
463,362,13105,6,0,L|232:319,1,197.99999395752,8|0,3:1|0:0,0:0:0:0:
196,355,13361,1,0,3:0:0:0:
29,180,13489,2,0,B|9:215|9:215|75:385,1,197.99999395752,8|0,3:1|0:0,0:0:0:0:
128,312,13746,1,0,3:0:0:0:
96,141,13874,6,0,L|71:77,3,65.9999979858399,8|0|0|0,3:1|0:0|3:0|0:0,0:0:0:0:
100,220,14130,1,8,3:2:0:0:
113,222,14195,1,8,3:2:0:0:
125,224,14259,1,8,3:2:0:0:
137,226,14323,1,8,3:2:0:0:
149,228,14387,5,6,3:2:0:0:
366,169,14515,1,0,3:0:0:0:
366,169,14643,1,0,3:0:0:0:
172,128,14771,5,8,3:1:0:0:
389,69,14899,1,0,3:0:0:0:
389,69,15027,1,0,3:0:0:0:
242,262,15156,6,0,B|222:160|222:160|225:154|225:154|203:38,1,197.99999395752,8|0,3:1|0:0,0:0:0:0:
148,19,15412,1,0,3:0:0:0:
367,144,15541,6,0,B|351:230|351:230|354:236|354:236|334:338,1,197.99999395752,8|0,3:1|0:0,0:0:0:0:
260,359,15797,1,0,3:0:0:0:
464,240,15925,2,0,P|494:264|510:294,3,65.9999979858399,8|0|0|0,3:1|0:0|3:0|0:0,0:0:0:0:
461,159,16182,5,10,3:2:0:0:
463,146,16246,1,10,3:2:0:0:
465,133,16310,1,10,3:2:0:0:
467,120,16374,1,10,3:2:0:0:
469,107,16438,6,0,L|387:73,1,65.9999979858399,6|0,3:2|0:0,0:0:0:0:
316,44,16566,2,0,L|234:10,3,65.9999979858399,0|0|0|0,3:0|3:0|3:0|3:0,0:0:0:0:
135,101,16823,6,0,L|169:19,1,65.9999979858399,8|0,3:1|0:0,0:0:0:0:
289,127,16951,2,0,L|207:93,3,65.9999979858399,0|0|0|0,3:0|3:0|3:0|3:0,0:0:0:0:
56,79,17207,6,0,B|28:149,1,65.9999979858399,8|0,3:1|0:0,0:0:0:0:
47,250,17336,2,0,P|27:278|-30:293,3,65.9999979858399,0|0|0|0,3:0|3:0|3:0|3:0,0:0:0:0:
105,183,17592,6,0,P|134:199|153:226,1,65.9999979858399,8|0,3:1|0:0,0:0:0:0:
137,366,17720,2,0,B|109:296,3,65.9999979858399,0|0|0|0,3:0|3:0|3:0|3:0,0:0:0:0:
237,244,17977,2,0,B|209:314,3,65.9999979858399,8|0|2|2,3:1|0:0|3:2|3:2,0:0:0:0:
250,370,18233,1,10,3:2:0:0:
288,362,18297,1,10,3:2:0:0:
327,355,18361,1,10,3:2:0:0:
366,347,18425,1,10,3:2:0:0:
405,340,18489,6,0,L|442:330,1,32.99999899292,12|0,3:1|0:0,0:0:0:0:
491,197,18746,2,0,P|467:164|429:151,3,65.9999979858399,8|8|8|8,3:2|3:2|3:2|3:2,0:0:0:0:
376,105,19002,2,0,P|360:140|368:180,3,65.9999979858399,8|8|8|8,3:2|3:2|3:2|3:2,0:0:0:0:
354,250,19259,2,0,P|393:245|424:218,3,65.9999979858399,8|8|8|8,3:2|3:2|3:2|3:2,0:0:0:0:
280,211,19515,5,8,3:1:0:0:
269,226,19579,1,8,3:1:0:0:
253,237,19643,1,8,3:1:0:0:
238,245,19707,1,8,3:1:0:0:
219,248,19771,1,8,3:1:0:0:
201,244,19835,1,8,3:1:0:0:
184,236,19899,1,8,3:1:0:0:
171,223,19963,1,8,3:1:0:0:
161,208,20028,2,0,P|155:177|188:129,7,65.9999979858399,8|8|8|8|8|8|8|8,3:1|3:1|3:1|3:1|3:1|3:1|3:1|3:1,0:0:0:0:
497,90,20797,6,0,P|470:43|424:47,3,76.9999976501466,6|2|2|2,3:2|0:2|0:2|0:2,0:0:0:0:
365,123,21053,2,0,P|417:111|440:138,3,60.5000018463135,2|2|2|2,0:2|0:2|0:2|0:2,0:0:0:0:
400,233,21310,2,0,P|414:180|437:172,3,44,2|2|2|2,0:2|0:2|0:2|0:2,0:0:0:0:
511,236,21566,2,0,P|489:227|476:202,3,27.5,2|2|2|2,0:2|0:2|0:2|0:2,0:0:0:0:
456,302,21823,5,2,0:2:0:0:
456,302,21887,1,2,0:2:0:0:
456,302,21951,2,0,L|443:379,1,71.4999967269899,2|2,0:2|0:2,0:0:0:0:
327,265,22079,1,2,0:2:0:0:
327,265,22143,1,2,0:2:0:0:
327,265,22207,2,0,L|314:188,1,71.4999967269899,2|2,0:2|0:2,0:0:0:0:
246,350,22336,2,0,P|211:345|185:299,3,71.4999967269899,2|2|2|2,0:2|0:2|0:2|0:2,0:0:0:0:
126,242,22592,5,2,0:2:0:0:
70,238,22656,1,2,0:2:0:0:
26,265,22720,2,0,P|1:304|49:381,1,142.99999345398,2|2,0:2|0:2,0:0:0:0:
36,66,30541,6,0,P|60:54|81:36,1,55,2|2,0:1|0:0,0:0:0:0:
72,26,30797,2,0,P|48:38|28:57,1,55,2|0,0:3|0:0,0:0:0:0:
36,174,31053,1,6,3:2:0:0:
36,174,31182,1,0,3:0:0:0:
36,174,31310,1,4,0:1:0:0:
124,197,31438,5,2,0:0:0:0:
180,125,31566,2,0,P|149:167|193:270,1,165,4|0,0:1|0:0,0:0:0:0:
262,266,31823,2,0,P|226:246|165:260,1,76.9999976501466,4|2,0:1|0:0,0:0:0:0:
13,357,32079,6,0,P|74:339|148:325,2,131.99999597168,2|4|6,3:1|0:1|0:1,0:0:0:0:
245,365,32848,5,4,0:1:0:0:
245,365,32977,1,0,3:0:0:0:
331,384,33105,2,0,P|350:321|314:239,1,132,2|0,3:1|0:0,0:0:0:0:
262,218,33361,1,4,0:1:0:0:
262,218,33489,2,0,P|250:171|261:123,1,88,2|4,0:0|0:1,0:0:0:0:
400,74,33746,2,0,P|442:86|471:119,1,88,2|4,0:0|0:1,0:0:0:0:
383,0,34002,6,0,P|376:81|400:225,1,220,2|0,3:1|0:0,0:0:0:0:
467,264,34387,6,0,L|484:203,3,44,8|0|0|0,3:1|0:0|3:0|0:0,0:0:0:0:
399,302,34643,2,0,L|416:363,3,44,8|0|4|0,3:3|0:0|3:3|0:0,0:0:0:0:
327,246,34900,6,0,P|296:261|289:277,1,44,8|0,3:1|0:0,0:0:0:0:
254,342,35028,2,0,P|223:327|216:311,1,44,0|4,0:0|3:3,0:0:0:0:
83,231,35156,6,0,P|23:193|23:289,1,192.5,6|0,3:2|0:0,0:0:0:0:
52,350,35669,1,8,3:1:0:0:
52,350,35797,1,8,3:1:0:0:
249,171,35925,6,0,P|248:89|172:120,1,192.5,6|0,3:2|0:0,0:0:0:0:
132,181,36438,1,2,3:2:0:0:
5,120,36695,1,8,3:1:0:0:
143,1,36951,6,0,L|155:39,3,27.5,10|10|10|10,3:2|3:2|3:2|3:2,0:0:0:0:
81,57,37207,6,0,L|270:38,1,148.49999546814,6|0,3:2|0:0,0:0:0:0:
401,1,37464,2,0,L|383:62,3,49.4999984893799,8|8|10|8,3:1|3:1|3:1|3:1,0:0:0:0:
327,96,37720,1,8,3:1:0:0:
328,105,37784,1,8,3:1:0:0:
329,114,37848,1,10,3:1:0:0:
330,123,37912,1,8,3:1:0:0:
331,132,37977,1,8,3:1:0:0:
333,141,38041,1,8,3:1:0:0:
335,150,38105,6,0,L|348:230,1,66,2|0,3:2|0:0,0:0:0:0:
280,293,38361,1,10,3:2:0:0:
463,177,38489,1,10,3:2:0:0:
82,53,38746,6,0,P|40:56|10:95,1,88,2|2,0:0|0:3,0:0:0:0:
12,107,39259,6,0,L|40:196,1,55,6|0,3:1|0:0,0:0:0:0:
56,235,39387,1,0,0:0:0:0:
56,235,39515,1,2,0:0:0:0:
124,173,39643,1,2,3:2:0:0:
0,305,39771,1,8,3:1:0:0:
0,305,40028,6,0,B|62:242|140:265|163:299|160:306|158:309|183:364|254:383|328:295,1,330,6|2,3:2|3:2,0:0:0:0:
236,267,40541,1,0,3:0:0:0:
290,207,40669,1,2,3:2:0:0:
381,365,40797,2,0,P|339:311|302:315,1,110,8|2,3:1|0:0,0:0:0:0:
512,227,41053,2,0,P|464:275|420:264,1,110,2|2,0:0|0:0,0:0:0:0:
347,135,41310,5,6,3:2:0:0:
347,135,41374,1,0,0:0:0:0:
347,135,41438,1,0,0:0:0:0:
406,83,41566,1,2,0:0:0:0:
424,160,41695,1,2,3:2:0:0:
342,24,41823,1,8,3:1:0:0:
342,24,42079,6,0,P|409:166|456:359,1,330,6|2,3:2|3:2,0:0:0:0:
386,377,42528,1,0,3:0:0:0:
386,377,42592,2,0,P|371:341|353:319,3,55,0|0|2|0,3:0|3:0|3:2|0:0,0:0:0:0:
300,376,42848,1,8,3:1:0:0:
323,263,42977,1,0,0:0:0:0:
220,225,43105,1,10,3:2:0:0:
209,225,43169,1,10,3:2:0:0:
198,228,43233,1,10,3:2:0:0:
189,234,43297,1,10,3:2:0:0:
182,240,43361,6,0,L|169:372,2,110,6|0|2,3:2|0:0|0:0,0:0:0:0:
257,309,43746,1,2,3:2:0:0:
5,223,43874,1,8,3:1:0:0:
5,223,44130,6,0,B|-22:286|65:364|152:262|132:180|17:124,1,330,6|2,3:2|3:2,0:0:0:0:
0,15,44643,1,2,3:2:0:0:
75,50,44771,1,2,3:2:0:0:
292,40,44900,2,0,P|269:95|194:80,1,110,8|0,3:1|0:0,0:0:0:0:
153,7,45156,6,0,L|161:87,1,55,2|0,3:2|0:0,0:0:0:0:
142,4,45284,2,0,L|150:84,1,55,2|0,3:2|0:0,0:0:0:0:
220,210,45412,2,0,P|175:165|120:161,2,110,6|0|2,3:2|0:0|0:0,0:0:0:0:
141,237,45797,1,2,3:2:0:0:
366,24,45925,1,8,3:1:0:0:
366,24,46182,6,0,B|346:68|360:109|408:126|412:123|418:121|448:158|453:199|418:237|418:237|371:237|358:192,1,330,6|2,3:2|3:2,0:0:0:0:
512,240,46695,1,0,3:0:0:0:
512,240,46759,1,0,3:0:0:0:
512,240,46823,1,8,3:1:0:0:
453,382,46951,1,8,3:1:0:0:
351,301,47079,1,8,3:1:0:0:
285,361,47207,1,8,3:1:0:0:
217,328,47336,1,8,3:1:0:0:
77,330,47464,6,0,L|67:385,3,55,6|0|0|0,3:2|0:0|0:0|0:0,0:0:0:0:
146,292,47719,1,2,0:0:0:0:
9,255,47847,6,0,L|-1:310,3,55,2|0|0|0,0:2|0:0|0:0|0:0,0:0:0:0:
78,217,48104,1,2,0:0:0:0:
20,72,48233,6,0,B|1:69|-24:77|-24:77|25:17|119:40|130:94|125:98|120:100|156:147|213:157|250:107,1,330,6|2,3:2|3:2,0:0:0:0:
246,20,48746,1,2,3:2:0:0:
246,20,48810,1,2,3:2:0:0:
246,20,48874,2,0,P|215:32|196:75,1,55,2|2,3:2|3:2,0:0:0:0:
296,178,49002,6,0,P|317:94|360:0,2,165,8|2|2,3:1|3:2|3:2,0:0:0:0:
504,365,49515,2,0,B|489:335|455:313|418:325|414:329|410:333|379:352|337:326|342:278,1,165,6|0,3:2|0:0,0:0:0:0:
316,250,49771,1,2,0:0:0:0:
394,153,49900,2,0,P|416:197|390:253,1,110,2|8,3:2|3:1,0:0:0:0:
230,204,50156,1,2,0:0:0:0:
0,255,50284,6,0,B|56:217|140:260|140:303|134:306|130:309|142:376|225:364,1,275,6|0,3:2|0:0,0:0:0:0:
266,306,50669,1,2,3:2:0:0:
266,306,50733,1,2,0:2:0:0:
266,306,50797,2,0,P|240:291|193:282,3,55,2|2|2|2,3:2|0:2|3:2|0:2,0:0:0:0:
217,198,51053,2,0,P|188:205|148:232,3,55,8|0|2|0,3:1|0:0|3:2|0:0,0:0:0:0:
99,160,51310,5,10,3:2:0:0:
68,147,51374,1,10,3:2:0:0:
50,119,51438,1,10,3:2:0:0:
56,86,51502,1,10,3:2:0:0:
82,66,51566,1,2,3:1:0:0:
445,24,53553,5,0,0:0:0:0:
445,24,53618,2,0,P|428:76|414:132,1,98.9999969787599,4|0,0:3|0:0,0:0:0:0:
410,309,54130,6,0,P|450:282|485:270,1,77,2|0,0:0|0:0,0:0:0:0:
390,381,54643,6,0,P|381:319|306:217,1,164.9999949646,2|0,0:1|0:0,0:0:0:0:
250,220,55028,1,2,0:0:0:0:
250,220,55156,1,0,0:0:0:0:
502,62,55412,5,14,3:0:0:0:
502,62,55669,6,0,B|435:43|409:92|412:95|415:100|385:145|288:122,2,187.000003566742,6|0|0,3:1|3:0|3:0,0:0:0:0:
187,72,56053,2,0,B|254:84|256:139|252:141|247:144|255:197|352:219,2,187.000003566742,8|2|2,3:1|3:2|3:2,0:0:0:0:
96,275,56438,5,8,3:1:0:0:
0,207,56566,2,0,P|90:197|175:148,1,187.000003566742,0|0,3:0|3:0,0:0:0:0:
293,382,56823,1,8,3:1:0:0:
385,342,56951,2,0,P|279:280|196:274,1,187.000003566742,2|2,3:2|3:2,0:0:0:0:
20,282,57207,6,0,P|12:246|-6:204,3,71.4999967269899,8|0|0|0,3:1|3:0|3:0|3:0,3:0:0:0:
37,87,57464,1,8,3:1:0:0:
38,80,57528,1,10,3:2:0:0:
40,73,57592,1,10,3:2:0:0:
42,65,57656,1,10,3:2:0:0:
44,58,57720,6,0,B|93:84|76:147|70:144|65:142|56:196|107:224,2,187.000003566742,10|0|0,3:1|3:0|3:0,0:0:0:0:
314,89,58105,2,0,B|261:70|226:126|232:128|237:131|204:174|149:156,2,187.000003566742,8|0|2,3:1|3:0|3:2,0:0:0:0:
470,228,58489,5,8,3:1:0:0:
484,126,58618,2,0,P|404:167|271:164,1,187.000003566742,0|0,3:0|3:0,0:0:0:0:
93,279,58874,5,8,3:1:0:0:
50,179,59001,2,0,P|144:195|252:256,1,187.000003566742,0|2,3:0|3:2,0:0:0:0:
447,349,59259,2,0,P|478:339|516:317,3,71.4999967269899,8|0|10|10,3:1|0:0|3:2|3:2,0:0:0:0:
351,294,59515,5,10,3:2:0:0:
336,294,59579,1,10,3:2:0:0:
323,300,59643,1,10,3:2:0:0:
312,309,59707,1,2,3:0:0:0:
304,321,59771,2,0,P|312:376|342:392,1,71.4999967269899
482,247,60028,6,0,B|526:209|506:136|457:104|415:131|412:135|410:140|360:144|334:111|342:63,1,269.499991775513,6|0,3:2|0:0,0:0:0:0:
412,54,60541,6,0,P|427:84|432:124,3,60.5000018463135,2|2|2|2,0:0|0:0|0:0|0:0,0:0:0:0:
290,57,60797,2,0,P|321:67|343:83,3,49.4999984893799,2|2|2|2,0:0|0:0|0:0|0:0,0:0:0:0:
211,143,61053,2,0,P|235:119|255:109,3,38.4999988250733,2|2|2|2,0:0|0:0|0:0|0:0,0:0:0:0:
257,235,61310,2,0,P|256:201|261:185,3,27.5,2|2|2|2,0:0|0:0|0:0|0:0,0:0:0:0:
334,285,61566,1,2,0:0:0:0:
339,291,61630,1,2,0:0:0:0:
343,297,61695,1,2,0:0:0:0:
346,304,61759,1,2,0:0:0:0:
350,315,61823,6,0,B|305:285|257:299|235:334|238:340|240:347|213:394|126:420|84:384|46:311|88:244|163:268|170:292,1,396,2|0,3:1|0:0,0:0:0:0:
49,51,78233,6,0,L|43:117,2,66,2|2|2,0:0|0:0|0:0,0:0:0:0:
195,265,79259,6,0,B|255:301|247:371|196:397|135:371|131:293,1,230.99999295044,6|0,3:2|0:0,0:0:0:0:
56,281,79771,6,0,P|26:305|8:336,3,65.9999979858399,2|2|2|2,3:2|0:2|0:2|0:2,0:0:0:0:
211,188,80284,2,0,P|250:185|284:196,3,65.9999979858399,2|2|2|2,3:2|0:2|0:2|0:2,0:0:0:0:
81,133,80797,1,2,3:2:0:0:
99,150,80925,1,2,0:2:0:0:
80,170,81053,1,2,0:2:0:0:
62,151,81182,1,2,0:2:0:0:
165,284,81310,6,0,L|195:333,3,55,6|2|2|2,3:2|0:2|0:2|0:2,0:0:0:0:
53,243,81738,6,0,P|14:238|-16:222,1,55,2|2,3:2|0:2,0:0:0:0:
234,50,81952,2,0,P|233:77|225:103,1,55,2|2,0:2|0:2,0:0:0:0:
89,151,82167,5,2,3:2:0:0:
108,155,82274,1,2,0:2:0:0:
128,160,82381,1,2,0:2:0:0:
147,165,82488,1,2,0:2:0:0:
236,228,82595,6,0,L|455:174,1,214.49999018097,6|2,3:2|0:2,0:0:0:0:
483,83,82937,1,2,3:2:0:0:
466,47,83023,1,2,0:2:0:0:
429,35,83109,1,2,0:2:0:0:
393,51,83195,1,2,0:2:0:0:
335,0,83280,6,0,L|411:264,1,230.99999295044,6|0,3:2|0:0,0:0:0:0:
468,273,83581,1,2,3:2:0:0:
484,315,83656,1,2,0:2:0:0:
463,356,83732,1,2,0:2:0:0:
417,361,83807,1,2,0:2:0:0:
332,312,83883,6,0,P|329:279|344:306,3,82.5000031471254,6|2|2|2,3:2|0:2|0:2|0:2,0:0:0:0:
211,353,84163,2,0,P|243:346|218:364,3,82.5000031471254,2|2|2|2,3:2|0:2|0:2|0:2,0:0:0:0:
356,200,84443,6,0,P|352:161|368:194,3,98.9999969787599,2|2|2|2,3:2|0:2|0:2|0:2,0:0:0:0:
145,139,84699,2,0,P|181:131|152:150,3,98.9999969787599,2|2|2|2,3:2|0:2|0:2|0:2,0:0:0:0:
94,18,84955,5,2,3:2:0:0:
94,18,85019,1,2,0:2:0:0:
94,18,85084,2,0,P|63:55|81:96,1,82.5000031471254,2|2,0:2|0:2,0:0:0:0:
277,186,85212,1,2,3:2:0:0:
277,186,85276,1,2,0:2:0:0:
277,186,85340,2,0,P|282:146|253:119,1,82.5000031471254,2|2,0:2|0:2,0:0:0:0:
59,174,85468,5,2,3:2:0:0:
46,184,85532,1,2,0:2:0:0:
37,197,85596,1,2,0:2:0:0:
33,213,85660,1,2,0:2:0:0:
34,229,85725,1,2,3:2:0:0:
40,244,85789,1,2,0:2:0:0:
49,257,85853,1,2,0:2:0:0:
61,267,85917,1,2,0:2:0:0:
76,273,85981,1,0,0:0:0:0:
479,57,87007,6,0,L|462:149,1,88,2|2,0:0|0:0,0:0:0:0:
464,144,88032,6,0,B|536:145|528:32|447:24|395:81|399:85|403:90|390:158|301:191|225:121|272:36|337:48,1,423.499987075806,6|0,3:2|0:0,0:0:0:0:
406,194,88801,1,2,0:0:0:0:
406,194,88929,1,2,0:0:0:0:
413,6,89057,6,0,L|364:274,1,269.499991775513,6|0,3:2|0:0,0:0:0:0:
282,331,89570,6,0,B|374:291|374:291|388:294|388:294|532:238,2,214.49999018097,8|8|8,3:1|3:1|3:1,0:0:0:0:
291,339,90211,5,0,3:0:0:0:
291,339,90275,1,0,3:0:0:0:
291,339,90339,2,0,P|297:282|227:243,1,115.49999647522,6|0,3:1|0:0,0:0:0:0:
183,270,90596,1,8,3:1:0:0:
175,272,90660,1,8,3:1:0:0:
167,274,90724,1,8,3:1:0:0:
159,276,90788,1,8,3:1:0:0:
144,291,90852,1,8,3:1:0:0:
136,293,90916,1,8,3:1:0:0:
128,295,90980,1,8,3:1:0:0:
120,297,91044,1,8,3:1:0:0:
97,291,91108,6,0,P|85:270|77:223,3,38.4999988250733,4|4|4|4,3:0|3:0|3:0|3:0,0:0:0:0:
24,203,91365,2,0,P|25:175|40:153,3,49.4999984893799,8|8|8|8,3:0|3:0|3:0|3:0,0:0:0:0:
68,81,91621,2,0,P|99:64|130:66,3,60.5000018463135,4|4|4|4,3:0|3:0|3:0|3:0,0:0:0:0:
185,126,91878,1,8,3:1:0:0:
234,122,91942,1,0,3:0:0:0:
269,89,92006,1,4,3:0:0:0:
276,41,92070,1,4,3:0:0:0:
243,5,92134,6,0,P|261:147|294:282,1,263.99999194336,6|8,3:2|3:1,0:0:0:0:
480,365,92519,1,8,3:0:0:0:
480,365,92583,1,0,0:0:0:0:
480,365,92647,2,0,P|445:286|344:326,1,197.99999395752,2|0,3:2|0:0,0:0:0:0:
349,329,92903,1,8,3:1:0:0:
74,223,93031,6,0,B|21:252|7:345|73:400|165:357|116:274,1,263.99999194336,6|0,3:2|3:0,0:0:0:0:
121,285,93352,1,0,3:0:0:0:
121,285,93416,1,8,3:1:0:0:
215,218,93544,1,0,3:0:0:0:
219,198,93608,1,0,3:0:0:0:
224,178,93673,1,4,3:0:0:0:
42,54,93801,1,4,3:0:0:0:
40,44,93865,1,0,3:0:0:0:
37,34,93929,2,0,P|77:34|102:61,1,65.9999979858399,8|0,3:1|0:0,0:0:0:0:
189,90,94057,2,0,P|169:121|144:133,1,65.9999979858399,2|0,3:2|0:0,0:0:0:0:
5,136,94185,6,0,P|133:89|292:37,1,263.99999194336,6|8,3:2|3:1,0:0:0:0:
512,243,94570,2,0,B|469:282|412:262|394:208|395:205|398:202|382:159|336:145|270:181,1,263.99999194336,6|2,3:2|3:2,0:0:0:0:
223,321,94955,1,2,3:2:0:0:
405,352,95083,6,0,P|401:271|368:74,1,263.99999194336,4|0,3:1|3:0,0:0:0:0:
393,13,95403,1,0,3:0:0:0:
393,13,95467,2,0,P|336:75|272:43,1,131.99999597168,8|2,3:1|3:2,0:0:0:0:
101,25,95724,5,8,3:1:0:0:
47,64,95809,1,8,3:1:0:0:
38,116,95895,1,8,3:1:0:0:
72,149,95980,1,6,3:0:0:0:
83,188,96066,1,0,0:0:0:0:
77,210,96151,1,0,0:0:0:0:
5,227,96237,6,0,P|76:239|215:284,1,197.99999395752,12|0,3:3|0:0,0:0:0:0:
295,378,96493,1,10,3:2:0:0:
321,350,96579,1,10,3:2:0:0:
365,348,96664,1,10,3:2:0:0:
435,380,96749,2,0,P|397:319|326:228,1,165,8|0,3:3|0:0,0:0:0:0:
262,169,97006,1,10,3:2:0:0:
248,145,97091,1,10,3:2:0:0:
250,126,97177,1,10,3:2:0:0:
313,78,97262,6,0,P|372:125|481:104,1,165,12|0,3:3|0:0,0:0:0:0:
475,37,97519,1,10,3:2:0:0:
469,22,97604,1,10,3:2:0:0:
458,12,97690,1,10,3:2:0:0:
372,0,97775,6,0,L|393:150,1,110,8|0,3:0|0:0,0:0:0:0:
398,185,97967,6,0,L|412:279,1,65.9999979858399,8|0,3:0|0:0,0:0:0:0:
420,325,98160,5,4,3:0:0:0:
85,242,98416,6,0,L|97:306,1,65.9999979858399,6|0,3:2|0:0,0:0:0:0:
89,329,98608,6,0,L|67:216,1,98.9999969787599,0|0,3:2|0:0,0:0:0:0:
55,220,98801,6,0,L|79:352,1,131.99999597168,6|0,3:2|0:0,0:0:0:0:
72,369,98993,6,0,L|40:201,1,165.000006294251,0|0,3:2|0:0,0:0:0:0:
3,141,99185,2,0,L|28:49,1,82.5000031471254,6|0,3:2|0:0,0:0:0:0:
181,0,99314,5,6,3:1:0:0:
245,9,99399,1,2,3:2:0:0:
282,62,99484,1,2,3:2:0:0:
268,127,99570,5,8,3:1:0:0:
235,121,99655,1,8,3:1:0:0:
202,114,99741,1,8,3:1:0:0:
165,138,99826,5,4,3:0:0:0:
143,143,99912,1,4,3:0:0:0:
122,149,99997,1,4,3:0:0:0:
98,138,100083,6,0,L|358:167,1,230.99999295044,2|0,3:0|0:0,0:0:0:0:
412,49,100339,6,0,L|380:128,1,65.9999979858399,6|0,3:2|0:0,0:0:0:0:
417,366,100596,2,0,P|444:358|470:326,3,65.9999979858399,8|0|8|0,3:1|3:0|3:0|3:0,3:0:0:0:
400,287,100852,2,0,P|404:259|386:222,3,65.9999979858399,4|0|4|0,3:0|3:0|3:0|3:0,3:0:0:0:
319,272,101108,1,8,3:1:0:0:
299,276,101173,1,0,3:0:0:0:
282,287,101237,1,0,3:0:0:0:
271,303,101301,1,4,3:0:0:0:
270,322,101365,5,6,3:2:0:0:
194,254,101493,1,0,0:0:0:0:
76,371,101621,6,0,L|28:197,1,131.99999597168,8|0,3:1|0:0,0:0:0:0:
77,132,101878,1,10,3:2:0:0:
78,125,101942,1,10,3:2:0:0:
79,118,102006,1,10,3:2:0:0:
80,111,102070,1,10,3:2:0:0:
81,104,102134,2,0,L|6:125,1,66,8|0,3:1|0:0,0:0:0:0:
5,142,102390,6,0,L|189:169,1,165,6|0,3:2|0:0,0:0:0:0:
232,120,102647,1,8,3:2:0:0:
378,70,102775,1,8,3:2:0:0:
476,221,102903,5,8,3:2:0:0:
384,189,103031,1,8,3:2:0:0:
443,304,103160,1,8,3:2:0:0:
372,279,103288,1,8,3:2:0:0:
228,361,103416,5,8,3:1:0:0:
142,191,103544,1,8,3:1:0:0:
93,279,103673,1,8,3:1:0:0:
240,142,103801,1,8,3:1:0:0:
88,16,103929,5,8,3:1:0:0:
39,49,104014,1,4,3:0:0:0:
38,99,104100,1,4,3:0:0:0:
59,131,104185,1,14,3:0:0:0:
68,160,104271,1,4,0:3:0:0:
58,185,104356,1,4,0:3:0:0:
38,191,104442,6,0,P|52:142|168:120,1,165,6|2,3:2|3:2,0:0:0:0:
166,127,104890,1,2,3:2:0:0:
166,127,104955,1,8,3:1:0:0:
353,24,105083,1,2,3:2:0:0:
353,24,105339,6,0,P|326:88|298:201,1,176,2|2,3:2|3:2,0:0:0:0:
389,357,105724,2,0,P|455:370|479:333,1,88,2|2,0:0|3:2,0:0:0:0:
477,342,105916,1,2,3:2:0:0:
473,329,105980,2,0,L|241:366,1,214.49999018097,8|0,3:1|0:0,0:0:0:0:
242,356,106237,2,0,P|251:303|300:277,1,98.9999969787599,2|0,3:2|0:0,0:0:0:0:
512,237,106493,6,0,L|272:176,1,230.99999295044,6|0,3:2|0:0,0:0:0:0:
201,193,106749,1,8,3:1:0:0:
50,61,106878,1,2,3:2:0:0:
144,342,107134,5,2,3:2:0:0:
430,36,107390,6,0,B|517:34|524:145|429:179|360:162|314:70|336:25|338:20|339:15|275:-31|211:-21|169:41|222:144|307:75,1,544.500016616822,6|4,3:2|3:0,0:0:0:0:
302,249,109057,6,0,P|319:281|347:303,1,60.5000018463135,2|0,0:0|0:0,0:0:0:0:
412,288,109249,2,0,P|375:287|342:300,1,60.5000018463135,2|0,0:0|0:0,0:0:0:0:
319,368,109442,1,2,0:0:0:0:
105,182,109570,5,12,3:1:0:0:
167,248,109698,5,0,3:0:0:0:
167,248,109762,1,0,3:0:0:0:
167,248,109826,2,0,L|92:271,1,65.9999979858399,0|0,3:0|3:0,0:0:0:0:
27,290,109954,1,8,3:1:0:0:
241,146,110083,1,2,3:2:0:0:
241,146,110147,1,2,3:2:0:0:
241,146,110211,2,0,L|166:122,1,65.9999979858399,2|2,3:2|3:2,0:0:0:0:
101,104,110339,1,8,3:1:0:0:
334,290,110467,1,2,3:2:0:0:
334,290,110531,1,2,3:2:0:0:
334,290,110595,2,0,L|282:331,1,65.9999979858399,2|2,3:2|3:2,0:0:0:0:
218,379,110724,6,0,L|319:179,1,197.99999395752,8|0,3:1|0:0,0:0:0:0:
377,158,110980,2,0,L|323:106,1,65.9999979858399,0|2,0:0|3:2,0:0:0:0:
199,23,111108,1,8,3:1:0:0:
147,8,111173,1,0,0:0:0:0:
95,17,111237,1,0,3:2:0:0:
57,53,111301,1,8,0:1:0:0:
42,103,111365,1,0,3:2:0:0:
51,154,111429,1,0,0:0:0:0:
85,193,111493,1,8,3:1:0:0:
134,210,111557,1,0,0:0:0:0:
185,200,111621,5,6,3:2:0:0:
97,363,112647,6,0,L|86:320,1,44,2|2,0:3|0:1,0:0:0:0:
86,320,113673,6,0,L|490:380,1,395.999987915039,6|0,3:1|0:0,0:0:0:0:
456,182,114185,2,0,P|404:224|403:252,1,65.9999979858399,2|2,3:2|3:2,0:0:0:0:
400,306,114314,1,2,3:2:0:0:
500,290,114442,2,0,P|421:231|283:145,1,197.99999395752,8|0,3:1|0:0,0:0:0:0:
319,177,114698,5,2,3:2:0:0:
228,204,114826,1,2,3:2:0:0:
151,96,114955,1,8,3:1:0:0:
48,129,115083,1,2,3:2:0:0:
48,129,115211,1,2,3:2:0:0:
78,42,115339,1,2,3:2:0:0:
79,35,115403,1,2,3:2:0:0:
81,28,115467,1,8,3:1:0:0:
138,176,115596,1,2,0:0:0:0:
19,263,115724,6,0,P|86:275|57:340,1,132,2|0,3:2|0:0,0:0:0:0:
6,338,115980,2,0,P|103:352|222:385,1,197.99999395752,8|2,3:1|0:2,0:0:0:0:
277,362,116237,2,0,P|260:331|262:277,1,65.9999979858399,2|0,3:2|0:0,0:0:0:0:
282,227,116365,1,2,3:2:0:0:
468,305,116493,2,0,P|394:321|350:287,1,131.99999597168,8|2,0:1|3:2,0:0:0:0:
351,276,116685,1,0,0:0:0:0:
351,276,116749,5,2,3:2:0:0:
301,151,116878,1,2,3:2:0:0:
382,0,117006,2,0,P|394:78|427:208,1,197.99999395752,8|0,3:1|0:0,0:0:0:0:
432,202,117262,1,0,0:0:0:0:
292,157,117390,1,2,3:2:0:0:
196,348,117519,1,8,3:1:0:0:
207,360,117583,1,8,3:1:0:0:
220,365,117647,1,8,3:1:0:0:
233,364,117711,1,8,3:1:0:0:
243,355,117775,6,0,P|269:313|257:272,1,65.9999979858399,8|8,3:0|3:0,0:0:0:0:
207,247,117903,1,4,3:0:0:0:
207,247,117967,1,4,3:0:0:0:
207,247,118031,6,0,P|142:84|106:4,1,263.99999194336,12|2,3:1|3:2,0:0:0:0:
34,179,118416,1,8,3:1:0:0:
34,179,118673,6,0,P|172:120|320:68,1,263.99999194336,6|0,3:2|3:0,0:0:0:0:
327,19,118993,1,0,3:0:0:0:
327,19,119057,2,0,P|348:54|364:89,1,65.9999979858399,8|0,3:1|0:0,0:0:0:0:
376,151,119185,1,0,3:0:0:0:
500,91,119314,2,0,P|486:129|470:164,1,65.9999979858399,8|0,3:1|0:0,0:0:0:0:
430,213,119442,1,2,3:2:0:0:
297,195,119570,1,8,3:1:0:0:
283,197,119634,1,8,3:1:0:0:
271,202,119698,1,8,3:1:0:0:
261,210,119762,1,8,3:1:0:0:
254,221,119826,6,0,P|259:298|320:324,1,131.99999597168,2|4,3:2|3:0,0:0:0:0:
432,384,120083,2,0,P|305:349|137:317,1,247.500009441376,8|0,3:1|0:0,0:0:0:0:
110,350,120339,1,8,3:1:0:0:
87,374,120403,1,8,3:1:0:0:
64,381,120467,1,8,3:0:0:0:
48,378,120531,1,8,3:0:0:0:
40,370,120596,1,4,3:0:0:0:
87,249,120724,6,0,P|111:165|176:12,1,242.000007385254,6|0,3:2|3:0,0:0:0:0:
248,66,121044,1,0,3:0:0:0:
248,66,121108,2,0,P|194:75|176:8,1,121.000003692627,8|2,3:1|3:2,0:0:0:0:
408,5,121365,1,8,3:1:0:0:
470,18,121450,1,8,3:1:0:0:
491,79,121536,1,8,3:1:0:0:
466,120,121621,1,8,3:1:0:0:
426,127,121707,1,8,3:1:0:0:
399,145,121792,1,8,3:1:0:0:
447,213,121878,6,0,P|400:126|339:49,1,161.333338256836,12|0,3:0|0:0,0:0:0:0:
248,66,122134,2,0,P|250:95|294:100,2,80.6666691284181,10|10|10,0:2|0:2|0:2,0:0:0:0:
310,22,122390,1,8,0:0:0:0:
116,174,122647,6,0,P|114:203|70:208,2,80.6666691284181,10|10|10,0:2|0:2|0:2,0:0:0:0:
54,130,122903,1,12,0:0:0:0:
249,324,123160,2,0,P|251:353|295:358,2,80.6666691284181,10|10|10,0:2|0:2|0:2,0:0:0:0:
220,246,123416,1,8,0:3:0:0:
188,239,123502,1,8,0:1:0:0:
158,250,123587,1,8,0:1:0:0:
139,276,123673,1,8,0:1:0:0:
136,307,123758,1,8,0:1:0:0:
115,331,123843,1,8,0:1:0:0:
83,340,123929,1,12,0:0:0:0:
339,109,124185,6,0,L|321:199,2,80.6666691284181,10|10|10,0:2|0:2|0:2,0:0:0:0:
356,33,124442,1,12,3:0:0:0:
497,302,124698,6,0,L|515:392,2,80.6666691284181,10|10|10,0:2|0:2|0:2,0:0:0:0:
480,226,124955,2,0,P|379:244|260:290,1,161.333338256836,6|0,3:2|0:0,0:0:0:0:
266,317,125211,1,10,0:2:0:0:
234,321,125296,1,10,0:2:0:0:
205,304,125382,1,10,0:2:0:0:
199,272,125467,2,0,L|212:192,7,60.5000018463135,8|8|8|8|8|8|8|8,0:1|0:1|0:1|0:1|0:1|0:1|0:1|0:1,0:1:0:0:
242,138,125980,6,0,P|169:184|63:229,2,176,12|0|0,3:1|0:0|0:0,0:0:0:0:
347,296,126365,2,0,P|420:342|526:386,2,176,8|0|0,0:1|0:0|0:0,0:0:0:0:
319,26,126749,6,0,P|408:56|390:141,1,176,8|0,0:1|0:0,0:0:0:0:
334,190,127006,1,0,0:0:0:0:
505,209,127134,2,0,P|308:138|125:89,1,352,8|0,0:1|0:0,0:0:0:0:
18,228,127519,2,0,P|71:280|107:184,1,214.49999018097,8|0,0:1|0:0,0:0:0:0:
40,148,127775,2,0,L|18:49,4,71.4999967269899,10|10|10|10|8,0:2|0:2|0:2|0:2|0:1,0:0:0:0:
309,384,128160,5,0,0:0:0:0:
309,384,128288,1,0,0:0:0:0:
185,346,128416,1,8,0:1:0:0:
383,291,128544,5,0,0:0:0:0:
383,291,128672,1,0,0:0:0:0:
186,232,128800,1,8,0:1:0:0:
444,200,128929,5,0,0:0:0:0:
444,200,129057,1,0,0:0:0:0:
188,124,129185,1,8,0:1:0:0:
324,31,129314,5,0,0:0:0:0:
324,31,129442,1,0,0:0:0:0:
189,9,129570,6,0,L|275:274,1,247.500009441376,8|0,0:1|0:0,0:0:0:0:
331,288,129826,2,0,L|431:312,3,82.5000031471254,10|10|10|10,0:2|0:2|0:2|0:2,0:0:0:0:
272,345,130083,6,0,L|172:369,1,82.5000031471254,6|0,0:2|0:0,0:0:0:0:
14,217,130211,1,2,0:2:0:0:
22,220,130275,1,2,0:2:0:0:
31,222,130339,2,0,L|124:246,1,82.5000031471254,2|0,0:2|0:0,0:0:0:0:
186,265,130467,1,8,0:1:0:0:
75,121,130596,1,2,0:2:0:0:
83,118,130660,1,2,0:2:0:0:
92,116,130724,2,0,L|185:92,1,82.5000031471254,2|0,0:2|0:0,0:0:0:0:
247,73,130852,1,8,0:1:0:0:
252,226,130980,5,2,0:2:0:0:
258,231,131044,1,2,0:2:0:0:
265,237,131108,2,0,L|341:295,1,82.5000031471254,2|0,0:2|0:0,0:0:0:0:
391,337,131236,1,8,0:1:0:0:
304,129,131365,1,2,0:2:0:0:
310,123,131429,1,2,0:2:0:0:
318,118,131493,2,0,L|396:62,1,82.5000031471254,2|0,0:2|0:0,0:0:0:0:
447,22,131621,1,8,0:1:0:0:
481,234,131749,1,2,0:2:0:0:
481,234,131814,1,2,0:2:0:0:
481,234,131878,2,0,P|419:202|440:152,1,132,8|2,0:1|0:2,0:0:0:0:
511,162,132134,6,0,P|386:212|189:258,1,264,4|0,0:0|0:0,0:0:0:0:
217,307,132390,2,0,P|209:348|172:382,3,71.4999967269899,8|8|8|8,0:1|0:1|0:1|0:1,0:0:0:0:
131,322,132647,2,0,P|95:343|45:338,3,71.4999967269899,8|8|8|8,0:1|0:1|0:1|0:1,0:0:0:0:
62,268,132903,2,0,P|22:255|-7:215,3,71.4999967269899,8|8|8|8,0:1|0:1|0:1|0:1,0:0:0:0:
34,162,133160,5,8,0:1:0:0:
38,148,133224,1,8,0:1:0:0:
42,134,133288,1,8,0:1:0:0:
46,120,133352,1,8,0:1:0:0:
50,106,133416,1,8,0:1:0:0:
54,92,133480,1,8,0:1:0:0:
58,78,133544,1,8,0:1:0:0:
62,64,133608,1,8,0:1:0:0:
67,50,133673,6,0,L|92:162,1,110,2|0,0:0|0:0,0:0:0:0:
137,360,134442,1,6,3:1:0:0:
256,192,134506,12,2,138416,0:3:0:0:
