osu file format v14

[General]
AudioFilename: audio.ogg
AudioLeadIn: 0
PreviewTime: 87998
Countdown: 0
SampleSet: Soft
StackLeniency: 0.2
Mode: 0
LetterboxInBreaks: 0
WidescreenStoryboard: 0

[Editor]
DistanceSpacing: 0.8
BeatDivisor: 3
GridSize: 4
TimelineZoom: 4.999998

[Metadata]
Title:Bloomin'
TitleUnicode:Bl∞min'
Artist:MisoilePunch -Forever-
ArtistUnicode:MisoilePunch♪ -Forever-
Creator:R3m
Version:FINAL
Source:SOUND VOLTEX EXCEED GEAR
Tags:instrumental electronic video game sdvx hexa diver konami arcade bemani championship original song misomyl ponchi Allice CallieCube Paradogi GYGY Anxient Cynplytholowazy SupaV Nozuchi Jemzuu
BeatmapID:3722306
BeatmapSetID:1809888

[Difficulty]
HPDrainRate:3.8
CircleSize:4.4
OverallDifficulty:9.5
ApproachRate:10
SliderMultiplier:2.4
SliderTickRate:1

[Events]
//Background and Video events
0,0,"bg.jpg",0,0
//Break Periods
//Storyboard Layer 0 (Background)
//Storyboard Layer 1 (Fail)
//Storyboard Layer 2 (Pass)
//Storyboard Layer 3 (Foreground)
//Storyboard Layer 4 (Overlay)
//Storyboard Sound Samples

[TimingPoints]
1054,256.410256410256,4,2,1,60,1,0
2079,-100,4,2,1,5,0,0
2592,-100,4,2,1,15,0,0
3105,-100,4,2,1,30,0,0
3618,-100,4,2,1,40,0,0
4130,256.410256410256,4,2,1,60,1,0
4130,-153.846153846153,4,2,1,60,0,0
4643,-181.818181818181,4,2,1,60,0,0
6181,-153.846153846153,4,2,1,60,0,0
7848,-153.846153846153,4,2,1,60,0,0
7912,-153.846153846153,4,2,1,60,0,0
8040,-153.846153846153,4,2,1,60,0,0
8104,-153.846153846153,4,2,1,60,0,0
8169,-153.846153846153,4,2,1,60,0,0
8233,-105.263157894737,4,2,1,60,0,0
8746,-125,4,2,1,60,0,0
10284,-100,4,2,1,60,0,0
10797,-125,4,2,1,60,0,0
11374,-95.2380952380954,4,2,1,60,0,0
11438,-86.9565217391304,4,2,1,60,0,0
11502,-80,4,2,1,60,0,0
11566,-74.0740740740741,4,2,1,60,0,0
11630,-68.9655172413793,4,2,1,60,0,0
11694,-64.5161290322581,4,2,1,60,0,0
11758,-60.6060606060606,4,2,1,60,0,0
11822,-57.1428571428571,4,2,1,60,0,0
11886,-54.054054054054,4,2,1,60,0,0
11951,-51.2820512820513,4,2,1,60,0,0
12015,-48.780487804878,4,2,1,60,0,0
12079,-46.5116279069767,4,2,1,60,0,0
12976,-100,4,2,1,60,0,0
14130,-86.9565217391304,4,2,1,60,0,0
14194,-74.0740740740741,4,2,1,60,0,0
14259,-64.5161290322581,4,2,1,60,0,0
14323,-57.1428571428571,4,2,1,60,0,0
16181,-90.9090909090909,4,2,1,60,0,0
20797,256.410256410256,4,2,1,60,1,0
21310,-133.333333333333,4,2,1,60,0,0
22848,256.410256410256,4,2,2,60,1,0
22848,-133.333333333333,4,2,2,60,0,0
23040,-133.333333333333,4,2,1,45,0,0
23874,-200,4,2,1,45,0,0
24066,-200,4,2,1,45,0,0
24130,-200,4,2,1,45,0,0
25092,-200,4,2,1,45,0,0
25156,-200,4,2,1,45,0,0
25284,-666.666666666667,4,2,1,45,0,0
26502,-666.666666666667,4,2,1,45,0,0
26566,-400,4,2,1,45,0,0
27976,-200,4,2,1,45,0,0
28169,-200,4,2,1,45,0,0
28233,-200,4,2,1,45,0,0
29194,-200,4,2,1,45,0,0
29258,-200,4,2,1,45,0,0
29386,-666.666666666667,4,2,1,45,0,0
30348,-200,4,2,1,45,0,0
30412,-666.666666666667,4,2,1,45,0,0
30540,-192.307692307692,4,2,1,45,0,0
31053,-192.307692307692,4,2,1,50,0,0
31309,-192.307692307692,4,2,2,50,0,0
31438,-192.307692307692,4,2,1,50,0,0
31566,-192.307692307692,4,2,2,50,0,0
31822,-142.857142857143,4,2,2,50,0,0
32079,-142.857142857143,4,2,1,50,0,0
32335,-142.857142857143,4,2,2,50,0,0
32976,-142.857142857143,4,2,1,50,0,0
33361,-142.857142857143,4,2,2,50,0,0
33425,-142.857142857143,4,2,2,50,0,0
33489,-142.857142857143,4,2,2,50,0,0
34002,-166.666666666667,4,2,1,50,0,0
34130,-166.666666666667,4,2,2,50,0,0
34322,-166.666666666667,4,2,2,50,0,0
34386,-100,4,2,1,50,0,0
34899,-83.3333333333333,4,2,1,50,0,0
35092,-83.3333333333333,4,2,1,50,0,0
35156,-133.333333333333,4,2,1,55,0,0
35604,-133.333333333333,4,2,1,55,0,0
35669,-100,4,2,1,55,0,0
35733,-100,4,2,1,55,0,0
35797,-100,4,2,1,55,0,0
35861,-100,4,2,1,55,0,0
35925,-117.647058823529,4,2,1,55,0,0
36374,-117.647058823529,4,2,1,55,0,0
36438,-117.647058823529,4,2,1,55,0,0
37207,-64.5161290322581,4,2,1,60,0,0
39258,-90.9090909090909,4,2,1,60,0,0
39451,-90.9090909090909,4,2,1,60,0,0
39515,-90.9090909090909,4,2,1,60,0,0
39579,-90.9090909090909,4,2,1,60,0,0
39643,-90.9090909090909,4,2,1,60,0,0
40027,-90.9090909090909,4,2,1,60,0,0
40220,-90.9090909090909,4,2,1,60,0,0
40284,-90.9090909090909,4,2,1,60,0,0
40348,-90.9090909090909,4,2,1,60,0,0
40412,-90.9090909090909,4,2,1,60,0,0
41053,-125,4,2,1,60,0,0
41117,-125,4,2,1,60,0,0
41181,-125,4,2,1,60,0,0
41245,-125,4,2,1,60,0,0
41310,-90.9090909090909,4,2,1,60,0,0
41502,-90.9090909090909,4,2,1,60,0,0
41566,-66.6666666666667,4,2,1,60,0,0
41630,-66.6666666666667,4,2,1,60,0,0
41694,-66.6666666666667,4,2,1,60,0,0
41822,-90.9090909090909,4,2,1,60,0,0
42271,-90.9090909090909,4,2,1,60,0,0
42335,-66.6666666666667,4,2,1,60,0,0
42399,-66.6666666666667,4,2,1,60,0,0
42463,-66.6666666666667,4,2,1,60,0,0
42720,-90.9090909090909,4,2,1,60,0,0
43553,-90.9090909090909,4,2,1,60,0,0
43617,-66.6666666666667,4,2,1,60,0,0
43681,-66.6666666666667,4,2,1,60,0,0
43745,-66.6666666666667,4,2,1,60,0,0
43874,-76.9230769230769,4,2,1,60,0,0
44322,-76.9230769230769,4,2,1,60,0,0
44386,-66.6666666666667,4,2,1,60,0,0
44451,-66.6666666666667,4,2,1,60,0,0
44515,-66.6666666666667,4,2,1,60,0,0
44899,-76.9230769230769,4,2,1,60,0,0
45156,-111.111111111111,4,2,1,60,0,0
45220,-111.111111111111,4,2,1,60,0,0
45284,-111.111111111111,4,2,1,60,0,0
45348,-111.111111111111,4,2,1,60,0,0
45412,-76.9230769230769,4,2,1,60,0,0
45604,-76.9230769230769,4,2,1,60,0,0
45669,-66.6666666666667,4,2,1,60,0,0
45733,-66.6666666666667,4,2,1,60,0,0
45797,-66.6666666666667,4,2,1,60,0,0
45925,-76.9230769230769,4,2,1,60,0,0
46181,-76.9230769230769,4,2,1,60,0,0
46374,-76.9230769230769,4,2,1,60,0,0
46438,-66.6666666666667,4,2,1,60,0,0
46502,-66.6666666666667,4,2,1,60,0,0
46566,-66.6666666666667,4,2,1,60,0,0
46951,-100,4,2,1,60,0,0
47207,-80,4,2,1,60,0,0
47656,-80,4,2,1,60,0,0
47720,-80,4,2,1,60,0,0
47784,-80,4,2,1,60,0,0
47848,-80,4,2,1,60,0,0
48553,-80,4,2,1,60,0,0
48617,-80,4,2,1,60,0,0
48681,-80,4,2,1,60,0,0
48745,-80,4,2,1,60,0,0
49002,-133.333333333333,4,2,1,60,0,0
49515,-86.9565217391304,4,2,1,60,0,0
49707,-80,4,2,1,60,0,0
49771,-71.4285714285714,4,2,1,60,0,0
49835,-80,4,2,1,60,0,0
49899,-71.4285714285714,4,2,1,60,0,0
50027,-83.3333333333333,4,2,1,60,0,0
51053,-66.6666666666667,4,2,1,60,0,0
51566,-66.6666666666667,4,2,1,40,0,0
52463,-1000,4,2,1,40,0,0
53553,-1000,4,2,1,40,0,0
53617,-100,4,2,2,40,0,0
54002,-100,4,2,2,40,0,0
54130,-100,4,2,2,40,0,0
54643,-100,4,2,1,50,0,0
55412,-200,4,2,1,50,0,0
55668,-200,4,2,1,60,0,0
57207,-76.9230769230769,4,2,1,60,0,0
60027,-133.333333333333,4,2,1,60,0,0
61823,512.820512820513,4,2,1,60,1,0
61823,-1000,4,2,1,60,0,0
64002,-1000,4,2,1,40,0,0
64130,-1000,4,2,1,40,0,0
65925,-1000,4,2,1,40,0,0
66951,512.820512820513,4,2,2,40,1,0
66951,-500,4,2,2,40,0,0
67720,-500,4,2,2,40,0,0
67976,-500,4,2,2,40,0,0
70284,-500,4,2,2,40,0,0
70540,-500,4,2,2,40,0,0
70797,-500,4,2,1,40,0,0
71566,-500,4,2,1,40,0,0
71823,-500,4,2,1,40,0,0
72592,-500,4,2,1,40,0,0
72848,-500,4,2,1,40,0,0
73874,-500,4,2,1,40,0,0
74130,-500,4,2,1,40,0,0
75412,-250,4,2,1,40,0,0
77207,-333.333333333333,4,2,1,40,0,0
79258,-153.846153846153,4,2,1,60,0,0
79643,-153.846153846153,4,2,1,60,0,0
79771,-153.846153846153,4,2,1,35,0,0
80284,-153.846153846153,4,2,1,38,0,0
80797,-153.846153846153,4,2,1,44,0,0
81310,428.571428571429,4,2,1,53,1,0
81738,-100,4,2,1,55,0,0
82167,-100,4,2,1,59,0,0
82595,342.857142857143,4,2,1,62,1,0
82937,-100,4,2,1,64,0,0
83280,301.507537688442,4,2,1,66,1,0
83581,-100,4,2,1,68,0,0
83883,280.373831775701,4,2,1,72,1,0
84023,-66.6666666666667,4,2,1,72,0,0
84163,-66.6666666666667,4,2,1,75,0,0
84167,-66.6666666666667,4,2,1,75,0,0
84443,256.410256410256,4,2,1,75,1,0
84443,-45.4545454545455,4,2,1,75,0,0
84451,-45.4545454545455,4,2,1,78,0,0
84707,-45.4545454545455,4,2,1,80,0,0
84963,-50,4,2,1,83,0,0
85220,-50,4,2,1,85,0,0
85476,-45.4545454545455,4,2,1,88,0,0
85733,-45.4545454545455,4,2,1,90,0,0
85989,-45.4545454545455,4,2,1,60,0,0
88032,256.410256410256,4,2,1,60,1,0
88032,-133.333333333333,4,2,1,60,0,0
88737,-133.333333333333,4,2,1,60,0,0
88801,-285.714285714284,4,2,1,60,0,0
89057,-133.333333333333,4,2,1,60,0,0
89570,-68.9655172413792,4,2,1,60,0,0
89698,-68.9655172413792,4,2,1,60,0,0
89762,-68.9655172413792,4,2,1,60,0,0
89890,-68.9655172413792,4,2,1,60,0,0
89955,-68.9655172413792,4,2,1,60,0,0
90339,-58.8235294117647,4,2,1,60,0,0
90532,-58.8235294117647,4,2,1,60,0,0
90596,-58.8235294117647,4,2,1,60,0,0
92134,-58.8235294117647,4,2,2,60,0,1
92142,-58.8235294117647,4,2,2,70,0,1
92326,-58.8235294117647,4,2,2,70,0,1
92335,-58.8235294117647,4,2,1,60,0,1
92390,-58.8235294117647,4,2,1,60,0,1
92455,-58.8235294117647,4,2,1,60,0,1
92519,-58.8235294117647,4,2,1,60,0,1
92583,-58.8235294117647,4,2,1,60,0,1
92647,-66.6666666666667,4,2,1,60,0,1
93224,-66.6666666666667,4,2,1,60,0,1
93288,-66.6666666666667,4,2,1,60,0,1
93993,-66.6666666666667,4,2,1,60,0,1
94057,-66.6666666666667,4,2,1,60,0,1
94121,-66.6666666666667,4,2,1,60,0,1
94185,-66.6666666666667,4,2,1,60,0,1
94378,-66.6666666666667,4,2,1,60,0,1
94442,-66.6666666666667,4,2,1,60,0,1
94506,-66.6666666666667,4,2,1,60,0,1
94570,-66.6666666666667,4,2,1,60,0,1
95275,-66.6666666666667,4,2,1,60,0,1
95339,-66.6666666666667,4,2,1,60,0,1
96237,-90.9090909090909,4,3,3,60,0,1
96245,-90.9090909090909,4,3,3,60,0,1
96373,-90.9090909090909,4,3,1,60,0,1
96749,-90.9090909090909,4,3,3,60,0,1
96886,-90.9090909090909,4,3,1,60,0,1
97262,-90.9090909090909,4,3,3,60,0,1
97399,-90.9090909090909,4,3,1,60,0,1
97775,-76.9230769230769,4,3,1,60,0,1
97903,-76.9230769230769,4,3,1,60,0,1
97967,-76.9230769230769,4,3,1,60,0,1
98096,-76.9230769230769,4,3,1,60,0,1
98160,-76.9230769230769,4,3,1,60,0,1
98416,-83.3333333333333,4,3,1,60,0,1
98424,-83.3333333333333,4,2,1,60,0,1
98544,-66.6666666666667,4,2,1,60,0,1
98608,-83.3333333333333,4,2,1,60,0,1
98737,-66.6666666666667,4,2,1,60,0,1
98801,-58.8235294117647,4,2,1,60,0,1
98929,-62.5,4,2,1,60,0,1
98993,-58.8235294117647,4,2,1,60,0,1
99121,-62.5,4,2,1,60,0,1
99185,-62.5,4,2,1,60,0,1
99249,-62.5,4,2,1,60,0,1
99314,-62.5,4,2,1,60,0,1
99506,-62.5,4,2,1,60,0,1
99570,-62.5,4,2,1,60,0,1
100083,-133.333333333333,4,2,1,60,0,1
100339,-68.9655172413793,4,2,1,60,0,1
100531,-68.9655172413793,4,2,1,60,0,1
100596,-68.9655172413793,4,2,1,60,0,1
101301,-68.9655172413793,4,2,1,60,0,1
101365,-68.9655172413793,4,2,1,60,0,1
101429,-68.9655172413793,4,2,1,60,0,1
101493,-68.9655172413793,4,2,1,60,0,1
101557,-68.9655172413793,4,2,1,60,0,1
101621,-68.9655172413793,4,2,1,60,0,1
102134,-66.6666666666667,4,2,1,60,0,1
102326,-66.6666666666667,4,2,1,60,0,1
102390,-66.6666666666667,4,2,1,60,0,1
102647,-66.6666666666667,4,2,1,30,0,1
102775,-66.6666666666667,4,2,1,35,0,1
102904,-66.6666666666667,4,2,1,45,0,1
103032,-66.6666666666667,4,2,1,50,0,1
103160,-66.6666666666667,4,2,1,55,0,1
103288,-66.6666666666667,4,2,1,60,0,1
103416,-66.6666666666667,4,2,1,65,0,1
103545,-66.6666666666667,4,2,1,70,0,1
103673,-66.6666666666667,4,2,1,80,0,1
103801,-66.6666666666667,4,2,1,85,0,1
103929,-66.6666666666667,4,2,1,90,0,1
103993,-66.6666666666667,4,2,1,70,0,1
104442,-83.3333333333333,4,2,1,70,0,1
104450,-83.3333333333333,4,2,2,70,0,1
104706,-83.3333333333333,4,2,1,60,0,1
105467,-100,4,2,1,60,0,1
105724,-80,4,2,1,60,0,1
105916,-80,4,2,1,60,0,1
105980,-80,4,2,1,60,0,1
106173,-80,4,2,1,60,0,1
106237,-80,4,2,1,60,0,1
106429,-80,4,2,1,60,0,1
106493,-80,4,2,1,60,0,1
106685,-80,4,2,1,60,0,1
106749,-80,4,2,1,60,0,1
106814,-80,4,2,1,60,0,1
106878,-80,4,2,1,60,0,1
106942,-80,4,2,1,60,0,1
107134,-80,4,2,1,60,0,1
107326,-80,4,2,1,60,0,1
107390,-142.857142857143,4,2,1,60,0,1
108480,-142.857142857143,4,2,1,60,0,1
108544,-71.4285714285715,4,2,2,60,0,1
108553,-71.4285714285715,4,2,2,60,0,1
109057,-83.3333333333333,4,2,2,60,0,1
109185,-66.6666666666667,4,2,2,60,0,1
109249,-83.3333333333333,4,2,2,60,0,1
109378,-66.6666666666667,4,2,2,60,0,1
109442,-66.6666666666667,4,2,2,60,0,1
109506,-66.6666666666667,4,2,2,60,0,1
109570,-66.6666666666667,4,2,1,60,0,1
109578,-66.6666666666667,4,2,1,60,0,1
109955,-90.9090909090909,4,2,1,60,0,1
110339,-76.9230769230769,4,2,1,60,0,1
110724,-66.6666666666667,4,2,1,60,0,1
111044,-66.6666666666667,4,2,1,60,0,1
111108,-33.3333333333333,4,2,1,60,0,1
111117,-33.3333333333333,4,3,1,70,0,1
111621,-100,4,3,1,70,0,1
111630,-100,4,2,1,70,0,1
112006,-100,4,2,1,70,0,1
112134,-100,4,2,1,70,0,1
112142,-100,4,2,1,55,0,1
112519,-100,4,2,1,55,0,1
112647,-1000,4,2,1,55,0,0
113673,256.410256410256,4,2,1,60,1,0
113673,-71.4285714285714,4,2,1,55,0,1
113681,-71.4285714285714,4,2,1,60,0,1
115275,-71.4285714285714,4,2,1,60,0,1
115339,-71.4285714285714,4,2,1,60,0,1
117326,-71.4285714285714,4,2,1,60,0,1
117390,-71.4285714285714,4,2,1,60,0,1
118224,-71.4285714285714,4,2,1,60,0,1
118288,-71.4285714285714,4,2,1,60,0,1
118352,-71.4285714285714,4,2,1,60,0,1
118416,-71.4285714285714,4,2,1,60,0,1
120916,-71.4285714285714,4,2,1,60,0,1
120980,-71.4285714285714,4,2,1,60,0,1
121878,-166.666666666667,4,3,3,60,0,1
121886,-166.666666666667,4,3,3,70,0,1
122049,-166.666666666667,4,3,3,70,0,0
122134,-66.6666666666667,4,3,1,70,0,1
122142,-66.6666666666667,4,3,1,70,0,1
122177,-166.666666666667,4,3,1,70,0,0
122220,-66.6666666666667,4,3,1,70,0,1
122262,-166.666666666667,4,3,1,70,0,0
122305,-66.6666666666667,4,3,1,70,0,1
122348,-166.666666666667,4,3,1,70,0,0
122390,-166.666666666667,4,3,3,70,0,1
122399,-166.666666666667,4,3,3,70,0,1
122561,-166.666666666667,4,3,3,70,0,0
122647,-66.6666666666667,4,3,1,70,0,1
122655,-66.6666666666667,4,3,1,70,0,1
122690,-166.666666666667,4,3,1,70,0,0
122732,-66.6666666666667,4,3,1,70,0,1
122775,-166.666666666667,4,3,1,70,0,0
122818,-66.6666666666667,4,3,1,70,0,1
122861,-166.666666666667,4,3,1,70,0,0
122903,-166.666666666667,4,3,3,70,0,1
122912,-166.666666666667,4,3,3,70,0,1
123074,-166.666666666667,4,3,3,70,0,0
123160,-166.666666666667,4,3,1,70,0,1
123168,-166.666666666667,4,3,1,70,0,1
123202,-166.666666666667,4,3,1,70,0,0
123245,-166.666666666667,4,3,1,70,0,1
123288,-166.666666666667,4,3,1,70,0,0
123331,-166.666666666667,4,3,1,70,0,1
123373,-166.666666666667,4,3,1,70,0,0
123416,-166.666666666667,4,3,3,70,0,1
123424,-166.666666666667,4,3,3,70,0,1
123459,-166.666666666667,4,3,3,70,0,0
123488,-166.666666666667,4,3,1,70,0,0
123502,-166.666666666667,4,3,1,70,0,1
123544,-166.666666666667,4,3,1,70,0,0
123587,-166.666666666667,4,3,1,70,0,1
123630,-166.666666666667,4,3,1,70,0,0
123673,-166.666666666667,4,3,1,70,0,1
123715,-166.666666666667,4,3,1,70,0,0
123758,-166.666666666667,4,3,1,70,0,1
123801,-166.666666666667,4,3,1,70,0,0
123843,-166.666666666667,4,3,1,70,0,1
123886,-166.666666666667,4,3,1,70,0,0
123929,-133.333333333333,4,3,3,70,0,0
123937,-133.333333333333,4,3,3,70,0,0
124130,-133.333333333333,4,3,1,60,0,0
125467,-66.6666666666667,4,3,1,60,0,0
125476,-66.6666666666667,4,3,1,50,0,0
125980,-66.6666666666667,4,3,1,70,0,1
125988,-66.6666666666667,4,3,1,70,0,1
132134,-125,4,3,3,70,0,1
132142,-125,4,3,3,70,0,1
132326,-125,4,3,3,70,0,1
132335,-125,4,3,1,70,0,1
132390,-125,4,3,1,50,0,1
132399,-125,4,3,1,55,0,1
132647,-125,4,3,1,60,0,1
132903,-125,4,3,1,70,0,1
133288,-125,4,3,1,75,0,1
133673,-125,4,2,1,75,0,0
133681,-125,4,2,1,60,0,0
134442,256.410256410256,4,2,1,60,1,0
134442,-133.333333333333,4,2,1,60,0,0
135732,-133.333333333333,4,2,1,50,0,0
136758,-133.333333333333,4,2,1,30,0,0
137271,-133.333333333333,4,2,1,20,0,0
137719,-133.333333333333,4,2,1,35,0,0
138031,-133.333333333333,4,2,1,45,0,0
138104,-133.333333333333,4,2,1,55,0,0
138288,-133.333333333333,4,2,1,65,0,0
138416,-1000,4,2,1,60,0,0
138424,-1000,4,2,1,5,0,0
141878,-1000,4,2,1,5,0,0

[Colours]
Combo1 : 0,152,242
Combo2 : 65,222,56
Combo3 : 95,203,243
Combo4 : 60,194,56

[HitObjects]
256,192,1181,12,0,3617,0:0:0:0:
218,77,4130,6,0,B|221:97|239:116|239:116|184:99|184:99|178:93|178:93|133:80,1,155.999992858887,4|0,3:1|0:0,0:0:0:0:
69,51,4515,5,0,0:0:0:0:
65,62,4579,1,0,0:0:0:0:
63,73,4643,2,0,P|65:98|77:119,3,33.0000010070801,2|0|2|0,0:0|0:0|0:0|0:0,0:0:0:0:
72,177,4899,2,0,P|94:187|118:187,3,33.0000010070801,2|0|2|0,0:0|0:0|0:0|0:0,0:0:0:0:
182,191,5156,5,2,0:0:0:0:
201,199,5220,1,2,0:0:0:0:
217,212,5284,1,2,0:0:0:0:
229,229,5348,1,2,0:0:0:0:
237,249,5412,1,2,0:0:0:0:
240,270,5476,1,2,0:0:0:0:
237,290,5540,1,2,0:0:0:0:
230,310,5604,1,2,0:0:0:0:
202,343,5669,5,2,0:0:0:0:
230,310,5733,1,2,0:0:0:0:
270,297,5797,1,2,0:0:0:0:
312,309,5861,1,2,0:0:0:0:
340,341,5925,1,2,0:0:0:0:
368,373,5989,1,2,0:0:0:0:
410,384,6053,1,2,0:0:0:0:
450,372,6117,1,2,0:0:0:0:
478,339,6181,6,0,B|488:269|488:269|495:264|495:264|506:181|506:181,1,155.999992858887,4|0,3:2|0:0,0:0:0:0:
468,119,6566,5,0,0:0:0:0:
457,122,6630,1,0,0:0:0:0:
446,125,6694,2,0,L|435:174,3,38.9999982147218,2|0|2|0,0:0|0:0|0:0|0:0,0:0:0:0:
363,79,6951,2,0,L|374:30,3,38.9999982147218,2|0|2|0,0:0|0:0|0:0|0:0,0:0:0:0:
298,159,7207,5,2,0:0:0:0:
275,185,7271,1,2,0:0:0:0:
243,197,7335,1,2,0:0:0:0:
208,193,7399,1,2,0:0:0:0:
180,173,7463,1,2,0:0:0:0:
164,143,7527,1,2,0:0:0:0:
164,108,7592,1,2,0:0:0:0:
180,79,7656,1,2,0:0:0:0:
209,59,7720,6,0,P|257:59|286:78,1,51.999997619629,10|0,3:2|0:0,0:0:0:0:
78,126,7891,2,0,P|26:125|-5:89,1,51.999997619629,8|2,3:0|0:2,0:0:0:0:
98,2,8062,2,0,L|109:56,1,51.999997619629,4|0,3:0|0:0,0:0:0:0:
0,193,8233,6,0,B|-11:213|-11:213|24:243|24:291|24:291|36:246|85:223|85:223|78:203,1,227.999993911743,4|0,3:1|0:0,0:0:0:0:
119,316,8617,5,0,0:0:0:0:
133,324,8681,1,0,0:0:0:0:
149,327,8746,2,0,P|173:324|201:303,3,48,2|0|2|0,0:0|0:0|0:0|0:0,0:0:0:0:
257,362,9002,2,0,P|276:376|298:384,3,48,2|0|2|0,0:0|0:0|0:0|0:0,0:0:0:0:
309,301,9259,5,0,0:0:0:0:
312,271,9323,1,2,0:0:0:0:
306,242,9387,1,2,0:0:0:0:
289,217,9451,1,2,0:0:0:0:
264,201,9515,1,2,0:0:0:0:
240,186,9579,1,2,0:0:0:0:
223,160,9643,1,2,0:0:0:0:
217,133,9707,1,2,0:0:0:0:
222,104,9771,5,2,0:0:0:0:
259,145,9835,1,2,0:0:0:0:
264,201,9899,1,2,0:0:0:0:
238,248,9964,1,2,0:0:0:0:
187,270,10028,1,2,0:0:0:0:
133,258,10092,1,2,0:0:0:0:
95,219,10156,1,2,0:0:0:0:
90,163,10220,1,2,0:0:0:0:
118,115,10284,6,0,B|176:78|155:14|139:-9|121:-32|57:-11|48:9|53:76|106:79,1,240,6|0,3:2|0:0,0:0:0:0:
222,22,10669,5,0,0:0:0:0:
242,13,10733,1,0,0:0:0:0:
268,13,10797,2,0,P|290:23|310:51,3,48,2|0|2|0,0:0|0:0|0:0|0:0,0:0:0:0:
449,72,11053,2,0,P|427:82|406:110,3,48,2|0|2|0,0:0|0:0|0:0|0:0,0:0:0:0:
312,229,11310,6,0,P|323:238|352:243,1,24,0|0,3:0|0:0,0:0:0:0:
333,262,11374,2,0,P|348:259|372:243,1,31.4999990386963,0|0,3:0|0:0,0:0:0:0:
372,270,11438,2,0,P|381:257|386:228,1,34.5000006580353,0|0,3:0|0:0,0:0:0:0:
406,247,11502,2,0,P|403:230|387:206,1,37.5,0|0,3:0|3:0,0:0:0:0:
414,207,11566,2,0,P|401:196|372:191,1,40.5000001544952,0|0,3:2|0:0,0:0:0:0:
390,174,11630,2,0,P|373:175|350:191,1,43.5000013275147,0|8,3:0|3:2,0:0:0:0:
352,167,11694,2,0,P|341:178|336:207,1,46.5000003547668,0|0,3:2|0:0,0:0:0:0:
315,187,11758,2,0,P|291:218|274:226,1,49.5000004720688,0|0,3:0|3:2,0:0:0:0:
297,236,11822,2,0,P|259:249|240:246,1,52.500000500679,8|0,3:2|0:0,0:0:0:0:
254,266,11886,2,0,P|215:254|202:242,1,55.4999997882843,0|8,3:0|3:2,0:0:0:0:
202,265,11951,2,0,P|176:233|172:215,1,58.5000002231598,0|0,3:2|0:0,0:0:0:0:
160,234,12015,2,0,P|156:192|164:175,1,61.5000009384155,0|0,3:0|0:0,0:0:0:0:
232,179,12079,6,0,L|247:107,1,64.5000009841919,4|0,3:1|0:0,0:0:0:0:
0,375,12335,5,6,3:2:0:0:
54,103,12463,1,0,3:0:0:0:
154,358,12592,1,0,3:0:0:0:
194,67,12720,5,8,3:1:0:0:
37,309,12848,1,0,3:0:0:0:
43,16,12977,1,0,3:0:0:0:
254,266,13105,5,8,3:1:0:0:
278,296,13169,1,0,0:0:0:0:
313,313,13233,1,0,3:0:0:0:
352,313,13297,1,0,0:0:0:0:
387,296,13361,1,0,3:0:0:0:
411,266,13425,1,0,0:0:0:0:
420,227,13489,1,8,3:1:0:0:
411,189,13553,1,0,0:0:0:0:
387,159,13618,1,0,3:0:0:0:
352,142,13682,1,0,0:0:0:0:
313,142,13746,1,0,3:0:0:0:
278,159,13810,1,0,0:0:0:0:
250,189,13874,6,0,L|181:167,1,60,8|0,3:1|0:0,0:0:0:0:
408,87,14002,2,0,L|465:68,1,60,0|0,3:0|0:0,0:0:0:0:
273,41,14130,6,0,L|262:-19,1,34.5000006580353,8|0,3:2|0:0,0:0:0:0:
233,51,14195,2,0,L|221:-11,1,40.5000001544952,8|0,3:2|0:0,0:0:0:0:
193,61,14259,2,0,L|181:-1,1,46.5000003547668,8|0,3:2|0:0,0:0:0:0:
153,71,14323,2,0,L|141:8,1,52.500000500679,8|0,3:2|0:0,0:0:0:0:
112,82,14386,5,6,3:2:0:0:
416,3,14515,1,0,3:0:0:0:
250,189,14643,1,0,3:0:0:0:
495,17,14771,5,8,3:1:0:0:
377,322,14899,1,0,3:0:0:0:
346,42,15027,1,0,3:0:0:0:
512,292,15156,5,8,3:1:0:0:
491,330,15220,1,0,0:0:0:0:
455,351,15284,1,0,3:0:0:0:
411,348,15348,1,0,0:0:0:0:
377,322,15412,1,0,3:0:0:0:
343,297,15476,1,0,0:0:0:0:
300,295,15540,1,8,3:1:0:0:
263,315,15604,1,0,0:0:0:0:
242,353,15669,1,0,3:0:0:0:
275,376,15733,1,0,0:0:0:0:
318,382,15797,1,0,3:0:0:0:
355,360,15861,1,0,0:0:0:0:
377,322,15925,1,8,3:1:0:0:
395,284,15989,1,0,0:0:0:0:
432,264,16053,1,0,3:0:0:0:
476,267,16117,1,0,0:0:0:0:
512,292,16181,6,0,L|501:374,1,66.0000020141602,10|10,3:2|3:2,0:0:0:0:
460,125,16310,2,0,L|471:43,1,66.0000020141602,10|10,3:2|3:2,0:0:0:0:
280,195,16438,5,6,3:2:0:0:
238,228,16502,1,0,0:0:0:0:
185,230,16566,1,0,3:0:0:0:
141,202,16630,1,0,3:0:0:0:
122,153,16694,5,0,3:0:0:0:
145,157,16758,1,0,3:0:0:0:
168,161,16822,5,8,3:1:0:0:
186,211,16886,1,0,0:0:0:0:
171,262,16950,1,0,3:0:0:0:
131,296,17014,1,0,3:0:0:0:
79,298,17079,5,0,3:0:0:0:
90,277,17143,1,0,3:0:0:0:
101,257,17207,5,8,3:1:0:0:
154,255,17271,1,0,0:0:0:0:
198,285,17335,1,0,3:0:0:0:
218,333,17399,1,0,3:0:0:0:
203,383,17464,5,0,3:0:0:0:
187,367,17528,1,0,3:0:0:0:
171,350,17592,5,8,3:1:0:0:
186,299,17656,1,0,0:0:0:0:
228,266,17720,1,0,3:0:0:0:
280,262,17784,1,0,3:0:0:0:
323,292,17847,5,0,3:0:0:0:
303,303,17911,1,0,3:0:0:0:
282,313,17976,5,8,3:1:0:0:
238,283,18040,1,0,0:0:0:0:
219,232,18104,1,2,3:2:0:0:
232,182,18168,1,2,3:2:0:0:
273,150,18232,1,10,3:2:0:0:
325,134,18296,1,10,3:2:0:0:
360,97,18360,1,10,3:2:0:0:
361,44,18424,1,10,3:2:0:0:
333,0,18488,1,12,3:1:0:0:
64,193,18745,5,8,3:2:0:0:
99,186,18810,1,8,3:2:0:0:
134,179,18874,1,8,3:2:0:0:
168,172,18938,1,8,3:2:0:0:
203,164,19002,1,8,3:2:0:0:
238,157,19066,1,8,3:2:0:0:
273,150,19130,1,8,3:2:0:0:
308,143,19194,1,8,3:2:0:0:
342,136,19258,1,8,3:2:0:0:
377,128,19322,1,8,3:2:0:0:
412,121,19386,1,8,3:2:0:0:
448,114,19451,1,8,3:2:0:0:
483,108,19515,5,8,3:1:0:0:
496,157,19579,1,8,3:1:0:0:
486,208,19643,1,8,3:1:0:0:
453,249,19707,1,8,3:1:0:0:
406,270,19771,1,8,3:1:0:0:
354,268,19835,1,8,3:1:0:0:
308,243,19899,1,8,3:1:0:0:
279,200,19963,1,8,3:1:0:0:
273,150,20028,1,8,3:1:0:0:
266,99,20092,1,8,3:1:0:0:
237,56,20156,1,8,3:1:0:0:
191,31,20220,1,8,3:1:0:0:
139,29,20284,1,8,3:1:0:0:
92,50,20348,1,8,3:1:0:0:
59,91,20412,1,8,3:1:0:0:
49,142,20476,1,8,3:1:0:0:
62,191,20540,1,2,3:3:0:0:
380,5,20797,5,6,3:2:0:0:
409,40,20861,1,2,0:2:0:0:
420,81,20925,1,2,0:2:0:0:
413,122,20989,1,2,0:2:0:0:
388,154,21053,1,2,0:2:0:0:
363,176,21117,1,2,0:2:0:0:
348,203,21181,1,2,0:2:0:0:
347,230,21245,1,2,0:2:0:0:
354,253,21310,6,0,L|406:239,3,45.0000017166138,2|2|2|2,0:2|0:2|0:2|0:2,0:0:0:0:
290,154,21566,2,0,L|238:140,3,45.0000017166138,2|2|2|2,0:2|0:2|0:2|0:2,0:0:0:0:
401,316,21822,5,2,0:2:0:0:
386,325,21886,1,2,0:2:0:0:
369,330,21951,1,2,0:2:0:0:
344,331,22015,1,2,0:2:0:0:
313,322,22079,1,2,0:2:0:0:
292,300,22143,1,2,0:2:0:0:
270,276,22207,1,2,0:2:0:0:
234,259,22271,1,2,0:2:0:0:
192,260,22335,1,2,0:2:0:0:
153,279,22399,1,2,0:2:0:0:
126,315,22463,1,2,0:2:0:0:
129,360,22527,1,2,0:2:0:0:
162,384,22592,1,2,0:2:0:0:
198,384,22656,1,2,0:2:0:0:
221,374,22720,6,0,L|210:312,1,45.0000017166138,2|2,0:2|0:2,0:0:0:0:
187,185,22848,1,4,0:3:0:0:
187,185,23233,1,2,0:0:0:0:
368,103,23874,6,0,B|359:152|359:152|356:153|356:153|346:209,1,90,2|0,0:0|0:0,0:0:0:0:
345,211,24130,1,2,0:0:0:0:
280,158,24258,5,2,0:0:0:0:
427,186,24515,5,2,0:0:0:0:
8,56,24899,6,0,B|-2:51|-2:51|-1:17|-1:17|22:41|22:41|19:53,1,90,2|0,0:1|0:0,0:0:0:0:
34,122,25156,1,2,0:0:0:0:
102,50,25284,2,0,P|174:28|236:91,1,170.999994781494,2|0,0:0|0:0,0:0:0:0:
158,107,26566,2,0,L|149:138,2,30,2|2|2,0:0|0:0|0:0,0:0:0:0:
183,16,26951,5,2,0:1:0:0:
183,16,27335,1,2,0:0:0:0:
349,116,27976,6,0,B|371:126|371:126|448:111,1,90,2|0,0:1|0:0,0:0:0:0:
512,99,28233,1,2,0:0:0:0:
451,26,28361,5,2,0:0:0:0:
490,186,28617,5,2,0:0:0:0:
251,28,29002,6,0,B|244:74|244:74|240:75|240:75|230:130,1,90,2|0,0:1|0:0,0:0:0:0:
220,181,29258,1,2,0:0:0:0:
175,41,29386,2,0,P|99:29|53:77,1,143.999995605469,2|0,0:0|0:0,0:0:0:0:
128,107,30540,2,0,B|136:131|136:131|127:168,1,62.3999996191406,2|2,0:1|0:0,0:0:0:0:
7,132,30797,2,0,B|8:157|8:157|29:188,1,62.3999996191406,2|0,0:3|0:0,0:0:0:0:
88,238,31053,5,6,3:2:0:0:
54,60,31181,1,0,3:0:0:0:
204,165,31310,6,0,L|268:151,1,62.3999996191406,4|2,0:1|0:0,0:0:0:0:
380,125,31566,1,4,0:1:0:0:
380,125,31694,1,2,0:0:0:0:
402,27,31823,6,0,B|399:10|399:10|417:-7|417:-7|420:18|420:18|408:30,1,83.9999974365235,4|2,0:1|0:0,0:0:0:0:
453,192,32078,2,0,B|468:198|468:198|475:223|475:223|451:212|451:212|446:196,1,83.9999974365235,2|0,3:1|0:0,0:0:0:0:
283,153,32335,2,0,B|269:163|269:163|244:156|244:156|266:140|266:140|282:145,1,83.9999974365235,4|0,0:1|0:0,0:0:0:0:
380,125,32592,6,0,B|385:173|352:199|352:199|353:208|353:208|315:236|321:280|321:280,1,167.999994873047,6|4,0:1|0:1,0:0:0:0:
346,384,32976,1,0,3:0:0:0:
483,293,33104,6,0,B|440:285|440:285|436:280|436:280|397:272,1,83.9999974365235,2|0,3:1|0:0,0:0:0:0:
281,335,33360,2,0,B|248:342|248:342|244:347|244:347|201:355,1,83.9999974365235,4|2,0:1|0:0,0:0:0:0:
326,249,33617,2,0,P|345:213|382:194,2,83.9999974365235,4|2|4,0:1|0:0|0:1,0:0:0:0:
282,107,34002,6,0,B|276:89|276:89|304:76|319:37|319:37|314:78|336:105|336:105|321:117,1,179.999994506836,2|0,3:1|0:0,0:0:0:0:
284,179,34386,6,0,L|291:216,1,30,8|8,3:1|3:1,0:0:0:0:
262,183,34451,2,0,L|269:220,1,30
240,187,34515,2,0,L|247:224,1,30,0|0,3:0|3:0,0:0:0:0:
218,191,34578,2,0,L|225:228,1,30
160,136,34642,6,0,L|167:99,1,30,8|0,3:3|0:0,0:0:0:0:
138,132,34706,2,0,L|145:95,1,30,0|8,0:0|3:3,0:0:0:0:
116,128,34770,2,0,L|123:91,1,30,4|0,3:3|0:0,0:0:0:0:
94,124,34835,2,0,L|101:87,1,30
18,181,34899,6,0,B|0:217|0:217|14:292|14:292|20:294|20:294|35:356|35:356|78:373,1,215.999993408203,8|4,3:1|3:3,0:0:0:0:
105,296,35156,6,0,B|137:269|201:269|234:321|234:321|249:321|249:321|280:367|351:369|383:331,1,315.000012016297,6|0,3:2|0:0,0:0:0:0:
440,372,35669,2,0,P|454:327|440:294,1,60,8|0,3:1|0:0,0:0:0:0:
512,281,35797,2,0,P|478:248|442:245,1,60,8|0,3:1|0:0,0:0:0:0:
290,122,35925,6,0,B|281:139|261:150|261:150|317:197|321:269|321:269|336:201|404:167|404:167|386:148|383:127,1,357.000006809235,6|0,3:2|0:0,0:0:0:0:
338,64,36438,2,0,B|329:48|329:48|348:20|348:20|358:53|358:53|347:65,1,102.000001945496,2|0,3:2|0:0,0:0:0:0:
427,266,36694,2,0,B|444:266|444:266|459:296|459:296|425:289|425:289|421:273,1,102.000001945496,8|0,3:1|0:0,0:0:0:0:
203,233,36951,5,10,3:2:0:0:
167,205,37015,1,10,3:2:0:0:
121,199,37079,1,10,3:2:0:0:
80,221,37143,1,10,3:2:0:0:
57,261,37207,2,0,B|50:301|79:330|79:330|199:298,1,186.000001419067,6|0,3:2|0:0,0:0:0:0:
359,6,37463,5,8,3:1:0:0:
397,38,37528,1,8,3:1:0:0:
410,84,37591,2,0,P|371:150|347:158,1,93.0000007095337,10|8,3:1|3:1,0:0:0:0:
309,227,37719,5,8,3:1:0:0:
271,259,37784,1,8,3:1:0:0:
258,305,37847,2,0,P|297:371|321:379,1,93.0000007095337,10|8,3:1|3:1,0:0:0:0:
394,383,37976,5,8,3:1:0:0:
428,355,38040,1,8,3:1:0:0:
435,313,38104,2,0,B|426:272|426:272|428:265|428:265|416:217,1,93.0000007095337,2|0,3:2|0:0,0:0:0:0:
123,13,38361,6,0,B|129:57|129:57|133:63|133:63|139:112,1,93.0000007095337,10|0,3:2|0:0,0:0:0:0:
69,145,38489,2,0,P|166:181|216:122,1,186.000001419067,10|0,3:2|0:0,0:0:0:0:
204,57,38745,5,2,0:0:0:0:
204,57,39002,1,2,0:3:0:0:
445,158,39258,6,0,B|449:184|471:202|471:202|401:176|401:176|397:171|397:171|321:142,1,198.000006042481,6|0,3:1|0:0,0:0:0:0:
307,83,39515,2,0,B|301:69|311:50|311:50|311:67|323:89,1,66.0000020141602,2|0,0:0|0:0,0:0:0:0:
352,256,39643,1,2,3:2:0:0:
189,191,39771,2,0,B|124:169|124:169|123:164|123:164|62:142,1,132.00000402832,8|0,3:1|0:0,0:0:0:0:
131,301,40027,6,0,B|127:327|105:345|105:345|175:319|175:319|179:314|179:314|255:285,1,198.000006042481,6|0,3:2|0:0,0:0:0:0:
269,226,40284,2,0,B|275:212|265:193|265:193|265:210|253:232,1,66.0000020141602,2|0,0:0|0:0,0:0:0:0:
207,384,40412,1,2,3:2:0:0:
57,284,40540,5,2,3:2:0:0:
53,264,40604,1,2,3:2:0:0:
49,244,40669,1,2,3:2:0:0:
45,224,40733,1,2,3:2:0:0:
41,204,40796,2,0,B|27:129|27:129|41:161|71:166,1,132.00000402832,8|0,3:2|3:2,3:2:0:0:
241,130,41053,6,0,L|305:144,1,48,2|0,0:0|0:0,0:0:0:0:
142,111,41181,2,0,L|77:96,1,48,2|0,0:0|0:0,0:0:0:0:
268,45,41310,6,0,B|343:64|343:64|370:104|370:104|450:124,1,198.000006042481,6|0,3:2|0:0,0:0:0:0:
487,67,41566,2,0,B|500:61|500:61|503:30|503:30|479:47|479:47|477:62,1,90.0000034332277,2|0,0:0|0:0,0:0:0:0:
392,194,41694,1,2,3:2:0:0:
241,130,41822,2,0,B|218:163|218:163|249:312,1,132.00000402832,8|2,3:1|0:0,0:0:0:0:
412,287,42079,6,0,B|337:306|337:306|310:346|310:346|230:366,1,198.000006042481,6|0,3:2|0:0,0:0:0:0:
182,325,42335,2,0,B|168:321|168:321|157:290|157:290|185:301|185:301|190:317,1,90.0000034332277,2|0,0:0|0:0,0:0:0:0:
389,374,42463,5,2,3:2:0:0:
409,370,42527,1,0,3:0:0:0:
429,366,42592,1,0,3:0:0:0:
449,362,42656,1,0,3:0:0:0:
469,358,42720,2,0,P|495:320|481:244,1,66.0000020141602,2|0,3:2|0:0,0:0:0:0:
512,224,42848,2,0,P|456:167|401:163,1,132.00000402832,8|0,3:1|0:0,0:0:0:0:
236,252,43104,5,10,3:2:0:0:
201,230,43169,1,10,3:2:0:0:
182,195,43233,1,10,3:2:0:0:
185,155,43297,1,10,3:2:0:0:
208,123,43361,6,0,B|272:107|272:107|279:102|279:102|340:87|340:87|301:92|269:51,1,198.000006042481,6|0,3:2|0:0,0:0:0:0:
235,18,43617,2,0,B|207:8|186:24|186:24|211:19|243:43,1,90.0000034332277,2|0,0:0|0:0,0:0:0:0:
415,94,43745,1,2,3:2:0:0:
333,254,43874,6,0,B|312:285|312:285|329:363|329:363|360:384,1,155.999992858887,8|2,3:1|0:0,0:0:0:0:
512,224,44130,6,0,B|443:201|443:201|432:202|432:202|362:178|362:178|412:195|418:264,1,233.999989288331,6|0,3:2|0:0,0:0:0:0:
451,291,44386,2,0,B|454:320|433:337|433:337|440:318|434:299,1,90.0000034332277,2|0,0:0|0:0,0:0:0:0:
415,94,44515,1,2,3:2:0:0:
255,232,44643,5,2,3:2:0:0:
232,224,44707,1,2,3:2:0:0:
213,217,44772,1,2,3:2:0:0:
194,213,44836,1,2,3:2:0:0:
174,206,44900,2,0,B|79:176|79:176|120:180|144:154,1,155.999992858887,8|0,3:1|0:0,0:0:0:0:
308,83,45156,6,0,L|317:136,1,53.9999983520508,2|0,3:2|0:0,0:0:0:0:
342,307,45284,2,0,L|333:254,1,53.9999983520508,2|0,3:2|0:0,0:0:0:0:
217,120,45412,6,0,B|157:85|169:20|169:20|148:79|64:82,1,233.999989288331,6|0,3:2|0:0,0:0:0:0:
132,163,45669,2,0,B|133:178|133:178|115:200|115:200|110:169|110:169|121:160,1,90.0000034332277,2|0,0:0|0:0,0:0:0:0:
258,12,45797,1,2,3:2:0:0:
452,96,45925,2,0,B|467:129|467:129|455:173|455:173|451:179|451:179|430:249,1,155.999992858887,8|2,3:1|0:0,0:0:0:0:
205,268,46181,6,0,B|264:302|252:367|252:367|273:308|357:305,1,233.999989288331,6|0,3:2|0:0,0:0:0:0:
290,225,46438,2,0,B|288:209|288:209|306:187|306:187|311:218|311:218|300:227,1,90.0000034332277,2|0,0:0|0:0,0:0:0:0:
99,384,46566,1,2,3:2:0:0:
56,139,46694,5,0,3:0:0:0:
51,118,46758,1,0,3:0:0:0:
48,98,46823,1,8,3:1:0:0:
44,78,46887,1,0,3:0:0:0:
40,58,46951,6,0,L|110:76,1,60,8|0,3:1|0:0,0:0:0:0:
67,222,47079,2,0,L|-3:204,1,60,8|0,3:1|0:0,0:0:0:0:
184,27,47207,6,0,B|216:5|216:5|257:12,1,75,8|0,3:1|0:0,0:0:0:0:
290,225,47335,2,0,B|257:246|257:246|216:239,1,75,8|0,3:1|0:0,0:0:0:0:
445,46,47463,6,0,B|471:25|471:1|471:1|506:55|467:88|467:88|416:108|411:168|435:209,1,225,6|0,3:2|0:0,0:0:0:0:
350,150,47720,2,0,P|371:198|406:215,1,75,2|0,0:0|0:0,0:0:0:0:
493,156,47848,5,2,0:0:0:0:
508,157,47912,1,2,0:0:0:0:
511,172,47976,1,2,0:0:0:0:
497,179,48040,1,2,0:0:0:0:
487,169,48104,1,2,0:0:0:0:
477,284,48233,6,0,B|479:324|520:344|520:344|410:323|410:323|403:317|403:317|302:297|302:297|349:316|351:372,1,375,6|0,3:2|0:0,0:0:0:0:
273,369,48617,2,0,B|229:387|229:387|264:351,1,75,2|0,3:2|0:0,0:0:0:0:
268,231,48745,1,2,3:2:0:0:
270,216,48810,1,2,3:2:0:0:
272,201,48874,1,2,3:2:0:0:
275,184,48938,1,2,3:2:0:0:
276,170,49002,6,0,P|282:148|296:131,1,45.0000017166138,8|2,3:1|0:0,0:0:0:0:
316,302,49130,1,2,3:2:0:0:
326,310,49194,2,0,P|341:326|349:347,1,45.0000017166138,2|2,3:2|3:2,0:0:0:0:
192,279,49322,1,0,0:0:0:0:
180,283,49386,2,0,P|158:288|136:284,1,45.0000017166138,2|0,3:2|0:0,0:0:0:0:
356,190,49515,6,0,B|404:173|404:173|482:190|482:190|433:187|410:225|410:225,1,207.000003948212,6|0,3:2|0:0,0:0:0:0:
405,287,49771,2,0,B|400:308|426:324|426:324|414:290|454:254,1,83.9999974365235,2|0,0:0|0:0,0:0:0:0:
418,102,49899,1,2,3:2:0:0:
270,216,50027,2,0,B|199:203|199:203|197:198|197:198|131:186,1,143.999995605469,8|2,3:1|0:0,0:0:0:0:
245,57,50284,6,0,B|216:-4|291:-40|318:-13|356:16|363:98|318:164|214:132,1,287.999991210938,6|0,3:2|3:0,0:0:0:0:
141,61,50669,1,2,3:2:0:0:
119,43,50733,1,2,3:2:0:0:
92,33,50797,1,2,3:2:0:0:
63,33,50861,1,2,3:2:0:0:
36,43,50925,1,2,3:2:0:0:
14,61,50989,1,2,3:2:0:0:
0,86,51053,2,0,P|16:171|123:183,1,180.000006866455,8|2,3:1|3:2,0:0:0:0:
252,127,51310,5,10,3:2:0:0:
246,180,51374,1,10,3:2:0:0:
240,233,51438,1,10,3:2:0:0:
235,286,51502,1,10,3:2:0:0:
230,339,51566,5,2,3:1:0:0:
306,320,51822,5,2,0:0:0:0:
306,320,51951,1,2,0:0:0:0:
366,365,52207,5,2,0:0:0:0:
427,325,52463,6,0,L|412:222,1,102,2|0,0:1|0:0,0:0:0:0:
409,206,53617,6,0,B|423:297|369:267|373:299|357:331|396:391|443:383|482:356|479:319|476:290|465:278|450:263|425:283|409:206,1,360.000013732911,4|0,0:3|0:0,0:0:0:0:
399,133,54130,5,2,0:0:0:0:
399,133,54643,5,2,0:1:0:0:
326,142,55027,1,2,0:0:0:0:
226,95,55412,6,0,B|240:122|240:122|224:205,1,90,14|0,3:0|0:0,0:0:0:0:
159,198,55669,5,6,3:1:0:0:
179,232,55733,1,2,3:2:0:0:
216,252,55797,1,2,3:2:0:0:
258,247,55861,1,2,3:2:0:0:
289,220,55925,1,2,3:2:0:0:
103,80,56053,5,8,3:1:0:0:
201,341,56181,1,2,3:2:0:0:
40,180,56309,1,2,3:2:0:0:
283,36,56438,5,8,3:1:0:0:
196,326,56566,1,0,3:0:0:0:
108,95,56694,1,0,3:0:0:0:
457,90,56822,5,8,3:1:0:0:
191,311,56951,1,2,3:2:0:0:
278,51,57079,1,2,3:2:0:0:
471,314,57207,6,0,B|471:339|483:356|483:356|408:311|340:317|340:317|376:308|388:250,1,233.999989288331,8|0,3:1|0:0,0:0:0:0:
433,252,57463,1,8,3:1:0:0:
436,236,57527,1,10,3:2:0:0:
439,220,57592,1,10,3:2:0:0:
442,204,57656,1,10,3:2:0:0:
445,188,57720,5,10,3:1:0:0:
237,384,57848,1,0,3:0:0:0:
292,180,57976,1,0,3:0:0:0:
508,249,58104,5,8,3:1:0:0:
191,311,58233,1,0,3:0:0:0:
376,136,58361,1,2,3:2:0:0:
501,384,58489,5,8,3:1:0:0:
146,239,58617,1,0,3:0:0:0:
445,188,58745,1,0,3:0:0:0:
96,313,58874,5,8,3:1:0:0:
79,299,58938,1,2,3:2:0:0:
66,278,59002,1,2,3:2:0:0:
58,250,59066,1,2,3:2:0:0:
59,217,59130,1,2,3:2:0:0:
79,185,59194,1,2,3:2:0:0:
111,161,59258,1,8,3:1:0:0:
152,138,59322,1,2,3:2:0:0:
174,93,59386,1,10,3:2:0:0:
173,40,59451,1,10,3:2:0:0:
128,1,59515,1,10,3:2:0:0:
66,2,59579,1,10,3:2:0:0:
23,53,59643,1,10,3:2:0:0:
28,120,59707,1,2,3:0:0:0:
417,35,60027,6,0,B|434:61|468:60|468:60|380:77|380:77|368:75|368:75|284:92|284:92|332:88|359:136,1,315.000012016297,6|0,3:2|0:0,0:0:0:0:
286,170,60540,5,2,0:0:0:0:
241,180,60604,1,2,0:0:0:0:
196,190,60668,1,2,0:0:0:0:
151,200,60732,1,2,0:0:0:0:
85,217,60796,5,2,0:0:0:0:
123,229,60860,1,2,0:0:0:0:
160,243,60924,1,2,0:0:0:0:
199,258,60989,1,2,0:0:0:0:
243,274,61053,5,2,0:0:0:0:
212,279,61117,1,2,0:0:0:0:
183,286,61181,1,2,0:0:0:0:
152,294,61245,1,2,0:0:0:0:
128,299,61309,5,2,0:0:0:0:
150,305,61373,1,2,0:0:0:0:
172,313,61437,1,2,0:0:0:0:
195,322,61501,1,2,0:0:0:0:
217,330,61566,5,2,0:0:0:0:
202,333,61630,1,2,0:0:0:0:
189,336,61694,1,2,0:0:0:0:
175,339,61758,1,2,0:0:0:0:
108,376,61823,6,0,P|66:351|8:362,1,108,2|0,3:1|0:0,0:0:0:0:
10,362,65925,5,2,0:0:0:0:
10,362,66438,5,2,0:0:0:0:
10,362,66951,6,0,P|23:321|23:288,1,72,4|0,0:3|0:0,0:0:0:0:
23,270,67976,1,2,0:0:0:0:
94,290,68233,1,2,0:0:0:0:
94,290,68361,1,2,0:0:0:0:
153,243,68617,1,2,0:0:0:0:
208,337,69002,6,0,P|256:330|310:374,1,120,2|0,0:0|0:0,0:0:0:0:
314,384,70540,1,2,0:0:0:0:
413,307,70797,1,2,0:2:0:0:
481,347,71053,6,0,P|484:323|494:297,1,48,2|0,0:1|0:0,0:0:0:0:
402,287,71823,5,2,0:0:0:0:
334,327,72079,2,0,P|331:303|321:277,1,48,2|0,0:2|0:0,0:0:0:0:
422,219,72848,5,2,0:0:0:0:
422,219,73105,2,0,B|429:207|429:207|422:185|422:185|410:205|410:205|414:218,1,72,2|0,0:0|0:0,0:0:0:0:
402,287,74130,5,2,0:0:0:0:
327,324,74515,5,2,0:0:0:0:
273,260,74899,5,2,0:0:0:0:
273,260,75156,1,2,0:1:0:0:
257,361,75412,2,0,L|253:386,1,24,2|2,0:0|0:0,0:0:0:0:
257,361,76181,5,2,0:0:0:0:
190,322,76565,5,2,0:0:0:0:
135,380,76950,5,2,0:0:0:0:
135,380,77207,2,0,P|117:355|111:325,1,53.9999983520508,2|2,0:1|0:0,0:0:0:0:
310,175,78233,5,2,0:0:0:0:
242,246,78617,5,2,0:0:0:0:
214,153,79002,5,2,0:0:0:0:
386,0,79258,6,0,B|394:57|394:57|392:64|392:64|402:132,1,116.999994644165,6|0,3:2|0:0,0:0:0:0:
448,170,79771,5,2,3:2:0:0:
422,184,79899,1,2,0:2:0:0:
393,186,80028,1,2,0:2:0:0:
366,176,80156,1,2,0:2:0:0:
305,125,80284,5,2,3:2:0:0:
342,141,80412,1,2,0:2:0:0:
366,176,80541,1,2,0:2:0:0:
370,220,80669,1,2,0:2:0:0:
361,329,80797,5,2,3:2:0:0:
349,273,80925,1,2,0:2:0:0:
370,220,81054,1,2,0:2:0:0:
421,191,81182,1,2,0:2:0:0:
430,288,81310,6,0,B|446:316|446:316|440:347,1,60,6|2,3:2|0:2,0:0:0:0:
293,372,81524,2,0,B|277:344|277:344|282:316,1,60,2|2,0:2|0:2,0:0:0:0:
332,107,81738,5,2,3:2:0:0:
339,77,81845,1,2,0:2:0:0:
333,47,81952,1,2,0:2:0:0:
316,23,82060,1,2,0:2:0:0:
264,75,82167,5,2,3:2:0:0:
219,92,82274,1,2,0:2:0:0:
172,87,82381,1,2,0:2:0:0:
136,61,82489,1,2,0:2:0:0:
76,4,82595,6,0,P|56:35|53:62,1,60,6|2,3:2|0:2,0:0:0:0:
0,124,82766,2,0,P|16:156|38:172,1,60,2|2,0:2|0:2,0:0:0:0:
228,172,82937,5,2,3:2:0:0:
273,155,83023,1,2,0:2:0:0:
320,160,83109,1,2,0:2:0:0:
356,186,83195,1,2,0:2:0:0:
409,244,83280,6,0,B|384:267|391:300|391:300|378:266|328:255,1,120,6|2,3:2|0:2,0:0:0:0:
94,222,83581,5,2,3:2:0:0:
53,249,83656,1,2,0:2:0:0:
33,292,83732,1,2,0:2:0:0:
36,338,83807,1,2,0:2:0:0:
102,381,83883,5,6,3:2:0:0:
120,378,83953,1,2,0:2:0:0:
138,375,84023,2,0,B|180:366|180:366|188:369|188:369|252:356,1,90.0000034332277,2|2,0:2|0:2,0:0:0:0:
356,186,84163,5,2,3:2:0:0:
338,189,84233,1,2,0:2:0:0:
320,192,84303,2,0,B|278:201|278:201|270:198|270:198|206:211,1,90.0000034332277,2|2,0:2|0:2,0:0:0:0:
314,352,84443,5,2,3:2:0:0:
331,358,84507,1,2,0:2:0:0:
348,365,84571,2,0,B|368:371|368:371|352:316|352:316|347:310|347:310|314:198,1,132.00000402832,2|2,0:2|0:2,0:0:0:0:
180,96,84699,5,2,3:2:0:0:
163,90,84763,1,2,0:2:0:0:
146,83,84827,2,0,B|126:77|126:77|142:132|142:132|147:138|147:138|180:250,1,132.00000402832,2|2,0:2|0:2,0:0:0:0:
420,240,84955,5,2,3:2:0:0:
444,215,85019,1,2,0:2:0:0:
451,186,85084,2,0,P|397:102|357:100,1,120,2|2,0:2|0:2,0:0:0:0:
160,182,85212,5,2,3:2:0:0:
136,207,85276,1,2,0:2:0:0:
129,236,85341,2,0,P|183:320|223:322,1,120,2|2,0:2|0:2,0:0:0:0:
292,45,85467,5,2,3:2:0:0:
268,16,85531,1,2,0:2:0:0:
232,5,85596,2,0,P|149:58|147:98,1,132.00000402832,2|2,0:2|0:2,0:0:0:0:
309,344,85725,5,2,3:2:0:0:
333,373,85789,1,2,0:2:0:0:
369,384,85854,2,0,P|452:331|454:291,1,132.00000402832,2|2,0:2|0:2,0:0:0:0:
289,191,87007,5,2,0:0:0:0:
289,191,87519,5,2,0:0:0:0:
345,129,88032,6,0,B|294:79|227:111|204:139|195:196|212:229|212:229|196:245|196:245|224:332|128:385|66:357|41:297,1,495.000018882752,6|0,3:2|0:0,0:0:0:0:
106,229,88801,2,0,L|118:269,1,41.9999987182618,2|2,0:0|0:0,0:0:0:0:
53,113,89057,2,0,B|47:105|36:101|36:101|60:73|56:37|56:37|69:69|106:81|106:81|100:92|99:101,1,180.000006866455,6|2,3:2|0:0,0:0:0:0:
214,254,89570,6,0,B|326:277|326:277|283:256|287:219,1,174.000005310059,8|0,3:1|0:0,0:0:0:0:
106,229,89762,2,0,B|-7:205|-7:205|36:226|32:263,1,174.000005310059,8|0,3:1|0:0,0:0:0:0:
148,300,89955,1,8,3:1:0:0:
440,136,90211,5,0,3:0:0:0:
436,122,90275,1,0,3:0:0:0:
431,108,90339,2,0,B|415:34|415:34|337:31|329:105|329:105|326:165|276:183|188:174,1,306.000005836487,6|0,3:1|0:0,0:0:0:0:
187,160,90596,5,8,3:1:0:0:
167,142,90660,1,8,3:1:0:0:
143,127,90724,1,8,3:1:0:0:
108,125,90788,1,8,3:1:0:0:
73,134,90852,1,8,3:1:0:0:
41,154,90916,1,8,3:1:0:0:
23,188,90980,1,8,3:1:0:0:
18,230,91044,1,8,3:1:0:0:
31,274,91108,1,4,3:0:0:0:
70,303,91173,1,4,3:0:0:0:
126,310,91237,1,4,3:0:0:0:
177,284,91301,1,4,3:0:0:0:
220,245,91365,1,8,3:0:0:0:
276,232,91429,1,8,3:0:0:0:
336,238,91493,1,8,3:0:0:0:
386,285,91557,1,8,3:0:0:0:
414,352,91621,5,4,3:0:0:0:
335,375,91686,1,4,3:0:0:0:
256,354,91750,1,4,3:0:0:0:
206,290,91814,1,4,3:0:0:0:
205,209,91878,1,8,3:1:0:0:
249,143,91942,1,0,3:0:0:0:
325,114,92006,1,4,3:0:0:0:
404,135,92070,1,4,3:0:0:0:
450,202,92134,6,0,B|455:239|482:263|482:263|401:233|309:240|309:240|342:225|353:192,1,306.000005836487,6|0,3:2|0:0,0:0:0:0:
404,135,92390,2,0,B|421:99|391:82|391:82|403:107|397:133,1,102.000001945496,8|0,3:1|0:0,0:0:0:0:
315,317,92519,2,0,P|259:298|232:250,1,102.000001945496,8|0,3:0|0:0,0:0:0:0:
254,56,92647,5,2,3:2:0:0:
414,357,92775,1,0,0:0:0:0:
479,22,92903,1,8,3:1:0:0:
315,317,93031,6,0,B|283:364|283:364|199:372|199:372|192:368|192:368|117:373|117:373|71:326,1,270.000010299683,6|0,3:2|0:0,0:0:0:0:
11,326,93288,1,0,3:0:0:0:
11,326,93352,1,0,3:0:0:0:
11,326,93416,2,0,P|38:279|83:265,1,90.0000034332277,8|0,3:1|3:0,0:0:0:0:
66,109,93544,1,0,3:0:0:0:
66,109,93608,1,0,3:0:0:0:
66,109,93672,2,0,P|124:115|194:215,1,180.000006866455,4|4,3:0|3:0,0:0:0:0:
283,222,93865,5,0,3:0:0:0:
283,222,93929,2,0,B|327:212|327:212|332:207|332:207|386:196,1,90.0000034332277,8|0,3:1|0:0,0:0:0:0:
149,35,94057,2,0,B|104:28|104:28|99:23|99:23|44:15,1,90.0000034332277,2|0,3:2|0:0,0:0:0:0:
174,327,94185,6,0,B|213:345|224:386|224:386|208:298|208:298|202:294|202:294|182:192,1,270.000010299683,6|0,3:2|0:0,0:0:0:0:
214,128,94442,2,0,B|216:113|216:113|240:96|240:96|237:127|237:127|224:133,1,90.0000034332277,8|0,3:1|0:0,0:0:0:0:
114,273,94570,2,0,B|93:301|93:301|12:321|12:321|49:304|55:260,1,180.000006866455,6|0,3:2|0:0,0:0:0:0:
149,35,94826,1,2,3:2:0:0:
291,345,94955,1,2,3:2:0:0:
472,61,95083,6,0,B|481:20|517:10|517:10|456:-5|432:49|441:85|441:85|487:113|477:207,1,270.000010299683,4|0,3:1|0:0,0:0:0:0:
510,214,95339,1,0,3:0:0:0:
510,214,95403,1,0,3:0:0:0:
510,214,95467,2,0,P|415:187|405:151,1,90.0000034332277,8|0,3:1|0:0,0:0:0:0:
284,31,95596,2,0,P|327:23|367:43,1,90.0000034332277,2|0,3:2|0:0,0:0:0:0:
403,292,95724,5,8,3:1:0:0:
356,361,95809,5,8,3:1:0:0:
272,371,95895,5,8,3:1:0:0:
208,316,95980,5,6,3:0:0:0:
144,261,96066,5,0,0:0:0:0:
60,271,96152,5,0,0:0:0:0:
7,333,96237,6,0,P|65:358|141:285,1,176.000005371094,12|2,3:3|0:2,0:0:0:0:
191,174,96493,5,10,3:2:0:0:
255,119,96579,5,10,3:2:0:0:
339,129,96665,5,10,3:2:0:0:
392,191,96750,6,0,P|334:216|258:143,1,176.000005371094,8|2,3:3|0:2,0:0:0:0:
96,40,97006,5,10,3:2:0:0:
84,117,97091,5,10,3:2:0:0:
72,194,97177,5,10,3:2:0:0:
60,271,97262,5,12,3:3:0:0:
141,252,97348,5,0,0:0:0:0:
211,286,97433,5,2,0:2:0:0:
239,352,97518,5,10,3:2:0:0:
285,383,97604,5,10,3:2:0:0:
333,382,97690,5,10,3:2:0:0:
366,358,97775,6,0,P|382:328|329:228,1,155.999992858887,8|0,3:0|0:0,0:0:0:0:
381,165,97967,2,0,P|350:150|253:208,1,155.999992858887,8|0,3:0|0:0,0:0:0:0:
303,306,98160,1,4,3:0:0:0:
152,53,98416,6,0,B|156:33|156:33|141:19|127:-8|127:-8|125:21|116:42|116:42|133:57,1,143.999995605469,6|0,3:2|0:0,0:0:0:0:
166,149,98608,2,0,B|180:162|180:162|171:183|169:212|169:212|155:185|139:170|139:170|144:151,1,143.999995605469,0|0,3:2|0:0,0:0:0:0:
231,77,98801,6,0,B|255:54|255:54|283:69|322:77|322:77|283:91|260:112|260:112|235:102,1,204.000003890991,6|0,3:2|0:0,0:0:0:0:
64,107,98993,2,0,B|37:96|37:96|14:116|-24:131|-24:131|15:139|42:154|42:154|68:132,1,204.000003890991,0|0,3:2|0:0,0:0:0:0:
141,55,99185,6,0,L|158:161,1,96,6|0,3:2|0:0,0:0:0:0:
92,309,99314,6,0,B|84:337|54:353|54:353|157:348|226:387|226:387|204:354|210:315,1,288,6|0,3:1|0:0,0:0:0:0:
249,278,99570,5,8,3:1:0:0:
293,247,99655,5,8,3:1:0:0:
346,253,99741,5,8,3:1:0:0:
417,197,99826,5,4,3:0:0:0:
468,246,99912,5,4,3:0:0:0:
472,316,99997,5,4,3:0:0:0:
400,382,100083,6,0,L|274:357,1,90.0000034332277,2|0,3:0|0:0,0:0:0:0:
15,219,100339,6,0,B|38:178|92:169|125:198|125:198|135:192|135:192|184:242|265:212|254:115,1,261.000007965088,6|0,3:2|0:0,0:0:0:0:
314,171,100596,1,8,3:1:0:0:
314,171,100660,1,0,3:0:0:0:
314,171,100724,2,0,P|286:123|256:112,1,87.0000026550294,8|0,3:0|3:0,3:0:0:0:
210,19,100852,2,0,P|154:19|129:39,1,87.0000026550294,4|0,3:0|3:0,3:0:0:0:
85,262,100980,5,4,3:0:0:0:
85,262,101044,1,0,3:0:0:0:
85,262,101108,2,0,B|80:291|50:320|50:320|144:305|144:305|153:299|153:299|289:278,1,261.000007965088,8|4,3:1|3:0,0:0:0:0:
309,265,101365,6,0,B|320:257|320:257|350:267|350:267|324:282|324:282|310:277,1,87.0000026550294,6|0,3:2|0:0,0:0:0:0:
119,182,101493,2,0,B|106:176|106:176|98:146|98:146|124:159|124:159|129:174,1,87.0000026550294,2|0,3:2|0:0,0:0:0:0:
254,357,101621,6,0,B|342:385|342:385|436:321,1,174.000005310059,8|0,3:1|0:0,0:0:0:0:
474,103,101878,5,10,3:2:0:0:
426,80,101942,1,10,3:2:0:0:
378,57,102006,1,10,3:2:0:0:
343,95,102070,1,10,3:2:0:0:
308,134,102134,2,0,B|307:164|307:164|372:154|406:190|406:190|425:141|486:125|486:125|470:96,1,270.000010299683,8|0,3:1|0:0,0:0:0:0:
378,57,102390,6,0,L|418:247,1,180.000006866455,6|0,3:2|0:0,0:0:0:0:
433,334,102647,5,8,3:2:0:0:
212,144,102775,1,8,3:2:0:0:
52,373,102903,5,8,3:2:0:0:
326,276,103031,1,8,3:2:0:0:
208,24,103160,5,8,3:2:0:0:
154,308,103288,1,8,3:2:0:0:
405,158,103416,5,8,3:1:0:0:
22,84,103544,1,8,3:1:0:0:
440,256,103673,1,8,3:1:0:0:
56,182,103801,1,8,3:1:0:0:
360,28,103929,5,8,3:1:0:0:
412,83,104014,5,4,3:0:0:0:
405,158,104100,5,4,3:0:0:0:
344,204,104185,5,14,3:0:0:0:
284,251,104271,5,4,0:3:0:0:
278,326,104357,5,4,0:3:0:0:
325,384,104442,6,0,B|416:364|416:364|424:359|424:359|517:337|517:337|443:263,1,287.999991210938,6|2,3:2|3:2,0:0:0:0:
171,169,104826,5,2,3:2:0:0:
171,169,104890,1,2,3:2:0:0:
171,169,104955,1,8,3:1:0:0:
128,162,105019,1,2,0:2:0:0:
88,180,105083,1,2,3:2:0:0:
65,217,105147,1,2,3:2:0:0:
65,260,105211,1,2,3:2:0:0:
88,296,105275,1,2,3:2:0:0:
128,314,105339,1,2,3:2:0:0:
170,308,105403,1,2,0:2:0:0:
203,280,105467,6,0,P|216:248|208:205,1,60,2|0,3:2|0:0,0:0:0:0:
200,68,105596,2,0,P|216:98|255:119,1,60,2|0,3:2|0:0,0:0:0:0:
372,144,105724,6,0,B|435:119|425:50|391:19|391:19|404:68|380:96,1,225,2|2,3:2|3:2,0:0:0:0:
354,259,105980,2,0,B|344:326|408:351|452:337|452:337|403:324|391:289,1,225,8|0,3:1|0:0,0:0:0:0:
261,183,106237,2,0,B|207:140|154:183|144:228|144:228|180:192|216:200,1,225,2|0,3:2|0:0,0:0:0:0:
288,296,106493,6,0,P|242:366|118:311,1,225,6|0,3:2|0:0,0:0:0:0:
61,366,106749,2,0,P|49:330|56:294,1,75,8|0,3:1|0:0,0:0:0:0:
89,145,106878,2,0,P|96:108|84:73,1,75,2|0,3:2|0:0,0:0:0:0:
503,113,107134,6,0,B|545:142|537:206|507:225|507:225|515:171|467:133,1,225,2|0,3:2|0:0,0:0:0:0:
422,48,107390,6,0,B|464:-4|553:40|558:136|465:190|391:167|352:146|318:74|318:74|289:0|194:-7|152:44|152:44|228:13|281:85,1,713.99997821045,6|0,3:2|0:0,0:0:0:0:
272,141,108544,6,0,L|258:193,1,41.9999987182618,4|0,3:0|0:0,0:0:0:0:
77,331,109057,6,0,B|44:368|-5:347|-5:347|31:345|47:318,1,143.999995605469,2|0,0:0|0:0,0:0:0:0:
160,312,109249,2,0,B|192:274|242:295|242:295|206:298|190:325,1,143.999995605469,2|0,0:0|0:0,0:0:0:0:
129,378,109442,2,0,L|111:268,1,90.0000034332277,2|0,0:0|0:0,0:0:0:0:
99,174,109570,5,12,3:1:0:0:
248,367,109698,1,0,3:0:0:0:
283,382,109762,1,0,3:0:0:0:
323,383,109826,1,0,3:0:0:0:
355,359,109890,1,0,3:0:0:0:
372,321,109955,2,0,P|366:283|338:249,1,66.0000020141602,8|0,3:1|0:0,0:0:0:0:
232,64,110083,5,2,3:2:0:0:
194,90,110147,1,2,3:2:0:0:
170,130,110211,1,2,3:2:0:0:
176,177,110275,1,2,3:2:0:0:
205,217,110340,2,0,P|245:236|296:231,1,77.9999964294435,8|0,3:1|0:0,0:0:0:0:
512,193,110467,5,2,3:2:0:0:
508,134,110531,1,2,3:2:0:0:
474,87,110595,1,2,3:2:0:0:
419,74,110659,1,2,3:2:0:0:
366,90,110724,2,0,P|331:124|320:180,1,90.0000034332277,8|0,3:1|0:0,0:0:0:0:
178,312,110852,6,0,B|148:337|151:387|151:387|128:298|128:298|130:287|130:287|95:152,1,270.000010299683,2|2,3:2|3:2,0:0:0:0:
131,132,111108,6,0,B|140:143|151:149|163:147|163:147|162:141|162:141|169:137|169:137|163:125|154:119|139:116,1,90.0000034332277,8|0,3:1|0:0,0:0:0:0:
146,87,111172,2,0,B|160:88|172:85|179:75|179:75|174:71|174:71|176:63|176:63|164:59|153:61|140:69,1,90.0000034332277,0|0,0:0|3:2,0:0:0:0:
125,46,111237,2,0,B|136:36|142:25|140:13|140:13|134:14|134:14|130:7|130:7|118:13|112:22|109:37,1,90.0000034332277,0|0,3:2|0:0,0:0:0:0:
125,46,111300,2,0,B|136:36|142:25|140:13|140:13|134:14|134:14|130:7|130:7|118:13|112:22|109:37,1,90.0000034332277,8|0,0:1|3:2,0:0:0:0:
81,30,111365,2,0,B|82:15|79:3|69:-3|69:-3|65:1|65:1|57:0|57:0|53:11|55:22|63:35,1,90.0000034332277,0|0,3:2|0:0,0:0:0:0:
39,51,111429,2,0,B|29:39|18:33|6:35|6:35|7:41|7:41|0:45|0:45|6:57|15:63|30:66,1,90.0000034332277,0|0,0:0|3:2,0:0:0:0:
24,95,111493,2,0,B|9:93|-2:96|-9:106|-9:106|-4:110|-4:110|-6:118|-6:118|5:122|16:120|29:112,1,90.0000034332277,8|0,3:1|0:0,0:0:0:0:
45,139,111558,2,0,B|33:148|27:159|29:171|29:171|35:170|35:170|39:177|39:177|51:171|57:162|60:147,1,90.0000034332277,0|0,0:0|3:2,0:0:0:0:
92,153,111621,6,0,B|199:192|176:355|100:386|15:340|17:263|74:232,1,360,6|0,3:2|0:0,0:0:0:0:
219,138,112134,6,0,B|258:99|339:117|355:186|355:186|378:256|459:277|503:223,1,360,2|0,0:0|0:0,0:0:0:0:
440,171,112647,6,0,L|450:124,1,48,2|2,0:3|0:1,0:0:0:0:
196,319,113673,6,0,B|132:331|132:331|106:357|106:357|23:376|23:376,1,167.999994873047,6|2,3:1|3:2,0:0:0:0:
0,316,113865,1,2,3:2:0:0:
0,316,113929,1,8,3:1:0:0:
208,149,114057,6,0,B|271:161|271:161|297:187|297:187|380:206|380:206,1,167.999994873047,0|2,0:0|3:2,0:0:0:0:
403,145,114249,1,2,3:2:0:0:
403,145,114313,1,2,3:2:0:0:
165,247,114442,1,8,3:1:0:0:
225,2,114570,1,2,0:0:0:0:
264,280,114698,5,2,3:2:0:0:
378,4,114826,1,2,3:2:0:0:
82,43,114955,1,8,3:1:0:0:
418,134,115083,6,0,B|453:128|470:95|470:95|450:195|450:195|443:201|443:201|424:295,1,251.999992309571,2|0,3:2|0:0,0:0:0:0:
452,349,115339,1,2,3:2:0:0:
452,349,115403,1,2,3:2:0:0:
452,349,115467,2,0,P|396:347|356:285,1,83.9999974365235,8|0,3:1|0:0,0:0:0:0:
306,148,115596,2,0,P|332:197|298:263,1,83.9999974365235,2|0,0:0|0:0,0:0:0:0:
195,339,115724,5,2,3:2:0:0:
195,339,115788,1,2,0:2:0:0:
195,339,115852,2,0,B|88:362|88:362|127:333|124:286,1,167.999994873047,2|8,3:2|3:1,0:0:0:0:
426,239,116108,5,2,0:2:0:0:
426,239,116172,1,2,0:2:0:0:
426,239,116236,2,0,B|531:210|531:210|483:202|464:158,1,167.999994873047,2|2,3:2|3:2,0:0:0:0:
235,0,116493,1,8,0:1:0:0:
300,288,116621,1,2,3:2:0:0:
396,9,116749,5,2,3:2:0:0:
91,80,116878,1,2,3:2:0:0:
305,308,117006,1,8,3:1:0:0:
24,192,117134,6,0,B|18:156|-14:139|-14:139|85:159|85:159|91:166|91:166|185:184,1,251.999992309571,2|0,3:2|0:0,0:0:0:0:
238,156,117390,1,2,3:2:0:0:
238,156,117454,1,2,3:2:0:0:
238,156,117518,2,0,P|236:212|174:252,1,83.9999974365235,8|8,3:1|3:1,0:0:0:0:
44,285,117647,2,0,P|93:258|159:292,1,83.9999974365235,8|8,3:1|3:1,0:0:0:0:
241,346,117775,5,8,3:0:0:0:
265,372,117839,1,8,3:0:0:0:
299,384,117903,1,4,3:0:0:0:
339,379,117967,1,4,3:0:0:0:
385,314,118031,6,0,B|372:228|372:228|409:163|409:163|393:53,1,251.999992309571,12|0,3:1|0:0,0:0:0:0:
337,35,118288,6,0,B|324:31|324:31|314:3|314:3|339:14|339:14|344:26,1,83.9999974365235,2|0,3:2|0:0,0:0:0:0:
477,70,118416,2,0,B|496:186|496:186|452:246,1,167.999994873047,8|0,3:1|0:0,0:0:0:0:
279,90,118673,6,0,B|235:57|174:81|159:132|159:132|147:130|147:130|134:206|40:226|-13:158,1,335.999989746094,6|0,3:2|3:0,0:0:0:0:
0,176,118993,1,0,3:0:0:0:
0,176,119057,1,8,3:1:0:0:
271,245,119185,1,0,3:0:0:0:
0,73,119314,5,8,3:1:0:0:
277,331,119442,1,2,3:2:0:0:
161,109,119570,5,8,3:1:0:0:
150,158,119634,1,8,3:1:0:0:
139,207,119698,1,8,3:1:0:0:
128,256,119762,1,8,3:1:0:0:
117,305,119826,1,2,3:2:0:0:
310,18,119955,1,4,3:0:0:0:
386,362,120083,1,8,3:1:0:0:
161,109,120211,2,0,B|122:96|122:96|147:134,1,83.9999974365235,2|0,3:2|0:0,0:0:0:0:
249,191,120339,5,8,3:1:0:0:
281,183,120403,1,8,3:1:0:0:
313,175,120467,1,8,3:0:0:0:
345,167,120531,1,8,3:0:0:0:
378,159,120596,1,4,3:0:0:0:
410,151,120659,1,4,3:0:0:0:
458,91,120724,6,0,B|494:85|511:53|511:53|491:152|491:152|484:158|484:158|466:252,1,251.999992309571,6|0,3:2|0:0,0:0:0:0:
495,304,120980,1,0,3:0:0:0:
495,304,121044,1,0,3:0:0:0:
495,304,121108,2,0,P|429:297|409:272,1,83.9999974365235,8|0,3:1|0:0,0:0:0:0:
310,18,121237,2,0,P|336:77|325:108,1,83.9999974365235,2|0,3:2|0:0,0:0:0:0:
269,328,121365,5,8,3:1:0:0:
193,352,121450,5,8,3:1:0:0:
128,309,121536,5,8,3:1:0:0:
119,232,121621,5,8,3:1:0:0:
175,177,121707,5,8,3:1:0:0:
253,186,121792,5,8,3:1:0:0:
294,252,121878,6,0,L|185:267,1,95.9999970703126,12|0,3:0|0:0,0:0:0:0:
119,232,122134,5,10,0:2:0:0:
128,309,122220,5,10,0:2:0:0:
119,232,122305,5,10,0:2:0:0:
128,309,122390,6,0,L|9:331,1,95.9999970703126,8|0,0:0|0:0,0:0:0:0:
7,124,122647,5,10,0:2:0:0:
20,221,122733,5,10,0:2:0:0:
7,124,122818,5,10,0:2:0:0:
20,221,122903,6,0,L|141:204,1,95.9999970703126,12|0,0:0|0:0,0:0:0:0:
324,101,123160,5,10,0:2:0:0:
204,72,123245,5,10,0:2:0:0:
324,101,123331,5,10,0:2:0:0:
204,72,123416,5,8,0:3:0:0:
324,101,123502,5,8,0:1:0:0:
204,72,123587,5,8,0:1:0:0:
324,101,123673,5,8,0:1:0:0:
204,72,123758,5,8,0:1:0:0:
324,101,123843,5,8,0:1:0:0:
122,125,123929,6,0,B|107:90|107:90|128:1,1,120.000004577637,12|0,0:0|0:0,0:0:0:0:
207,156,124185,5,10,0:2:0:0:
143,219,124270,5,10,0:2:0:0:
60,190,124356,5,10,0:2:0:0:
3,263,124442,6,0,B|-12:298|-12:298|9:387,1,120.000004577637,12|0,3:0|0:0,0:0:0:0:
119,326,124698,5,10,0:2:0:0:
157,302,124784,5,10,0:2:0:0:
202,308,124869,5,10,0:2:0:0:
273,356,124955,6,0,P|307:363|337:353,1,45.0000017166138,6|0,3:2|0:0,0:0:0:0:
383,337,125083,2,0,P|406:311|412:280,1,45.0000017166138
459,161,125211,5,10,0:2:0:0:
383,184,125296,5,10,0:2:0:0:
308,207,125382,5,10,0:2:0:0:
226,168,125467,6,0,L|234:124,1,45.0000017166138,8|0,0:1|0:1,0:1:0:0:
200,163,125532,2,0,L|208:119,1,45.0000017166138,8|0,0:1|0:1,0:1:0:0:
174,158,125596,2,0,L|182:114,1,45.0000017166138,8|0,0:1|0:1,0:1:0:0:
148,153,125660,2,0,L|156:109,1,45.0000017166138,8|0,0:1|0:1,0:1:0:0:
122,148,125724,2,0,L|130:104,1,45.0000017166138,8|0,0:1|0:1,0:1:0:0:
96,143,125788,2,0,L|104:99,1,45.0000017166138,8|0,0:1|0:1,0:1:0:0:
70,138,125852,2,0,L|78:94,1,45.0000017166138,8|0,0:1|0:1,0:1:0:0:
44,133,125916,2,0,L|52:89,1,45.0000017166138,8|0,0:1|0:1,0:1:0:0:
20,129,125980,5,12,3:1:0:0:
223,3,126108,1,0,0:0:0:0:
220,261,126237,1,0,0:0:0:0:
98,18,126365,5,8,0:1:0:0:
308,207,126493,1,0,0:0:0:0:
39,294,126621,1,0,0:0:0:0:
329,104,126749,5,8,0:1:0:0:
171,368,126878,1,0,0:0:0:0:
164,65,127006,1,0,0:0:0:0:
357,300,127134,5,8,0:1:0:0:
50,219,127262,1,0,0:0:0:0:
268,0,127390,1,0,0:0:0:0:
274,361,127519,5,8,0:1:0:0:
28,91,127647,1,0,0:0:0:0:
385,25,127775,1,10,0:2:0:0:
428,57,127839,1,10,0:2:0:0:
451,105,127903,1,10,0:2:0:0:
447,159,127967,1,10,0:2:0:0:
413,200,128031,5,8,0:1:0:0:
155,90,128160,1,0,0:0:0:0:
250,347,128288,1,0,0:0:0:0:
324,57,128416,5,8,0:1:0:0:
70,238,128544,1,0,0:0:0:0:
397,267,128673,1,0,0:0:0:0:
93,3,128801,5,8,0:1:0:0:
139,349,128929,1,0,0:0:0:0:
324,57,129057,1,0,0:0:0:0:
0,217,129185,5,8,0:1:0:0:
346,333,129314,1,0,0:0:0:0:
223,0,129442,1,0,0:0:0:0:
139,349,129570,5,8,0:1:0:0:
457,133,129698,1,0,0:0:0:0:
93,3,129826,1,10,0:2:0:0:
64,48,129890,1,10,0:2:0:0:
60,101,129954,1,10,0:2:0:0:
83,150,130018,1,10,0:2:0:0:
126,179,130083,6,0,P|188:181|223:158,1,90.0000034332277,6|0,0:2|0:0,0:0:0:0:
331,63,130211,1,2,0:2:0:0:
331,63,130275,1,2,0:2:0:0:
331,63,130339,1,2,0:2:0:0:
436,220,130467,6,0,P|374:209|345:179,1,90.0000034332277,8|0,0:1|0:0,0:0:0:0:
229,8,130596,1,2,0:2:0:0:
229,8,130660,1,2,0:2:0:0:
229,8,130724,1,2,0:2:0:0:
49,227,130852,6,0,P|79:259|123:270,1,90.0000034332277,8|0,0:1|0:0,0:0:0:0:
426,127,130980,1,2,0:2:0:0:
426,127,131044,1,2,0:2:0:0:
426,127,131108,1,2,0:2:0:0:
499,280,131237,6,0,P|462:305|417:306,1,90.0000034332277,8|0,0:1|0:0,0:0:0:0:
142,76,131365,1,2,0:2:0:0:
142,76,131429,1,2,0:2:0:0:
142,76,131493,1,2,0:2:0:0:
259,384,131621,6,0,L|267:278,1,90.0000034332277,8|0,0:1|0:0,0:0:0:0:
292,9,131749,1,2,0:2:0:0:
292,9,131814,1,2,0:2:0:0:
292,9,131878,2,0,L|284:86,6,45.0000017166138,8|0|0|0|2|0|2,0:1|0:0|0:0|0:0|0:2|0:0|0:2,0:0:0:0:
344,107,132134,6,0,P|315:127|215:79,1,144,4|0,0:0|0:0,0:0:0:0:
91,4,132390,5,8,0:1:0:0:
42,35,132455,1,8,0:1:0:0:
10,80,132519,1,8,0:1:0:0:
1,134,132583,1,8,0:1:0:0:
13,186,132647,1,8,0:1:0:0:
47,228,132711,1,8,0:1:0:0:
95,256,132775,1,8,0:1:0:0:
148,266,132839,1,8,0:1:0:0:
201,251,132903,1,8,0:1:0:0:
244,218,132967,1,8,0:1:0:0:
265,167,133031,1,8,0:1:0:0:
297,121,133096,1,8,0:1:0:0:
346,96,133160,1,8,0:1:0:0:
400,92,133224,1,8,0:1:0:0:
454,111,133288,1,8,0:1:0:0:
493,146,133352,1,8,0:1:0:0:
512,198,133416,1,8,0:1:0:0:
512,251,133480,1,8,0:1:0:0:
497,304,133544,1,8,0:1:0:0:
458,343,133608,1,8,0:1:0:0:
403,366,133673,5,2,0:0:0:0:
298,331,133801,1,2,0:0:0:0:
333,226,133929,1,2,0:0:0:0:
438,261,134057,1,2,0:3:0:0:
99,111,134442,6,0,B|99:96|109:79|109:79|122:83|122:83|129:77|129:77|161:100|158:135|156:147|156:147|177:108|219:104|219:104|222:115|222:115|231:118|231:118|225:165|180:177|183:177|183:177|183:177|183:177|228:176|253:210|253:210|243:219|243:219|245:229|245:229|205:246|171:217|171:217|171:217|195:257|177:293|177:293|165:290|165:290|157:298|157:298|120:270|131:223|129:226|129:226|129:227|129:227|107:268|66:272|66:272|64:259|64:259|54:256|54:256|59:216|94:201|100:198|100:198|55:199|30:165|30:165|39:156|39:156|37:146|37:146|80:133|110:158|110:158|103:134|102:119|102:119,1,1080.00004119873,6|2,3:1|0:0,0:0:0:0:
143,187,136108,5,2,0:0:0:0:
149,167,136237,1,2,0:0:0:0:
161,145,136365,1,2,0:0:0:0:
184,128,136493,1,2,0:0:0:0:
219,121,136621,1,2,0:0:0:0:
253,129,136749,1,2,0:0:0:0:
277,150,136878,1,2,0:0:0:0:
293,182,137006,1,2,0:0:0:0:
300,218,137134,1,2,0:0:0:0:
332,247,137262,1,2,0:0:0:0:
398,262,137390,1,2,0:0:0:0:
465,232,137519,1,2,0:0:0:0:
489,162,137647,1,2,0:0:0:0:
455,97,137775,5,2,0:0:0:0:
395,146,137903,1,2,0:0:0:0:
386,233,138031,1,2,0:0:0:0:
407,340,138160,1,2,0:0:0:0:
512,379,138288,1,2,0:0:0:0:
242,267,138416,6,0,P|238:370|254:266,1,324,2|0,0:3|0:0,0:0:0:0:
