osu file format v14

[General]
AudioFilename: audio.ogg
AudioLeadIn: 0
PreviewTime: 87998
Countdown: 0
SampleSet: Soft
StackLeniency: 0.2
Mode: 0
LetterboxInBreaks: 0
WidescreenStoryboard: 1

[Editor]
Bookmarks: 20797,22848,120723
DistanceSpacing: 0.8
BeatDivisor: 16
GridSize: 8
TimelineZoom: 3.399999

[Metadata]
Title:Bloomin'
TitleUnicode:Bl∞min'
Artist:MisoilePunch -Forever-
ArtistUnicode:MisoilePunch♪ -Forever-
Creator:R3m
Version:Cynp-zy's HYPER
Source:SOUND VOLTEX EXCEED GEAR
Tags:instrumental electronic video game sdvx hexa diver konami arcade bemani championship original song misomyl ponchi Allice CallieCube Paradogi GYGY Anxient Cynplytholowazy SupaV Nozuchi Jemzuu
BeatmapID:3730051
BeatmapSetID:1809888

[Difficulty]
HPDrainRate:4
CircleSize:5
OverallDifficulty:8
ApproachRate:8.8
SliderMultiplier:1.4
SliderTickRate:1

[Events]
//Background and Video events
0,0,"bg.jpg",0,0
//Break Periods
//Storyboard Layer 0 (Background)
//Storyboard Layer 1 (Fail)
//Storyboard Layer 2 (Pass)
//Storyboard Layer 3 (Foreground)
//Storyboard Layer 4 (Overlay)
//Storyboard Sound Samples

[TimingPoints]
1054,256.410256410256,4,2,1,60,1,0
1054,-100,4,2,1,60,0,0
2079,-100,4,2,1,5,0,0
2592,-100,4,2,1,15,0,0
3105,-100,4,2,1,30,0,0
3618,-100,4,2,1,40,0,0
4130,256.410256410256,4,2,1,60,1,0
4130,-100,4,2,1,60,0,0
4386,-133.333333333333,4,2,1,60,0,0
4642,-117.647058823529,4,2,1,60,0,0
4899,-105.263157894737,4,2,1,60,0,0
5155,-95.2380952380952,4,2,1,60,0,0
5411,-86.9565217391304,4,2,1,60,0,0
6181,-100,4,2,1,60,0,0
6437,-133.333333333333,4,2,1,60,0,0
6693,-117.647058823529,4,2,1,60,0,0
6950,-105.263157894737,4,2,1,60,0,0
7206,-95.2380952380952,4,2,1,60,0,0
7462,-86.9565217391304,4,2,1,60,0,0
7719,-80,4,2,1,60,0,0
8232,-100,4,2,1,60,0,0
8488,-133.333333333333,4,2,1,60,0,0
8744,-117.647058823529,4,2,1,60,0,0
9001,-105.263157894737,4,2,1,60,0,0
9257,-95.2380952380952,4,2,1,60,0,0
9513,-86.9565217391304,4,2,1,60,0,0
10283,-100,4,2,1,60,0,0
10540,-133.333333333333,4,2,1,60,0,0
10796,-117.647058823529,4,2,1,60,0,0
11052,-105.263157894737,4,2,1,60,0,0
11309,-100,4,2,1,60,0,0
12335,-100,4,2,1,60,0,1
20797,256.410256410256,4,2,1,60,1,0
20797,-86.9565217391304,4,2,1,60,0,0
21052,-95.2380952380952,4,2,1,60,0,0
21309,-105.263157894737,4,2,1,60,0,0
21566,-117.647058823529,4,2,1,60,0,0
21822,-105.263157894737,4,2,1,60,0,0
22077,-95.2380952380952,4,2,1,60,0,0
22334,-86.9565217391304,4,2,1,60,0,0
22590,-80,4,2,1,60,0,0
22848,256.410256410256,4,2,2,60,1,0
22848,-200,4,2,2,60,0,0
23040,-200,4,2,1,45,0,0
25282,-400,4,2,1,45,0,0
26564,-200,4,2,1,45,0,0
29385,-400,4,2,1,45,0,0
31053,-142.857142857143,4,2,1,50,0,0
31309,-142.857142857143,4,2,2,50,0,0
31438,-142.857142857143,4,2,1,50,0,0
31566,-142.857142857143,4,2,2,50,0,0
32079,-142.857142857143,4,2,1,50,0,0
32335,-142.857142857143,4,2,2,50,0,0
32976,-142.857142857143,4,2,1,50,0,0
33361,-142.857142857143,4,2,2,50,0,0
34002,-142.857142857143,4,2,1,50,0,0
34130,-142.857142857143,4,2,2,50,0,0
34385,-100,4,2,1,50,0,0
35154,-142.857142857143,4,2,1,55,0,0
36437,-111.111111111111,4,2,1,55,0,0
36693,-100,4,2,1,55,0,0
37207,-100,4,2,1,60,0,0
38103,-80,4,2,1,60,0,0
39258,-200,4,2,1,60,0,1
43359,-200,4,2,1,60,0,1
46949,-133.333333333333,4,2,1,60,0,1
47463,-200,4,2,1,60,0,0
48232,-121.212121212121,4,2,1,60,0,1
49001,-200,4,2,1,60,0,1
50282,-121.212121212121,4,2,1,60,0,1
51565,-121.212121212121,4,2,1,40,0,0
53617,-121.212121212121,4,2,2,40,0,0
54643,-121.212121212121,4,2,1,50,0,0
55668,-100,4,2,1,50,0,0
60027,-166.666666666667,4,2,1,60,0,0
61823,512.820512820513,4,2,1,60,1,0
64002,-100,4,2,1,40,0,0
65923,-500,4,2,1,40,0,0
66951,512.820512820513,4,2,2,40,1,0
66951,-250,4,2,2,40,0,0
69000,-500,4,2,2,40,0,0
70539,-250,4,2,2,40,0,0
70797,-250,4,2,1,40,0,0
73103,-500,4,2,1,40,0,0
75154,-166.666666666667,4,2,1,40,0,0
76180,-500,4,2,1,40,0,0
77205,-250,4,2,1,40,0,0
78231,-166.666666666667,4,2,1,40,0,0
78616,-142.857142857143,4,2,1,40,0,0
79000,-125,4,2,1,40,0,0
79258,-125,4,2,1,40,0,0
79771,-100,4,2,1,35,0,0
80284,-100,4,2,1,38,0,0
80797,-100,4,2,1,44,0,0
81310,428.571428571429,4,2,1,53,1,0
81738,-100,4,2,1,55,0,0
82167,-100,4,2,1,59,0,0
82595,342.857142857143,4,2,1,62,1,0
82937,-100,4,2,1,64,0,0
83280,301.507537688442,4,2,1,66,1,0
83581,-100,4,2,1,68,0,8
83883,280.373831775701,4,2,1,72,1,0
83883,-90.9090909090909,4,2,1,72,0,0
84163,-90.9090909090909,4,2,1,75,0,0
84167,-90.9090909090909,4,2,1,75,0,0
84443,256.410256410256,4,2,1,75,1,0
84443,-90.9090909090909,4,2,1,75,0,0
84451,-90.9090909090909,4,2,1,78,0,0
84707,-90.9090909090909,4,2,1,80,0,0
84955,-66.6666666666667,4,2,1,80,0,8
84963,-66.6666666666667,4,2,1,83,0,8
85220,-66.6666666666667,4,2,1,85,0,8
85476,-66.6666666666667,4,2,1,88,0,8
85733,-66.6666666666667,4,2,1,90,0,8
85989,-66.6666666666667,4,2,1,60,0,8
87006,-400,4,2,1,60,0,8
88032,256.410256410256,4,2,1,60,1,0
88032,-100,4,2,1,60,0,0
89314,-125,4,2,1,60,0,0
89570,-100,4,2,1,60,0,0
90596,-133.333333333333,4,2,1,60,0,0
90852,-117.647058823529,4,2,1,60,0,0
91108,-105.263157894737,4,2,1,60,0,0
91365,-95.2380952380951,4,2,1,60,0,0
91621,-86.9565217391304,4,2,1,60,0,0
92134,-90.9090909090909,4,2,2,60,0,1
92142,-90.9090909090909,4,2,2,70,0,1
92335,-90.9090909090909,4,2,1,60,0,1
94185,-90.9090909090929,4,2,1,60,0,1
95467,-100,4,2,1,60,0,1
95724,-90.9090909090909,4,2,1,60,0,1
96237,-133.333333333333,4,3,3,60,0,0
96373,-133.333333333333,4,3,1,60,0,0
96749,-133.333333333333,4,3,3,60,0,0
96886,-133.333333333333,4,3,1,60,0,0
97262,-100,4,3,3,60,0,0
97399,-100,4,3,1,60,0,0
97519,-111.111111111111,4,3,1,60,0,0
98416,-86.9565217391304,4,3,1,60,0,1
98424,-86.9565217391304,4,2,1,60,0,1
100596,-117.647058823529,4,2,1,60,0,1
100852,-105.263157894737,4,2,1,60,0,1
101108,-95.2380952380952,4,2,1,60,0,1
101365,-86.9565217391304,4,2,1,60,0,1
102390,-100,4,2,1,60,0,1
102647,-100,4,2,1,30,0,1
102775,-100,4,2,1,35,0,1
102904,-100,4,2,1,45,0,1
103032,-100,4,2,1,50,0,1
103160,-100,4,2,1,55,0,1
103288,-100,4,2,1,60,0,1
103416,-100,4,2,1,65,0,1
103545,-100,4,2,1,70,0,1
103673,-100,4,2,1,80,0,1
103801,-100,4,2,1,85,0,1
103929,-100,4,2,1,90,0,1
103993,-100,4,2,1,70,0,1
104442,-125,4,2,1,70,0,0
104450,-125,4,2,2,70,0,0
104570,-125,4,2,2,70,0,0
104698,-125,4,2,2,70,0,0
104706,-125,4,2,1,60,0,0
104762,-125,4,2,1,60,0,0
104826,-125,4,2,1,60,0,0
106493,-125,4,2,1,60,0,1
106878,-400,4,2,1,60,0,1
107390,-166.666666666667,4,2,1,60,0,0
108544,-166.666666666667,4,2,2,60,0,0
109057,-200,4,2,2,60,0,0
109570,-200,4,2,1,60,0,0
109698,-100,4,2,1,60,0,0
111117,-100,4,3,1,70,0,0
111621,-500,4,3,1,70,0,0
111630,-500,4,2,1,70,0,0
112142,-500,4,2,1,55,0,0
113673,256.410256410256,4,2,1,60,1,0
113673,-90.9090909090909,4,2,1,55,0,1
113681,-90.9090909090909,4,2,1,60,0,1
118416,-133.333333333333,4,2,1,60,0,1
118672,-90.9090909090909,4,2,1,60,0,1
121878,-125,4,3,3,60,0,0
121886,-125,4,3,3,70,0,0
122134,-125,4,3,1,70,0,0
122390,-125,4,3,3,70,0,0
122647,-125,4,3,1,70,0,0
122903,-125,4,3,3,70,0,0
123160,-125,4,3,1,70,0,0
123416,-125,4,3,3,70,0,0
123488,-125,4,3,1,70,0,0
123929,-125,4,3,3,70,0,0
124130,-125,4,3,1,60,0,0
125467,-90.9090909090909,4,3,1,60,0,0
125476,-90.9090909090909,4,3,1,50,0,0
125980,-90.9090909090909,4,3,1,70,0,1
132134,-90.9090909090909,4,3,3,70,0,1
132335,-90.9090909090909,4,3,1,70,0,1
132390,-90.9090909090909,4,3,1,50,0,1
132399,-90.9090909090909,4,3,1,55,0,1
132647,-90.9090909090909,4,3,1,60,0,1
132903,-90.9090909090909,4,3,1,70,0,1
133288,-100,5,3,1,75,0,1
133672,-111.111111111111,5,2,1,75,0,1
133681,-111.111111111111,5,2,1,60,0,1
134442,256.410256410256,4,2,1,60,1,0
134442,-317.460317460317,4,2,1,60,0,0
135732,-317.460317460317,4,2,1,50,0,0
136758,-317.460317460317,4,2,1,30,0,0
137271,-317.460317460317,4,2,1,20,0,0
137719,-317.460317460317,4,2,1,35,0,0
138031,-317.460317460317,4,2,1,45,0,0
138104,-317.460317460317,4,2,1,55,0,0
138288,-317.460317460317,4,2,1,65,0,0
138416,-317.460317460317,4,2,1,60,0,0
138424,-317.460317460317,4,2,1,5,0,0

[Colours]
Combo1 : 0,152,242
Combo2 : 65,222,56
Combo3 : 95,203,243
Combo4 : 60,194,56

[HitObjects]
256,192,1566,12,0,3617,0:0:0:0:
282,88,4130,6,0,L|268:215,1,105,4|0,3:1|0:0,0:0:0:0:
217,248,4386,6,0,P|236:239|246:236,3,26.2500010013581
260,216,4643,2,0,P|280:217|291:220,3,29.7500005674362,2|0|2|0,0:0|0:0|0:0|0:0,0:0:0:0:
323,205,4899,2,0,P|342:218|350:226,3,33.2499991121292,2|0|2|0,0:0|0:0|0:0|0:0,0:0:0:0:
389,225,5156,2,0,P|399:247|403:259,3,36.749998878479,2|2|2|2,0:0|0:0|0:0|0:0,0:0:0:0:
436,287,5412,2,0,P|433:314|430:328,3,40.2500007677078,2|2|2|2,0:0|0:0|0:0|0:0,0:0:0:0:
368,384,5669,6,0,L|362:343,3,40.2500007677078,2|2|2|2,0:0|0:0|0:0|0:0,0:0:0:0:
340,320,5925,2,0,L|334:279,3,40.2500007677078,2|2|2|2,0:0|0:0|0:0|0:0,0:0:0:0:
315,258,6181,6,0,L|329:131,1,105,4|0,3:2|0:0,0:0:0:0:
381,97,6438,6,0,P|362:106|352:109,3,26.2500010013581
338,129,6694,2,0,P|318:128|307:125,3,29.7500005674362,2|0|2|0,0:0|0:0|0:0|0:0,0:0:0:0:
275,140,6951,2,0,P|256:127|248:119,3,33.2499991121292,2|0|2|0,0:0|0:0|0:0|0:0,0:0:0:0:
209,120,7207,2,0,P|199:98|195:86,3,36.749998878479,2|2|2|2,0:0|0:0|0:0|0:0,0:0:0:0:
162,58,7463,2,0,P|165:31|168:17,3,40.2500007677078,2|2|2|2,0:0|0:0|0:0|0:0,0:0:0:0:
87,41,7720,6,0,P|74:104|54:193,2,116.666666666667,10|0|0,3:2|0:0|0:0,0:0:0:0:
184,0,8233,6,0,L|198:127,1,105,4|0,3:1|0:0,0:0:0:0:
156,169,8489,6,0,P|175:160|185:157,3,26.2500010013581
199,137,8745,2,0,P|219:138|230:141,3,29.7500005674362,2|0|2|0,0:0|0:0|0:0|0:0,0:0:0:0:
259,129,9002,2,0,P|278:142|286:150,3,33.2499991121292,2|0|2|0,0:0|0:0|0:0|0:0,0:0:0:0:
299,187,9258,6,0,P|323:198|336:202,3,36.749998878479,0|2|2|2,0:0|0:0|0:0|0:0,0:0:0:0:
366,231,9515,2,0,P|391:229|406:225,3,40.2500007677078,2|2|2|2,0:0|0:0|0:0|0:0,0:0:0:0:
459,154,9771,6,0,L|465:195,3,40.2500007677078,2|2|2|2,0:0|0:0|0:0|0:0,0:0:0:0:
487,218,10027,2,0,L|493:259,3,40.2500007677078,2|2|2|2,0:0|0:0|0:0|0:0,0:0:0:0:
512,280,10284,6,0,L|498:407,1,105,6|0,3:2|0:0,0:0:0:0:
426,384,10540,6,0,P|417:365|414:355,3,26.2500010013581
392,339,10797,2,0,P|392:318|396:308,3,29.7500005674362,2|0|2|0,0:0|0:0|0:0|0:0,0:0:0:0:
380,279,11053,2,0,P|393:260|401:251,3,33.2499991121292,2|0|2|0,0:0|0:0|0:0|0:0,0:0:0:0:
446,181,11310,5,0,3:0:0:0:
438,182,11374,1,0,3:0:0:0:
430,183,11438,1,0,3:0:0:0:
422,184,11502,1,0,3:0:0:0:
404,173,11566,5,0,3:2:0:0:
396,174,11630,1,0,3:0:0:0:
388,175,11694,1,0,3:2:0:0:
380,176,11758,1,0,3:0:0:0:
366,159,11822,6,0,L|319:164,3,35,8|0|0|0,3:2|3:0|3:2|3:0,0:0:0:0:
316,148,12079,5,4,3:1:0:0:
126,25,12335,6,0,L|46:33,1,70,6|0,3:2|3:0,0:0:0:0:
149,97,12592,1,0,3:0:0:0:
149,97,12720,6,0,L|69:105,1,70,8|0,3:1|3:0,0:0:0:0:
170,173,12976,1,0,3:0:0:0:
170,173,13104,6,0,L|90:181,1,70,8|0,3:1|3:0,0:0:0:0:
190,250,13361,1,0,3:0:0:0:
190,250,13489,6,0,L|110:258,1,70,8|0,3:1|3:0,0:0:0:0:
209,329,13745,1,0,3:0:0:0:
209,329,13874,6,0,L|129:337,1,70,8|0,3:1|3:0,0:0:0:0:
285,363,14130,5,8,3:2:0:0:
292,364,14194,1,8,3:2:0:0:
299,365,14258,1,8,3:2:0:0:
306,366,14322,1,8,3:2:0:0:
313,367,14386,6,0,L|382:373,1,70,6|0,3:2|3:0,0:0:0:0:
332,288,14643,1,0,3:0:0:0:
332,288,14771,6,0,L|401:294,1,70,8|0,3:1|3:0,0:0:0:0:
352,211,15027,1,0,3:0:0:0:
352,211,15156,6,0,L|421:217,1,70,8|0,3:1|3:0,0:0:0:0:
373,135,15412,1,0,3:0:0:0:
373,135,15540,6,0,L|442:141,1,70,8|0,3:1|3:0,0:0:0:0:
396,63,15797,1,0,3:0:0:0:
396,63,15925,6,0,L|465:69,1,70,8|0,3:1|3:0,0:0:0:0:
319,31,16181,2,0,L|297:-14,2,35,10|10|10,3:2|3:2|3:2,0:0:0:0:
321,108,16438,5,6,3:2:0:0:
378,257,16566,2,0,P|368:234|353:216,4,35,0|0|0|0|8,3:0|3:0|3:0|3:0|3:1,0:0:0:0:
251,166,16951,2,0,P|271:179|294:184,4,35,0|0|0|0|8,3:0|3:0|3:0|3:0|3:1,0:0:0:0:
412,152,17335,2,0,P|387:153|366:162,4,35,0|0|0|0|8,3:0|3:0|3:0|3:0|3:1,0:0:0:0:
270,274,17720,2,0,P|288:258|300:238,4,35,0|0|0|0|8,3:0|3:0|3:0|3:0|3:1,0:0:0:0:
459,118,18233,5,10,3:2:0:0:
460,126,18297,1,10,3:2:0:0:
461,134,18361,1,10,3:2:0:0:
462,142,18425,1,10,3:2:0:0:
463,152,18489,6,0,L|477:279,1,105,12|0,3:1|0:0,0:0:0:0:
450,322,18745,6,0,P|428:314|417:308,3,35,8|8|8|8,3:2|3:2|3:2|3:2,0:0:0:0:
383,315,19002,2,0,P|368:297|361:287,3,35,8|8|8|8,3:2|3:2|3:2|3:2,0:0:0:0:
331,275,19258,2,0,P|326:252|326:240,3,35,8|8|8|8,3:2|3:2|3:2|3:2,0:0:0:0:
405,217,19515,5,8,3:1:0:0:
404,225,19579,1,8,3:1:0:0:
403,233,19643,1,8,3:1:0:0:
402,241,19707,1,8,3:1:0:0:
413,259,19771,5,8,3:1:0:0:
412,267,19835,1,8,3:1:0:0:
411,275,19899,1,8,3:1:0:0:
410,283,19963,1,8,3:1:0:0:
422,299,20027,6,0,L|417:346,3,35,8|8|8|8,3:1|3:1|3:1|3:1,0:0:0:0:
430,350,20284,6,0,L|425:397,3,35,8|8|8|8,3:1|3:1|3:1|3:1,0:0:0:0:
258,173,20797,6,0,L|249:231,3,40.2500007677078,6|2|2|2,3:2|0:2|0:2|0:2,0:0:0:0:
234,236,21053,2,0,L|225:294,3,36.749998878479,2|2|2|2,0:2|0:2|0:2|0:2,0:0:0:0:
212,294,21309,2,0,L|203:352,3,33.2499991121292,2|2|2|2,0:2|0:2|0:2|0:2,0:0:0:0:
148,367,21566,6,0,P|128:359|119:354,3,29.7500005674362,2|2|2|2,0:2|0:2|0:2|0:2,0:0:0:0:
97,361,21822,2,0,P|82:346|77:336,3,33.2499991121292,2|2|2|2,0:2|0:2|0:2|0:2,0:0:0:0:
50,329,22078,2,0,P|45:305|44:292,3,36.749998878479,2|2|2|2,0:2|0:2|0:2|0:2,0:0:0:0:
24,267,22335,2,0,P|30:244|39:227,3,40.2500007677078,2|2|2|2,0:2|0:2|0:2|0:2,0:0:0:0:
24,197,22591,2,0,P|41:180|57:170,3,43.75,2|2|2|2,0:2|0:2|0:2|0:2,0:0:0:0:
119,116,22848,6,0,P|172:129|229:144,1,105,4|2,0:3|0:0,0:0:0:0:
335,222,23873,2,0,L|324:150,1,70,2|2,0:0|0:0,0:0:0:0:
321,146,24258,2,0,L|332:74,1,70,2|2,0:0|0:0,0:0:0:0:
448,29,24899,6,0,P|416:59|385:47,1,70,2|2,0:1|0:0,0:0:0:0:
389,59,25283,2,0,P|316:45|258:104,1,157.5,2|0,0:0|0:0,0:0:0:0:
258,105,26565,2,0,L|264:149,2,35,2|2|2,0:0|0:0|0:0,0:0:0:0:
190,58,26950,6,0,P|175:110|162:168,1,105,2|2,0:1|0:0,0:0:0:0:
247,271,27976,2,0,L|319:282,1,70,2|2,0:1|0:0,0:0:0:0:
323,285,28360,2,0,L|395:274,1,70,2|2,0:0|0:0,0:0:0:0:
494,380,29001,6,0,P|462:350|431:362,1,70,2|2,0:1|0:0,0:0:0:0:
435,350,29386,2,0,P|362:364|304:305,1,157.5,2|2,0:0|0:1,0:0:0:0:
308,304,30796,1,2,0:3:0:0:
413,115,31053,6,0,L|406:185,1,48.9999985046387,6|0,3:2|3:0,0:0:0:0:
402,231,31309,1,4,0:1:0:0:
401,240,31565,1,4,0:1:0:0:
400,249,31822,1,4,0:1:0:0:
399,258,32078,1,2,3:1:0:0:
398,267,32335,1,4,0:1:0:0:
397,276,32591,1,6,0:1:0:0:
397,285,32847,2,0,L|390:355,1,48.9999985046387,4|0,0:1|3:0,0:0:0:0:
296,381,33104,5,2,3:1:0:0:
295,372,33360,1,4,0:1:0:0:
294,363,33617,1,4,0:1:0:0:
293,354,33873,1,4,0:1:0:0:
285,285,34001,6,0,B|239:305|239:305|230:258|230:258|265:268,1,122.499996261597,2|0,3:1|0:0,0:0:0:0:
325,222,34386,6,0,L|349:229,5,23.3333333333333,8|0|0|0|0|0,3:1|0:0|0:0|3:0|0:0|0:0,0:0:0:0:
263,179,34642,2,0,L|239:186,5,23.3333333333333,8|0|0|4|0|0,3:3|0:0|0:0|3:3|0:0|0:0,0:0:0:0:
331,148,34899,6,0,P|328:114|320:67,1,70,8|0,3:1|0:0,0:0:0:0:
229,0,35155,6,0,P|159:67|64:49,1,195.999994018555,6|8,3:2|3:1,0:0:0:0:
15,214,35796,1,8,3:1:0:0:
15,214,35924,6,0,P|82:148|176:162,1,195.999994018555,6|2,3:2|3:2,0:0:0:0:
277,260,36694,2,0,L|285:337,1,70,8|0,3:1|0:0,0:0:0:0:
381,361,36950,5,10,3:2:0:0:
382,353,37014,1,10,3:2:0:0:
383,345,37078,1,10,3:2:0:0:
384,337,37142,1,10,3:2:0:0:
386,326,37206,6,0,L|393:253,1,70,6|0,3:2|0:0,0:0:0:0:
297,161,37463,5,8,3:1:0:0:
298,169,37527,1,8,3:1:0:0:
299,177,37591,1,10,3:1:0:0:
300,185,37655,1,8,3:1:0:0:
302,196,37719,6,8,L|305:232,6,23.3333333333333,8|8|8|10|8|8|8,3:1|3:1|3:1|3:1|3:1|3:1|3:1,3:1:0:0:
407,118,38104,6,0,L|387:317,1,175,2|10,3:2|3:2,0:0:0:0:
389,300,38488,1,10,3:2:0:0:
90,142,39258,6,0,P|109:175|88:204,1,70,6|2,3:1|0:0,0:0:0:0:
38,240,39642,1,2,3:2:0:0:
164,80,39899,1,2,0:0:0:0:
164,80,40027,6,0,P|183:47|218:50,1,70,6|2,3:2|0:0,0:0:0:0:
274,76,40411,1,2,3:2:0:0:
73,57,40668,1,2,0:0:0:0:
73,57,40796,6,0,P|34:56|20:24,1,70,8|2,3:1|0:0,0:0:0:0:
288,263,41309,6,0,P|307:296|286:325,1,70,6|2,3:2|0:0,0:0:0:0:
236,361,41693,1,2,3:2:0:0:
362,201,41950,1,2,0:0:0:0:
362,201,42078,6,0,P|381:168|416:171,1,70,6|2,3:2|0:0,0:0:0:0:
472,197,42463,1,2,3:2:0:0:
271,178,42719,1,2,3:2:0:0:
271,178,42847,6,0,L|227:171,1,35,8|0,3:1|3:0,0:0:0:0:
160,272,43104,1,10,3:2:0:0:
159,267,43168,1,10,3:2:0:0:
158,262,43232,1,10,3:2:0:0:
157,257,43296,1,10,3:2:0:0:
156,252,43360,6,0,L|149:180,1,70,6|2,3:2|0:0,0:0:0:0:
141,112,43745,1,2,3:2:0:0:
51,322,44001,1,2,0:0:0:0:
51,322,44130,6,0,L|44:250,1,70,6|2,3:2|0:0,0:0:0:0:
36,182,44515,1,2,0:0:0:0:
160,283,44771,1,2,0:0:0:0:
160,283,44899,6,0,L|167:354,1,70,8|2,3:1|0:0,0:0:0:0:
368,112,45412,6,0,L|361:183,1,70,6|2,3:2|0:0,0:0:0:0:
353,252,45797,1,2,0:0:0:0:
472,78,46053,1,2,0:0:0:0:
424,26,46181,6,0,L|352:33,1,70,6|2,3:2|0:0,0:0:0:0:
284,41,46566,1,2,0:0:0:0:
314,262,46822,1,8,3:1:0:0:
314,262,46950,6,0,L|325:188,1,52.5000020027161,8|8,3:1|3:1,0:0:0:0:
387,160,47206,2,0,L|376:86,1,52.5000020027161,8|8,3:1|3:1,0:0:0:0:
258,49,47463,6,0,B|230:71|214:97|212:132|212:132|209:118|187:92,1,140,6|2,3:2|0:0,0:0:0:0:
363,298,48232,2,0,P|332:212|298:125,1,173.250001652241,6|2,3:2|0:0,0:0:0:0:
183,312,48809,1,2,0:0:0:0:
188,316,49001,2,0,L|249:305,2,52.5,8|0|0,3:1|0:0|0:0,0:0:0:0:
79,350,49514,6,0,B|105:321|110:281,1,70,6|2,3:2|0:0,0:0:0:0:
70,226,49899,1,2,3:2:0:0:
194,141,50155,1,2,0:0:0:0:
194,141,50283,6,0,B|124:196|109:287|109:287|124:196|78:121,1,346.500003304482,6|8,3:2|3:1,0:0:0:0:
338,18,51309,5,10,3:2:0:0:
339,26,51373,1,10,3:2:0:0:
340,34,51437,1,10,3:2:0:0:
341,42,51501,1,10,3:2:0:0:
342,50,51565,5,2,3:1:0:0:
256,192,53617,12,14,55411,3:0:0:0:
109,318,55668,6,0,L|51:307,5,35,6|0|0|0|0|0,3:1|0:0|3:0|0:0|3:0|0:0,0:0:0:0:
167,272,56052,2,0,L|225:261,5,35,8|0|2|0|2|0,3:1|0:0|3:2|0:0|3:2|0:0,0:0:0:0:
103,323,56437,6,0,L|45:312,5,35,8|0|0|0|0|0,3:1|0:0|3:0|0:0|3:0|0:0,0:0:0:0:
174,264,56822,2,0,L|232:253,5,35,8|0|2|0|2|0,3:1|0:0|3:2|0:0|3:2|0:0,0:0:0:0:
94,233,57206,5,8,3:2:0:0:
95,241,57270,1,0,3:2:0:0:
96,249,57335,1,0,3:2:0:0:
97,257,57399,1,0,3:2:0:0:
98,265,57463,2,0,L|103:309,2,35,8|10|10,3:1|3:2|3:2,0:0:0:0:
139,98,57719,6,0,L|197:109,5,35,10|0|0|0|0|0,3:1|0:0|3:0|0:0|3:0|0:0,0:0:0:0:
81,144,58104,2,0,L|23:155,5,35,8|0|0|0|2|0,3:1|0:0|3:0|0:0|3:2|0:0,0:0:0:0:
145,93,58488,6,0,L|203:104,5,35,8|0|0|0|0|0,3:1|0:0|3:0|0:0|3:0|0:0,0:0:0:0:
74,152,58873,2,0,L|16:163,5,35,8|0|0|0|2|2,3:1|0:0|3:0|0:0|3:2|3:2,0:0:0:0:
154,183,59258,5,8,3:1:0:0:
153,175,59322,1,0,0:0:0:0:
152,167,59386,1,10,3:2:0:0:
151,159,59450,1,10,3:2:0:0:
150,151,59514,2,0,L|145:107,3,35,10|10|10|2,3:2|3:2|3:2|3:0,0:0:0:0:
362,260,60027,6,0,B|368:244|384:235|401:236|413:245|413:245|415:263|405:278|389:284|374:283|374:283|391:283|405:296|409:312|405:326|405:326|389:334|371:329|360:316|357:302|357:302|362:319|354:335|339:343|324:344|324:344|313:331|311:312|320:299|334:291|334:291|318:300|301:298|288:287|283:273|283:273|291:258|309:251|326:255|336:265|336:265|322:254|319:236|326:220|338:212|338:212|354:216|366:229|368:247|364:253,1,608.999981414795,6|0,3:2|0:0,0:0:0:0:
148,303,65925,6,0,L|151:274,1,28,2|2,0:0|0:0,0:0:0:0:
66,229,66951,6,0,L|72:344,1,112,4|2,0:3|0:0,0:0:0:0:
138,375,68233,1,2,0:0:0:0:
138,375,68361,2,0,L|141:346,1,28,2|2,0:0|0:0,0:0:0:0:
197,273,69002,6,0,P|174:275|184:251,1,56,2|0,0:0|0:0,0:0:0:0:
318,281,70540,6,0,L|321:310,1,28,2|2,0:0|0:2,0:0:0:0:
308,366,71053,6,0,L|316:282,1,84,2|2,0:1|0:0,0:0:0:0:
233,235,72079,2,0,L|241:319,1,84,2|2,0:2|0:0,0:0:0:0:
299,370,73104,6,0,P|321:372|311:348,1,56,2|2,0:0|0:0,0:0:0:0:
234,306,74515,2,0,L|231:329,1,21,2|2,0:0|0:0,0:0:0:0:
317,263,75156,6,0,L|314:219,1,41.9999987182618,2|2,0:1|0:0,0:0:0:0:
313,214,75540,1,2,0:0:0:0:
225,333,76181,6,0,L|226:311,2,21,2|2|2,0:0|0:0|0:0,0:0:0:0:
135,267,77207,6,0,L|132:223,1,41.9999987182618,2|2,0:1|0:0,0:0:0:0:
27,358,78233,6,0,L|76:346,1,41.9999987182618,2|0,0:0|0:0,0:0:0:0:
73,342,78617,2,0,L|122:330,1,48.9999985046387,2|0,0:0|0:0,0:0:0:0:
127,323,79002,2,0,L|163:314,1,28,2|0,0:0|0:0,0:0:0:0:
206,257,79258,5,6,3:2:0:0:
148,57,79771,6,0,L|101:50,3,35,2|0|0|0,3:2|0:0|0:0|0:0,0:0:0:0:
216,27,80283,2,0,L|245:-10,3,35,2|2|2|2,3:2|0:2|0:2|0:2,0:0:0:0:
207,101,80796,2,0,L|224:145,3,35,2|2|2|2,3:2|0:2|0:2|0:2,0:0:0:0:
299,163,81310,6,0,L|306:116,3,35,6|2|2|2,3:2|0:2|0:2|0:2,0:0:0:0:
329,231,81738,2,0,L|366:260,3,35,2|2|2|2,3:2|0:2|0:2|0:2,0:0:0:0:
255,222,82167,2,0,L|210:239,3,35,2|2|2|2,3:2|0:2|0:2|0:2,0:0:0:0:
237,307,82595,6,0,L|284:314,3,35,6|2|2|2,3:2|0:2|0:2|0:2,0:0:0:0:
169,350,82937,2,0,L|162:397,3,35,2|2|2|2,3:2|0:2|0:2|0:2,0:0:0:0:
114,284,83280,6,0,L|67:277,3,35,6|0|2|0,3:2|0:0|0:2|0:0,0:0:0:0:
182,241,83581,2,0,L|189:194,3,35,2|2|2|2,3:2|0:2|0:2|0:2,0:0:0:0:
241,315,83883,6,0,L|248:362,3,38.5000011749268,6|2|2|2,3:2|0:2|0:2|0:2,0:0:0:0:
315,303,84163,2,0,L|322:350,3,38.5000011749268,2|2|2|2,3:2|0:2|0:2|0:2,0:0:0:0:
391,288,84443,6,0,L|398:335,3,38.5000011749268,2|2|2|2,3:2|0:2|0:2|0:2,0:0:0:0:
466,272,84699,2,0,L|473:319,3,38.5000011749268,2|2|2|2,3:2|0:2|0:2|0:2,0:0:0:0:
451,194,84955,6,0,P|447:171|436:150,5,35.0000013351441,2|0|0|2|0|0,3:2|0:0|0:0|0:2|0:0|0:0,0:0:0:0:
455,135,85211,2,0,P|436:121|413:114,5,35.0000013351441,2|0|0|2|0|0,3:2|0:0|0:0|0:2|0:0|0:0,0:0:0:0:
417,90,85467,6,0,P|395:82|371:80,5,35.0000013351441,2|0|0|2|0|0,3:2|0:0|0:0|0:2|0:0|0:0,0:0:0:0:
370,63,85724,6,0,P|346:67|325:77,5,35.0000013351441,2|0|0|2|0|0,3:2|0:0|0:0|0:2|0:0|0:0,0:0:0:0:
242,79,87006,6,0,P|210:84|166:92,1,70,2|2,0:0|0:0,0:0:0:0:
41,148,88032,6,0,B|60:130|62:101|62:101|39:87|34:53|34:53|60:69|88:63|88:63|95:34|125:18|125:18|120:47|135:73|135:73|164:69|184:95|184:95|153:98|138:122|138:122|148:150|131:176|131:176|121:149|91:141|91:141|67:156|41:148,1,560,6|6,3:2|3:2,0:0:0:0:
175,52,89314,2,0,P|202:45|230:41,1,56,2|0,0:0|0:0,0:0:0:0:
166,126,89570,2,0,P|217:112|276:97,2,105,8|8|8,3:1|3:1|3:1,0:0:0:0:
56,299,90211,5,0,3:0:0:0:
56,299,90275,1,0,3:0:0:0:
56,299,90339,6,0,P|91:308|127:323,1,70,6|0,3:1|0:0,0:0:0:0:
202,384,90596,6,0,P|209:364|214:355,3,26.2500010013581,8|8|8|8,3:1|3:1|3:1|3:1,0:0:0:0:
209,330,90853,2,0,P|223:316|233:310,3,29.7500005674362,8|8|8|8,3:1|3:1|3:1|3:1,0:0:0:0:
246,278,91109,2,0,P|268:273|279:273,3,33.2499991121292,4|4|4|4,3:0|3:0|3:0|3:0,0:0:0:0:
307,246,91366,2,0,P|329:254|340:260,3,36.749998878479,8|8|8|8,3:0|3:0|3:0|3:0,0:0:0:0:
408,326,91621,5,4,3:0:0:0:
407,318,91685,1,4,3:0:0:0:
406,310,91749,1,4,3:0:0:0:
405,302,91813,1,4,3:0:0:0:
416,284,91877,5,8,3:1:0:0:
415,276,91941,1,0,3:0:0:0:
414,268,92005,1,4,3:0:0:0:
413,260,92069,1,4,3:0:0:0:
430,239,92134,6,0,P|423:171|419:84,1,154.000004699707,6|8,3:2|3:1,0:0:0:0:
215,131,92519,1,8,3:0:0:0:
215,131,92647,2,0,P|277:158|354:198,1,154.000004699707,2|8,3:2|3:1,0:0:0:0:
411,0,93031,6,0,P|355:40|282:87,1,154.000004699707,6|0,3:2|3:0,0:0:0:0:
276,89,93352,1,0,3:0:0:0:
268,88,93416,6,0,P|244:83|218:75,3,38.5000011749268,8|0|0|0,3:1|3:0|3:0|3:0,0:0:0:0:
220,62,93673,2,0,P|196:56|170:46,3,38.5000011749268,4|0|4|0,3:0|0:0|3:0|3:0,0:0:0:0:
168,38,93929,1,8,3:1:0:0:
101,83,94057,1,2,3:2:0:0:
114,158,94185,6,0,B|67:151|31:128|31:128|60:154|66:182,1,154.000004699707,6|8,3:2|3:1,0:0:0:0:
105,79,94570,2,0,B|133:42|171:22|171:22|134:34|107:26,1,154.000004699707,6|2,3:2|3:2,0:0:0:0:
183,119,94955,1,2,3:2:0:0:
183,119,95083,6,0,B|200:162|198:204|198:204|207:167|227:147,1,154.000004699707,4|0,3:1|3:0,0:0:0:0:
234,143,95403,1,0,3:0:0:0:
241,140,95467,2,0,P|275:152|311:172,1,70,8|2,3:1|3:2,0:0:0:0:
411,293,95724,6,0,P|437:287|473:279,2,51.3333348999024,8|8|8,3:1|3:1|3:1,0:0:0:0:
385,365,95980,2,0,P|409:375|443:389,2,51.3333348999024,6|0|0,3:0|0:0|0:0,0:0:0:0:
317,336,96237,6,0,P|308:290|304:246,1,70.0000026702882,12|2,3:3|0:2,0:0:0:0:
251,203,96493,5,10,3:2:0:0:
236,208,96579,5,10,3:2:0:0:
221,213,96664,5,10,3:2:0:0:
206,218,96750,6,0,P|197:262|193:306,1,70.0000026702882,8|2,3:3|0:2,0:0:0:0:
116,350,97006,5,10,3:2:0:0:
101,345,97092,5,10,3:2:0:0:
87,337,97177,5,10,3:2:0:0:
75,326,97262,6,0,P|66:296|66:262,2,46.6666666666667,12|0|2,3:3|0:0|0:2,0:0:0:0:
11,224,97519,2,0,P|25:196|49:172,2,41.9999987182618,10|10|10,3:2|3:2|3:2,0:0:0:0:
27,115,97775,6,0,P|69:96|123:50,2,94.499997116089,8|8|4,3:0|3:0|3:0,0:0:0:0:
243,205,98416,6,0,L|233:122,1,80.5000015354157,6|0,3:2|0:0,0:0:0:0:
243,131,98608,6,0,L|233:48,1,80.5000015354157,0|0,3:2|0:0,0:0:0:0:
224,42,98801,6,0,L|289:93,1,80.5000015354157,6|0,3:2|0:0,0:0:0:0:
299,90,98993,6,0,L|364:141,1,80.5000015354157,0|0,3:2|0:0,0:0:0:0:
374,141,99185,5,6,3:2:0:0:
458,82,99314,6,0,L|446:228,1,120.750002303124,6|0,3:1|0:0,0:0:0:0:
461,272,99570,6,0,P|492:262|514:232,2,53.6666676902771,8|8|8,3:1|3:1|3:1,0:0:0:0:
414,330,99826,2,0,P|442:344|479:339,2,53.6666676902771,4|4|4,3:0|3:0|3:0,0:0:0:0:
346,358,100083,1,2,3:0:0:0:
270,216,100339,6,0,L|282:70,1,120.750002303124,6|0,3:2|0:0,0:0:0:0:
324,30,100596,2,0,P|310:44|300:50,3,29.7500005674362,8|0|8|0,3:1|3:0|3:0|3:0,3:0:0:0:
287,82,100852,2,0,P|265:87|254:87,3,33.2499991121292,4|0|4|0,3:0|3:0|3:0|3:0,3:0:0:0:
226,114,101109,2,0,P|204:106|193:100,3,36.749998878479,8|0|0|4,3:1|3:0|3:0|3:0,3:0:0:0:
120,59,101365,6,0,L|128:162,1,80.5000015354157,6|0,3:2|3:0,0:0:0:0:
127,147,101621,1,8,3:1:0:0:
26,273,101878,5,10,3:2:0:0:
27,265,101942,1,10,3:2:0:0:
28,257,102006,1,10,3:2:0:0:
29,249,102070,1,10,3:2:0:0:
30,241,102134,5,8,3:1:0:0:
144,285,102390,6,0,P|211:325|263:360,1,140,6|8,3:2|3:2,0:0:0:0:
268,363,102775,1,8,3:2:0:0:
362,292,102903,5,8,3:2:0:0:
360,278,103031,1,8,3:2:0:0:
358,264,103160,1,8,3:2:0:0:
356,250,103288,1,8,3:2:0:0:
261,185,103416,5,8,3:1:0:0:
274,190,103544,1,8,3:1:0:0:
287,195,103673,1,8,3:1:0:0:
300,200,103801,1,8,3:1:0:0:
388,171,103929,6,0,P|416:156|453:161,2,46.6666666666667,8|4|4,3:1|3:0|3:0,0:0:0:0:
327,131,104185,5,14,3:0:0:0:
318,127,104271,5,4,0:3:0:0:
309,123,104356,5,4,0:3:0:0:
300,119,104442,6,0,L|289:43,1,56,6|0,3:2|0:0,0:0:0:0:
242,2,104698,6,0,P|233:14|220:22,3,28,2|2|2|2,3:2|0:0|3:2|3:2,0:0:0:0:
213,39,104955,2,0,P|199:43|183:45,3,28,8|2|2|2,3:1|0:0|3:2|3:2,0:0:0:0:
169,55,105211,2,0,P|154:51|140:45,3,28,2|2|2|2,3:2|3:2|3:2|0:0,0:0:0:0:
71,4,105467,6,0,L|80:57,3,28,2|2|2|2,0:0|0:0|3:2|0:0,0:0:0:0:
90,45,105724,2,0,L|99:98,3,28,2|2|0|2,0:0|0:0|0:0|3:2,0:0:0:0:
109,84,105980,2,0,L|118:137,3,28,8|2|0|2,3:1|0:0|0:0|0:0,0:0:0:0:
127,125,106237,1,2,3:2:0:0:
104,300,106493,6,0,P|131:241|189:245,1,112,6|8,3:2|3:1,0:0:0:0:
176,317,106878,2,0,P|174:303|188:311,1,35,2|2,3:2|3:2,0:0:0:0:
56,374,107390,6,0,P|99:174|247:198,1,377.999988464356,6|4,3:2|3:0,0:0:0:0:
436,328,109057,6,0,P|443:296|454:271,2,52.5,2|2|2,0:0|0:0|0:0,0:0:0:0:
385,383,109570,5,12,3:1:0:0:
320,333,109698,2,0,P|302:326|283:324,4,35,0|0|0|0|8,3:0|3:0|3:0|3:0|3:1,0:0:0:0:
388,267,110082,2,0,P|395:249|407:234,4,35,2|2|2|2|8,3:2|3:2|3:2|3:2|3:1,0:0:0:0:
277,245,110467,6,0,P|257:242|238:245,4,35,2|2|2|2|8,3:2|3:2|3:2|3:2|3:1,0:0:0:0:
331,318,110852,1,2,3:2:0:0:
393,257,110980,1,0,0:0:0:0:
391,246,111044,1,2,3:2:0:0:
390,235,111108,2,0,L|386:197,5,23.3333333333333,8|0|0|0|0|0,3:1|0:0|0:0|3:2|0:0|0:0,0:0:0:0:
399,191,111364,2,0,L|395:153,5,23.3333333333333,0|0|0|8|0|0,3:2|0:0|0:0|3:1|0:0|0:0,0:0:0:0:
414,150,111621,6,0,B|429:126|429:126|453:145,1,56,6|2,3:2|0:0,0:0:0:0:
334,75,112646,2,0,B|319:51|319:51|295:70,1,56,2|2,0:3|0:1,0:0:0:0:
98,316,113672,5,6,3:1:0:0:
45,259,113800,2,0,L|11:226,2,38.5000011749268,2|2|8,3:2|3:2|3:1,0:0:0:0:
98,316,114057,5,0,0:0:0:0:
120,241,114185,2,0,L|131:195,2,38.5000011749268,2|2|2,3:2|3:2|3:2,0:0:0:0:
98,316,114441,5,8,3:1:0:0:
171,299,114569,1,2,0:0:0:0:
178,298,114634,1,0,0:0:0:0:
185,297,114698,6,0,P|223:310|260:329,1,77.0000023498536,2|2,3:2|3:2,0:0:0:0:
199,384,114954,1,8,3:1:0:0:
199,384,115082,6,0,P|216:323|249:222,1,154.000004699707,2|2,3:2|3:2,0:0:0:0:
247,229,115403,1,2,3:2:0:0:
250,222,115467,2,0,L|323:182,1,77.0000023498536,8|2,3:1|0:0,0:0:0:0:
418,161,115723,5,2,3:2:0:0:
471,218,115851,2,0,L|505:251,2,38.5000011749268,2|0|8,3:2|0:0|3:1,0:0:0:0:
418,161,116108,5,2,0:2:0:0:
396,236,116236,2,0,L|384:281,2,38.5000011749268,2|0|2,3:2|0:0|3:2,0:0:0:0:
418,161,116492,5,8,0:1:0:0:
341,176,116620,1,2,3:2:0:0:
334,177,116685,1,0,0:0:0:0:
327,178,116749,6,0,P|289:165|252:146,1,77.0000023498536,2|2,3:2|3:2,0:0:0:0:
315,93,117005,1,8,3:1:0:0:
315,93,117133,6,0,P|298:154|265:255,1,154.000004699707,2|2,3:2|3:2,0:0:0:0:
267,248,117454,1,2,3:2:0:0:
263,254,117518,2,0,L|209:265,3,38.5000011749268,8|8|8|8,3:1|3:1|3:1|3:1,0:0:0:0:
329,300,117775,6,0,L|325:355,3,38.5000011749268,8|8|4|4,3:0|3:0|3:0|3:0,0:0:0:0:
324,345,118031,6,0,P|309:245|300:178,1,154.000004699707,12|2,3:1|3:2,0:0:0:0:
219,164,118416,2,0,L|228:223,1,52.5000020027161,8|0,3:1|0:0,0:0:0:0:
304,56,118672,6,0,B|225:40|253:115|163:98,1,154.000004699707,6|0,3:2|3:0,0:0:0:0:
159,92,118993,1,0,3:0:0:0:
155,82,119057,6,0,L|162:-2,1,77.0000023498536,8|0,3:1|3:0,0:0:0:0:
70,60,119313,2,0,L|77:144,1,77.0000023498536,8|2,3:1|3:2,0:0:0:0:
35,238,119569,5,8,3:1:0:0:
42,235,119634,1,8,3:1:0:0:
49,232,119698,1,8,3:1:0:0:
56,229,119762,1,8,3:1:0:0:
63,226,119826,6,0,P|103:207|136:190,1,77.0000023498536,2|4,3:2|3:0,0:0:0:0:
197,313,120082,2,0,P|156:294|124:277,1,77.0000023498536,8|2,3:1|3:2,0:0:0:0:
203,161,120339,2,0,L|210:221,2,38.5000011749268,8|8|8,3:1|3:1|3:0,0:0:0:0:
261,100,120595,1,4,3:0:0:0:
261,100,120723,6,0,B|340:84|312:159|402:142,1,154.000004699707,6|0,3:2|3:0,0:0:0:0:
406,136,121044,1,0,3:0:0:0:
405,129,121108,6,0,L|398:45,1,77.0000023498536,8|2,3:1|3:2,0:0:0:0:
484,127,121364,6,0,L|474:209,2,51.3333348999024,8|8|8,3:1|3:1|3:1,0:0:0:0:
406,197,121621,5,8,3:1:0:0:
415,208,121706,5,8,3:1:0:0:
424,219,121792,5,8,3:1:0:0:
432,231,121878,6,0,L|424:313,1,74.6666666666667,12|0,3:0|0:0,0:0:0:0:
361,359,122134,5,10,0:2:0:0:
352,348,122219,1,10,0:2:0:0:
343,337,122305,1,10,0:2:0:0:
335,325,122390,6,0,L|343:243,1,74.6666666666667,8|0,0:0|0:0,0:0:0:0:
273,205,122646,5,10,0:2:0:0:
264,216,122731,1,10,0:2:0:0:
255,227,122817,1,10,0:2:0:0:
247,239,122902,6,0,L|255:321,1,74.6666666666667,12|0,0:0|0:0,0:0:0:0:
194,371,123159,5,10,0:2:0:0:
186,362,123245,1,10,0:2:0:0:
178,354,123330,1,10,0:2:0:0:
174,331,123416,5,8,0:3:0:0:
164,339,123502,1,8,0:1:0:0:
155,345,123587,1,8,0:1:0:0:
139,360,123672,5,8,0:1:0:0:
128,354,123758,1,8,0:1:0:0:
118,350,123843,1,8,0:1:0:0:
108,344,123928,6,0,L|116:262,1,74.6666666666667,12|0,0:0|0:0,0:0:0:0:
106,182,124185,5,10,0:2:0:0:
117,191,124270,1,10,0:2:0:0:
128,200,124356,1,10,0:2:0:0:
140,208,124441,6,0,L|221:200,1,74.6666666666667,12|0,3:0|0:0,0:0:0:0:
301,197,124698,5,10,0:2:0:0:
292,208,124783,1,10,0:2:0:0:
283,219,124869,1,10,0:2:0:0:
275,231,124954,6,0,L|270:306,1,74.6666666666667,6|0,3:2|0:0,0:0:0:0:
219,362,125211,2,0,P|203:349|173:339,2,37.3333333333333,10|10|10,0:2|0:2|0:2,0:0:0:0:
296,383,125467,6,0,L|332:372,5,25.6666674499512,8|0|0|8|0|0,0:1|0:0|0:0|0:1|0:0|0:0,0:1:0:0:
338,356,125723,2,0,L|374:345,5,25.6666674499512,8|0|0|8|0|0,0:1|0:0|0:0|0:1|0:0|0:0,0:1:0:0:
380,329,125980,6,0,L|388:250,1,77.0000023498536,12|0,3:1|0:0,0:0:0:0:
306,281,126236,5,0,0:0:0:0:
306,281,126364,2,0,L|314:202,1,77.0000023498536,8|0,0:1|0:0,0:0:0:0:
230,241,126621,5,0,0:0:0:0:
230,241,126749,2,0,L|238:162,1,77.0000023498536,8|0,0:1|0:0,0:0:0:0:
153,198,127006,5,0,0:0:0:0:
153,198,127134,2,0,L|161:119,1,77.0000023498536,8|0,0:1|0:0,0:0:0:0:
78,160,127390,5,0,0:0:0:0:
78,160,127518,2,0,L|86:81,1,77.0000023498536,8|0,0:1|0:0,0:0:0:0:
8,188,127775,1,10,0:2:0:0:
9,195,127839,1,10,0:2:0:0:
10,202,127903,1,10,0:2:0:0:
11,209,127967,1,10,0:2:0:0:
12,216,128031,6,0,L|19:292,1,77.0000023498536,8|0,0:1|0:0,0:0:0:0:
87,185,128287,5,0,0:0:0:0:
87,185,128415,2,0,L|94:261,1,77.0000023498536,8|0,0:1|0:0,0:0:0:0:
164,142,128672,5,0,0:0:0:0:
164,142,128800,2,0,L|171:218,1,77.0000023498536,8|0,0:1|0:0,0:0:0:0:
240,102,129056,5,0,0:0:0:0:
240,102,129185,2,0,L|247:178,1,77.0000023498536,8|0,0:1|0:0,0:0:0:0:
316,64,129441,5,0,0:0:0:0:
316,64,129570,2,0,L|323:140,1,77.0000023498536,8|0,0:1|0:0,0:0:0:0:
391,191,129826,2,0,L|423:167,2,38.5000011749268,10|10|10,0:2|0:2|0:2,0:0:0:0:
313,223,130082,5,6,0:2:0:0:
247,161,130211,2,0,L|213:124,4,38.5000011749268,2|2|2|0|8,0:2|0:2|0:2|0:0|0:1,0:0:0:0:
346,237,130595,2,0,L|395:246,4,38.5000011749268,2|2|2|0|8,0:2|0:2|0:2|0:0|0:1,0:0:0:0:
232,232,130980,2,0,L|186:252,4,38.5000011749268,2|2|2|0|8,0:2|0:2|0:2|0:0|0:1,0:0:0:0:
321,160,131364,2,0,L|345:116,4,38.5000011749268,2|2|2|0|8,0:2|0:2|0:2|0:0|0:1,0:0:0:0:
286,279,131749,5,2,0:2:0:0:
287,286,131813,1,2,0:2:0:0:
288,293,131877,2,0,L|293:342,3,38.5000011749268,8|0|2|2,0:1|0:0|0:2|0:2,0:0:0:0:
294,342,132134,5,4,0:0:0:0:
123,381,132390,6,0,L|135:313,3,38.5000011749268,8|8|8|8,0:1|0:1|0:1|0:1,0:0:0:0:
122,325,132646,2,0,L|134:257,3,38.5000011749268,8|8|8|8,0:1|0:1|0:1|0:1,0:0:0:0:
124,268,132903,2,0,L|136:200,3,38.5000011749268,8|8|8|8,0:1|0:1|0:1|0:1,0:0:0:0:
93,160,133159,5,8,0:1:0:0:
101,161,133223,1,8,0:1:0:0:
109,162,133287,1,8,0:1:0:0:
117,163,133351,1,8,0:1:0:0:
135,152,133415,5,8,0:1:0:0:
143,153,133479,1,8,0:1:0:0:
151,154,133543,1,8,0:1:0:0:
159,155,133607,1,8,0:1:0:0:
178,145,133672,6,0,L|255:155,1,62.9999980773926,2|2,0:0|0:0,0:0:0:0:
297,103,133929,2,0,L|373:112,1,62.9999980773926,2|2,0:0|0:3,0:0:0:0:
357,274,134442,6,0,B|352:250|364:228|385:219|405:220|405:220|405:220|405:220|412:239|404:258|388:268|388:268|408:256|433:261|449:278|454:297|454:297|454:297|454:297|438:309|418:308|404:297|404:297|421:313|425:338|413:358|396:368|396:368|396:368|396:368|380:358|375:338|382:322|382:322|371:343|349:353|326:350|311:336|311:336|311:336|311:336|316:317|334:306|351:307|351:307|328:305|310:286|307:263|316:245|316:245|316:245|316:245|336:244|353:259|356:278,1,683.54997913971,6|2,3:1|0:3,0:0:0:0:
