osu file format v14

[General]
AudioFilename: audio.ogg
AudioLeadIn: 0
PreviewTime: 87998
Countdown: 0
SampleSet: Soft
StackLeniency: 0.2
Mode: 0
LetterboxInBreaks: 0
WidescreenStoryboard: 1

[Editor]
Bookmarks: 4130,22848,39258,55668,64130,66981,79258,88032,92134,113673,134442,138544,141878
DistanceSpacing: 0.8
BeatDivisor: 4
GridSize: 4
TimelineZoom: 2.700003

[Metadata]
Title:Bloomin'
TitleUnicode:Bl∞min'
Artist:MisoilePunch -Forever-
ArtistUnicode:MisoilePunch♪ -Forever-
Creator:R3m
Version:Callie's MAXIMUM
Source:SOUND VOLTEX EXCEED GEAR
Tags:instrumental electronic video game sdvx hexa diver konami arcade bemani championship original song misomyl ponchi Allice CallieCube Paradogi GYGY Anxient Cynplytholowazy SupaV Nozuchi Jemzuu
BeatmapID:3852831
BeatmapSetID:1809888

[Difficulty]
HPDrainRate:5
CircleSize:3.8
OverallDifficulty:9.5
ApproachRate:9.6
SliderMultiplier:2.1
SliderTickRate:1

[Events]
//Background and Video events
0,0,"bg.jpg",0,0
//Break Periods
2,64330,74631
2,134642,135471
//Storyboard Layer 0 (Background)
//Storyboard Layer 1 (Fail)
//Storyboard Layer 2 (Pass)
//Storyboard Layer 3 (Foreground)
//Storyboard Layer 4 (Overlay)
//Storyboard Sound Samples

[TimingPoints]
1054,256.410256410256,4,2,1,60,1,0
1054,-287.62350826587,4,2,1,60,0,0
1182,-273.242332852577,4,2,1,60,0,0
2079,-287.62350826587,4,2,1,5,0,0
2592,-287.62350826587,4,2,1,15,0,0
3105,-287.62350826587,4,2,1,30,0,0
3618,-287.62350826587,4,2,1,40,0,0
4130,256.410256410256,4,2,1,60,1,0
4130,-200,4,2,1,60,0,0
6182,-181.818181818182,4,2,1,60,0,0
10284,-180.452122284428,4,2,1,60,0,0
12336,-100,4,2,1,60,0,0
19515,-66.6666666666667,4,2,1,60,0,0
20797,256.410256410256,4,2,1,60,1,0
22848,256.410256410256,4,2,2,60,1,0
22848,-133.333333333333,4,2,2,60,0,0
23040,-133.333333333333,4,2,1,45,0,0
31053,-133.333333333333,4,2,1,50,0,0
31309,-133.333333333333,4,2,2,50,0,0
31438,-133.333333333333,4,2,1,50,0,0
31566,-133.333333333333,4,2,2,50,0,0
32079,-133.333333333333,4,2,1,50,0,0
32335,-133.333333333333,4,2,2,50,0,0
32976,-133.333333333333,4,2,1,50,0,0
33361,-133.333333333333,4,2,2,50,0,0
34002,-133.333333333333,4,2,1,50,0,0
34130,-133.333333333333,4,2,2,50,0,0
34386,-133.333333333333,4,2,1,50,0,0
35155,-66.6666666666667,4,2,1,55,0,0
37207,-66.6666666666667,4,2,1,60,0,0
39258,-100,4,2,1,60,0,0
43361,-83.3333333333333,4,2,1,60,0,0
45412,-66.6666666666667,4,2,1,60,0,0
47463,-83.3333333333333,4,2,1,60,0,0
49899,-100,4,2,1,60,0,0
50284,-83.3333333333333,4,2,1,60,0,0
51566,-200,4,2,1,40,0,0
52335,-333.333333333333,4,2,1,40,0,0
53617,-333.333333333333,4,2,2,40,0,0
54643,-333.333333333333,4,2,1,50,0,0
55668,-333.333333333333,4,2,1,60,0,0
57207,-100,4,2,1,60,0,0
59258,-50,4,2,1,60,0,0
60027,-113.636363636364,4,2,1,60,0,0
61823,512.820512820513,4,2,1,60,1,0
64002,-100,4,2,1,40,0,0
66951,512.820512820513,4,2,2,40,1,0
66951,-100,4,2,2,40,0,0
70797,-100,4,2,1,40,0,0
79258,-100,4,2,1,60,0,0
79771,-100,4,2,1,35,0,0
80284,-100,4,2,1,38,0,0
80797,-100,4,2,1,44,0,0
81310,428.571428571429,4,2,1,53,1,0
81310,-90.9090909090909,4,2,1,53,0,0
81738,-90.9090909090909,4,2,1,55,0,0
82167,-90.9090909090909,4,2,1,59,0,0
82595,342.857142857143,4,2,1,62,1,0
82595,-83.3333333333333,4,2,1,62,0,0
82937,-83.3333333333333,4,2,1,64,0,0
83280,301.507537688442,4,2,1,66,1,0
83280,-76.9230769230769,4,2,1,66,0,0
83581,-76.9230769230769,4,2,1,68,0,0
83883,280.373831775701,4,2,1,72,1,0
83883,-66.6666666666667,4,2,1,72,0,0
84163,-66.6666666666667,4,2,1,75,0,0
84167,-66.6666666666667,4,2,1,75,0,0
84443,256.410256410256,4,2,1,75,1,0
84443,-66.6666666666667,4,2,1,75,0,0
84451,-66.6666666666667,4,2,1,78,0,0
84707,-66.6666666666667,4,2,1,80,0,0
84963,-66.6666666666667,4,2,1,83,0,0
85220,-66.6666666666667,4,2,1,85,0,0
85476,-66.6666666666667,4,2,1,88,0,0
85733,-66.6666666666667,4,2,1,90,0,0
85981,-128.205128205128,4,2,1,90,0,0
85989,-128.205128205128,4,2,1,60,0,0
88032,256.410256410256,4,2,1,60,1,0
88032,-123.456790123457,4,2,1,60,0,0
89057,-109.375000000001,4,2,1,60,0,0
92134,-41.0156249999991,4,2,2,60,0,0
92142,-41.0156249999991,4,2,2,70,0,0
92335,-41.0156249999991,4,2,1,60,0,0
92647,-66.6666666666667,4,2,1,60,0,0
93929,-37.4531835205993,4,2,1,60,0,0
94185,-50,4,2,1,60,0,0
96237,-50,4,3,3,60,0,0
96373,-50,4,3,1,60,0,0
96749,-50,4,3,3,60,0,0
96886,-50,4,3,1,60,0,0
97262,-50,4,3,3,60,0,0
97399,-50,4,3,1,60,0,0
97775,-75.187969924812,4,3,1,60,0,0
98416,-100,4,3,1,60,0,0
98424,-100,4,2,1,60,0,0
98993,-66.6666666666667,4,2,1,60,0,0
99314,-40,4,2,1,60,0,0
99826,-50,4,2,1,60,0,0
100339,-66.6666666666667,4,2,1,60,0,0
100596,-100,4,2,1,60,0,0
100852,-76.9230769230769,4,2,1,60,0,0
101108,-62.5,4,2,1,60,0,0
101365,-50,4,2,1,60,0,0
101621,-100,4,2,1,60,0,0
102390,-44.4444444444445,4,2,1,60,0,0
102647,-66.6666666666667,4,2,1,30,0,0
102775,-66.6666666666667,4,2,1,35,0,0
102903,-88.4955752212389,4,2,1,45,0,0
103032,-133.333333333333,4,2,1,50,0,0
103160,-133.333333333333,4,2,1,55,0,0
103288,-133.333333333333,4,2,1,60,0,0
103416,-44.4444444444445,4,2,1,65,0,0
103545,-66.6666666666667,4,2,1,70,0,0
103673,-66.6666666666667,4,2,1,80,0,0
103801,-66.6666666666667,4,2,1,85,0,0
103929,-88.4955752212389,4,2,1,90,0,0
103993,-133.333333333333,4,2,1,70,0,0
104450,-133.333333333333,4,2,2,70,0,0
104706,-133.333333333333,4,2,1,60,0,0
105724,-100,4,2,1,60,0,0
105980,-66.6666666666667,4,2,1,60,0,0
106237,-50,4,2,1,60,0,0
107390,-76.9230769230769,4,2,1,60,0,0
108544,-76.9230769230769,4,2,2,60,0,0
109570,-76.9230769230769,4,2,1,60,0,0
111108,-50,4,2,1,60,0,0
111117,-50,4,3,1,70,0,0
111621,-50,4,3,1,70,0,0
111630,-50,4,2,1,70,0,0
112142,-50,4,2,1,55,0,0
112647,-500,4,2,1,55,0,0
113673,256.410256410256,4,2,1,60,1,0
113681,-500,4,2,1,60,0,0
113801,-50,4,2,1,60,0,0
117519,-75.187969924812,4,2,1,60,0,0
118031,-50,4,2,1,60,0,0
118416,-37.4531835205993,4,2,1,60,0,0
118673,-66.6666666666667,4,2,1,60,0,0
119826,-50,4,2,1,60,0,0
121878,-50,4,3,3,60,0,0
121886,-50,4,3,3,70,0,0
122134,-50,4,3,1,70,0,0
122390,-50,4,3,3,70,0,0
122647,-50,4,3,1,70,0,0
122903,-50,4,3,3,70,0,0
123160,-50,4,3,1,70,0,0
123416,-50,4,3,3,70,0,0
123488,-50,4,3,1,70,0,0
123929,-50,4,3,3,70,0,0
124130,-50,4,3,1,60,0,0
125467,-100,4,3,1,60,0,0
125476,-100,4,3,1,50,0,0
125980,-100,4,3,1,70,0,0
131878,-66.6666666666667,4,3,1,70,0,0
132134,-66.6666666666667,4,3,3,70,0,0
132335,-66.6666666666667,4,3,1,70,0,0
132390,-100,4,3,1,50,0,0
132399,-100,4,3,1,55,0,0
132647,-76.9230769230769,4,3,1,60,0,0
132903,-62.5,4,3,1,70,0,0
133160,-52.6315789473684,4,3,1,70,0,0
133288,-52.6315789473684,4,3,1,75,0,0
133416,-45.4545454545455,4,3,1,75,0,0
133673,-45.4545454545455,4,2,1,75,0,0
133681,-45.4545454545455,4,2,1,60,0,0
134442,256.410256410256,4,2,1,60,1,0
134442,-200,4,2,1,60,0,0
135732,-200,4,2,1,50,0,0
136758,-200,4,2,1,30,0,0
137271,-200,4,2,1,20,0,0
137719,-200,4,2,1,35,0,0
138031,-200,4,2,1,45,0,0
138104,-200,4,2,1,55,0,0
138288,-200,4,2,1,65,0,0
138416,-200,4,2,1,60,0,0
138424,-200,4,2,1,5,0,0

[Colours]
Combo1 : 0,152,242
Combo2 : 65,222,56
Combo3 : 95,203,243
Combo4 : 60,194,56

[HitObjects]
0,384,1182,22,0,B|512:384|512:0,1,730.121126976459
512,0,4130,6,0,B|0:0|0:0|256:0|256:104,1,813.75,4|2,3:1|0:0,0:0:0:0:
256,103,6182,6,0,B|104:272|0:192|0:192|84:168|40:80|40:80|160:88|80:236|176:268,1,693.000021148682,4|10,3:2|3:2,0:0:0:0:
216,196,7891,5,8,3:0:0:0:
296,188,8062,5,4,3:0:0:0:
338,116,8233,6,0,B|430:148|350:296|470:304|470:304|426:216|510:192|510:192|406:112|256:280,1,693.000021148682,4|2,3:1|0:0,0:0:0:0:
256,280,10284,6,0,B|256:384|0:384|0:384|512:384,1,814.620530334996,6|4,3:2|3:1,0:0:0:0:
512,132,12336,5,6,3:2:0:0:
340,304,12464,1,0,3:0:0:0:
496,216,12592,1,0,3:0:0:0:
472,128,12720,5,8,3:1:0:0:
374,296,12848,1,0,3:0:0:0:
477,196,12976,1,0,3:0:0:0:
440,136,13105,5,8,3:1:0:0:
399,286,13233,1,0,3:0:0:0:
457,187,13361,1,0,3:0:0:0:
416,148,13489,5,8,3:1:0:0:
415,272,13617,1,0,3:0:0:0:
439,183,13745,1,0,3:0:0:0:
360,208,13874,6,0,P|308:228|252:228,1,105,8|0,3:1|3:0,0:0:0:0:
0,168,14130,5,8,3:2:0:0:
8,116,14195,1,8,3:2:0:0:
36,72,14259,1,8,3:2:0:0:
80,40,14323,1,8,3:2:0:0:
128,24,14387,5,6,3:2:0:0:
220,308,14515,1,0,3:0:0:0:
112,124,14643,1,0,3:0:0:0:
192,88,14771,5,8,3:1:0:0:
118,315,14899,1,0,3:0:0:0:
204,168,15027,1,0,3:0:0:0:
132,136,15156,5,8,3:1:0:0:
191,317,15284,1,0,3:0:0:0:
122,200,15412,1,0,3:0:0:0:
166,171,15541,5,8,3:1:0:0:
118,315,15669,1,0,3:0:0:0:
174,222,15797,1,0,3:0:0:0:
0,200,15925,2,0,P|43:228|95:236,1,105,8|0,3:1|3:0,0:0:0:0:
512,168,16182,5,10,3:2:0:0:
504,116,16245,1,10,3:2:0:0:
476,72,16309,1,10,3:2:0:0:
432,40,16373,1,10,3:2:0:0:
384,24,16437,6,0,L|312:32,1,52.5,6|0,3:2|0:0,0:0:0:0:
252,0,16565,2,0,L|257:52,2,52.5,0|0|0,3:0|3:0|3:0,0:0:0:0:
40,152,16823,6,0,L|112:160,1,52.5,8|0,3:1|0:0,0:0:0:0:
172,128,16951,2,0,L|166:180,2,52.5,0|0|0,3:0|3:0|3:0,0:0:0:0:
472,228,17207,6,0,L|400:236,1,52.5,8|0,3:1|0:0,0:0:0:0:
340,204,17335,2,0,L|345:256,2,52.5,0|0|0,3:0|3:0|3:0,0:0:0:0:
128,356,17592,6,0,L|200:364,1,52.5,8|0,3:1|0:0,0:0:0:0:
260,332,17720,2,0,L|254:384,2,52.5,0|0|0,3:0|3:0|3:0,0:0:0:0:
256,20,17977,6,0,P|304:52|364:52,1,105,8|2,3:1|3:2,0:0:0:0:
496,176,18233,5,10,3:2:0:0:
464,216,18297,1,10,3:2:0:0:
420,244,18361,1,10,3:2:0:0:
368,256,18425,1,10,3:2:0:0:
316,252,18489,1,12,3:1:0:0:
316,252,18746,6,0,P|300:230|292:205,1,52.5,8|8,3:2|3:2,0:0:0:0:
234,273,18874,2,0,P|244:250|262:230,1,52.5,8|8,3:2|3:2,0:0:0:0:
174,213,19002,2,0,P|200:211|225:216,1,52.5,8|8,3:2|3:2,0:0:0:0:
195,131,19130,2,0,P|211:153|219:178,1,52.5,8|8,3:2|3:2,0:0:0:0:
277,110,19258,2,0,P|267:133|249:153,1,52.5,8|8,3:2|3:2,0:0:0:0:
337,170,19387,2,0,P|311:172|286:167,1,52.5,8|8,3:2|3:2,0:0:0:0:
120,312,19515,6,0,P|159:315|197:307,1,78.7500030040742,8|8,3:1|3:1,0:0:0:0:
74,180,19643,2,0,P|99:210|132:232,1,78.7500030040742,8|8,3:1|3:1,0:0:0:0:
136,56,19771,2,0,P|132:95|140:133,1,78.7500030040742,8|8,3:1|3:1,0:0:0:0:
267,10,19899,2,0,P|237:35|215:68,1,78.7500030040742,8|8,3:1|3:1,0:0:0:0:
392,72,20028,2,0,P|352:68|314:76,1,78.7500030040742,8|8,3:1|3:1,0:0:0:0:
437,203,20156,2,0,P|412:173|379:151,1,78.7500030040742,8|8,3:1|3:1,0:0:0:0:
376,328,20284,2,0,P|379:288|371:250,1,78.7500030040742,8|8,3:1|3:1,0:0:0:0:
244,373,20412,2,0,P|274:348|296:315,1,78.7500030040742,8|8,3:1|3:1,0:0:0:0:
256,192,20797,5,6,3:2:0:0:
256,192,20861,12,2,22720,0:2:0:0:
56,28,22848,6,0,P|24:76|20:276,1,236.250009012223,4|2,0:3|0:0,0:0:0:0:
9,249,23873,5,2,0:0:0:0:
80,284,24130,1,2,0:0:0:0:
204,184,24258,5,2,0:0:0:0:
133,219,24515,1,2,0:0:0:0:
133,219,24899,6,0,P|150:253|264:322,1,157.500006008148,2|2,0:1|0:0,0:0:0:0:
320,336,25284,1,2,0:0:0:0:
320,336,26566,5,2,0:0:0:0:
224,384,26694,1,2,0:0:0:0:
176,288,26822,1,2,0:0:0:0:
272,240,26950,2,0,L|292:0,1,236.250009012223,2|2,0:1|0:0,0:0:0:0:
291,4,27976,6,0,P|368:52|431:44,1,157.500006008148,2|2,0:1|0:0,0:0:0:0:
260,96,28361,6,0,P|183:144|120:136,1,157.500006008148,2|2,0:0|0:0,0:0:0:0:
512,280,29002,6,0,P|434:275|372:320,1,157.500006008148,2|2,0:1|0:0,0:0:0:0:
328,380,29386,1,2,0:0:0:0:
328,380,30540,5,2,0:1:0:0:
57,160,30796,5,2,0:3:0:0:
384,32,31053,6,0,L|392:124,1,78.7500030040742,6|0,3:2|3:0,0:0:0:0:
408,148,31309,5,4,0:1:0:0:
405,187,31566,1,4,0:1:0:0:
402,226,31822,1,4,0:1:0:0:
88,188,32079,5,2,3:1:0:0:
85,227,32335,1,4,0:1:0:0:
82,266,32592,1,6,0:1:0:0:
99,303,32848,6,0,L|106:382,1,78.7500030040742,4|0,0:1|3:0,0:0:0:0:
328,384,33104,5,2,3:1:0:0:
436,364,33361,1,4,0:1:0:0:
252,292,33618,1,4,0:1:0:0:
360,272,33873,1,4,0:1:0:0:
360,272,34002,5,2,3:1:0:0:
144,232,34259,1,0,0:0:0:0:
512,88,34514,1,0,3:0:0:0:
296,48,34771,1,4,3:3:0:0:
296,48,34899,2,0,P|356:96|412:96,1,118.125004506111,8|4,3:1|3:3,0:0:0:0:
504,8,35155,6,0,P|420:132|96:160,1,472.500018024445,6|0,3:2|0:0,0:0:0:0:
44,140,35668,1,8,3:1:0:0:
108,92,35796,1,8,3:1:0:0:
504,376,35925,6,0,P|420:252|96:224,1,472.500018024445,6|0,3:2|0:0,0:0:0:0:
0,312,36438,2,0,P|80:368|156:364,1,157.500006008148,2|0,3:2|0:0,0:0:0:0:
374,369,36694,2,0,P|452:361|512:312,1,157.500006008148,8|0,3:1|0:0,0:0:0:0:
512,72,36950,2,0,P|452:22|374:14,1,157.500006008148,10|10,3:2|3:2,0:0:0:0:
144,88,37207,6,0,B|108:132|108:132|172:232,1,157.500006008148,6|0,3:2|0:0,0:0:0:0:
164,8,37463,5,8,3:1:0:0:
164,8,37527,1,8,3:1:0:0:
164,8,37591,2,0,B|200:52|200:52|136:152,1,157.500006008148,10|8,3:1|3:1,0:0:0:0:
36,184,37848,2,0,B|0:140|0:140|64:40,1,157.500006008148,10|8,3:1|3:1,0:0:0:0:
512,148,38104,5,2,3:2:0:0:
12,284,38361,1,10,3:2:0:0:
12,284,38490,1,10,3:2:0:0:
368,280,38745,5,2,0:0:0:0:
118,212,39002,5,2,0:3:0:0:
368,28,39258,6,0,P|396:112|400:148,1,105,6|0,3:1|0:0,0:0:0:0:
416,208,39514,1,2,0:0:0:0:
144,356,39643,2,0,P|88:188|80:116,1,210,2|0,3:2|0:0,0:0:0:0:
372,24,40027,6,0,P|400:108|404:144,1,105,6|0,3:2|0:0,0:0:0:0:
420,204,40283,1,2,0:0:0:0:
140,360,40412,2,0,P|84:192|76:120,1,210,2|2,3:2|3:2,0:0:0:0:
228,352,40796,5,8,3:1:0:0:
324,368,40925,1,2,0:0:0:0:
236,348,41053,1,2,0:0:0:0:
332,364,41182,1,2,0:0:0:0:
44,268,41309,6,0,P|53:216|73:167,1,105,6|0,3:2|0:0,0:0:0:0:
112,88,41566,1,2,0:0:0:0:
400,80,41694,2,0,P|419:182|459:280,1,210,2|2,3:2|0:0,0:0:0:0:
40,272,42079,6,0,P|49:220|69:171,1,105,6|0,3:2|0:0,0:0:0:0:
108,92,42335,1,2,0:0:0:0:
404,84,42463,2,0,P|423:186|463:284,1,210,2|2,3:2|3:2,0:0:0:0:
292,344,42848,5,8,3:1:0:0:
180,216,42976,1,0,0:0:0:0:
188,384,43104,6,0,L|212:324,1,52.5,10|10,3:2|3:2,0:0:0:0:
268,196,43232,2,0,L|292:136,1,52.5,10|10,3:2|3:2,0:0:0:0:
152,15,43361,6,0,P|108:64|88:124,1,125.999996154785,6|0,3:2|0:0,0:0:0:0:
80,196,43617,1,2,0:0:0:0:
360,369,43745,2,0,P|448:273|488:153,1,251.999992309571,2|2,3:2|0:0,0:0:0:0:
140,4,44130,6,0,P|96:52|76:112,1,125.999996154785,6|0,3:2|0:0,0:0:0:0:
68,184,44386,1,2,0:0:0:0:
372,380,44514,2,0,P|460:284|500:164,1,251.999992309571,2|2,3:2|3:2,0:0:0:0:
16,328,44899,5,8,3:1:0:0:
140,352,45027,1,0,0:0:0:0:
264,324,45155,1,2,3:2:0:0:
356,236,45284,1,2,3:2:0:0:
64,180,45412,6,0,P|88:48|116:12,1,157.500006008148,6|0,3:2|0:0,0:0:0:0:
160,96,45668,1,2,0:0:0:0:
413,353,45796,2,0,P|485:214|491:58,1,315.000012016297,2|2,3:2|0:0,0:0:0:0:
448,204,46181,6,0,P|424:336|396:372,1,157.500006008148,6|0,3:2|0:0,0:0:0:0:
352,288,46437,1,2,0:0:0:0:
99,31,46565,2,0,P|26:169|20:325,1,315.000012016297,2|8,3:2|3:1,0:0:0:0:
300,196,46950,5,8,3:1:0:0:
212,188,47079,1,8,3:1:0:0:
388,180,47207,5,8,3:1:0:0:
123,204,47336,1,8,3:1:0:0:
448,0,47463,6,0,B|408:56|464:116|520:164|488:236,1,251.999992309571,6|2,3:2|0:0,0:0:0:0:
488,234,47848,1,2,0:0:0:0:
488,234,48232,6,0,B|432:194|372:250|324:306|251:274,1,251.999992309571,6|0,3:2|0:0,0:0:0:0:
164,356,48617,5,0,0:0:0:0:
0,240,48809,5,0,0:0:0:0:
59,48,49002,5,8,3:1:0:0:
259,44,49194,5,0,0:0:0:0:
324,232,49386,5,0,0:0:0:0:
56,148,49514,6,0,L|180:128,1,125.999996154785,6|0,3:2|0:0,0:0:0:0:
260,328,49771,1,2,0:0:0:0:
0,276,49899,6,0,L|124:296,1,105,2|8,3:2|3:1,0:0:0:0:
168,368,50155,1,2,0:0:0:0:
496,328,50284,6,0,P|340:60|28:64,1,630,6|2,3:2|3:2,0:0:0:0:
8,228,51053,5,8,3:1:0:0:
256,296,51181,1,2,3:2:0:0:
80,296,51309,6,0,L|152:272,1,62.9999980773926,10|10,3:2|3:2,0:0:0:0:
320,212,51438,2,0,L|392:188,1,62.9999980773926,10|10,3:2|3:2,0:0:0:0:
476,0,51566,6,0,B|488:56|488:56|516:64|512:96,1,105,2|2,3:1|0:0,0:0:0:0:
440,128,51950,2,0,B|428:184|428:184|400:192|404:224,1,105,2|2,0:0|0:0,0:0:0:0:
480,256,52463,6,0,B|199:292|199:292|176:424|76:364|168:260|24:84|12:280,1,661.499979812623,2|0,0:1|0:0,0:0:0:0:
12,280,55412,1,14,3:0:0:0:
132,384,55668,5,6,3:1:0:0:
212,356,55796,1,0,3:0:0:0:
232,272,55925,1,0,3:0:0:0:
152,296,56053,5,8,3:1:0:0:
400,344,56181,1,2,3:2:0:0:
360,88,56309,1,2,3:2:0:0:
380,0,56438,5,8,3:1:0:0:
300,28,56566,1,0,3:0:0:0:
280,112,56695,1,0,3:0:0:0:
360,88,56823,5,8,3:1:0:0:
112,40,56951,1,2,3:2:0:0:
152,296,57079,1,2,3:2:0:0:
300,332,57207,6,0,L|420:316,1,105,8|0,3:1|0:0,0:0:0:0:
212,52,57463,6,0,L|92:68,1,105,8|10,3:1|3:2,0:0:0:0:
0,320,57720,5,10,3:1:0:0:
76,332,57848,1,0,3:0:0:0:
152,344,57976,1,0,3:0:0:0:
0,320,58104,5,8,3:1:0:0:
152,296,58232,1,0,3:0:0:0:
304,272,58360,1,2,3:2:0:0:
512,64,58489,5,8,3:1:0:0:
436,52,58617,1,0,3:0:0:0:
360,40,58745,1,0,3:0:0:0:
512,64,58873,5,8,3:1:0:0:
360,88,59001,1,0,3:0:0:0:
208,112,59129,1,2,3:2:0:0:
80,8,59258,6,0,P|24:95|31:198,1,210,8|10,3:1|3:2,0:0:0:0:
432,376,59514,2,0,P|487:288|480:185,1,210,10|10,3:2|3:2,0:0:0:0:
480,185,60027,6,0,B|458:97|504:12|504:12|394:49|288:-5|288:-5|340:104|280:204|280:204|232:180|232:180|172:284|224:389|224:389|118:335|8:372|8:372|52:288|32:198,1,1293.60003947754,6|2,3:2|3:1,0:0:0:0:
256,192,61855,12,0,64130,0:0:0:0:
256,192,75156,12,2,79002,0:0:0:0:
0,264,79258,6,0,P|84:252|180:324,1,210,6|2,3:2|3:2,0:0:0:0:
248,368,79899,5,2,0:2:0:0:
288,336,80028,2,0,P|312:308|328:260,2,52.5,2|2|2,0:2|0:2|3:2,0:0:0:0:
208,292,80412,5,2,0:2:0:0:
168,260,80541,2,0,P|144:232|128:184,2,52.5,2|2|2,0:2|0:2|3:2,0:0:0:0:
268,228,80925,5,2,0:2:0:0:
288,180,81054,2,0,P|294:143|284:94,1,52.5,2|2,0:2|0:2,0:0:0:0:
460,8,81310,6,0,P|488:100|496:248,1,231.000007049561,6|2,3:2|3:2,0:0:0:0:
460,304,81845,5,2,0:2:0:0:
416,344,81952,2,0,P|360:364|336:360,1,57.7500017623902,2|2,0:2|0:2,0:0:0:0:
208,260,82167,5,2,3:2:0:0:
234,310,82274,1,2,0:2:0:0:
285,334,82381,2,0,P|340:336|364:316,1,57.7500017623902,2|2,0:2|0:2,0:0:0:0:
416,144,82595,6,0,B|380:132|356:156|328:180|292:172,1,125.999996154785,6|2,3:2|0:2,0:0:0:0:
248,152,82852,1,2,0:2:0:0:
200,176,82937,2,0,P|192:212|196:256,1,62.9999980773926,2|2,3:2|0:2,0:0:0:0:
100,116,83109,2,0,P|108:80|104:36,1,62.9999980773926,2|2,0:2|0:2,0:0:0:0:
8,300,83280,6,0,B|47:286|74:313|104:339|144:330,1,136.499993751526,6|2,3:2|0:2,0:0:0:0:
200,368,83506,1,0,0:0:0:0:
264,328,83581,2,0,P|272:288|264:232,1,68.2499968757631,2|2,3:2|0:2,0:0:0:0:
408,152,83732,2,0,P|408:117|401:84,1,68.2499968757631,2|2,0:2|0:2,0:0:0:0:
112,12,83883,5,6,3:2:0:0:
72,36,83953,1,2,0:2:0:0:
48,76,84023,2,0,P|30:121|28:157,1,78.7500030040742,2|2,0:2|0:2,0:0:0:0:
112,372,84163,5,2,3:2:0:0:
72,348,84233,1,2,0:2:0:0:
48,308,84303,2,0,P|30:262|28:226,1,78.7500030040742,2|2,0:2|0:2,0:0:0:0:
180,28,84443,5,2,3:2:0:0:
136,48,84507,1,2,0:2:0:0:
102,80,84571,2,0,P|80:116|68:164,1,78.7500030040742,2|2,0:2|0:2,0:0:0:0:
180,356,84699,5,2,3:2:0:0:
136,336,84763,1,2,0:2:0:0:
102,304,84827,2,0,P|80:268|68:220,1,78.7500030040742,2|2,0:2|0:2,0:0:0:0:
268,68,84955,5,2,3:2:0:0:
220,80,85019,1,2,0:2:0:0:
176,107,85083,2,0,P|145:136|121:179,1,78.7500030040742,2|2,0:2|0:2,0:0:0:0:
268,316,85212,5,2,3:2:0:0:
220,304,85276,1,2,0:2:0:0:
176,277,85340,2,0,P|145:247|121:204,1,78.7500030040742,2|2,0:2|0:2,0:0:0:0:
384,108,85468,5,2,3:2:0:0:
328,112,85532,1,2,0:2:0:0:
272,128,85596,2,0,P|234:148|200:183,1,78.7500030040742,2|2,0:2|0:2,0:0:0:0:
384,276,85725,5,2,3:2:0:0:
328,272,85789,1,2,0:2:0:0:
272,256,85853,2,0,P|234:235|200:200,1,78.7500030040742,2|2,0:2|0:2,0:0:0:0:
0,192,85981,6,0,B|136:235|240:129|240:129|272:255|272:255|375:148|512:192,1,655.20002199463,0|2,0:0|0:0,0:0:0:0:
512,192,87519,1,2,0:0:0:0:
511,192,88032,6,0,B|-1:192,1,510.300012458496,6|2,3:2|0:0,0:0:0:0:
0,192,88929,1,2,0:0:0:0:
256,1,89057,6,0,L|256:385,1,384,6|8,3:2|3:1,0:0:0:0:
168,96,89762,1,8,3:1:0:0:
344,288,89955,1,8,3:1:0:0:
0,384,90211,5,0,3:0:0:0:
0,384,90275,1,0,3:0:0:0:
0,384,90339,1,6,3:1:0:0:
0,384,90596,5,8,3:1:0:0:
37,383,90660,1,8,3:1:0:0:
73,382,90724,1,8,3:1:0:0:
109,379,90788,1,8,3:1:0:0:
146,375,90852,1,8,3:1:0:0:
182,369,90916,1,8,3:1:0:0:
217,362,90980,1,8,3:1:0:0:
253,352,91044,1,8,3:1:0:0:
287,340,91108,1,4,3:0:0:0:
321,326,91172,1,4,3:0:0:0:
353,309,91237,1,4,3:0:0:0:
383,289,91301,1,4,3:0:0:0:
411,265,91365,1,8,3:0:0:0:
436,239,91429,1,8,3:0:0:0:
458,209,91493,1,8,3:0:0:0:
476,177,91557,1,8,3:0:0:0:
490,144,91621,1,4,3:0:0:0:
500,109,91685,1,4,3:0:0:0:
507,73,91749,1,4,3:0:0:0:
511,36,91813,1,4,3:0:0:0:
512,0,91878,1,8,3:1:0:0:
512,0,92134,6,0,L|0:0,1,512,6|8,3:2|3:1,0:0:0:0:
244,156,92519,5,8,3:0:0:0:
244,156,92583,1,0,0:0:0:0:
244,156,92647,2,0,P|188:92|108:100,1,157.500006008148,2|0,3:2|0:0,0:0:0:0:
32,272,92903,1,8,3:1:0:0:
296,384,93031,2,0,B|248:300|324:228|380:160|312:76,1,315.000012016297,6|0,3:2|3:0,0:0:0:0:
300,52,93352,1,0,3:0:0:0:
268,28,93416,1,8,3:1:0:0:
392,316,93544,5,0,3:0:0:0:
416,284,93608,1,0,3:0:0:0:
452,268,93673,2,0,P|496:292|512:324,1,78.7500030040742,4|0,3:0|0:0,0:0:0:0:
274,200,93801,2,0,P|296:232|332:248,1,78.7500030040742,4|0,3:0|3:0,0:0:0:0:
476,172,93929,6,0,B|500:116|500:116|180:316,1,420.525014597998,8|0,3:1|0:0,0:0:0:0:
156,376,94185,6,0,B|104:376|104:376|44:360|0:264,1,210,6|0,3:2|0:0,0:0:0:0:
60,80,94442,1,8,3:1:0:0:
256,344,94570,6,0,B|204:344|204:344|136:308|124:216,1,210,6|0,3:2|0:0,0:0:0:0:
280,80,94826,1,2,3:2:0:0:
472,164,94955,1,2,3:2:0:0:
384,348,95083,6,0,P|448:236|212:220,1,420,4|0,3:1|3:0,0:0:0:0:
216,200,95403,1,0,3:0:0:0:
216,240,95467,1,8,3:1:0:0:
272,328,95596,1,2,3:2:0:0:
360,160,95724,5,8,3:1:0:0:
404,96,95809,1,8,3:1:0:0:
348,40,95895,1,8,3:1:0:0:
272,76,95980,5,6,3:0:0:0:
250,108,96065,1,0,0:0:0:0:
278,136,96151,1,0,0:0:0:0:
304,104,96237,5,12,3:3:0:0:
24,88,96493,5,10,3:2:0:0:
52,92,96579,1,10,3:2:0:0:
80,96,96664,1,10,3:2:0:0:
156,108,96749,1,8,3:3:0:0:
68,184,97006,5,10,3:2:0:0:
96,188,97092,1,10,3:2:0:0:
124,192,97177,1,10,3:2:0:0:
200,204,97262,1,12,3:3:0:0:
36,276,97519,5,10,3:2:0:0:
64,280,97605,1,10,3:2:0:0:
92,284,97690,1,10,3:2:0:0:
144,368,97775,6,0,B|260:316|260:316|244:312,1,140,8|0,3:0|0:0,0:0:0:0:
464,200,97967,2,0,B|361:126|361:126|365:142,1,140
159,7,98160,2,0,B|146:133|146:133|158:121,1,140
155,124,98416,6,0,P|211:88|264:68,1,105,6|0,3:2|0:0,0:0:0:0:
365,138,98608,6,0,P|368:205|359:260,1,105,0|0,3:2|0:0,0:0:0:0:
247,313,98801,6,0,P|188:282|144:247,1,105,6|0,3:2|0:0,0:0:0:0:
256,0,98993,6,0,B|228:40|256:80|280:116|256:152,1,157.500006008148,0|0,3:2|0:0,0:0:0:0:
256,228,99185,1,0,0:0:0:0:
112,384,99314,6,0,P|20:220|92:24,1,350,6|0,3:1|0:0,0:0:0:0:
400,0,99570,2,0,P|492:164|420:360,1,350,8|8,3:1|3:1,0:0:0:0:
128,224,99826,6,0,P|131:151|171:91,2,140,4|4|4,3:0|3:0|3:0,0:0:0:0:
344,288,100083,2,0,P|380:229|384:160,2,140,2|0|0,3:0|3:3|3:0,3:0:0:0:
212,344,100339,6,0,B|0:344|0:344|40:312,1,236.250009012223,6|0,3:2|0:0,0:0:0:0:
60,264,100596,5,8,3:1:0:0:
88,232,100660,1,0,3:0:0:0:
128,224,100724,2,0,P|152:224|176:240,1,52.5,8|0,3:0|3:0,3:0:0:0:
252,200,100852,5,4,3:0:0:0:
292,160,100916,1,0,3:0:0:0:
292,104,100980,2,0,P|288:80|256:48,1,68.2499968757631,4|0,3:0|3:0,3:0:0:0:
184,8,101108,5,8,3:1:0:0:
116,16,101173,1,0,3:0:0:0:
80,72,101237,2,0,P|76:128|96:164,1,84,0|4,3:0|3:0,3:0:0:0:
180,120,101365,6,0,B|264:64|340:144|400:208|472:152,1,315,6|0,3:2|0:0,0:0:0:0:
308,240,101621,6,0,B|266:212|228:252|198:284|162:256,1,157.5,8|0,3:1|0:0,0:0:0:0:
0,328,101878,5,10,3:2:0:0:
75,312,101942,1,10,3:2:0:0:
147,343,102006,1,10,3:2:0:0:
218,376,102070,1,10,3:2:0:0:
292,359,102134,1,8,3:1:0:0:
292,359,102390,6,0,P|440:332|448:32,1,472.500018024445,6|8,3:2|3:2,0:0:0:0:
307,5,102775,1,10,3:2:0:0:
124,112,102903,6,0,P|104:212|228:256,1,237.300000724182,8|8,3:2|3:2,0:0:0:0:
294,300,103288,1,10,3:2:0:0:
220,359,103416,6,0,P|72:332|64:32,1,472.500018024445,8|8,3:1|3:1,0:0:0:0:
205,5,103801,1,8,3:2:0:0:
388,112,103929,6,0,P|408:212|284:256,1,237.300000724182,8|8,3:1|3:0,0:0:0:0:
218,300,104314,1,8,3:2:0:0:
151,234,104442,5,6,3:2:0:0:
256,192,104506,12,2,105467,0:0:0:0:
16,320,105724,6,0,P|63:341|115:348,1,105,2|0,0:0|0:0,0:0:0:0:
328,248,105980,2,0,P|256:215|178:205,1,157.500006008148,8|2,3:1|3:2,0:0:0:0:
472,268,106237,6,0,P|460:28|404:8,1,315,2|0,3:2|0:0,0:0:0:0:
396,4,106493,2,0,P|272:28|224:112,1,210,6|0,3:2|0:0,0:0:0:0:
248,344,106749,1,8,3:1:0:0:
116,60,106878,6,0,P|240:84|288:168,1,210,2|0,3:2|0:0,0:0:0:0:
396,116,107134,6,0,P|272:140|224:224,1,210,2|0,3:2|0:0,0:0:0:0:
24,48,107390,6,0,B|0:404|512:404|488:48|488:48|352:-8|192:136|256:292,1,1228.49994376374,6|4,3:2|3:0,0:0:0:0:
256,292,109057,5,2,0:0:0:0:
256,292,109249,1,2,0:0:0:0:
256,292,109442,1,2,0:0:0:0:
284,384,109570,5,12,3:1:0:0:
229,374,109634,1,0,0:0:0:0:
178,355,109698,1,0,3:0:0:0:
139,316,109762,1,0,3:0:0:0:
120,265,109826,1,0,3:0:0:0:
120,211,109890,1,0,3:0:0:0:
136,156,109955,5,8,3:1:0:0:
168,163,110019,1,0,0:0:0:0:
197,176,110083,1,2,3:2:0:0:
223,195,110147,1,2,3:2:0:0:
245,217,110211,1,2,3:2:0:0:
261,246,110275,1,2,3:2:0:0:
248,268,110339,5,8,3:1:0:0:
223,272,110403,1,0,0:0:0:0:
197,275,110467,1,2,3:2:0:0:
171,278,110531,1,2,3:2:0:0:
146,281,110596,1,2,3:2:0:0:
120,284,110660,1,2,3:2:0:0:
72,316,110724,5,8,3:1:0:0:
123,323,110788,1,0,0:0:0:0:
175,329,110852,1,2,3:2:0:0:
226,336,110916,1,0,0:0:0:0:
277,342,110981,1,0,0:0:0:0:
328,348,111045,1,2,3:2:0:0:
436,376,111108,5,8,3:1:0:0:
436,376,111173,1,0,0:0:0:0:
436,376,111237,1,0,3:2:0:0:
436,376,111301,1,8,0:1:0:0:
436,376,111365,1,0,3:2:0:0:
436,376,111429,1,0,0:0:0:0:
436,376,111493,1,8,3:1:0:0:
436,376,111557,1,0,0:0:0:0:
436,376,111621,6,0,P|496:168|160:64,1,630,6|0,3:2|0:0,0:0:0:0:
339,53,112134,2,0,P|55:90|76:376,1,630,2|0,0:0|0:0,0:0:0:0:
252,278,112647,6,0,L|260:352,1,73.5,2|0,0:3|0:0,0:0:0:0:
256,192,113160,1,2,0:1:0:0:
432,104,113673,5,6,3:1:0:0:
368,160,113801,1,2,3:2:0:0:
368,160,113865,1,2,3:2:0:0:
368,160,113929,2,0,L|124:152,1,210,8|0,3:1|0:0,0:0:0:0:
0,312,114185,1,2,3:2:0:0:
0,312,114249,1,2,3:2:0:0:
0,312,114313,2,0,L|244:304,1,210,2|8,3:2|3:1,0:0:0:0:
400,368,114570,5,2,0:0:0:0:
400,368,114634,1,0,0:0:0:0:
400,368,114698,2,0,B|464:348|488:312|488:312|488:180,1,210,2|2,3:2|3:2,0:0:0:0:
112,16,114955,2,0,B|48:36|24:72|24:72|24:204,1,210,8|2,3:1|3:2,0:0:0:0:
204,312,115211,1,2,3:2:0:0:
372,260,115339,1,2,3:2:0:0:
320,93,115467,1,8,3:1:0:0:
152,145,115596,1,2,0:0:0:0:
228,228,115724,5,2,3:2:0:0:
316,184,115852,1,2,3:2:0:0:
316,184,115916,1,0,0:0:0:0:
316,184,115980,2,0,P|288:72|208:4,1,210,8|2,3:1|0:2,0:0:0:0:
24,260,116237,1,2,3:2:0:0:
24,260,116301,1,0,0:0:0:0:
24,260,116365,2,0,B|76:284|124:244|172:192|228:228,1,210,2|8,3:2|0:1,0:0:0:0:
500,324,116621,5,2,3:2:0:0:
500,324,116685,1,0,0:0:0:0:
500,324,116749,1,2,3:2:0:0:
396,336,116878,1,2,3:2:0:0:
296,300,117006,1,8,3:1:0:0:
216,232,117134,1,2,3:2:0:0:
300,64,117262,5,0,0:0:0:0:
444,216,117390,1,2,3:2:0:0:
184,376,117519,2,0,L|82:364,1,69.8249971232988,8|8,3:1|3:1,0:0:0:0:
144,292,117647,2,0,L|35:279,1,69.8249971232988,8|8,3:1|3:1,0:0:0:0:
103,208,117775,2,0,L|-5:195,2,69.8249971232988,8|8|4,3:0|3:0|3:0,0:0:0:0:
120,200,117967,1,4,3:0:0:0:
136,196,118031,6,0,B|188:120|128:12|128:12|40:24|32:80|32:80|136:120,1,420,12|2,3:1|3:2,0:0:0:0:
388,268,118416,6,0,B|480:304|480:304|472:360|384:372|384:372|324:264|376:188,1,420,8|0,3:1|0:0,0:0:0:0:
392,176,118673,6,0,P|460:172|512:88,1,157.500006008148,6|0,3:2|0:0,0:0:0:0:
380,16,118929,1,0,3:0:0:0:
268,128,119057,1,8,3:1:0:0:
0,320,119185,5,0,3:0:0:0:
198,187,119314,1,8,3:1:0:0:
366,356,119442,1,2,3:2:0:0:
488,312,119570,6,0,L|480:208,1,78.7500030040742,8|8,3:1|3:1,0:0:0:0:
408,276,119698,2,0,L|400:172,1,78.7500030040742,8|8,3:1|3:1,0:0:0:0:
488,104,119826,6,0,P|376:124|308:220,1,210,2|4,3:2|3:0,0:0:0:0:
256,324,120083,1,8,3:1:0:0:
24,208,120211,6,0,P|-4:72|20:-28,1,210,2|8,3:2|3:1,0:0:0:0:
219,179,120467,6,0,P|231:283|204:384,1,210,8|4,3:0|3:0,0:0:0:0:
248,0,120724,6,0,P|136:20|84:316,1,420,6|0,3:2|3:0,0:0:0:0:
92,320,121044,1,0,3:0:0:0:
136,348,121108,1,8,3:1:0:0:
340,288,121237,1,2,3:2:0:0:
452,384,121365,5,8,3:1:0:0:
500,332,121450,1,8,3:1:0:0:
512,264,121536,1,8,3:1:0:0:
488,200,121621,5,8,3:1:0:0:
440,148,121707,1,8,3:1:0:0:
428,80,121792,1,8,3:1:0:0:
464,20,121878,5,12,3:0:0:0:
464,20,122134,5,10,0:2:0:0:
412,64,122220,1,10,0:2:0:0:
344,76,122305,1,10,0:2:0:0:
276,60,122390,5,8,0:0:0:0:
276,60,122647,5,10,0:2:0:0:
212,28,122733,1,10,0:2:0:0:
144,24,122818,1,10,0:2:0:0:
80,48,122904,5,12,0:0:0:0:
80,48,123160,5,10,0:2:0:0:
116,108,123246,1,10,0:2:0:0:
124,176,123331,1,10,0:2:0:0:
100,244,123417,5,8,0:3:0:0:
88,204,123502,1,8,0:1:0:0:
48,192,123587,1,8,0:1:0:0:
4,196,123673,5,8,0:1:0:0:
80,160,123758,1,8,0:1:0:0:
164,152,123843,1,8,0:1:0:0:
248,160,123929,5,12,0:0:0:0:
248,160,124185,5,10,0:2:0:0:
308,196,124271,1,10,0:2:0:0:
376,212,124356,1,10,0:2:0:0:
444,204,124442,5,12,3:0:0:0:
444,204,124698,5,10,0:2:0:0:
384,240,124784,1,10,0:2:0:0:
316,256,124869,1,10,0:2:0:0:
248,248,124955,5,6,3:2:0:0:
248,248,125211,5,10,0:2:0:0:
180,240,125297,1,10,0:2:0:0:
112,256,125382,1,10,0:2:0:0:
68,320,125467,6,8,L|24:320,10,35,8|8|8|8|8|8|8|8|8|8|8,3:1|3:1|3:1|3:1|3:1|3:1|3:1|3:1|3:1|3:1|3:1,3:1:0:0:
128,380,125980,5,12,3:1:0:0:
284,128,126108,1,0,0:0:0:0:
236,356,126237,1,0,0:0:0:0:
156,312,126365,5,8,0:1:0:0:
224,84,126493,1,0,0:0:0:0:
234,271,126622,1,0,0:0:0:0:
164,240,126749,5,8,0:1:0:0:
169,49,126877,1,0,0:0:0:0:
215,192,127006,1,0,0:0:0:0:
152,184,127134,5,8,0:1:0:0:
116,35,127262,1,0,0:0:0:0:
181,136,127391,1,0,0:0:0:0:
0,112,127519,2,0,P|47:104|103:112,1,105,8|0,0:1|0:0,0:0:0:0:
364,372,127775,5,10,0:2:0:0:
416,368,127839,1,10,0:2:0:0:
460,340,127903,1,10,0:2:0:0:
492,296,127967,1,10,0:2:0:0:
500,244,128031,5,8,0:1:0:0:
224,308,128160,1,0,0:0:0:0:
432,192,128288,1,0,0:0:0:0:
376,256,128416,5,8,0:1:0:0:
155,204,128545,1,0,0:0:0:0:
321,297,128673,1,0,0:0:0:0:
304,224,128801,5,8,0:1:0:0:
127,265,128930,1,0,0:0:0:0:
260,191,129058,1,0,0:0:0:0:
240,260,129185,5,8,0:1:0:0:
98,227,129314,1,0,0:0:0:0:
205,287,129442,1,0,0:0:0:0:
340,164,129570,2,0,P|332:80|316:32,1,105,8|0,0:1|0:0,0:0:0:0:
12,244,129826,5,10,0:2:0:0:
20,296,129890,1,10,0:2:0:0:
52,340,129954,1,10,0:2:0:0:
96,368,130018,1,10,0:2:0:0:
148,372,130083,6,0,L|224:368,1,52.5,6|0,0:2|0:0,0:0:0:0:
283,384,130211,2,0,L|280:332,2,52.5,2|2|2,0:2|0:2|0:2,0:0:0:0:
76,84,130467,6,0,L|80:160,1,52.5,8|0,0:1|0:0,0:0:0:0:
63,219,130595,2,0,L|116:216,2,52.5,2|2|2,0:2|0:2|0:2,0:0:0:0:
364,12,130852,6,0,L|288:16,1,52.5,8|0,0:1|0:0,0:0:0:0:
228,0,130980,2,0,L|232:52,2,52.5,2|2|2,0:2|0:2|0:2,0:0:0:0:
436,300,131236,6,0,L|432:224,1,52.5,8|0,0:1|0:0,0:0:0:0:
448,164,131364,2,0,L|396:168,2,52.5,2|2|2,0:2|0:2|0:2,0:0:0:0:
160,144,131621,5,8,0:1:0:0:
352,240,131749,1,2,0:2:0:0:
196,364,131878,6,0,L|204:280,1,78.7500030040742,8|0,0:1|0:0,0:0:0:0:
316,20,132006,2,0,L|308:104,1,78.7500030040742,2|2,0:2|0:2,0:0:0:0:
256,192,132134,5,4,0:0:0:0:
256,192,132390,6,0,P|200:168|184:156,3,52.5,8|8|8|8,0:1|0:1|0:1|0:1,0:0:0:0:
328,236,132647,6,0,P|372:224|412:204,3,68.2499968757631,8|8|8|8,0:1|0:1|0:1|0:1,0:0:0:0:
212,264,132903,6,0,P|136:248|80:228,3,84,8|8|8|8,0:1|0:1|0:1|0:1,0:0:0:0:
336,320,133160,6,0,P|424:292|480:252,3,99.7499973363877,8|8|8|8,0:1|0:1|0:1|0:1,0:0:0:0:
168,360,133416,6,0,P|48:332|-16:300,3,115.50000352478,8|8|8|8,0:1|0:1|0:1|0:1,0:0:0:0:
256,384,133673,5,2,0:0:0:0:
126,250,133801,1,2,0:0:0:0:
386,134,133929,1,2,0:0:0:0:
256,0,134057,1,2,0:3:0:0:
256,192,134442,5,0,0:0:0:0:
256,192,135980,12,2,138031,0:0:0:0:
231,233,138160,53,2,0:0:0:0:
304,192,138288,5,2,0:0:0:0:
231,150,138416,5,2,0:3:0:0:
