osu file format v14

[General]
AudioFilename: audio.mp3
AudioLeadIn: 0
PreviewTime: 7382
Countdown: 0
SampleSet: Soft
StackLeniency: 0.7
Mode: 3
LetterboxInBreaks: 0
SpecialStyle: 0
WidescreenStoryboard: 1

[Editor]
DistanceSpacing: 1.3
BeatDivisor: 4
GridSize: 4
TimelineZoom: 1.8

[Metadata]
Title:VVelcome!!
TitleUnicode:VVelcome!!
Artist:MisoilePunch
ArtistUnicode:MisoilePunch♪
Creator:Fresh Chicken
Version:NOVICE
Source:SOUND VOLTEX VIVID WAVE
Tags:instrumental video game Welcome!! SDVX BEMANI KONAMI HEXA DIVER The 9th KAC Original Song Contest 狂騒サーカス Kyousou Circus はぁち haxchi electronic
BeatmapID:2568013
BeatmapSetID:1235288

[Difficulty]
HPDrainRate:7
CircleSize:4
OverallDifficulty:7
ApproachRate:5
SliderMultiplier:1.4
SliderTickRate:1

[Events]
//Background and Video events
0,0,"200813_HEXADIVER.jpg",0,0
//Break Periods
//Storyboard Layer 0 (Background)
//Storyboard Layer 1 (Fail)
//Storyboard Layer 2 (Pass)
//Storyboard Layer 3 (Foreground)
//Storyboard Layer 4 (Overlay)
//Storyboard Sound Samples
Sample,2514,0,"clap.wav",70
Sample,3873,0,"clap.wav",70
Sample,4325,0,"clap.wav",70
Sample,13948,0,"crash-cymbol.wav",50
Sample,14288,0,"crash-cymbol.wav",50
Sample,21533,0,"snaredrum.wav",50
Sample,21986,0,"crash-cymbol.wav",50
Sample,25382,0,"kick.wav",50
Sample,25835,0,"kick.wav",50
Sample,27420,0,"kick.wav",50
Sample,27646,0,"kick.wav",50
Sample,27873,0,"kick.wav",50
Sample,36929,0,"kickdrum.wav",50
Sample,41118,0,"kick.wav",50
Sample,41457,0,"crash-cymbol.wav",50
Sample,42929,0,"kick.wav",50
Sample,43269,0,"kick.wav",50
Sample,43722,0,"drum.wav",50
Sample,43948,0,"drum.wav",50
Sample,44174,0,"drum.wav",50
Sample,45080,0,"kick.wav",50
Sample,56174,0,"crash-cymbol.wav",50
Sample,57080,0,"kickdrum.wav",50
Sample,57986,0,"crash-cymbol.wav",50
Sample,58891,0,"kickdrum.wav",50
Sample,68174,0,"kickdrum.wav",50
Sample,68401,0,"kickdrum.wav",50
Sample,68854,0,"kickdrum.wav",50
Sample,69193,0,"crash-cymbol.wav",50
Sample,69420,0,"kick.wav",50
Sample,69533,0,"clap.wav",50
Sample,72703,0,"kickdrum.wav",50
Sample,72929,0,"drum.wav",50
Sample,74967,0,"kickdrum.wav",50
Sample,81986,0,"drum.wav",50
Sample,82212,0,"drum.wav",50

[TimingPoints]
24,226.415094339623,4,2,1,50,1,0
62514,-100,4,2,1,50,0,1
69759,-100,4,2,1,50,0,0
69986,-100,4,2,1,50,0,1
77005,-100,4,2,1,50,0,0
95118,-100,4,2,1,50,0,1
98514,-100,4,2,1,50,0,0
98740,-100,4,2,1,50,0,1
101344,-100,4,2,1,50,0,0
102363,-100,4,2,1,50,0,1
105759,-100,4,2,1,50,0,0
105986,-100,4,2,1,50,0,1
109608,226.415094339623,3,2,1,50,1,0
110854,226.415094339623,3,2,1,50,1,0
111533,226.415094339623,4,2,1,50,1,0

[HitObjects]
192,192,703,5,0,0:0:0:50:kick.wav
64,192,703,1,0,0:0:0:0:
320,192,929,1,0,0:0:0:70:clap.wav
448,192,929,1,0,0:0:0:50:crash-cymbol.wav
448,192,1156,1,0,0:0:0:70:clap.wav
64,192,1382,1,0,0:0:0:70:clap.wav
64,192,1608,1,0,0:0:0:70:clap.wav
448,192,1835,1,0,0:0:0:70:clap.wav
192,192,2061,1,0,0:0:0:70:clap.wav
320,192,2288,1,0,0:0:0:70:clap.wav
320,192,2514,1,0,0:0:0:50:kick.wav
192,192,2740,1,0,0:0:0:50:crash-cymbol.wav
64,192,2740,1,0,0:0:0:70:clap.wav
64,192,2967,1,0,0:0:0:70:clap.wav
448,192,3193,1,0,0:0:0:70:clap.wav
448,192,3420,1,0,0:0:0:70:clap.wav
192,192,3646,1,0,0:0:0:70:clap.wav
192,192,3873,1,0,0:0:0:50:kick.wav
448,192,4099,1,0,0:0:0:70:clap.wav
64,192,4325,1,0,0:0:0:50:kick.wav
192,192,4439,1,0,0:0:0:50:kick.wav
320,192,4552,1,0,0:0:0:50:kick.wav
448,192,4552,1,0,0:0:0:50:crash-cymbol.wav
64,192,4778,1,0,0:0:0:50:kick.wav
192,192,5005,1,0,0:0:0:50:kick.wav
448,192,5231,1,0,0:0:0:50:kick.wav
64,192,5457,1,0,0:0:0:50:kick.wav
192,192,5571,1,0,0:0:0:50:kick.wav
320,192,5684,1,0,0:0:0:50:kick.wav
448,192,5910,1,0,0:0:0:50:kick.wav
320,192,6024,1,0,0:0:0:50:kick.wav
192,192,6137,1,0,0:0:0:50:kick.wav
64,192,6363,1,0,0:0:0:50:kick.wav
192,192,6420,1,0,0:0:0:50:kick.wav
320,192,6476,1,0,0:0:0:50:kick.wav
448,192,6590,1,0,0:0:0:50:kick.wav
64,192,6703,1,0,0:0:0:50:kick.wav
448,192,6816,1,0,0:0:0:50:kick.wav
320,192,6873,1,0,0:0:0:50:kick.wav
192,192,6929,1,0,0:0:0:50:kick.wav
64,192,7042,1,0,0:0:0:50:kick.wav
448,192,7156,1,0,0:0:0:50:kick.wav
192,192,7439,1,0,0:0:0:0:
320,192,7665,1,0,0:0:0:0:
448,192,7948,1,0,0:0:0:50:boom.wav
64,192,7948,1,0,0:0:0:0:
320,192,8174,1,0,0:0:0:50:kick.wav
192,192,8174,1,0,0:0:0:50:crash-cymbol.wav
64,192,8288,1,0,0:0:0:0:
448,192,8401,1,0,0:0:0:50:snaredrum.wav
192,192,8514,1,0,0:0:0:0:
64,192,8627,1,0,0:0:0:50:kick.wav
448,192,8740,1,0,0:0:0:0:
320,192,8854,1,0,0:0:0:50:snaredrum.wav
192,192,9080,1,0,0:0:0:50:kick.wav
320,192,9193,1,0,0:0:0:0:
64,192,9307,1,0,0:0:0:50:snaredrum.wav
192,192,9420,1,0,0:0:0:0:
320,192,9533,1,0,0:0:0:50:kick.wav
448,192,9646,1,0,0:0:0:0:
192,192,9759,1,0,0:0:0:50:snaredrum.wav
448,192,9986,1,0,0:0:0:50:kick.wav
192,192,10099,1,0,0:0:0:0:
64,192,10212,1,0,0:0:0:50:snaredrum.wav
448,192,10325,1,0,0:0:0:0:
320,192,10439,1,0,0:0:0:50:kick.wav
64,192,10552,1,0,0:0:0:0:
192,192,10665,1,0,0:0:0:50:snaredrum.wav
448,192,10891,1,0,0:0:0:50:kick.wav
320,192,11005,1,0,0:0:0:0:
64,192,11118,1,0,0:0:0:50:snaredrum.wav
192,192,11231,1,0,0:0:0:0:
320,192,11344,128,0,11571:0:0:0:50:kick.wav
64,192,11571,1,0,0:0:0:50:drum.wav
192,192,11684,1,0,0:0:0:50:drum.wav
320,192,11797,1,0,0:0:0:50:kick.wav
448,192,11797,1,0,0:0:0:50:crash-cymbol.wav
192,192,11910,1,0,0:0:0:0:
64,192,12024,1,0,0:0:0:50:snaredrum.wav
448,192,12137,1,0,0:0:0:0:
320,192,12250,1,0,0:0:0:50:kick.wav
448,192,12363,1,0,0:0:0:0:
192,192,12476,1,0,0:0:0:50:snaredrum.wav
448,192,12703,1,0,0:0:0:50:kick.wav
192,192,12816,1,0,0:0:0:0:
64,192,12929,1,0,0:0:0:50:snaredrum.wav
192,192,13042,1,0,0:0:0:0:
320,192,13156,1,0,0:0:0:50:kick.wav
448,192,13269,1,0,0:0:0:0:
192,192,13382,1,0,0:0:0:50:drum.wav
448,192,13608,1,0,0:0:0:50:kick.wav
320,192,13608,1,0,0:0:0:50:crash-cymbol.wav
192,192,13835,1,0,0:0:0:0:
64,192,13948,1,0,0:0:0:50:kick.wav
320,192,14174,1,0,0:0:0:0:
448,192,14288,1,0,0:0:0:50:kick.wav
192,192,14514,1,0,0:0:0:50:kick.wav
64,192,14514,1,0,0:0:0:50:crash-cymbol.wav
448,192,14740,1,0,0:0:0:50:snaredrum.wav
320,192,14967,1,0,0:0:0:50:drum.wav
192,192,15193,1,0,0:0:0:50:drum.wav
448,192,15420,1,0,0:0:0:50:kick.wav
64,192,15420,1,0,0:0:0:0:
448,192,15646,1,0,0:0:0:0:
320,192,15873,1,0,0:0:0:0:
320,192,16099,1,0,0:0:0:0:
64,192,16325,1,0,0:0:0:0:
192,192,16552,1,0,0:0:0:0:
320,192,16778,1,0,0:0:0:0:
448,192,17005,1,0,0:0:0:50:snaredrum.wav
192,192,17231,1,0,0:0:0:50:crash-cymbol.wav
64,192,17231,128,0,17684:0:0:0:50:kickdrum.wav
448,192,17684,1,0,0:0:0:50:kickdrum.wav
320,192,17910,1,0,0:0:0:50:drum.wav
64,192,18137,1,0,0:0:0:50:kickdrum.wav
192,192,18363,1,0,0:0:0:50:drum.wav
320,192,18590,1,0,0:0:0:50:drum.wav
448,192,18816,1,0,0:0:0:50:drum.wav
320,192,19042,1,0,0:0:0:50:crash-cymbol.wav
64,192,19042,1,0,0:0:0:50:kick.wav
64,192,19269,1,0,0:0:0:0:
192,192,19495,1,0,0:0:0:0:
192,192,19722,1,0,0:0:0:0:
448,192,19948,1,0,0:0:0:50:drum.wav
320,192,20174,1,0,0:0:0:0:
192,192,20401,1,0,0:0:0:0:
64,192,20627,1,0,0:0:0:50:drum.wav
448,192,20854,128,0,21080:0:0:0:50:crash-cymbol.wav
192,192,20854,1,0,0:0:0:50:kickdrum.wav
320,192,21080,1,0,0:0:0:50:drum.wav
192,192,21193,1,0,0:0:0:50:crash-cymbol.wav
64,192,21193,128,0,21533:0:0:0:0:
448,192,21533,1,0,0:0:0:50:crash-cymbol.wav
192,192,21759,1,0,0:0:0:50:kickdrum.wav
320,192,21873,1,0,0:0:0:0:
64,192,21986,1,0,0:0:0:50:snaredrum.wav
192,192,22099,1,0,0:0:0:0:
448,192,22212,1,0,0:0:0:50:drum.wav
320,192,22325,1,0,0:0:0:50:drum.wav
64,192,22439,1,0,0:0:0:50:drum.wav
192,192,22552,1,0,0:0:0:50:drum.wav
320,192,22665,1,0,0:0:0:50:kick.wav
448,192,22665,1,0,0:0:0:50:crash-cymbol.wav
64,192,22891,1,0,0:0:0:50:snaredrum.wav
192,192,23005,1,0,0:0:0:0:
448,192,23118,1,0,0:0:0:50:kick.wav
64,192,23231,1,0,0:0:0:0:
192,192,23344,1,0,0:0:0:50:snaredrum.wav
448,192,23457,1,0,0:0:0:0:
320,192,23571,1,0,0:0:0:50:kick.wav
64,192,23797,1,0,0:0:0:50:snaredrum.wav
320,192,23910,1,0,0:0:0:0:
448,192,24024,1,0,0:0:0:50:kick.wav
64,192,24137,1,0,0:0:0:0:
192,192,24250,1,0,0:0:0:50:snaredrum.wav
320,192,24363,1,0,0:0:0:0:
448,192,24476,1,0,0:0:0:50:kick.wav
64,192,24476,1,0,0:0:0:50:crash-cymbol.wav
192,192,24703,1,0,0:0:0:50:snaredrum.wav
64,192,24816,1,0,0:0:0:50:kick.wav
320,192,25042,1,0,0:0:0:50:kick.wav
448,192,25156,1,0,0:0:0:50:snaredrum.wav
64,192,25382,1,0,0:0:0:50:drum.wav
192,192,25495,1,0,0:0:0:50:drum.wav
320,192,25608,1,0,0:0:0:50:snaredrum.wav
192,192,25722,1,0,0:0:0:0:
448,192,25835,1,0,0:0:0:50:drum.wav
320,192,25948,1,0,0:0:0:50:drum.wav
192,192,26061,1,0,0:0:0:50:snaredrum.wav
320,192,26174,1,0,0:0:0:50:kick.wav
64,192,26288,128,0,26514:0:0:0:50:kick.wav
448,192,26514,1,0,0:0:0:50:crash-cymbol.wav
320,192,26514,1,0,0:0:0:0:
192,192,26740,1,0,0:0:0:50:kick.wav
64,192,26854,1,0,0:0:0:0:
448,192,26967,1,0,0:0:0:50:snaredrum.wav
192,192,27080,1,0,0:0:0:0:
320,192,27193,128,0,27420:0:0:0:50:crash-cymbol.wav
64,192,27193,1,0,0:0:0:50:kick.wav
192,192,27420,1,0,0:0:0:50:drum.wav
448,192,27533,1,0,0:0:0:50:drum.wav
64,192,27646,1,0,0:0:0:50:drum.wav
320,192,27759,1,0,0:0:0:50:drum.wav
192,192,27873,1,0,0:0:0:50:drum.wav
448,192,27986,1,0,0:0:0:50:drum.wav
64,192,28099,1,0,0:0:0:0:
320,192,28269,1,0,0:0:0:50:snaredrum.wav
320,192,28439,1,0,0:0:0:50:snaredrum.wav
192,192,28608,1,0,0:0:0:50:snaredrum.wav
192,192,28778,1,0,0:0:0:50:snaredrum.wav
320,192,28948,1,0,0:0:0:50:snaredrum.wav
320,192,29118,1,0,0:0:0:50:snaredrum.wav
64,192,29231,1,0,0:0:0:50:snaredrum.wav
192,192,29457,1,0,0:0:0:50:snaredrum.wav
320,192,29684,1,0,0:0:0:50:snaredrum.wav
448,192,29910,1,0,0:0:0:50:kickdrum.wav
64,192,29910,1,0,0:0:0:50:boom.wav
64,192,30137,1,0,0:0:0:50:drum.wav
320,192,30363,1,0,0:0:0:50:kickdrum.wav
192,192,30590,1,0,0:0:0:50:kickdrum.wav
448,192,30816,1,0,0:0:0:0:
448,192,31042,1,0,0:0:0:50:drum.wav
192,192,31042,1,0,0:0:0:50:crash-cymbol.wav
64,192,31269,1,0,0:0:0:50:kickdrum.wav
320,192,31495,1,0,0:0:0:50:kickdrum.wav
192,192,31722,1,0,0:0:0:50:drum.wav
64,192,31722,1,0,0:0:0:50:crash-cymbol.wav
192,192,31948,1,0,0:0:0:50:drum.wav
320,192,32174,1,0,0:0:0:50:kickdrum.wav
192,192,32552,128,0,32854:0:0:0:50:kickdrum.wav
448,192,32552,1,0,0:0:0:50:crash-cymbol.wav
320,192,32854,1,0,0:0:0:50:snaredrum.wav
192,192,33080,1,0,0:0:0:50:kickdrum.wav
64,192,33307,1,0,0:0:0:50:kickdrum.wav
320,192,33533,1,0,0:0:0:50:kickdrum.wav
448,192,33533,128,0,33759:0:0:0:50:crash-cymbol.wav
192,192,33759,1,0,0:0:0:50:drum.wav
64,192,33986,1,0,0:0:0:50:kickdrum.wav
192,192,34363,1,0,0:0:0:50:crash-cymbol.wav
64,192,34363,128,0,34665:0:0:0:50:kickdrum.wav
448,192,34665,1,0,0:0:0:50:drum.wav
320,192,34891,1,0,0:0:0:50:drum.wav
448,192,35118,1,0,0:0:0:50:kickdrum.wav
64,192,35344,1,0,0:0:0:50:kickdrum.wav
192,192,35344,128,0,35571:0:0:0:50:crash-cymbol.wav
320,192,35571,1,0,0:0:0:50:drum.wav
448,192,35797,1,0,0:0:0:50:kickdrum.wav
320,192,36174,1,0,0:0:0:50:kickdrum.wav
448,192,36174,128,0,36476:0:0:0:50:crash-cymbol.wav
64,192,36476,1,0,0:0:0:50:drum.wav
448,192,36703,1,0,0:0:0:50:drum.wav
320,192,36816,1,0,0:0:0:50:drum.wav
192,192,36929,1,0,0:0:0:50:drum.wav
64,192,37042,1,0,0:0:0:50:drum.wav
448,192,37156,1,0,0:0:0:0:
320,192,38061,1,0,0:0:0:0:
192,192,38967,1,0,0:0:0:0:
64,192,39873,128,0,40552:0:0:0:0:
192,192,40778,1,0,0:0:0:50:crash-cymbol.wav
448,192,40778,128,0,41005:0:0:0:50:kick.wav
320,192,41005,1,0,0:0:0:50:drum.wav
64,192,41118,1,0,0:0:0:50:crash-cymbol.wav
448,192,41231,1,0,0:0:0:0:
192,192,41344,1,0,0:0:0:50:drum.wav
320,192,41457,1,0,0:0:0:50:kick.wav
448,192,41571,1,0,0:0:0:0:
64,192,41684,1,0,0:0:0:0:
192,192,41910,1,0,0:0:0:50:drum.wav
320,192,42137,1,0,0:0:0:50:drum.wav
448,192,42250,1,0,0:0:0:50:drum.wav
192,192,42363,1,0,0:0:0:50:kick.wav
64,192,42590,128,0,42816:0:0:0:50:crash-cymbol.wav
320,192,42590,1,0,0:0:0:50:kick.wav
192,192,42816,1,0,0:0:0:50:drum.wav
448,192,42929,1,0,0:0:0:50:crash-cymbol.wav
64,192,43042,1,0,0:0:0:0:
320,192,43156,1,0,0:0:0:50:drum.wav
192,192,43269,1,0,0:0:0:50:crash-cymbol.wav
64,192,43382,1,0,0:0:0:0:
448,192,43495,1,0,0:0:0:0:
320,192,43722,1,0,0:0:0:50:kick.wav
448,192,43835,1,0,0:0:0:50:drum.wav
192,192,43948,1,0,0:0:0:50:kick.wav
64,192,44061,1,0,0:0:0:50:drum.wav
320,192,44174,1,0,0:0:0:50:kick.wav
192,192,44288,1,0,0:0:0:50:drum.wav
448,192,44401,1,0,0:0:0:50:crash-cymbol.wav
64,192,44401,1,0,0:0:0:50:kick.wav
448,192,44740,1,0,0:0:0:50:crash-cymbol.wav
64,192,44740,1,0,0:0:0:50:kick.wav
320,192,45080,1,0,0:0:0:50:crash-cymbol.wav
192,192,45307,1,0,0:0:0:50:drum.wav
448,192,45420,1,0,0:0:0:50:drum.wav
320,192,45533,1,0,0:0:0:50:drum.wav
192,192,45646,1,0,0:0:0:50:drum.wav
320,192,45759,1,0,0:0:0:50:drum.wav
64,192,45873,1,0,0:0:0:50:drum.wav
192,192,45986,1,0,0:0:0:50:drum.wav
320,192,46099,1,0,0:0:0:50:drum.wav
448,192,46212,1,0,0:0:0:50:crash-cymbol.wav
64,192,46212,128,0,46665:0:0:0:50:kick.wav
320,192,46778,1,0,0:0:0:50:kickdrum.wav
448,192,46891,128,0,47118:0:0:0:50:drum.wav
192,192,47118,1,0,0:0:0:50:kick.wav
64,192,47118,1,0,0:0:0:0:
64,192,47344,1,0,0:0:0:50:kickdrum.wav
320,192,47571,1,0,0:0:0:50:kickdrum.wav
320,192,47797,1,0,0:0:0:50:kickdrum.wav
448,192,48024,1,0,0:0:0:50:kickdrum.wav
64,192,48024,1,0,0:0:0:50:crash-cymbol.wav
192,192,48250,1,0,0:0:0:0:
448,192,48476,1,0,0:0:0:0:
192,192,48703,1,0,0:0:0:0:
320,192,48929,1,0,0:0:0:0:
448,192,49156,1,0,0:0:0:0:
192,192,49382,1,0,0:0:0:0:
320,192,49495,1,0,0:0:0:0:
448,192,49608,1,0,0:0:0:0:
192,192,49722,1,0,0:0:0:0:
448,192,49835,1,0,0:0:0:0:
192,192,50061,1,0,0:0:0:0:
448,192,50288,1,0,0:0:0:0:
192,192,50514,1,0,0:0:0:0:
320,192,50740,1,0,0:0:0:0:
448,192,50967,1,0,0:0:0:0:
192,192,51193,128,0,51420:0:0:0:0:
64,192,51420,1,0,0:0:0:50:kickdrum.wav
448,192,51646,1,0,0:0:0:50:crash-cymbol.wav
192,192,51646,1,0,0:0:0:50:kickdrum.wav
320,192,51873,1,0,0:0:0:0:
64,192,52099,1,0,0:0:0:0:
320,192,52325,1,0,0:0:0:0:
192,192,52552,1,0,0:0:0:0:
64,192,52778,1,0,0:0:0:0:
320,192,53005,1,0,0:0:0:0:
192,192,53118,1,0,0:0:0:0:
64,192,53231,1,0,0:0:0:0:
320,192,53344,1,0,0:0:0:0:
64,192,53457,1,0,0:0:0:0:
320,192,53684,1,0,0:0:0:0:
64,192,53910,1,0,0:0:0:0:
320,192,54137,1,0,0:0:0:0:
64,192,54363,128,0,54703:0:0:0:50:kickdrum.wav
192,192,54703,128,0,55042:0:0:0:50:kickdrum.wav
320,192,55042,128,0,55269:0:0:0:50:kickdrum.wav
448,192,55269,1,0,0:0:0:50:crash-cymbol.wav
64,192,55269,1,0,0:0:0:50:kickdrum.wav
192,192,55382,1,0,0:0:0:50:kickdrum.wav
320,192,55495,1,0,0:0:0:50:kickdrum.wav
64,192,55608,1,0,0:0:0:50:kickdrum.wav
320,192,55722,1,0,0:0:0:50:kickdrum.wav
192,192,55835,1,0,0:0:0:50:kickdrum.wav
64,192,55948,1,0,0:0:0:50:kickdrum.wav
448,192,56174,1,0,0:0:0:50:kickdrum.wav
320,192,56288,1,0,0:0:0:50:kickdrum.wav
192,192,56401,1,0,0:0:0:50:kickdrum.wav
448,192,56514,1,0,0:0:0:50:kickdrum.wav
192,192,56627,1,0,0:0:0:50:kickdrum.wav
320,192,56740,1,0,0:0:0:50:kickdrum.wav
448,192,56854,1,0,0:0:0:50:kickdrum.wav
64,192,57080,1,0,0:0:0:50:crash-cymbol.wav
192,192,57193,1,0,0:0:0:50:kickdrum.wav
320,192,57307,1,0,0:0:0:50:kickdrum.wav
64,192,57420,1,0,0:0:0:50:kickdrum.wav
320,192,57533,1,0,0:0:0:50:kickdrum.wav
192,192,57646,1,0,0:0:0:50:kickdrum.wav
64,192,57759,128,0,57986:0:0:0:50:kickdrum.wav
448,192,57986,1,0,0:0:0:50:kickdrum.wav
320,192,58099,1,0,0:0:0:50:kickdrum.wav
192,192,58212,1,0,0:0:0:50:kickdrum.wav
448,192,58325,1,0,0:0:0:50:kickdrum.wav
192,192,58439,1,0,0:0:0:50:kickdrum.wav
320,192,58552,1,0,0:0:0:50:kickdrum.wav
448,192,58665,128,0,58891:0:0:0:50:kickdrum.wav
64,192,58891,1,0,0:0:0:50:crash-cymbol.wav
320,192,59005,1,0,0:0:0:0:
192,192,59118,1,0,0:0:0:50:kickdrum.wav
448,192,59231,1,0,0:0:0:0:
320,192,59344,1,0,0:0:0:50:kickdrum.wav
192,192,59457,1,0,0:0:0:0:
64,192,59571,1,0,0:0:0:50:kickdrum.wav
320,192,59684,1,0,0:0:0:0:
64,192,59797,1,0,0:0:0:50:kickdrum.wav
320,192,59910,1,0,0:0:0:50:kickdrum.wav
448,192,60024,1,0,0:0:0:50:kickdrum.wav
64,192,60137,1,0,0:0:0:50:kickdrum.wav
448,192,60250,1,0,0:0:0:50:kickdrum.wav
192,192,60363,1,0,0:0:0:50:kickdrum.wav
64,192,60476,1,0,0:0:0:50:kickdrum.wav
448,192,60590,1,0,0:0:0:50:kickdrum.wav
320,192,60703,128,0,60929:0:0:0:0:
192,192,60929,128,0,61156:0:0:0:0:
64,192,61156,128,0,61382:0:0:0:0:
448,192,61382,128,0,61608:0:0:0:0:
192,192,61835,1,0,0:0:0:0:
320,192,61835,1,0,0:0:0:0:
64,192,62174,1,0,0:0:0:50:clap.wav
448,192,62288,1,0,0:0:0:50:boom.wav
320,192,62401,1,0,0:0:0:0:
192,192,62514,1,0,0:0:0:50:kickdrum.wav
64,192,62514,1,0,0:0:0:50:crash-cymbol.wav
192,192,62740,1,0,0:0:0:50:snaredrum.wav
320,192,62854,1,0,0:0:0:0:
64,192,62967,1,0,0:0:0:50:kickdrum.wav
448,192,63080,1,0,0:0:0:0:
192,192,63193,1,0,0:0:0:50:snaredrum.wav
320,192,63307,1,0,0:0:0:0:
64,192,63420,1,0,0:0:0:50:kickdrum.wav
448,192,63646,1,0,0:0:0:50:snaredrum.wav
192,192,63759,1,0,0:0:0:0:
64,192,63986,1,0,0:0:0:0:
320,192,64099,1,0,0:0:0:50:snaredrum.wav
448,192,64212,1,0,0:0:0:0:
192,192,64325,1,0,0:0:0:50:kickdrum.wav
64,192,64552,1,0,0:0:0:50:snaredrum.wav
320,192,64665,1,0,0:0:0:0:
448,192,64778,1,0,0:0:0:50:kickdrum.wav
64,192,64891,1,0,0:0:0:0:
192,192,65005,1,0,0:0:0:50:snaredrum.wav
64,192,65118,1,0,0:0:0:0:
448,192,65231,1,0,0:0:0:50:kickdrum.wav
320,192,65344,1,0,0:0:0:0:
64,192,65457,1,0,0:0:0:50:snaredrum.wav
192,192,65571,1,0,0:0:0:0:
448,192,65797,1,0,0:0:0:0:
64,192,65910,1,0,0:0:0:50:drum.wav
192,192,66024,1,0,0:0:0:50:drum.wav
320,192,66137,1,0,0:0:0:50:crash-cymbol.wav
448,192,66137,1,0,0:0:0:50:kickdrum.wav
64,192,66250,1,0,0:0:0:0:
448,192,66363,1,0,0:0:0:50:drum.wav
192,192,66476,1,0,0:0:0:50:crash-cymbol.wav
64,192,66476,128,0,66816:0:0:0:50:kickdrum.wav
320,192,66816,1,0,0:0:0:50:drum.wav
448,192,66929,1,0,0:0:0:50:drum.wav
64,192,67042,1,0,0:0:0:50:kickdrum.wav
192,192,67042,1,0,0:0:0:50:crash-cymbol.wav
320,192,67156,1,0,0:0:0:0:
192,192,67269,1,0,0:0:0:50:drum.wav
448,192,67382,1,0,0:0:0:50:crash-cymbol.wav
320,192,67382,128,0,67722:0:0:0:50:kickdrum.wav
192,192,67722,1,0,0:0:0:50:drum.wav
64,192,67835,1,0,0:0:0:50:drum.wav
192,192,67948,1,0,0:0:0:50:crash-cymbol.wav
448,192,67948,1,0,0:0:0:50:kickdrum.wav
320,192,68174,1,0,0:0:0:50:drum.wav
64,192,68288,1,0,0:0:0:50:drum.wav
192,192,68401,1,0,0:0:0:50:drum.wav
448,192,68514,1,0,0:0:0:50:drum.wav
320,192,68627,1,0,0:0:0:50:kick.wav
64,192,68740,1,0,0:0:0:0:
320,192,68854,1,0,0:0:0:50:crash-cymbol.wav
192,192,68967,1,0,0:0:0:0:
64,192,69080,1,0,0:0:0:50:drum.wav
448,192,69193,128,0,69420:0:0:0:50:kickdrum.wav
192,192,69420,1,0,0:0:0:50:clap.wav
320,192,69533,1,0,0:0:0:50:drum.wav
64,192,69646,1,0,0:0:0:50:drum.wav
192,192,69759,128,0,69986:0:0:0:0:
448,192,69986,1,0,0:0:0:50:crash-cymbol.wav
64,192,69986,1,0,0:0:0:50:snaredrum.wav
320,192,70212,1,0,0:0:0:50:kickdrum.wav
192,192,70325,1,0,0:0:0:0:
448,192,70439,1,0,0:0:0:50:snaredrum.wav
64,192,70552,1,0,0:0:0:0:
320,192,70665,1,0,0:0:0:50:kickdrum.wav
448,192,70891,1,0,0:0:0:50:snaredrum.wav
64,192,71005,1,0,0:0:0:0:
192,192,71231,1,0,0:0:0:0:
320,192,71344,1,0,0:0:0:50:drum.wav
448,192,71457,1,0,0:0:0:50:drum.wav
192,192,71571,1,0,0:0:0:50:crash-cymbol.wav
64,192,71571,1,0,0:0:0:50:kickdrum.wav
64,192,71797,1,0,0:0:0:50:drum.wav
448,192,71910,1,0,0:0:0:50:crash-cymbol.wav
320,192,71910,1,0,0:0:0:50:kickdrum.wav
448,192,72137,1,0,0:0:0:50:drum.wav
192,192,72250,1,0,0:0:0:50:crash-cymbol.wav
64,192,72250,128,0,72590:0:0:0:50:kickdrum.wav
448,192,72590,1,0,0:0:0:50:drum.wav
320,192,72703,1,0,0:0:0:50:drum.wav
64,192,72929,1,0,0:0:0:50:kickdrum.wav
448,192,73042,1,0,0:0:0:50:drum.wav
64,192,73156,1,0,0:0:0:50:drum.wav
320,192,73269,1,0,0:0:0:50:drum.wav
192,192,73382,1,0,0:0:0:50:kickdrum.wav
448,192,73382,128,0,73608:0:0:0:50:crash-cymbol.wav
64,192,73608,128,0,73835:0:0:0:50:snaredrum.wav
320,192,73835,128,0,74061:0:0:0:50:kickdrum.wav
192,192,74061,128,0,74288:0:0:0:50:snaredrum.wav
448,192,74288,128,0,74514:0:0:0:50:crash-cymbol.wav
64,192,74288,1,0,0:0:0:50:kickdrum.wav
320,192,74514,1,0,0:0:0:50:kickdrum.wav
192,192,74740,1,0,0:0:0:50:kickdrum.wav
64,192,74967,1,0,0:0:0:50:drum.wav
320,192,75193,1,0,0:0:0:50:boom.wav
448,192,75193,1,0,0:0:0:0:
192,192,75420,1,0,0:0:0:50:boom.wav
64,192,75420,1,0,0:0:0:0:
320,192,75646,1,0,0:0:0:50:kickdrum.wav
448,192,75646,1,0,0:0:0:0:
64,192,76024,128,0,76325:0:0:0:50:kickdrum.wav
192,192,76024,1,0,0:0:0:50:crash-cymbol.wav
320,192,76325,1,0,0:0:0:50:snaredrum.wav
448,192,76325,1,0,0:0:0:0:
192,192,76552,1,0,0:0:0:50:snaredrum.wav
320,192,76665,1,0,0:0:0:0:
448,192,76778,1,0,0:0:0:50:boom.wav
320,192,77005,1,0,0:0:0:50:crash-cymbol.wav
64,192,77005,1,0,0:0:0:50:kick.wav
64,192,77118,1,0,0:0:0:50:kick.wav
448,192,77231,1,0,0:0:0:50:kick.wav
320,192,77457,1,0,0:0:0:50:kick.wav
64,192,77571,1,0,0:0:0:50:kick.wav
320,192,77684,1,0,0:0:0:50:kick.wav
64,192,77797,1,0,0:0:0:50:kick.wav
192,192,77910,1,0,0:0:0:50:kick.wav
448,192,77910,1,0,0:0:0:50:crash-cymbol.wav
448,192,78024,1,0,0:0:0:50:kick.wav
64,192,78137,1,0,0:0:0:50:kick.wav
192,192,78363,1,0,0:0:0:50:kick.wav
448,192,78476,1,0,0:0:0:50:kick.wav
192,192,78590,1,0,0:0:0:50:kick.wav
448,192,78703,1,0,0:0:0:50:kick.wav
320,192,78816,1,0,0:0:0:50:kick.wav
64,192,78816,1,0,0:0:0:50:crash-cymbol.wav
320,192,78929,1,0,0:0:0:50:kick.wav
192,192,79042,1,0,0:0:0:50:kick.wav
448,192,79269,1,0,0:0:0:50:kick.wav
64,192,79382,1,0,0:0:0:50:kick.wav
448,192,79495,1,0,0:0:0:50:kick.wav
64,192,79608,1,0,0:0:0:50:kick.wav
320,192,79722,1,0,0:0:0:50:crash-cymbol.wav
448,192,79722,1,0,0:0:0:50:kick.wav
192,192,79835,1,0,0:0:0:50:kick.wav
448,192,79948,1,0,0:0:0:50:kick.wav
192,192,80061,1,0,0:0:0:50:kick.wav
320,192,80174,1,0,0:0:0:50:kick.wav
64,192,80288,1,0,0:0:0:50:kick.wav
448,192,80401,1,0,0:0:0:50:kick.wav
192,192,80514,1,0,0:0:0:50:kick.wav
448,192,80627,128,0,80854:0:0:0:50:snaredrum.wav
192,192,80854,1,0,0:0:0:50:kickdrum.wav
64,192,80967,1,0,0:0:0:50:snaredrum.wav
320,192,80967,128,0,81193:0:0:0:0:
448,192,81193,1,0,0:0:0:50:kickdrum.wav
192,192,81307,1,0,0:0:0:50:snaredrum.wav
64,192,81307,128,0,81533:0:0:0:0:
320,192,81533,1,0,0:0:0:50:kickdrum.wav
448,192,81646,1,0,0:0:0:50:snaredrum.wav
192,192,81646,128,0,81873:0:0:0:0:
320,192,81873,1,0,0:0:0:50:kickdrum.wav
448,192,81986,1,0,0:0:0:50:snaredrum.wav
192,192,82099,1,0,0:0:0:50:drum.wav
320,192,82212,1,0,0:0:0:50:snaredrum.wav
64,192,82325,1,0,0:0:0:50:drum.wav
192,192,82439,1,0,0:0:0:50:kickdrum.wav
448,192,82439,1,0,0:0:0:0:
320,192,82665,1,0,0:0:0:0:
192,192,82891,1,0,0:0:0:0:
64,192,83118,1,0,0:0:0:0:
448,192,83344,128,0,83722:0:0:0:0:
192,192,83722,128,0,84024:0:0:0:0:
320,192,84024,1,0,0:0:0:50:kick.wav
448,192,84250,1,0,0:0:0:50:kickdrum.wav
64,192,84250,1,0,0:0:0:0:
192,192,84363,1,0,0:0:0:50:kickdrum.wav
64,192,84476,1,0,0:0:0:50:kickdrum.wav
320,192,84590,1,0,0:0:0:50:kickdrum.wav
192,192,84703,1,0,0:0:0:50:kickdrum.wav
448,192,84816,1,0,0:0:0:50:kickdrum.wav
320,192,84929,1,0,0:0:0:50:kickdrum.wav
448,192,85042,1,0,0:0:0:50:kickdrum.wav
64,192,85156,1,0,0:0:0:50:kickdrum.wav
192,192,85269,1,0,0:0:0:50:kickdrum.wav
64,192,85382,1,0,0:0:0:50:kickdrum.wav
320,192,85495,1,0,0:0:0:50:kickdrum.wav
192,192,85608,1,0,0:0:0:50:kickdrum.wav
448,192,85722,1,0,0:0:0:50:kickdrum.wav
320,192,85835,1,0,0:0:0:50:snaredrum.wav
64,192,85835,1,0,0:0:0:0:
64,192,86061,1,0,0:0:0:50:kickdrum.wav
192,192,86174,1,0,0:0:0:50:kickdrum.wav
320,192,86288,1,0,0:0:0:50:kickdrum.wav
448,192,86401,1,0,0:0:0:50:kickdrum.wav
64,192,86514,1,0,0:0:0:50:kickdrum.wav
192,192,86627,1,0,0:0:0:50:kickdrum.wav
320,192,86740,1,0,0:0:0:50:kickdrum.wav
448,192,86854,1,0,0:0:0:50:kickdrum.wav
64,192,86967,1,0,0:0:0:50:kickdrum.wav
192,192,87024,1,0,0:0:0:50:kickdrum.wav
320,192,87080,1,0,0:0:0:50:kickdrum.wav
448,192,87193,1,0,0:0:0:50:kickdrum.wav
320,192,87250,1,0,0:0:0:50:kickdrum.wav
192,192,87307,1,0,0:0:0:50:kickdrum.wav
64,192,87873,1,0,0:0:0:50:crash-cymbol.wav
448,192,87873,128,0,89457:0:0:0:50:boom.wav
64,192,88325,1,0,0:0:0:0:
192,192,88778,1,0,0:0:0:0:
192,192,89231,1,0,0:0:0:0:
320,192,89457,1,0,0:0:0:50:kick.wav
192,192,89684,1,0,0:0:0:50:snaredrum.wav
64,192,89684,128,0,90590:0:0:0:50:crash-cymbol.wav
192,192,90137,1,0,0:0:0:0:
448,192,90363,1,0,0:0:0:50:kick.wav
320,192,90590,1,0,0:0:0:50:drum.wav
192,192,90703,1,0,0:0:0:50:drum.wav
448,192,90929,1,0,0:0:0:50:kickdrum.wav
192,192,91156,1,0,0:0:0:50:kickdrum.wav
64,192,91269,1,0,0:0:0:50:drum.wav
320,192,91495,1,0,0:0:0:50:crash-cymbol.wav
448,192,91495,1,0,0:0:0:50:snaredrum.wav
320,192,91835,1,0,0:0:0:50:snaredrum.wav
192,192,91835,1,0,0:0:0:50:crash-cymbol.wav
192,192,92174,1,0,0:0:0:50:snaredrum.wav
64,192,92174,1,0,0:0:0:50:crash-cymbol.wav
320,192,92514,1,0,0:0:0:50:snaredrum.wav
192,192,92514,1,0,0:0:0:50:crash-cymbol.wav
320,192,92854,1,0,0:0:0:50:crash-cymbol.wav
448,192,92854,1,0,0:0:0:50:snaredrum.wav
192,192,93080,1,0,0:0:0:50:crash-cymbol.wav
64,192,93080,1,0,0:0:0:50:snaredrum.wav
448,192,93307,1,0,0:0:0:50:crash-cymbol.wav
64,192,93307,1,0,0:0:0:50:snaredrum.wav
320,192,93533,1,0,0:0:0:50:kickdrum.wav
448,192,93646,1,0,0:0:0:50:kickdrum.wav
64,192,93759,1,0,0:0:0:50:kickdrum.wav
192,192,93873,1,0,0:0:0:50:kickdrum.wav
448,192,93986,1,0,0:0:0:50:drum.wav
320,192,94099,1,0,0:0:0:50:snaredrum.wav
64,192,94099,1,0,0:0:0:50:crash-cymbol.wav
320,192,94891,1,0,0:0:0:50:kickdrum.wav
448,192,95118,1,0,0:0:0:50:crash-cymbol.wav
64,192,95118,1,0,0:0:0:50:kickdrum.wav
448,192,95231,1,0,0:0:0:50:kickdrum.wav
192,192,95344,1,0,0:0:0:50:kickdrum.wav
320,192,95457,1,0,0:0:0:50:kickdrum.wav
64,192,95571,1,0,0:0:0:50:kickdrum.wav
192,192,95684,1,0,0:0:0:50:kickdrum.wav
448,192,95797,1,0,0:0:0:50:kickdrum.wav
320,192,96024,1,0,0:0:0:50:kickdrum.wav
64,192,96024,1,0,0:0:0:50:crash-cymbol.wav
320,192,96137,1,0,0:0:0:50:kickdrum.wav
192,192,96250,1,0,0:0:0:50:kickdrum.wav
64,192,96363,1,0,0:0:0:50:kickdrum.wav
448,192,96476,1,0,0:0:0:50:kickdrum.wav
320,192,96590,1,0,0:0:0:50:kickdrum.wav
192,192,96703,1,0,0:0:0:50:kickdrum.wav
448,192,96929,1,0,0:0:0:50:kickdrum.wav
64,192,96929,1,0,0:0:0:50:crash-cymbol.wav
64,192,97042,1,0,0:0:0:50:kickdrum.wav
320,192,97156,1,0,0:0:0:50:kickdrum.wav
192,192,97269,1,0,0:0:0:50:kickdrum.wav
320,192,97382,1,0,0:0:0:50:kickdrum.wav
448,192,97495,1,0,0:0:0:50:kickdrum.wav
64,192,97608,1,0,0:0:0:50:kickdrum.wav
192,192,97835,1,0,0:0:0:50:kickdrum.wav
320,192,97835,1,0,0:0:0:50:crash-cymbol.wav
192,192,97948,1,0,0:0:0:50:kickdrum.wav
448,192,98061,1,0,0:0:0:50:kickdrum.wav
320,192,98174,1,0,0:0:0:0:
64,192,98288,128,0,98514:0:0:0:50:kickdrum.wav
192,192,98514,1,0,0:0:0:50:kickdrum.wav
320,192,98740,1,0,0:0:0:50:crash-cymbol.wav
64,192,98740,1,0,0:0:0:50:kickdrum.wav
320,192,98854,1,0,0:0:0:50:kickdrum.wav
192,192,98967,1,0,0:0:0:50:kickdrum.wav
64,192,99080,1,0,0:0:0:50:kickdrum.wav
320,192,99193,1,0,0:0:0:50:kickdrum.wav
448,192,99307,1,0,0:0:0:50:kickdrum.wav
192,192,99420,1,0,0:0:0:50:kickdrum.wav
64,192,99646,1,0,0:0:0:50:kickdrum.wav
320,192,99646,1,0,0:0:0:50:crash-cymbol.wav
64,192,99759,1,0,0:0:0:50:kickdrum.wav
448,192,99873,1,0,0:0:0:50:kickdrum.wav
320,192,99986,1,0,0:0:0:50:kickdrum.wav
64,192,100099,1,0,0:0:0:50:kickdrum.wav
192,192,100212,1,0,0:0:0:50:kickdrum.wav
320,192,100325,1,0,0:0:0:50:kickdrum.wav
448,192,100552,1,0,0:0:0:50:kickdrum.wav
64,192,100552,1,0,0:0:0:50:crash-cymbol.wav
448,192,100665,1,0,0:0:0:50:kickdrum.wav
192,192,100778,1,0,0:0:0:50:kickdrum.wav
320,192,100891,1,0,0:0:0:50:kickdrum.wav
64,192,101005,1,0,0:0:0:50:kickdrum.wav
448,192,101118,1,0,0:0:0:50:kickdrum.wav
192,192,101231,1,0,0:0:0:50:kickdrum.wav
448,192,101344,1,0,0:0:0:50:kickdrum.wav
64,192,101344,1,0,0:0:0:50:crash-cymbol.wav
320,192,101684,1,0,0:0:0:0:
192,192,101910,1,0,0:0:0:0:
448,192,102137,1,0,0:0:0:50:snaredrum.wav
64,192,102137,1,0,0:0:0:50:clap.wav
448,192,102363,1,0,0:0:0:50:snaredrum.wav
320,192,102363,1,0,0:0:0:50:crash-cymbol.wav
448,192,102476,1,0,0:0:0:50:snaredrum.wav
192,192,102590,1,0,0:0:0:50:snaredrum.wav
320,192,102703,1,0,0:0:0:50:snaredrum.wav
64,192,102816,1,0,0:0:0:50:snaredrum.wav
64,192,102929,1,0,0:0:0:50:snaredrum.wav
320,192,103042,1,0,0:0:0:50:snaredrum.wav
192,192,103156,1,0,0:0:0:50:snaredrum.wav
448,192,103269,1,0,0:0:0:50:snaredrum.wav
320,192,103325,1,0,0:0:0:50:snaredrum.wav
64,192,103382,1,0,0:0:0:50:snaredrum.wav
192,192,103495,1,0,0:0:0:50:snaredrum.wav
320,192,103608,1,0,0:0:0:50:snaredrum.wav
64,192,103722,1,0,0:0:0:50:snaredrum.wav
192,192,103797,1,0,0:0:0:50:snaredrum.wav
448,192,103873,1,0,0:0:0:50:snaredrum.wav
320,192,103948,1,0,0:0:0:50:snaredrum.wav
64,192,104288,1,0,0:0:0:50:snaredrum.wav
64,192,104401,1,0,0:0:0:50:snaredrum.wav
448,192,104514,1,0,0:0:0:50:snaredrum.wav
320,192,104627,1,0,0:0:0:50:snaredrum.wav
192,192,104684,1,0,0:0:0:50:snaredrum.wav
64,192,104740,1,0,0:0:0:50:snaredrum.wav
320,192,104854,1,0,0:0:0:50:snaredrum.wav
448,192,104967,1,0,0:0:0:50:snaredrum.wav
64,192,105080,1,0,0:0:0:50:snaredrum.wav
192,192,105193,1,0,0:0:0:50:snaredrum.wav
448,192,105307,1,0,0:0:0:50:snaredrum.wav
320,192,105420,1,0,0:0:0:50:snaredrum.wav
64,192,105533,1,0,0:0:0:50:snaredrum.wav
192,192,105646,1,0,0:0:0:50:snaredrum.wav
64,192,105759,1,0,0:0:0:50:kickdrum.wav
192,192,105986,1,0,0:0:0:50:crash-cymbol.wav
448,192,105986,1,0,0:0:0:50:kickdrum.wav
192,192,106099,1,0,0:0:0:50:kickdrum.wav
448,192,106212,1,0,0:0:0:50:kickdrum.wav
320,192,106325,1,0,0:0:0:50:kickdrum.wav
64,192,106439,1,0,0:0:0:50:kickdrum.wav
192,192,106552,1,0,0:0:0:50:kickdrum.wav
320,192,106665,1,0,0:0:0:50:kickdrum.wav
448,192,106778,1,0,0:0:0:50:kickdrum.wav
64,192,106891,1,0,0:0:0:50:kickdrum.wav
192,192,106891,1,0,0:0:0:50:crash-cymbol.wav
64,192,107005,1,0,0:0:0:50:kickdrum.wav
320,192,107118,1,0,0:0:0:50:kickdrum.wav
448,192,107231,1,0,0:0:0:50:kickdrum.wav
192,192,107344,1,0,0:0:0:50:kickdrum.wav
64,192,107457,1,0,0:0:0:50:kickdrum.wav
448,192,107571,1,0,0:0:0:50:kickdrum.wav
64,192,107684,1,0,0:0:0:50:kickdrum.wav
320,192,107797,1,0,0:0:0:50:kickdrum.wav
448,192,107797,1,0,0:0:0:50:crash-cymbol.wav
448,192,107910,1,0,0:0:0:50:kickdrum.wav
192,192,108024,1,0,0:0:0:50:kickdrum.wav
64,192,108137,1,0,0:0:0:50:kickdrum.wav
320,192,108250,1,0,0:0:0:50:kickdrum.wav
448,192,108363,1,0,0:0:0:50:kickdrum.wav
64,192,108476,1,0,0:0:0:50:kickdrum.wav
448,192,108590,1,0,0:0:0:50:kickdrum.wav
192,192,108703,1,0,0:0:0:50:kickdrum.wav
64,192,108703,1,0,0:0:0:50:crash-cymbol.wav
320,192,108816,1,0,0:0:0:50:kickdrum.wav
192,192,108929,1,0,0:0:0:50:kickdrum.wav
320,192,109042,1,0,0:0:0:50:kickdrum.wav
64,192,109156,1,0,0:0:0:50:kickdrum.wav
448,192,109269,1,0,0:0:0:50:kickdrum.wav
64,192,109382,1,0,0:0:0:50:kickdrum.wav
448,192,109495,1,0,0:0:0:50:kickdrum.wav
320,192,109608,1,0,0:0:0:50:kickdrum.wav
192,192,109608,1,0,0:0:0:50:crash-cymbol.wav
448,192,109947,128,0,110287:0:0:0:0:
64,192,110287,1,0,0:0:0:50:crash-cymbol.wav
320,192,110287,1,0,0:0:0:50:kickdrum.wav
192,192,110626,128,0,110853:0:0:0:0:
448,192,110854,1,0,0:0:0:50:crash-cymbol.wav
64,192,110854,1,0,0:0:0:50:kickdrum.wav
320,192,111193,128,0,111533:0:0:0:0:
448,192,111533,1,0,0:0:0:50:kick.wav
64,192,111533,1,0,0:0:0:0:
192,192,111646,1,0,0:0:0:50:kick.wav
448,192,111759,1,0,0:0:0:50:kick.wav
64,192,111872,1,0,0:0:0:50:kick.wav
320,192,111985,1,0,0:0:0:50:kick.wav
64,192,112099,1,0,0:0:0:50:kick.wav
320,192,112212,1,0,0:0:0:50:kick.wav
192,192,112325,1,0,0:0:0:50:kick.wav
448,192,112438,1,0,0:0:0:50:kick.wav
64,192,112551,1,0,0:0:0:50:kick.wav
320,192,112665,1,0,0:0:0:50:kick.wav
64,192,112778,1,0,0:0:0:50:kick.wav
448,192,112891,1,0,0:0:0:50:kick.wav
192,192,113004,1,0,0:0:0:50:kick.wav
64,192,113117,1,0,0:0:0:50:kick.wav
320,192,113231,1,0,0:0:0:50:kick.wav
64,192,113344,1,0,0:0:0:50:kick.wav
320,192,113457,1,0,0:0:0:50:kick.wav
64,192,113570,1,0,0:0:0:50:kick.wav
448,192,113683,1,0,0:0:0:50:kick.wav
192,192,113797,1,0,0:0:0:50:kick.wav
448,192,113910,1,0,0:0:0:50:kick.wav
192,192,114023,1,0,0:0:0:50:kick.wav
320,192,114136,1,0,0:0:0:50:kick.wav
64,192,114249,1,0,0:0:0:50:kick.wav
448,192,114363,1,0,0:0:0:50:kick.wav
192,192,114476,1,0,0:0:0:50:kick.wav
448,192,114589,1,0,0:0:0:50:kick.wav
64,192,114702,1,0,0:0:0:50:kick.wav
320,192,114816,1,0,0:0:0:50:kick.wav
448,192,114929,1,0,0:0:0:50:kick.wav
192,192,115042,1,0,0:0:0:50:kick.wav
320,192,115155,1,0,0:0:0:50:kick.wav
192,192,115268,1,0,0:0:0:50:kick.wav
320,192,115382,1,0,0:0:0:50:kick.wav
64,192,115495,1,0,0:0:0:50:kick.wav
448,192,115608,128,0,116061:0:0:0:50:kick.wav
192,192,116061,1,0,0:0:0:50:kick.wav
64,192,116061,1,0,0:0:0:50:crash-cymbol.wav
