osu file format v14

[General]
AudioFilename: audio.mp3
AudioLeadIn: 0
PreviewTime: 72938
Countdown: 0
SampleSet: Normal
StackLeniency: 0.7
Mode: 1
LetterboxInBreaks: 0
WidescreenStoryboard: 1

[Editor]
Bookmarks: 52025
DistanceSpacing: 2
BeatDivisor: 4
GridSize: 16
TimelineZoom: 2.300002

[Metadata]
Title:Overrrload!!
TitleUnicode:Overrrload!!
Artist:MisoilePunch
ArtistUnicode:MisoilePunch♪
Creator:iloveyou4ever
Version:Oni
Source:第三回CHUNITHM オリジナル楽曲コンテスト
Tags:3rd CHUNITHM Original Song Contest チュウニズム misomyl Ponchi♪ electronic instrumental happy hardcore speedcore featured artist FA
BeatmapID:3776468
BeatmapSetID:1837749

[Difficulty]
HPDrainRate:6.5
CircleSize:2
OverallDifficulty:6
ApproachRate:0
SliderMultiplier:1.4
SliderTickRate:1

[Events]
//Background and Video events
0,0,"New Project.jpg",0,0
//Break Periods
//Storyboard Layer 0 (Background)
//Storyboard Layer 1 (Fail)
//Storyboard Layer 2 (Pass)
//Storyboard Layer 3 (Foreground)
//Storyboard Layer 4 (Overlay)
//Storyboard Sound Samples

[TimingPoints]
1080,270.27027027027,4,1,0,100,1,0
32431,-100,4,1,0,100,0,1
36755,-100,4,1,0,100,0,0
51890,-100,4,1,0,100,0,1
52971,-100,4,1,0,100,0,0
54052,-100,4,1,0,100,0,1
61620,-100,4,1,0,100,0,0
73512,-100,4,1,0,100,0,1
82161,-100,4,1,0,100,0,0
82431,-100,4,1,0,100,0,1
85404,-100,4,1,0,100,0,0
86620,-100,4,1,0,100,0,1
90809,-100,4,1,0,100,0,0
117025,269.058295964125,4,1,0,100,1,8
117025,-100.450450961752,4,1,0,100,0,8
117294,267.857142857143,4,1,0,100,1,8
117294,-100.900903809756,4,1,0,100,0,8
117561,266.666666666667,4,1,0,100,1,8
117561,-101.351351008948,4,1,0,100,0,8
117827,265.486725663717,4,1,0,100,1,0
117827,-101.801802315396,4,1,0,100,0,0
118623,-100.297342504562,4,1,0,100,0,0
118756,-98.8367019022804,4,1,0,100,0,0
118822,-97.886349836613,4,1,0,100,0,0
118888,263.157894736842,4,1,0,100,1,0
118888,-97.8120998262466,4,1,0,100,0,0
119151,260.869565217391,4,1,0,100,1,8
119151,-98.6700987547577,4,1,0,100,0,8
119411,258.620689655172,4,1,0,100,1,8
119411,-99.5280995588418,4,1,0,100,0,8
119669,256.410256410256,4,1,0,100,1,8
119669,-100.386105037194,4,1,0,100,0,8
119925,250,4,1,0,100,1,0
119925,-102.960102960103,4,1,0,100,0,0
120175,247.933884297521,4,1,0,100,1,8
120175,-103.818103871549,4,1,0,100,0,8
120422,230.769230769231,4,1,0,100,1,8
120422,-111.540111731515,4,1,0,100,0,8
120652,255.31914893617,4,1,0,100,1,8
120652,-99.395169855541,4,1,0,100,0,8
120779,-97.1154641501483,4,1,0,100,0,8
120907,240,4,1,0,100,1,0
120907,-102.375102375102,4,1,0,100,0,0
120967,-100.660331776454,4,1,0,100,0,0
121387,239.043824701195,4,1,0,100,1,8
121387,-101.062980428143,4,1,0,100,0,8
121446,-99.4020039062284,4,1,0,100,0,8
121865,239.043824701195,4,1,0,100,1,0
121865,-99.4020074633015,4,1,0,100,0,8
121924,-97.7871281395095,4,1,0,100,0,8
122402,-96.2275724814535,4,1,0,100,0,8
122880,-94.7169813501032,4,1,0,100,0,8
123299,226.415094339623,4,1,0,100,1,8
123751,226.415094339623,4,1,0,100,1,0
130203,-100,4,1,0,100,0,1
131449,-100,4,1,0,100,0,0

[HitObjects]
466,146,1080,5,0,0:0:0:0:
445,224,1215,1,0,0:0:0:0:
389,208,1350,1,8,0:0:0:0:
389,208,1620,1,8,0:0:0:0:
416,180,1755,1,0,0:0:0:0:
413,174,1890,1,8,0:0:0:0:
488,189,2161,1,0,0:0:0:0:
449,187,2296,1,0,0:0:0:0:
419,186,2431,1,8,0:0:0:0:
467,186,2566,1,8,0:0:0:0:
399,178,2634,1,8,0:0:0:0:
467,186,2701,1,0,0:0:0:0:
411,182,2836,1,0,0:0:0:0:
449,187,2971,1,8,0:0:0:0:
480,208,3107,1,8,0:0:0:0:
393,196,3242,1,4,0:0:0:0:
451,196,3647,1,0,0:0:0:0:
478,189,3782,1,0,0:0:0:0:
433,189,4323,1,4,0:0:0:0:
439,182,5134,1,0,0:0:0:0:
400,224,5269,1,8,0:0:0:0:
416,192,5336,1,8,0:0:0:0:
463,187,5404,1,8,0:0:0:0:
444,213,5809,1,0,0:0:0:0:
444,213,5944,1,0,0:0:0:0:
388,206,6147,1,0,0:0:0:0:
431,185,6350,1,8,0:0:0:0:
474,182,6485,1,8,0:0:0:0:
448,192,6688,1,8,0:0:0:0:
432,192,6890,1,8,0:0:0:0:
416,160,7025,1,0,0:0:0:0:
416,160,7116,1,0,0:0:0:0:
416,160,7206,1,0,0:0:0:0:
485,185,7296,1,0,0:0:0:0:
432,176,7566,1,8,0:0:0:0:
427,189,7701,1,0,0:0:0:0:
480,192,7836,1,8,0:0:0:0:
427,189,7971,1,0,0:0:0:0:
427,189,8039,1,0,0:0:0:0:
413,186,8107,1,8,0:0:0:0:
368,176,8377,1,0,0:0:0:0:
432,176,8512,1,8,0:0:0:0:
467,189,8647,1,0,0:0:0:0:
394,185,8782,1,0,0:0:0:0:
448,176,8917,1,8,0:0:0:0:
384,160,9052,1,0,0:0:0:0:
413,186,9120,1,0,0:0:0:0:
496,144,9188,1,8,0:0:0:0:
448,155,9323,1,0,0:0:0:0:
397,198,9458,1,8,0:0:0:0:
432,176,9593,1,8,0:0:0:0:
382,182,9661,1,0,0:0:0:0:
413,188,9728,1,8,0:0:0:0:
256,192,9863,12,0,10674,0:0:0:0:
448,192,10809,5,0,0:0:0:0:
448,192,11079,5,8,0:0:0:0:
448,192,11215,1,0,0:0:0:0:
416,192,11350,1,0,0:0:0:0:
432,192,11485,1,8,0:0:0:0:
448,176,11620,1,0,0:0:0:0:
417,183,11755,1,0,0:0:0:0:
448,160,11890,1,8,0:0:0:0:
496,176,12161,1,8,0:0:0:0:
448,176,12296,1,8,0:0:0:0:
464,192,12431,1,0,0:0:0:0:
475,173,12566,1,0,0:0:0:0:
452,184,12701,1,8,0:0:0:0:
464,192,12769,1,8,0:0:0:0:
448,192,12836,1,8,0:0:0:0:
416,176,12971,1,0,0:0:0:0:
450,180,14052,1,8,0:0:0:0:
469,194,14863,1,0,0:0:0:0:
476,128,14998,1,0,0:0:0:0:
422,198,15134,1,8,0:0:0:0:
384,272,15269,1,0,0:0:0:0:
490,201,15404,1,0,0:0:0:0:
448,183,15539,1,8,0:0:0:0:
416,256,15674,1,0,0:0:0:0:
384,272,15742,1,0,0:0:0:0:
416,256,15809,1,0,0:0:0:0:
430,224,16079,1,0,0:0:0:0:
480,288,16147,1,0,0:0:0:0:
464,178,16215,1,8,0:0:0:0:
487,189,16350,1,0,0:0:0:0:
484,239,16485,1,8,0:0:0:0:
484,239,16620,1,8,0:0:0:0:
429,188,16890,1,8,0:0:0:0:
487,189,17025,1,0,0:0:0:0:
452,181,17161,1,8,0:0:0:0:
432,256,17296,1,0,0:0:0:0:
432,176,17566,1,8,0:0:0:0:
400,176,17701,1,0,0:0:0:0:
394,202,17769,1,0,0:0:0:0:
432,192,17836,1,8,0:0:0:0:
480,176,17971,1,0,0:0:0:0:
480,176,18107,1,8,0:0:0:0:
472,176,18242,1,8,0:0:0:0:
472,195,18377,1,0,0:0:0:0:
491,179,18647,1,0,0:0:0:0:
464,192,18782,1,8,0:0:0:0:
448,192,18917,1,0,0:0:0:0:
448,256,18985,1,0,0:0:0:0:
400,176,19052,1,8,0:0:0:0:
448,208,19188,1,8,0:0:0:0:
416,192,19323,1,0,0:0:0:0:
480,192,19458,1,8,0:0:0:0:
448,176,19728,1,0,0:0:0:0:
416,192,19863,1,8,0:0:0:0:
455,185,19998,1,8,0:0:0:0:
448,256,20066,1,0,0:0:0:0:
448,256,20134,1,0,0:0:0:0:
448,194,20269,1,8,0:0:0:0:
378,200,20404,1,0,0:0:0:0:
458,176,20674,1,8,0:0:0:0:
456,192,20809,1,8,0:0:0:0:
455,276,20877,1,0,0:0:0:0:
474,189,20944,1,0,0:0:0:0:
426,172,21079,1,8,0:0:0:0:
426,181,21215,1,8,0:0:0:0:
458,176,21350,1,0,0:0:0:0:
449,183,21485,1,8,0:0:0:0:
473,172,21620,1,0,0:0:0:0:
420,168,21890,1,8,0:0:0:0:
438,182,22025,1,8,0:0:0:0:
421,182,22161,1,0,0:0:0:0:
448,192,22296,1,0,0:0:0:0:
365,195,22363,1,0,0:0:0:0:
455,185,22431,1,8,0:0:0:0:
473,172,22566,1,8,0:0:0:0:
459,197,22701,1,0,0:0:0:0:
448,208,22971,1,8,0:0:0:0:
448,224,23107,1,0,0:0:0:0:
448,176,23242,1,8,0:0:0:0:
484,174,23377,1,0,0:0:0:0:
448,208,23444,1,0,0:0:0:0:
511,195,23512,1,8,0:0:0:0:
481,185,23647,1,8,0:0:0:0:
435,195,23917,1,0,0:0:0:0:
398,183,24052,1,8,0:0:0:0:
448,160,24188,1,8,0:0:0:0:
427,195,24323,1,0,0:0:0:0:
429,181,24390,1,0,0:0:0:0:
432,224,24458,1,0,0:0:0:0:
468,271,24728,1,0,0:0:0:0:
424,154,24796,1,0,0:0:0:0:
480,192,24863,1,8,0:0:0:0:
496,160,24998,1,0,0:0:0:0:
464,160,25134,1,8,0:0:0:0:
464,160,25269,1,8,0:0:0:0:
432,176,25539,1,8,0:0:0:0:
432,160,25674,1,0,0:0:0:0:
448,176,25809,1,8,0:0:0:0:
416,192,25944,1,0,0:0:0:0:
416,192,26215,1,8,0:0:0:0:
401,178,26350,1,0,0:0:0:0:
432,176,26417,1,0,0:0:0:0:
437,188,26485,1,8,0:0:0:0:
398,179,26620,1,0,0:0:0:0:
512,208,26755,1,8,0:0:0:0:
464,192,26890,1,8,0:0:0:0:
441,201,27025,1,0,0:0:0:0:
456,177,27296,1,8,0:0:0:0:
457,232,27431,1,0,0:0:0:0:
474,199,27566,5,0,0:0:0:0:
474,199,27634,1,0,0:0:0:0:
457,176,27701,1,8,0:0:0:0:
379,190,27836,1,8,0:0:0:0:
411,192,27971,1,0,0:0:0:0:
431,178,28107,1,8,0:0:0:0:
448,192,28242,1,0,0:0:0:0:
467,180,28377,1,0,0:0:0:0:
464,224,28512,1,8,0:0:0:0:
438,170,28647,1,0,0:0:0:0:
448,240,28715,1,0,0:0:0:0:
448,224,28782,1,0,0:0:0:0:
464,224,28917,1,8,0:0:0:0:
455,165,29052,1,0,0:0:0:0:
433,165,29188,1,0,0:0:0:0:
464,224,29323,1,8,0:0:0:0:
487,183,29458,1,0,0:0:0:0:
471,185,29728,1,8,0:0:0:0:
470,185,29863,1,8,0:0:0:0:
487,183,29998,1,0,0:0:0:0:
423,195,30134,1,8,0:0:0:0:
508,178,30269,1,8,0:0:0:0:
438,197,30336,1,0,0:0:0:0:
413,183,30404,1,8,0:0:0:0:
441,188,30539,1,0,0:0:0:0:
480,208,30674,1,8,0:0:0:0:
461,178,30809,1,8,0:0:0:0:
506,202,30944,1,0,0:0:0:0:
472,181,31079,1,8,0:0:0:0:
438,197,31350,1,0,0:0:0:0:
384,208,31417,1,0,0:0:0:0:
446,156,31485,1,8,0:0:0:0:
428,201,31620,1,0,0:0:0:0:
448,199,31755,1,8,0:0:0:0:
449,177,31890,1,8,0:0:0:0:
400,176,32025,1,8,0:0:0:0:
401,188,32093,1,8,0:0:0:0:
437,185,32161,1,0,0:0:0:0:
400,176,32431,1,4,0:0:0:0:
426,188,32566,1,8,0:0:0:0:
416,192,32634,1,8,0:0:0:0:
425,188,32701,1,8,0:0:0:0:
444,187,32836,1,4,0:0:0:0:
459,169,32971,1,8,0:0:0:0:
496,195,33242,1,4,0:0:0:0:
430,179,33377,1,8,0:0:0:0:
416,160,33647,1,4,0:0:0:0:
478,192,33782,1,0,0:0:0:0:
409,177,33850,1,8,0:0:0:0:
464,208,33917,1,0,0:0:0:0:
416,192,34052,1,0,0:0:0:0:
490,202,34188,1,8,0:0:0:0:
448,194,34255,1,8,0:0:0:0:
452,173,34323,1,0,0:0:0:0:
466,191,34593,1,0,0:0:0:0:
400,183,34728,1,8,0:0:0:0:
431,190,34796,1,8,0:0:0:0:
482,179,34863,1,0,0:0:0:0:
434,261,34998,1,8,0:0:0:0:
457,188,35134,1,0,0:0:0:0:
464,176,35269,1,8,0:0:0:0:
431,190,35336,1,8,0:0:0:0:
480,192,35404,1,0,0:0:0:0:
448,208,35539,1,8,0:0:0:0:
512,288,35674,1,0,0:0:0:0:
496,192,35809,1,0,0:0:0:0:
464,192,35944,1,8,0:0:0:0:
448,192,36079,1,8,0:0:0:0:
464,176,36215,1,0,0:0:0:0:
464,176,36282,1,0,0:0:0:0:
464,176,36350,1,0,0:0:0:0:
448,176,36485,1,8,0:0:0:0:
384,224,36552,1,8,0:0:0:0:
464,208,36620,1,8,0:0:0:0:
432,192,36755,1,4,0:0:0:0:
397,182,38647,1,8,0:0:0:0:
488,155,38917,1,4,0:0:0:0:
448,224,40269,5,0,0:0:0:0:
401,155,40539,1,0,0:0:0:0:
401,155,40629,1,0,0:0:0:0:
401,155,40719,1,0,0:0:0:0:
466,245,40809,1,0,0:0:0:0:
489,175,41079,1,12,0:0:0:0:
480,176,42161,1,12,0:0:0:0:
434,206,42431,1,0,0:0:0:0:
464,160,42566,1,8,0:0:0:0:
472,204,42701,1,0,0:0:0:0:
496,176,42836,1,8,0:0:0:0:
480,192,42904,1,8,0:0:0:0:
496,176,42971,1,0,0:0:0:0:
464,192,43107,1,8,0:0:0:0:
476,229,43242,5,8,0:0:0:0:
476,229,43309,1,8,0:0:0:0:
476,229,43377,1,8,0:0:0:0:
476,229,43512,1,8,0:0:0:0:
476,229,43647,1,8,0:0:0:0:
393,199,43782,1,0,0:0:0:0:
493,205,43917,1,0,0:0:0:0:
417,205,44052,1,8,0:0:0:0:
432,176,44188,1,8,0:0:0:0:
464,176,44323,1,0,0:0:0:0:
448,192,44593,1,8,0:0:0:0:
448,192,44728,1,0,0:0:0:0:
432,176,44863,1,8,0:0:0:0:
475,256,44998,1,0,0:0:0:0:
419,188,45066,1,8,0:0:0:0:
475,256,45201,1,0,0:0:0:0:
432,176,45269,1,8,0:0:0:0:
431,135,45404,1,0,0:0:0:0:
511,190,45674,1,12,0:0:0:0:
490,181,45809,1,0,0:0:0:0:
462,176,46079,1,0,0:0:0:0:
423,173,46215,1,8,0:0:0:0:
402,181,46350,1,8,0:0:0:0:
453,183,46485,1,0,0:0:0:0:
493,202,46620,1,0,0:0:0:0:
493,202,46688,1,0,0:0:0:0:
488,186,46755,1,8,0:0:0:0:
445,186,46890,1,0,0:0:0:0:
474,179,47025,1,8,0:0:0:0:
457,188,47161,1,0,0:0:0:0:
402,181,47296,1,8,0:0:0:0:
432,192,47566,5,8,0:0:0:0:
445,186,47634,1,8,0:0:0:0:
480,208,47701,1,0,0:0:0:0:
401,219,47836,1,0,0:0:0:0:
464,192,47971,1,8,0:0:0:0:
480,320,48039,1,0,0:0:0:0:
445,188,48107,1,8,0:0:0:0:
401,219,48242,1,0,0:0:0:0:
491,186,48377,1,8,0:0:0:0:
357,199,48512,1,0,0:0:0:0:
452,173,48782,1,8,0:0:0:0:
432,288,48850,1,0,0:0:0:0:
466,185,48917,1,8,0:0:0:0:
397,188,49052,1,8,0:0:0:0:
368,192,49188,1,0,0:0:0:0:
445,201,49323,1,0,0:0:0:0:
482,183,49458,1,8,0:0:0:0:
419,208,49728,1,8,0:0:0:0:
368,208,49863,1,0,0:0:0:0:
475,179,49998,1,8,0:0:0:0:
400,224,50134,1,0,0:0:0:0:
442,178,50201,1,0,0:0:0:0:
438,176,50269,1,8,0:0:0:0:
368,224,50404,1,0,0:0:0:0:
451,179,50539,1,8,0:0:0:0:
422,173,50674,1,8,0:0:0:0:
412,181,50809,1,0,0:0:0:0:
436,215,51079,1,8,0:0:0:0:
434,204,51215,1,0,0:0:0:0:
425,166,51350,1,8,0:0:0:0:
402,168,51485,1,8,0:0:0:0:
459,173,51620,1,0,0:0:0:0:
454,197,51755,1,8,0:0:0:0:
461,192,51823,1,8,0:0:0:0:
480,192,51890,5,8,0:0:0:0:
464,192,52025,1,8,0:0:0:0:
485,187,52161,1,8,0:0:0:0:
480,192,52296,1,8,0:0:0:0:
421,199,52363,1,0,0:0:0:0:
493,172,52431,1,8,0:0:0:0:
496,176,52566,1,8,0:0:0:0:
431,191,52701,1,8,0:0:0:0:
412,212,52836,1,0,0:0:0:0:
412,212,52904,1,0,0:0:0:0:
448,160,52971,1,8,0:0:0:0:
433,202,53242,1,0,0:0:0:0:
436,198,53377,1,8,0:0:0:0:
464,192,53512,1,0,0:0:0:0:
428,167,53602,1,0,0:0:0:0:
448,176,53692,1,0,0:0:0:0:
450,225,53782,1,0,0:0:0:0:
480,192,54052,1,4,0:0:0:0:
480,192,54323,1,8,0:0:0:0:
449,275,54503,1,0,0:0:0:0:
368,160,54593,1,0,0:0:0:0:
456,175,54773,1,0,0:0:0:0:
464,186,54863,1,8,0:0:0:0:
418,213,55043,1,0,0:0:0:0:
390,168,55314,1,0,0:0:0:0:
465,193,55404,1,8,0:0:0:0:
477,199,55584,1,8,0:0:0:0:
444,186,55674,1,8,0:0:0:0:
415,185,55944,1,8,0:0:0:0:
421,192,56125,1,8,0:0:0:0:
447,185,56215,1,0,0:0:0:0:
501,179,56485,1,8,0:0:0:0:
456,186,56665,1,0,0:0:0:0:
489,192,56755,1,8,0:0:0:0:
459,179,56935,1,8,0:0:0:0:
449,226,57025,1,0,0:0:0:0:
459,179,57296,1,8,0:0:0:0:
453,188,57476,1,8,0:0:0:0:
433,182,57566,1,0,0:0:0:0:
399,225,57746,1,0,0:0:0:0:
417,190,57836,1,8,0:0:0:0:
397,191,58107,1,8,0:0:0:0:
467,181,58287,1,8,0:0:0:0:
446,195,58377,1,0,0:0:0:0:
449,181,58647,1,8,0:0:0:0:
432,176,58827,1,8,0:0:0:0:
410,185,58917,1,8,0:0:0:0:
384,208,59098,1,0,0:0:0:0:
496,192,59188,1,8,0:0:0:0:
419,205,59368,1,0,0:0:0:0:
320,240,59638,1,0,0:0:0:0:
458,186,59728,1,8,0:0:0:0:
457,268,59908,1,8,0:0:0:0:
460,192,59998,1,8,0:0:0:0:
470,191,60269,1,8,0:0:0:0:
470,191,60449,1,8,0:0:0:0:
451,190,60539,1,0,0:0:0:0:
452,187,60809,1,0,0:0:0:0:
492,185,60944,1,8,0:0:0:0:
484,190,61079,1,8,0:0:0:0:
491,193,61215,1,0,0:0:0:0:
492,185,61350,1,8,0:0:0:0:
492,185,61485,1,8,0:0:0:0:
492,185,61552,1,8,0:0:0:0:
492,185,61620,1,8,0:0:0:0:
464,256,62161,1,0,0:0:0:0:
481,174,62431,5,0,0:0:0:0:
464,288,62566,1,0,0:0:0:0:
416,174,62701,1,8,0:0:0:0:
471,175,62836,1,8,0:0:0:0:
447,171,62971,1,0,0:0:0:0:
444,171,63039,1,0,0:0:0:0:
421,180,63107,1,8,0:0:0:0:
467,196,63242,1,0,0:0:0:0:
442,173,63377,1,8,0:0:0:0:
353,178,63444,1,8,0:0:0:0:
464,181,63512,1,0,0:0:0:0:
441,218,63647,1,0,0:0:0:0:
444,171,63782,1,8,0:0:0:0:
480,176,63962,1,8,0:0:0:0:
467,191,64052,1,8,0:0:0:0:
464,192,64233,1,8,0:0:0:0:
434,186,64323,1,0,0:0:0:0:
349,173,64593,1,0,0:0:0:0:
369,199,64728,1,0,0:0:0:0:
496,176,64863,1,8,0:0:0:0:
400,176,64998,1,8,0:0:0:0:
480,176,65134,1,0,0:0:0:0:
464,160,65269,1,8,0:0:0:0:
404,177,65336,1,8,0:0:0:0:
448,192,65404,1,0,0:0:0:0:
401,192,65539,1,8,0:0:0:0:
426,179,65674,1,0,0:0:0:0:
451,188,65809,1,8,0:0:0:0:
415,208,65944,1,0,0:0:0:0:
437,217,66125,1,0,0:0:0:0:
437,217,66215,1,0,0:0:0:0:
492,169,66395,1,0,0:0:0:0:
469,177,66485,1,8,0:0:0:0:
435,191,66755,1,8,0:0:0:0:
424,225,66823,1,8,0:0:0:0:
477,173,66890,1,8,0:0:0:0:
418,182,67025,1,4,0:0:0:0:
480,176,67296,1,8,0:0:0:0:
464,176,67431,1,4,0:0:0:0:
464,192,67701,1,8,0:0:0:0:
416,192,67836,1,4,0:0:0:0:
464,160,68107,1,0,0:0:0:0:
400,192,68242,1,12,0:0:0:0:
480,192,68512,1,8,0:0:0:0:
432,176,68647,1,4,0:0:0:0:
448,288,68782,1,0,0:0:0:0:
432,192,68850,1,8,0:0:0:0:
432,160,68917,1,0,0:0:0:0:
464,208,69052,1,8,0:0:0:0:
456,211,69188,5,0,0:0:0:0:
433,200,69458,1,0,0:0:0:0:
435,178,69593,1,8,0:0:0:0:
324,211,69661,1,8,0:0:0:0:
476,188,69728,1,0,0:0:0:0:
409,188,69863,1,8,0:0:0:0:
403,194,69998,1,0,0:0:0:0:
447,185,70134,1,8,0:0:0:0:
462,196,70269,1,0,0:0:0:0:
439,183,70539,1,8,0:0:0:0:
464,176,70674,1,8,0:0:0:0:
398,174,70742,1,8,0:0:0:0:
448,192,70809,1,0,0:0:0:0:
392,177,70944,1,8,0:0:0:0:
426,203,71079,1,0,0:0:0:0:
461,179,71215,1,8,0:0:0:0:
445,177,71350,1,0,0:0:0:0:
437,179,71485,1,0,0:0:0:0:
459,175,71620,1,8,0:0:0:0:
444,178,71755,1,8,0:0:0:0:
461,179,71890,1,0,0:0:0:0:
408,198,71958,1,0,0:0:0:0:
445,177,72025,1,0,0:0:0:0:
432,192,72161,1,8,0:0:0:0:
432,192,72228,1,8,0:0:0:0:
432,240,72296,1,8,0:0:0:0:
431,193,72431,1,0,0:0:0:0:
428,280,72971,1,0,0:0:0:0:
438,180,73107,1,0,0:0:0:0:
487,181,73242,1,0,0:0:0:0:
437,182,73309,1,0,0:0:0:0:
456,178,73377,1,8,0:0:0:0:
468,186,73512,1,12,0:0:0:0:
475,216,73782,1,0,0:0:0:0:
433,199,73850,1,0,0:0:0:0:
462,208,73917,1,0,0:0:0:0:
447,195,74052,1,0,0:0:0:0:
450,177,74188,1,8,0:0:0:0:
424,179,74323,1,0,0:0:0:0:
411,183,74458,1,8,0:0:0:0:
432,195,74593,1,8,0:0:0:0:
380,190,74863,1,0,0:0:0:0:
432,192,74998,1,8,0:0:0:0:
469,193,75066,1,8,0:0:0:0:
432,192,75134,1,0,0:0:0:0:
439,186,75269,1,8,0:0:0:0:
443,179,75404,1,0,0:0:0:0:
445,175,75539,1,8,0:0:0:0:
464,200,75674,1,0,0:0:0:0:
464,224,75944,1,8,0:0:0:0:
462,185,76079,1,8,0:0:0:0:
462,185,76147,1,8,0:0:0:0:
458,185,76215,1,0,0:0:0:0:
454,186,76350,1,0,0:0:0:0:
464,185,76485,1,8,0:0:0:0:
464,200,76620,1,8,0:0:0:0:
458,175,76755,1,0,0:0:0:0:
462,185,76890,1,0,0:0:0:0:
464,175,77025,1,8,0:0:0:0:
462,185,77161,1,0,0:0:0:0:
358,215,77228,1,0,0:0:0:0:
377,176,77296,1,8,0:0:0:0:
470,186,77566,1,0,0:0:0:0:
431,251,77701,1,0,0:0:0:0:
483,210,77836,1,8,0:0:0:0:
431,186,77971,1,8,0:0:0:0:
432,224,78039,1,8,0:0:0:0:
460,191,78107,1,0,0:0:0:0:
416,224,78242,1,0,0:0:0:0:
450,192,78377,1,8,0:0:0:0:
388,230,78512,1,0,0:0:0:0:
416,208,78579,1,8,0:0:0:0:
439,194,78647,1,0,0:0:0:0:
452,185,78782,1,8,0:0:0:0:
446,190,78917,1,0,0:0:0:0:
474,171,79052,1,0,0:0:0:0:
427,180,79188,1,8,0:0:0:0:
459,181,79323,1,4,0:0:0:0:
488,188,79593,1,0,0:0:0:0:
464,176,79728,1,8,0:0:0:0:
457,178,79796,1,8,0:0:0:0:
424,195,79863,1,0,0:0:0:0:
481,167,79998,1,8,0:0:0:0:
483,177,80134,1,0,0:0:0:0:
456,265,80201,1,0,0:0:0:0:
471,174,80269,1,8,0:0:0:0:
447,185,80404,1,0,0:0:0:0:
368,176,80471,1,0,0:0:0:0:
471,173,80539,1,8,0:0:0:0:
462,184,80674,1,0,0:0:0:0:
420,181,80809,1,8,0:0:0:0:
435,186,80944,1,8,0:0:0:0:
487,191,81012,1,0,0:0:0:0:
464,192,81079,1,8,0:0:0:0:
507,185,81215,1,0,0:0:0:0:
507,185,81350,1,0,0:0:0:0:
434,195,81485,1,12,0:0:0:0:
420,183,81755,1,0,0:0:0:0:
400,192,81890,1,8,0:0:0:0:
428,192,82025,1,8,0:0:0:0:
428,191,82093,1,8,0:0:0:0:
451,190,82161,1,0,0:0:0:0:
470,177,82431,1,12,0:0:0:0:
458,200,82566,1,0,0:0:0:0:
458,200,82634,1,0,0:0:0:0:
458,200,82701,1,0,0:0:0:0:
398,193,82836,1,8,0:0:0:0:
434,177,82971,1,8,0:0:0:0:
428,187,83107,1,0,0:0:0:0:
464,224,83242,1,8,0:0:0:0:
474,241,83512,1,0,0:0:0:0:
455,188,83647,1,8,0:0:0:0:
369,192,83782,1,8,0:0:0:0:
432,233,83917,1,8,0:0:0:0:
432,233,83985,1,8,0:0:0:0:
414,190,84052,1,0,0:0:0:0:
444,211,84188,1,8,0:0:0:0:
433,203,84323,1,0,0:0:0:0:
448,190,84593,1,8,0:0:0:0:
432,192,84728,1,0,0:0:0:0:
405,204,84796,1,0,0:0:0:0:
352,160,84863,1,8,0:0:0:0:
412,211,84998,1,0,0:0:0:0:
425,196,85134,1,8,0:0:0:0:
416,192,85201,1,0,0:0:0:0:
434,182,85269,1,8,0:0:0:0:
445,178,85404,1,4,0:0:0:0:
467,182,85607,1,12,0:0:0:0:
479,188,85809,1,4,0:0:0:0:
455,184,85944,1,12,0:0:0:0:
456,187,86147,1,12,0:0:0:0:
444,189,86350,1,4,0:0:0:0:
498,185,86620,1,0,0:0:0:0:
459,195,86755,1,8,0:0:0:0:
464,192,86890,1,0,0:0:0:0:
448,192,86958,1,0,0:0:0:0:
448,192,87025,1,8,0:0:0:0:
448,192,87161,1,0,0:0:0:0:
480,176,87296,1,8,0:0:0:0:
480,192,87431,1,8,0:0:0:0:
480,176,87498,1,8,0:0:0:0:
480,176,87566,1,0,0:0:0:0:
384,224,87701,1,8,0:0:0:0:
464,176,87836,1,0,0:0:0:0:
448,192,87971,1,12,0:0:0:0:
464,192,88242,1,0,0:0:0:0:
480,192,88377,1,8,0:0:0:0:
496,192,88647,1,8,0:0:0:0:
480,192,88782,1,0,0:0:0:0:
480,192,88917,1,8,0:0:0:0:
432,208,89052,1,0,0:0:0:0:
431,228,89120,1,0,0:0:0:0:
448,192,89188,1,8,0:0:0:0:
496,192,89323,1,0,0:0:0:0:
464,192,89458,1,8,0:0:0:0:
416,176,89593,1,8,0:0:0:0:
432,192,89728,1,0,0:0:0:0:
433,197,89863,1,8,0:0:0:0:
416,208,89931,1,8,0:0:0:0:
480,192,89998,1,0,0:0:0:0:
480,176,90134,1,8,0:0:0:0:
480,176,90269,1,0,0:0:0:0:
387,223,90404,1,0,0:0:0:0:
512,192,90471,1,0,0:0:0:0:
416,176,90539,1,8,0:0:0:0:
448,240,90809,1,0,0:0:0:0:
448,240,91012,1,0,0:0:0:0:
448,240,91215,1,0,0:0:0:0:
448,240,91417,1,0,0:0:0:0:
400,240,91620,1,0,0:0:0:0:
471,186,91755,1,0,0:0:0:0:
456,188,91823,1,0,0:0:0:0:
457,181,91890,1,8,0:0:0:0:
388,190,92093,1,8,0:0:0:0:
456,185,92296,1,8,0:0:0:0:
496,242,92498,1,8,0:0:0:0:
432,208,92701,1,8,0:0:0:0:
432,192,92836,1,8,0:0:0:0:
432,192,92904,1,8,0:0:0:0:
464,176,92971,1,0,0:0:0:0:
460,175,93242,1,8,0:0:0:0:
400,192,93377,1,0,0:0:0:0:
471,177,93512,1,8,0:0:0:0:
465,175,93647,1,8,0:0:0:0:
465,175,93715,1,8,0:0:0:0:
465,175,93782,1,8,0:0:0:0:
445,187,93917,1,0,0:0:0:0:
452,187,94052,1,8,0:0:0:0:
450,177,94323,1,0,0:0:0:0:
422,196,94458,1,0,0:0:0:0:
452,189,94593,1,8,0:0:0:0:
417,183,94728,1,8,0:0:0:0:
417,183,94796,1,8,0:0:0:0:
417,183,94863,1,8,0:0:0:0:
448,176,95134,1,8,0:0:0:0:
432,240,95269,1,0,0:0:0:0:
480,176,95404,1,8,0:0:0:0:
480,192,95539,1,0,0:0:0:0:
320,160,95607,1,0,0:0:0:0:
400,192,95674,1,8,0:0:0:0:
480,192,95809,1,0,0:0:0:0:
416,176,95944,1,8,0:0:0:0:
400,240,96079,1,0,0:0:0:0:
480,192,96215,1,8,0:0:0:0:
480,176,96350,1,8,0:0:0:0:
432,176,96485,1,0,0:0:0:0:
448,208,96620,1,0,0:0:0:0:
432,192,96755,1,8,0:0:0:0:
473,181,96890,1,0,0:0:0:0:
400,224,96958,1,0,0:0:0:0:
479,179,97025,1,8,0:0:0:0:
432,184,97296,1,8,0:0:0:0:
432,184,97363,1,8,0:0:0:0:
448,176,97431,1,8,0:0:0:0:
448,176,97566,1,8,0:0:0:0:
448,176,97701,1,8,0:0:0:0:
441,252,97769,1,8,0:0:0:0:
464,176,97836,1,8,0:0:0:0:
437,189,98039,1,8,0:0:0:0:
434,249,98242,1,0,0:0:0:0:
415,192,98377,1,8,0:0:0:0:
415,192,98444,1,8,0:0:0:0:
405,185,98512,1,0,0:0:0:0:
464,176,98647,1,0,0:0:0:0:
423,178,98782,1,8,0:0:0:0:
443,185,98850,1,8,0:0:0:0:
441,197,98917,1,0,0:0:0:0:
432,176,99052,1,0,0:0:0:0:
480,176,99188,1,8,0:0:0:0:
368,160,99255,1,8,0:0:0:0:
368,160,99323,1,8,0:0:0:0:
431,206,99458,1,4,0:0:0:0:
430,185,100539,1,4,0:0:0:0:
448,192,101620,1,4,0:0:0:0:
416,160,102431,1,0,0:0:0:0:
384,176,102701,1,12,0:0:0:0:
464,176,103242,1,8,0:0:0:0:
464,176,103377,1,8,0:0:0:0:
464,176,103444,1,8,0:0:0:0:
448,192,103512,1,0,0:0:0:0:
496,192,103782,1,8,0:0:0:0:
496,192,103917,1,8,0:0:0:0:
496,192,103985,1,8,0:0:0:0:
464,192,104052,1,0,0:0:0:0:
464,192,104188,1,0,0:0:0:0:
464,176,104323,1,8,0:0:0:0:
464,320,104593,1,8,0:0:0:0:
480,176,104728,1,0,0:0:0:0:
448,176,104863,1,8,0:0:0:0:
464,192,104998,1,8,0:0:0:0:
464,192,105066,1,8,0:0:0:0:
448,176,105134,1,0,0:0:0:0:
432,176,105269,1,8,0:0:0:0:
496,176,105404,1,0,0:0:0:0:
480,192,105674,1,8,0:0:0:0:
423,187,105809,1,8,0:0:0:0:
456,186,105944,1,0,0:0:0:0:
474,196,106079,1,0,0:0:0:0:
477,184,106215,1,8,0:0:0:0:
448,192,106350,1,0,0:0:0:0:
400,208,106417,1,0,0:0:0:0:
421,190,106485,1,8,0:0:0:0:
448,208,106620,1,0,0:0:0:0:
416,208,106755,1,8,0:0:0:0:
480,192,107025,1,0,0:0:0:0:
480,192,107161,1,0,0:0:0:0:
430,207,107296,1,8,0:0:0:0:
438,207,107431,1,0,0:0:0:0:
400,208,107566,1,8,0:0:0:0:
448,160,107701,1,8,0:0:0:0:
416,208,107769,1,8,0:0:0:0:
426,194,107836,1,8,0:0:0:0:
411,222,107971,1,0,0:0:0:0:
419,198,108107,1,8,0:0:0:0:
480,192,108377,1,0,0:0:0:0:
496,256,108512,1,0,0:0:0:0:
416,192,108579,1,8,0:0:0:0:
480,176,108647,1,8,0:0:0:0:
448,272,108917,1,0,0:0:0:0:
464,176,109052,1,0,0:0:0:0:
464,176,109120,1,0,0:0:0:0:
448,192,109188,1,8,0:0:0:0:
416,192,109323,1,0,0:0:0:0:
448,192,109458,1,8,0:0:0:0:
480,176,109593,1,8,0:0:0:0:
480,192,109728,1,0,0:0:0:0:
480,192,109998,1,8,0:0:0:0:
464,192,110134,1,0,0:0:0:0:
432,192,110201,1,0,0:0:0:0:
448,192,110269,1,8,0:0:0:0:
432,208,110539,1,0,0:0:0:0:
471,176,110674,1,8,0:0:0:0:
471,176,110742,1,8,0:0:0:0:
468,172,110809,1,0,0:0:0:0:
469,193,111079,1,0,0:0:0:0:
384,176,111215,1,8,0:0:0:0:
496,192,111350,1,8,0:0:0:0:
416,208,111485,1,0,0:0:0:0:
464,192,111620,1,8,0:0:0:0:
473,181,111755,1,8,0:0:0:0:
473,181,111823,1,8,0:0:0:0:
473,189,111890,1,0,0:0:0:0:
432,192,112161,1,8,0:0:0:0:
432,192,112296,1,0,0:0:0:0:
448,208,112363,1,0,0:0:0:0:
432,192,112431,1,8,0:0:0:0:
416,208,112701,1,0,0:0:0:0:
448,192,112836,1,0,0:0:0:0:
448,208,112904,1,8,0:0:0:0:
480,240,112971,1,8,0:0:0:0:
448,240,113242,1,0,0:0:0:0:
416,224,113377,1,0,0:0:0:0:
432,208,113444,1,0,0:0:0:0:
374,190,113512,1,8,0:0:0:0:
384,192,113647,1,0,0:0:0:0:
448,192,113782,1,8,0:0:0:0:
464,256,113917,1,8,0:0:0:0:
432,176,114052,1,0,0:0:0:0:
464,192,114323,1,8,0:0:0:0:
448,192,114458,1,0,0:0:0:0:
448,192,114525,1,0,0:0:0:0:
473,189,114593,1,8,0:0:0:0:
480,208,114863,1,0,0:0:0:0:
432,208,114998,1,8,0:0:0:0:
448,192,115066,1,8,0:0:0:0:
464,192,115134,1,0,0:0:0:0:
448,192,115269,1,0,0:0:0:0:
448,192,115404,1,8,0:0:0:0:
480,189,115539,1,8,0:0:0:0:
491,226,115674,1,4,0:0:0:0:
491,226,115877,1,4,0:0:0:0:
448,192,116079,1,12,0:0:0:0:
464,192,116282,1,4,0:0:0:0:
496,192,116485,1,8,0:0:0:0:
432,208,116620,1,0,0:0:0:0:
432,208,116688,1,0,0:0:0:0:
464,192,116755,1,8,0:0:0:0:
450,229,117025,1,8,0:0:0:0:
464,208,117159,1,0,0:0:0:0:
496,192,117226,1,8,0:0:0:0:
496,192,117294,1,8,0:0:0:0:
464,160,117561,1,0,0:0:0:0:
384,160,117694,1,0,0:0:0:0:
384,160,117761,1,0,0:0:0:0:
432,192,117827,1,8,0:0:0:0:
389,173,117959,1,0,0:0:0:0:
398,168,118092,1,8,0:0:0:0:
396,169,118225,1,8,0:0:0:0:
416,176,118357,1,0,0:0:0:0:
441,180,118623,1,8,0:0:0:0:
433,191,118756,1,0,0:0:0:0:
425,195,118822,1,0,0:0:0:0:
486,184,118888,1,8,0:0:0:0:
425,196,119151,1,0,0:0:0:0:
455,183,119281,1,8,0:0:0:0:
448,185,119346,1,8,0:0:0:0:
433,193,119411,1,0,0:0:0:0:
395,183,119669,1,8,0:0:0:0:
416,187,119797,1,8,0:0:0:0:
448,224,119925,1,0,0:0:0:0:
398,212,120050,1,0,0:0:0:0:
448,192,120175,1,8,0:0:0:0:
464,192,120298,1,8,0:0:0:0:
448,192,120360,1,8,0:0:0:0:
448,176,120422,1,0,0:0:0:0:
432,176,120652,1,8,0:0:0:0:
480,176,120779,1,0,0:0:0:0:
464,208,120843,1,0,0:0:0:0:
408,167,120907,5,8,0:0:0:0:
448,234,121147,1,0,0:0:0:0:
416,192,121267,1,0,0:0:0:0:
384,176,121387,1,8,0:0:0:0:
432,224,121626,1,0,0:0:0:0:
400,224,121685,1,0,0:0:0:0:
480,176,121745,1,0,0:0:0:0:
496,176,121865,1,8,0:0:0:0:
420,207,122104,1,0,0:0:0:0:
448,192,122223,1,0,0:0:0:0:
480,192,122343,1,8,0:0:0:0:
480,176,122582,1,0,0:0:0:0:
432,240,122641,1,0,0:0:0:0:
464,208,122701,1,8,0:0:0:0:
432,192,122821,1,8,0:0:0:0:
464,224,123060,1,0,0:0:0:0:
464,224,123179,1,0,0:0:0:0:
416,176,123299,1,8,0:0:0:0:
432,192,123525,1,0,0:0:0:0:
448,208,123638,1,0,0:0:0:0:
480,208,123751,1,8,0:0:0:0:
432,199,123807,1,8,0:0:0:0:
492,204,123865,1,8,0:0:0:0:
492,204,123978,1,8,0:0:0:0:
492,204,124091,1,8,0:0:0:0:
427,187,124204,1,0,0:0:0:0:
448,224,124430,1,8,0:0:0:0:
433,174,124544,1,8,0:0:0:0:
450,172,124657,1,4,0:0:0:0:
448,224,124883,1,0,0:0:0:0:
445,193,124996,1,8,0:0:0:0:
464,272,125109,1,0,0:0:0:0:
385,159,125222,1,0,0:0:0:0:
432,192,125336,1,8,0:0:0:0:
496,208,125562,1,0,0:0:0:0:
432,160,125675,1,8,0:0:0:0:
400,176,125788,1,8,0:0:0:0:
448,192,125901,1,0,0:0:0:0:
432,176,126015,1,8,0:0:0:0:
480,176,126128,1,0,0:0:0:0:
448,240,126184,1,0,0:0:0:0:
448,240,126241,1,0,0:0:0:0:
480,176,126355,1,0,0:0:0:0:
432,176,126468,1,8,0:0:0:0:
447,170,126694,1,0,0:0:0:0:
480,176,126807,1,8,0:0:0:0:
464,208,126920,1,0,0:0:0:0:
453,183,127034,1,0,0:0:0:0:
464,192,127147,1,8,0:0:0:0:
448,224,127260,1,0,0:0:0:0:
448,192,127373,1,8,0:0:0:0:
464,192,127543,1,8,0:0:0:0:
425,190,127713,1,8,0:0:0:0:
440,198,127826,1,0,0:0:0:0:
388,196,127996,1,0,0:0:0:0:
459,283,128166,1,0,0:0:0:0:
461,205,128279,1,8,0:0:0:0:
480,176,128506,1,8,0:0:0:0:
432,176,128619,1,8,0:0:0:0:
400,176,128732,1,0,0:0:0:0:
448,192,128845,1,8,0:0:0:0:
448,192,128958,1,8,0:0:0:0:
416,176,129185,1,8,0:0:0:0:
416,176,129298,1,8,0:0:0:0:
432,176,129411,1,0,0:0:0:0:
448,192,129524,1,8,0:0:0:0:
448,192,129638,1,8,0:0:0:0:
416,176,129751,1,8,0:0:0:0:
416,176,129807,1,8,0:0:0:0:
400,176,129864,1,8,0:0:0:0:
448,192,129977,1,8,0:0:0:0:
432,176,130203,1,8,0:0:0:0:
448,208,130317,1,0,0:0:0:0:
464,176,130430,1,8,0:0:0:0:
464,192,130543,1,0,0:0:0:0:
432,192,130656,1,8,0:0:0:0:
448,192,130770,1,0,0:0:0:0:
432,176,130883,1,8,0:0:0:0:
448,208,130996,1,8,0:0:0:0:
464,192,131109,1,8,0:0:0:0:
464,192,131166,1,8,0:0:0:0:
464,256,131222,1,0,0:0:0:0:
432,192,131335,1,8,0:0:0:0:
425,155,131449,1,4,0:0:0:0:
